<?xml version="1.0" standalone="no"?>
<!DOCTYPE svg PUBLIC "-//W3C//DTD SVG 1.1//EN" "http://www.w3.org/Graphics/SVG/1.1/DTD/svg11.dtd" >
<svg xmlns="http://www.w3.org/2000/svg" xmlns:xlink="http://www.w3.org/1999/xlink" version="1.1">
<metadata>
Created by FontForge 20150318 at Fri May 29 15:58:58 2015
 By uniteet7
Copyright (c) 2014 by FONTYOU. All rights reserved. www.fontyou.com
</metadata>
<defs>
<font id="FontyouLisztFYBold" horiz-adv-x="500" >
  <font-face 
    font-family="FontyouLisztFYBold"
    font-weight="700"
    font-stretch="normal"
    units-per-em="1000"
    panose-1="2 11 8 3 2 2 1 2 0 4"
    ascent="800"
    descent="-200"
    x-height="516"
    cap-height="690"
    bbox="-190 -290 1318 966"
    underline-thickness="50"
    underline-position="-75"
    unicode-range="U+000D-FB02"
  />
<missing-glyph horiz-adv-x="602" 
d="M100 395q0 46 28 75.5t71 29.5q30 0 56 -17.5t42 -47.5h8q16 30 42 47.5t56 17.5q43 0 71 -29.5t28 -75.5q0 -66 -56.5 -140.5t-144.5 -119.5q-88 45 -144.5 119.5t-56.5 140.5z" />
    <glyph glyph-name="fi" unicode="fi" horiz-adv-x="589" 
d="M394 591v137h125v-137h-125zM202 516h126v-98h-126v-418h-125v418h-70v98h70v16q0 98 48.5 153t133.5 55q27 0 47.5 -5t38.5 -16v-105q-13 8 -29.5 12.5t-32.5 4.5q-40 0 -60.5 -25t-20.5 -72v-18zM394 0v516h125v-516h-125z" />
    <glyph glyph-name="fl" unicode="fl" horiz-adv-x="589" 
d="M394 719l125 21v-740h-125v719zM202 516h126v-98h-126v-418h-125v418h-70v98h70v16q0 98 48.5 153t133.5 55q27 0 47.5 -5t38.5 -16v-105q-13 8 -29.5 12.5t-32.5 4.5q-40 0 -60.5 -25t-20.5 -72v-18z" />
    <glyph glyph-name=".notdef" horiz-adv-x="602" 
d="M100 395q0 46 28 75.5t71 29.5q30 0 56 -17.5t42 -47.5h8q16 30 42 47.5t56 17.5q43 0 71 -29.5t28 -75.5q0 -66 -56.5 -140.5t-144.5 -119.5q-88 45 -144.5 119.5t-56.5 140.5z" />
    <glyph glyph-name=".null" horiz-adv-x="0" 
 />
    <glyph glyph-name=".null" horiz-adv-x="0" 
 />
    <glyph glyph-name="nonmarkingreturn" horiz-adv-x="333" 
 />
    <glyph glyph-name="CR" unicode="&#xd;" horiz-adv-x="0" 
 />
    <glyph glyph-name="space" unicode=" " horiz-adv-x="232" 
 />
    <glyph glyph-name="exclam" unicode="!" horiz-adv-x="298" 
d="M190 220h-84l-35 262v208h155v-208zM212 0h-134v139h134v-139z" />
    <glyph glyph-name="quotedbl" unicode="&#x22;" horiz-adv-x="382" 
d="M331 690l-13 -216h-83l-13 216h109zM160 690l-13 -216h-83l-13 216h109z" />
    <glyph glyph-name="numbersign" unicode="#" horiz-adv-x="738" 
d="M460 407h-137l-46 -127h137zM66 0l68 185h-113v95h148l46 127h-118v95h153l69 188h108l-69 -188h137l69 188h108l-69 -188h114v-95h-149l-46 -127h119v-95h-154l-68 -185h-108l68 185h-137l-68 -185h-108z" />
    <glyph glyph-name="dollar" unicode="$" horiz-adv-x="547" 
d="M501 193q0 -79 -51.5 -132t-140.5 -66v-77h-85v73q-50 2 -94 15.5t-74 35.5v123q44 -29 90.5 -43.5t96.5 -14.5q59 0 89.5 19t30.5 57q0 35 -28.5 59.5t-120.5 65.5q-88 39 -125.5 85t-37.5 111q0 76 45.5 126.5t127.5 64.5v86h85v-82q40 -2 77 -12t68 -26v-119
q-38 19 -83 29.5t-85 10.5q-45 0 -70.5 -18.5t-25.5 -50.5q0 -33 25.5 -56.5t91.5 -51.5q110 -45 152 -91.5t42 -120.5z" />
    <glyph glyph-name="percent" unicode="%" horiz-adv-x="935" 
d="M383 501q0 -87 -49.5 -142.5t-126.5 -55.5t-126.5 55.5t-49.5 142.5t49.5 143t126.5 56t126.5 -56t49.5 -143zM129 501q0 -53 20 -81.5t58 -28.5t58 28t20 82q0 53 -20 81t-58 28t-58 -28t-20 -81zM710 690l-387 -690h-98l392 690h93zM903 199q0 -87 -49.5 -142.5
t-126.5 -55.5t-126.5 55.5t-49.5 142.5t49.5 143t126.5 56t126.5 -56t49.5 -143zM649 199q0 -53 20 -81.5t58 -28.5t58 28t20 82q0 53 -20 81t-58 28t-58 -28t-20 -81z" />
    <glyph glyph-name="ampersand" unicode="&#x26;" horiz-adv-x="713" 
d="M598 138l76 -71l-80 -77l-76 69q-46 -34 -99.5 -51.5t-113.5 -17.5q-117 0 -188.5 53t-71.5 143q0 61 36 106.5t103 70.5q-46 44 -64.5 79.5t-18.5 75.5q0 80 59.5 131t159.5 51q94 0 153.5 -47t59.5 -117q0 -62 -41 -109.5t-122 -79.5l149 -137q18 24 31.5 50t22.5 53
l105 -34q-17 -41 -37 -76.5t-43 -64.5zM406 523q0 33 -24.5 53.5t-61.5 20.5q-40 0 -64.5 -22t-24.5 -58q0 -22 16.5 -47.5t62.5 -67.5q54 32 75 59t21 62zM247 306q-35 -16 -53 -42t-18 -60q0 -46 39.5 -74t101.5 -28q30 0 60 8.5t58 24.5z" />
    <glyph glyph-name="quotesingle" unicode="'" horiz-adv-x="211" 
d="M160 690l-13 -216h-83l-13 216h109z" />
    <glyph glyph-name="parenleft" unicode="(" horiz-adv-x="374" 
d="M273 -150q-102 80 -160 200.5t-58 250.5q0 131 58.5 252t161.5 200l61 -50q-74 -90 -111 -189.5t-37 -212.5q0 -114 36.5 -213.5t111.5 -188.5z" />
    <glyph glyph-name="parenright" unicode=")" horiz-adv-x="374" 
d="M186 301q0 113 -37 212.5t-111 189.5l61 50q103 -79 161.5 -200t58.5 -252q0 -130 -58 -250.5t-160 -200.5l-63 49q75 89 111.5 188.5t36.5 213.5z" />
    <glyph glyph-name="asterisk" unicode="*" horiz-adv-x="422" 
d="M72 637l110 -56l-12 135h82l-11 -135l109 56l38 -77l-128 -39l92 -95l-63 -53l-78 108l-77 -107l-63 53l92 94l-130 39z" />
    <glyph glyph-name="plus" unicode="+" horiz-adv-x="575" 
d="M236 595h103v-204h193v-95h-193v-211h-103v211h-194v95h194v204z" />
    <glyph glyph-name="comma" unicode="," horiz-adv-x="249" 
d="M112 0h-55v139h134v-86q0 -72 -26 -118t-85 -86l-33 26q31 28 48 61t17 64z" />
    <glyph glyph-name="hyphen" unicode="-" horiz-adv-x="432" 
d="M371 327v-96h-310v96h310z" />
    <glyph glyph-name="period" unicode="." horiz-adv-x="249" 
d="M191 0h-134v139h134v-139z" />
    <glyph glyph-name="slash" unicode="/" horiz-adv-x="425" 
d="M410 697l-277 -697h-118l277 697h118z" />
    <glyph glyph-name="zero" unicode="0" horiz-adv-x="703" 
d="M661 345q0 -160 -85 -257.5t-224 -97.5q-138 0 -224.5 98.5t-86.5 256.5t86.5 256.5t224.5 98.5t223.5 -98t85.5 -257zM179 345q0 -112 45 -173t128 -61t127.5 60.5t44.5 173.5q0 112 -44.5 172.5t-127.5 60.5t-128 -60.5t-45 -172.5z" />
    <glyph glyph-name="one" unicode="1" horiz-adv-x="363" 
d="M31 498v121l132 67h125v-686h-133v555z" />
    <glyph glyph-name="two" unicode="2" horiz-adv-x="556" 
d="M367 497q0 37 -32 59t-88 22q-51 0 -94.5 -12.5t-87.5 -38.5v128q46 22 98 33.5t106 11.5q102 0 166.5 -52t64.5 -134q0 -59 -28 -109.5t-89 -100.5l-123 -100q-34 -28 -49.5 -47t-21.5 -40h324v-117h-481v45q0 64 29 118.5t90 103.5l103 85q73 59 93 85.5t20 59.5z" />
    <glyph glyph-name="three" unicode="3" horiz-adv-x="553" 
d="M227 111q73 0 111.5 24.5t38.5 71.5t-33 70t-100 23h-102v106h103q63 0 95 21t32 63t-35 65t-97 23q-50 0 -101.5 -14t-92.5 -39v123q42 26 93 39t110 13q109 0 181 -53t72 -136q0 -57 -31.5 -97.5t-88.5 -59.5q61 -19 95.5 -61t34.5 -100q0 -88 -78.5 -145.5
t-193.5 -57.5q-57 0 -108 11.5t-91 33.5v121q49 -23 95 -34t91 -11z" />
    <glyph glyph-name="four" unicode="4" horiz-adv-x="622" 
d="M41 235l261 455h136l-252 -451h192v130l126 69v-199h87v-118h-87v-121h-125v121h-338v114z" />
    <glyph glyph-name="five" unicode="5" horiz-adv-x="571" 
d="M534 223q0 -107 -71.5 -170t-189.5 -63q-62 0 -123 11.5t-99 30.5l-1 127q50 -23 105.5 -35.5t104.5 -12.5q62 0 98.5 30t36.5 81t-42 80t-117 29q-37 0 -76.5 -3.5t-86.5 -11.5l19 374h373v-118h-260l-6 -137q15 3 38 4.5t41 1.5q118 0 187 -59.5t69 -158.5z" />
    <glyph glyph-name="six" unicode="6" horiz-adv-x="609" 
d="M573 230q0 -104 -73.5 -172t-185.5 -68q-123 0 -198 89.5t-75 233.5q0 169 90 278t235 109q33 0 59 -3t50 -10v-126q-21 9 -46 13t-56 4q-79 0 -129.5 -51.5t-65.5 -143.5q36 32 78.5 48t94.5 16q97 -1 159.5 -62.5t62.5 -154.5zM312 111q57 0 90 32.5t33 87.5
q0 52 -33.5 81.5t-92.5 29.5q-40 0 -72.5 -12.5t-63.5 -39.5q4 -84 41 -131.5t98 -47.5z" />
    <glyph glyph-name="seven" unicode="7" horiz-adv-x="523" 
d="M207 0h-145l290 572h-325v118h469v-110z" />
    <glyph glyph-name="eight" unicode="8" horiz-adv-x="603" 
d="M418 375q78 -32 115.5 -75.5t37.5 -100.5q0 -92 -75 -150.5t-193 -58.5q-119 0 -195 54t-76 137q0 56 36.5 102.5t100.5 73.5q-50 26 -75.5 65t-25.5 90q0 78 68.5 133t167.5 55q102 0 166.5 -48.5t64.5 -122.5q0 -47 -31 -87t-86 -67zM302 586q-42 0 -70 -22.5
t-28 -56.5q0 -25 20.5 -44.5t66.5 -37.5l38 -15q33 18 51 42.5t18 52.5q0 34 -27.5 57.5t-68.5 23.5zM254 321q-39 -20 -61 -49.5t-22 -63.5q0 -46 36.5 -75t94.5 -29q59 0 94.5 25.5t35.5 67.5q0 29 -22 50.5t-72 40.5z" />
    <glyph glyph-name="nine" unicode="9" horiz-adv-x="611" 
d="M294 347q43 0 77.5 12t65.5 40q-4 84 -40.5 131.5t-99.5 47.5q-56 0 -89.5 -32.5t-33.5 -87.5q0 -51 32.5 -81t87.5 -30zM234 -9q-44 0 -77 6t-61 20v126q27 -17 59 -24.5t73 -7.5q80 0 132.5 49.5t68.5 136.5q-35 -27 -76.5 -41t-87.5 -14q-100 0 -164.5 61.5
t-64.5 155.5q0 104 74 172.5t186 68.5q124 0 199 -89.5t75 -233.5q0 -168 -93.5 -277t-242.5 -109z" />
    <glyph glyph-name="colon" unicode=":" horiz-adv-x="259" 
d="M196 372h-134v139h134v-139zM196 0h-134v139h134v-139z" />
    <glyph glyph-name="semicolon" unicode=";" horiz-adv-x="259" 
d="M196 372h-134v139h134v-139zM117 0h-55v139h134v-86q0 -72 -26 -118t-85 -86l-33 26q31 28 48 61t17 64z" />
    <glyph glyph-name="less" unicode="&#x3c;" horiz-adv-x="575" 
d="M532 498l-358 -156l358 -158v-114l-490 223v97l490 222v-114z" />
    <glyph glyph-name="equal" unicode="=" horiz-adv-x="575" 
d="M532 394h-490v95h490v-95zM532 199h-490v95h490v-95z" />
    <glyph glyph-name="greater" unicode="&#x3e;" horiz-adv-x="575" 
d="M532 390v-97l-490 -223v114l358 158l-358 156v114z" />
    <glyph glyph-name="question" unicode="?" horiz-adv-x="471" 
d="M258 333l-14 -109h-94l-14 173l66 20q65 19 86 39.5t21 54.5t-23.5 53.5t-64.5 19.5q-33 0 -70.5 -16t-66.5 -41l-59 96q56 43 103.5 60t105.5 17q88 0 144.5 -48t56.5 -124q0 -71 -38 -118t-112 -69zM261 0h-134v139h134v-139z" />
    <glyph glyph-name="at" unicode="@" horiz-adv-x="988" 
d="M132 220q0 -163 103.5 -253.5t287.5 -90.5q58 0 112.5 10t116.5 33l27 -71q-52 -25 -119 -38.5t-138 -13.5q-217 0 -349.5 116.5t-132.5 309.5q0 191 127 311.5t330 120.5q196 0 323.5 -110.5t127.5 -279.5q0 -119 -62 -196.5t-148 -77.5q-49 0 -80.5 17.5t-52.5 57.5
q-27 -35 -68 -55t-89 -20q-90 0 -145.5 64.5t-55.5 163.5q0 97 60 163t148 66q38 0 73 -17t65 -50v62h113v-300q0 -32 14.5 -50t40.5 -18q43 0 69 51.5t26 133.5q0 143 -97.5 227.5t-258.5 84.5q-171 0 -269.5 -94.5t-98.5 -256.5zM365 219q0 -57 32.5 -94.5t82.5 -37.5
q35 0 67 17.5t46 46.5v134q-15 29 -46 46.5t-66 17.5q-51 0 -83.5 -36.5t-32.5 -93.5z" />
    <glyph glyph-name="A" unicode="A" horiz-adv-x="720" 
d="M356 554l-115 -303h230zM8 0l272 690h159l272 -690h-144l-54 141h-314l-54 -141h-137z" />
    <glyph glyph-name="B" unicode="B" horiz-adv-x="659" 
d="M362 0h-287v690h282q102 0 166.5 -51.5t64.5 -132.5q0 -51 -27.5 -90t-74.5 -57q60 -14 95 -57.5t35 -105.5q0 -87 -70.5 -141.5t-183.5 -54.5zM356 407q45 0 71 23.5t26 63.5t-27.5 62.5t-75.5 22.5h-142v-172h148zM367 301h-159v-191h152q56 0 87 25t31 71
q0 44 -30 69.5t-81 25.5z" />
    <glyph glyph-name="C" unicode="C" horiz-adv-x="650" 
d="M178 345q0 -108 62.5 -171t170.5 -63q55 0 104.5 12.5t95.5 37.5v-126q-43 -24 -92 -34.5t-115 -10.5q-159 0 -261.5 99.5t-102.5 254.5t103.5 255.5t262.5 100.5q60 0 109 -12.5t85 -36.5v-125q-40 26 -88 39t-103 13q-106 0 -168.5 -63t-62.5 -170z" />
    <glyph glyph-name="D" unicode="D" horiz-adv-x="728" 
d="M75 0v690h263q152 0 252.5 -97.5t100.5 -245.5q0 -152 -101.5 -249.5t-258.5 -97.5h-256zM336 572h-128v-455h128q100 0 158 61t58 168q0 104 -58 165t-158 61z" />
    <glyph glyph-name="E" unicode="E" horiz-adv-x="586" 
d="M75 690h466v-118h-333v-164h246v-118h-246v-173h333v-117h-466v690z" />
    <glyph glyph-name="F" unicode="F" horiz-adv-x="574" 
d="M75 690h466v-118h-333v-173h246v-118h-246v-281h-133v690z" />
    <glyph glyph-name="G" unicode="G" horiz-adv-x="731" 
d="M409 379h270v-300q-46 -41 -121 -65t-151 -24q-162 0 -264.5 98.5t-102.5 254.5t103.5 256.5t262.5 100.5q58 0 108.5 -10t85.5 -29v-127q-40 22 -88.5 33t-102.5 11q-107 0 -169 -62.5t-62 -170.5t64 -171t174 -63q42 0 78 10t60 28v120h-145v110z" />
    <glyph glyph-name="H" unicode="H" horiz-adv-x="752" 
d="M75 0v690h133v-294h336v294h133v-690h-133v278h-336v-278h-133z" />
    <glyph glyph-name="I" unicode="I" horiz-adv-x="283" 
d="M75 0v690h133v-690h-133z" />
    <glyph glyph-name="J" unicode="J" horiz-adv-x="451" 
d="M381 240q0 -114 -67 -182t-178 -68q-24 0 -54.5 4.5t-49.5 11.5v117q24 -7 47.5 -10t50.5 -3q57 0 87.5 33t30.5 95v452h133v-450z" />
    <glyph glyph-name="K" unicode="K" horiz-adv-x="671" 
d="M208 0h-133v690h133v-332l277 332h144l-261 -312l290 -378h-160l-212 279l-78 -93v-186z" />
    <glyph glyph-name="L" unicode="L" horiz-adv-x="584" 
d="M75 0v690h133v-573h340v-117h-473z" />
    <glyph glyph-name="M" unicode="M" horiz-adv-x="868" 
d="M200 690l235 -359l233 359h125v-690h-133v465l-172 -268h-105l-175 261v-458h-133v690h125z" />
    <glyph glyph-name="N" unicode="N" horiz-adv-x="743" 
d="M669 690v-690h-125l-336 468v-468h-133v690h125l336 -476v476h133z" />
    <glyph glyph-name="O" unicode="O" horiz-adv-x="797" 
d="M755 345q0 -154 -101.5 -254.5t-256.5 -100.5q-154 0 -255 100.5t-101 253.5q0 154 101.5 255t255.5 101q155 0 256 -100.5t101 -254.5zM179 345q0 -107 60 -170.5t160 -63.5t159 63.5t59 170.5q0 106 -59.5 169.5t-158.5 63.5q-100 0 -160 -63.5t-60 -169.5z" />
    <glyph glyph-name="P" unicode="P" horiz-adv-x="650" 
d="M75 0v690h279q111 0 184 -65.5t73 -165.5t-73 -166t-184 -66h-146v-227h-133zM354 572h-146v-227h146q55 0 87 30.5t32 83.5q0 52 -32 82.5t-87 30.5z" />
    <glyph glyph-name="Q" unicode="Q" horiz-adv-x="797" 
d="M399 578q-100 0 -160 -63.5t-60 -169.5q0 -107 60 -170.5t160 -63.5t159 63.5t59 170.5q0 106 -59.5 169.5t-158.5 63.5zM712 -174q-112 -4 -220.5 17t-200.5 64l34 89q-125 23 -204.5 118t-79.5 230q0 154 101.5 255t255.5 101q155 0 256 -100.5t101 -254.5
t-101.5 -254.5t-256.5 -100.5h-2q75 -31 157.5 -43t193.5 -9z" />
    <glyph glyph-name="R" unicode="R" horiz-adv-x="655" 
d="M349 572h-141v-191h141q54 0 85 26t31 71q0 43 -31.5 68.5t-84.5 25.5zM75 0v690h274q110 0 182.5 -59t72.5 -149q0 -67 -39.5 -119t-104.5 -77l175 -286h-155l-152 267h-120v-267h-133z" />
    <glyph glyph-name="S" unicode="S" horiz-adv-x="589" 
d="M556 195q0 -94 -77.5 -149.5t-204.5 -55.5q-71 0 -129.5 14t-103.5 41v129q61 -35 119.5 -51t124.5 -16t99.5 20t33.5 59q0 34 -31 57t-115 49q-121 38 -175.5 88t-54.5 122q0 89 72.5 143.5t193.5 54.5q60 0 110 -10t90 -30v-123q-48 22 -101.5 33.5t-104.5 11.5
q-58 0 -90 -18.5t-32 -52.5q0 -31 31.5 -52t133.5 -55q116 -39 163.5 -86t47.5 -123z" />
    <glyph glyph-name="T" unicode="T" horiz-adv-x="612" 
d="M239 0v572h-219v118h572v-118h-220v-572h-133z" />
    <glyph glyph-name="U" unicode="U" horiz-adv-x="718" 
d="M358 111q73 0 115 41t42 112v426h133v-428q0 -122 -79.5 -197t-210.5 -75q-130 0 -209 76.5t-79 200.5v423h133v-426q0 -71 41.5 -112t113.5 -41z" />
    <glyph glyph-name="V" unicode="V" horiz-adv-x="732" 
d="M370 139l216 551h139l-282 -690h-156l-280 690h148z" />
    <glyph glyph-name="W" unicode="W" horiz-adv-x="1007" 
d="M574 564l128 -420l164 546h133l-219 -690h-154l-124 400l-131 -400h-147l-217 690h142l159 -546l139 420h127z" />
    <glyph glyph-name="X" unicode="X" horiz-adv-x="675" 
d="M150 0h-141l250 349l-244 341h156l173 -243l174 243h142l-244 -343l248 -347h-156l-178 249z" />
    <glyph glyph-name="Y" unicode="Y" horiz-adv-x="680" 
d="M406 0h-133v277l-265 413h141l187 -296l187 296h148l-265 -413v-277z" />
    <glyph glyph-name="Z" unicode="Z" horiz-adv-x="599" 
d="M562 117v-117h-525v106l353 462h-344v118h513v-107l-354 -462h357z" />
    <glyph glyph-name="bracketleft" unicode="[" horiz-adv-x="371" 
d="M329 740v-96h-146v-672h146v-95h-261v863h261z" />
    <glyph glyph-name="backslash" unicode="\" horiz-adv-x="425" 
d="M291 0l-276 697h118l277 -697h-119z" />
    <glyph glyph-name="bracketright" unicode="]" horiz-adv-x="371" 
d="M41 644v96h261v-863h-261v95h147v672h-147z" />
    <glyph glyph-name="asciicircum" unicode="^" horiz-adv-x="575" 
d="M289 565l-132 -315h-110l194 440h95l195 -440h-110z" />
    <glyph glyph-name="underscore" unicode="_" horiz-adv-x="497" 
d="M473 -32v-95h-450v95h450z" />
    <glyph glyph-name="grave" unicode="`" 
d="M225 588l-124 139h138l97 -139h-111z" />
    <glyph glyph-name="a" unicode="a" horiz-adv-x="581" 
d="M166 170q0 -41 28.5 -65.5t75.5 -24.5q36 0 67 18t52 50v66q-24 20 -55.5 31.5t-63.5 11.5q-49 0 -76.5 -23t-27.5 -64zM256 425q-44 0 -84 -11.5t-76 -34.5v104q35 20 83.5 31.5t100.5 11.5q114 0 174.5 -54.5t60.5 -155.5v-316h-126v77q-25 -39 -73 -63t-101 -24
q-79 0 -131 49t-52 124q0 77 53.5 126.5t137.5 49.5q47 0 88.5 -12.5t73.5 -36.5v20q0 57 -32.5 86t-96.5 29z" />
    <glyph glyph-name="b" unicode="b" horiz-adv-x="646" 
d="M364 526q108 0 176.5 -74t68.5 -192q0 -117 -69.5 -193.5t-175.5 -76.5q-51 0 -97 23.5t-72 63.5v-77h-125v719l125 21v-303q29 43 73 66t96 23zM335 97q69 0 108 43.5t39 120.5q0 74 -39 116t-108 42q-42 0 -79.5 -23t-60.5 -64v-159q26 -37 62.5 -56.5t77.5 -19.5z" />
    <glyph glyph-name="c" unicode="c" horiz-adv-x="505" 
d="M459 376q-24 19 -59 31t-70 12q-78 0 -122.5 -43t-44.5 -118q0 -76 43.5 -119t123.5 -43q39 0 70 10t67 35v-110q-30 -20 -70.5 -30.5t-90.5 -10.5q-121 0 -195.5 74.5t-74.5 193.5t75 193.5t196 74.5q50 0 88 -10t64 -31v-109z" />
    <glyph glyph-name="d" unicode="d" horiz-adv-x="646" 
d="M310 97q41 0 77.5 22t62.5 62v158q-23 37 -60.5 58.5t-79.5 21.5q-69 0 -108 -42t-39 -116q0 -77 39 -120.5t108 -43.5zM576 0h-126v84q-24 -44 -69 -69t-100 -25q-106 0 -175.5 76.5t-69.5 193.5q0 118 68.5 192t176.5 74q54 0 97.5 -20.5t71.5 -58.5v272l126 21v-740z
" />
    <glyph glyph-name="e" unicode="e" horiz-adv-x="571" 
d="M328 -10q-131 0 -211.5 75t-80.5 197q0 116 74 190t191 74q105 0 171.5 -67.5t67.5 -172.5q0 -18 -1.5 -37t-4.5 -30h-370q11 -60 54.5 -93.5t111.5 -33.5q44 0 90.5 12.5t77.5 32.5v-103q-28 -20 -73.5 -32t-96.5 -12zM298 427q-53 0 -89 -33t-46 -91h257q0 55 -34 89.5
t-88 34.5z" />
    <glyph glyph-name="f" unicode="f" horiz-adv-x="358" 
d="M202 516h126v-98h-126v-418h-125v418h-70v98h70v16q0 98 50.5 153t139.5 55q27 0 49.5 -5.5t39.5 -15.5v-105q-15 8 -33 12.5t-35 4.5q-43 0 -64.5 -24.5t-21.5 -72.5v-18z" />
    <glyph glyph-name="g" unicode="g" horiz-adv-x="646" 
d="M310 97q41 0 77 21.5t63 61.5v160q-23 37 -60.5 58t-79.5 21q-69 0 -108 -42t-39 -116q0 -77 39 -120.5t108 -43.5zM298 -107q73 0 112.5 35.5t39.5 100.5v55q-25 -45 -69.5 -69.5t-100.5 -24.5q-108 0 -176 74.5t-68 195.5q0 118 68.5 192t176.5 74q53 0 97 -21t72 -59
v70h126v-469q0 -121 -71.5 -190t-196.5 -69q-33 0 -63.5 5.5t-51.5 15.5v104q24 -10 51.5 -15t53.5 -5z" />
    <glyph glyph-name="h" unicode="h" horiz-adv-x="621" 
d="M70 0v719l125 21v-308q27 44 73.5 69t101.5 25q91 0 138.5 -50.5t47.5 -146.5v-329h-125v315q0 50 -27 76t-78 26q-39 0 -74.5 -21t-56.5 -56v-340h-125z" />
    <glyph glyph-name="i" unicode="i" horiz-adv-x="265" 
d="M70 591v137h125v-137h-125zM70 0v516h125v-516h-125z" />
    <glyph glyph-name="j" unicode="j" horiz-adv-x="271" 
d="M201 728v-137h-125v137h125zM-16 -105q14 -1 19.5 -1.5t10.5 -0.5q31 0 46.5 18.5t15.5 54.5v550h125v-543q0 -89 -39.5 -137t-111.5 -48q-18 0 -35.5 2t-30.5 6v99z" />
    <glyph glyph-name="k" unicode="k" horiz-adv-x="579" 
d="M195 0h-125v719l125 21v-457l209 233h144l-211 -226l231 -290h-153l-161 202l-59 -63v-139z" />
    <glyph glyph-name="l" unicode="l" horiz-adv-x="265" 
d="M70 719l125 21v-740h-125v719z" />
    <glyph glyph-name="m" unicode="m" horiz-adv-x="945" 
d="M412 324q0 43 -26 68t-70 25q-35 0 -67.5 -21t-53.5 -57v-339h-125v516h118v-90q26 47 72 73.5t101 26.5q62 0 103.5 -26.5t58.5 -76.5q30 49 76.5 76t102.5 27q86 0 132 -49.5t46 -140.5v-336h-126v322q0 45 -25.5 70t-70.5 25q-35 0 -67.5 -21.5t-52.5 -57.5v-338h-126
v324z" />
    <glyph glyph-name="n" unicode="n" horiz-adv-x="621" 
d="M70 0v516h118v-91q27 47 75 74t107 27q91 0 138.5 -50.5t47.5 -146.5v-329h-125v315q0 50 -27 76t-78 26q-40 0 -75.5 -21.5t-55.5 -56.5v-339h-125z" />
    <glyph glyph-name="o" unicode="o" horiz-adv-x="623" 
d="M36 258q0 116 78 192t197 76t197.5 -76t78.5 -192t-78.5 -192t-197.5 -76t-197 76t-78 192zM163 258q0 -74 40.5 -118.5t107.5 -44.5q68 0 108.5 44.5t40.5 118.5t-40.5 118.5t-108.5 44.5q-67 0 -107.5 -44.5t-40.5 -118.5z" />
    <glyph glyph-name="p" unicode="p" horiz-adv-x="646" 
d="M335 97q69 0 108 43.5t39 120.5q0 74 -39 116t-108 42q-41 0 -78.5 -23t-61.5 -63v-161q26 -36 62.5 -55.5t77.5 -19.5zM609 260q0 -117 -69.5 -193.5t-175.5 -76.5q-52 0 -97.5 23t-71.5 62v-275h-125v716h125v-78q28 42 72.5 65t96.5 23q108 0 176.5 -74t68.5 -192z
" />
    <glyph glyph-name="q" unicode="q" horiz-adv-x="646" 
d="M576 -197h-126v279q-24 -43 -69 -67.5t-100 -24.5q-106 0 -175.5 76.5t-69.5 193.5q0 118 68.5 192t176.5 74q53 0 97 -21t72 -59v73h126v-716zM310 97q41 0 77.5 21.5t62.5 60.5v162q-23 36 -60.5 57t-79.5 21q-69 0 -108 -42t-39 -116q0 -77 39 -120.5t108 -43.5z" />
    <glyph glyph-name="r" unicode="r" horiz-adv-x="392" 
d="M195 424q17 51 47.5 76.5t74.5 25.5q14 0 28.5 -3t24.5 -9v-118q-12 5 -30 8.5t-34 3.5q-36 0 -65 -19t-46 -54v-335h-125v516h125v-92z" />
    <glyph glyph-name="s" unicode="s" horiz-adv-x="477" 
d="M412 384q-34 19 -75.5 29.5t-81.5 10.5q-45 0 -67 -12t-22 -37q0 -21 22 -33.5t91 -31.5q94 -25 132.5 -61.5t38.5 -96.5q0 -77 -58.5 -119.5t-158.5 -42.5q-57 0 -102 9.5t-80 29.5v111q37 -23 84.5 -35.5t101.5 -12.5q43 0 65 13t22 39q0 23 -24 37.5t-102 37.5
q-84 25 -121 60.5t-37 90.5q0 71 57 113.5t154 42.5q48 0 88 -8t73 -24v-110z" />
    <glyph glyph-name="t" unicode="t" horiz-adv-x="364" 
d="M268 103q15 0 30 2.5t31 7.5v-109q-21 -6 -44.5 -10t-40.5 -4q-86 0 -126.5 41.5t-40.5 128.5v258h-70v98h70v109l125 20v-129h126v-98h-126v-241q0 -38 15 -56t51 -18z" />
    <glyph glyph-name="u" unicode="u" horiz-adv-x="609" 
d="M539 516v-516h-118v91q-28 -49 -72.5 -75t-100.5 -26q-89 0 -136 50t-47 144v332h125v-316q0 -50 25 -76t73 -26q38 0 71 21t54 58v339h126z" />
    <glyph glyph-name="v" unicode="v" horiz-adv-x="568" 
d="M438 516h121l-210 -516h-134l-207 516h132l147 -396z" />
    <glyph glyph-name="w" unicode="w" horiz-adv-x="848" 
d="M727 516h113l-173 -516h-145l-103 345l-102 -345h-135l-174 516h132l121 -395l115 395h111l117 -395z" />
    <glyph glyph-name="x" unicode="x" horiz-adv-x="539" 
d="M135 0h-127l191 265l-181 251h142l117 -163l119 163h126l-181 -252l190 -264h-142l-126 175z" />
    <glyph glyph-name="y" unicode="y" horiz-adv-x="578" 
d="M370 46q-59 -139 -121 -198.5t-147 -59.5q-14 0 -27 2t-22 6v103q9 -2 19.5 -3.5t21.5 -1.5q43 0 78 26t63 78l-226 518h127l158 -379l150 379h125z" />
    <glyph glyph-name="z" unicode="z" horiz-adv-x="499" 
d="M463 429l-271 -327h272v-102h-429v87l270 326h-262v103h420v-87z" />
    <glyph glyph-name="braceleft" unicode="{" horiz-adv-x="404" 
d="M131 475q-17 33 -22.5 54.5t-5.5 43.5q0 81 66.5 124t194.5 43v-90q-73 0 -107.5 -19.5t-34.5 -62.5q0 -15 3 -29.5t14 -40.5q12 -31 16 -51t4 -41q0 -28 -14 -56t-35 -43q21 -15 35 -43t14 -56q0 -21 -4 -40.5t-16 -49.5q-11 -27 -14 -42t-3 -30q0 -43 34.5 -62
t107.5 -19v-90q-128 0 -194.5 43t-66.5 124q0 22 5.5 43t22.5 55q12 25 16 38t4 25q0 28 -14.5 43t-41.5 15h-42v92h42q27 0 41.5 15t14.5 44q0 12 -3.5 24.5t-16.5 38.5z" />
    <glyph glyph-name="bar" unicode="|" horiz-adv-x="245" 
d="M71 -80v850h103v-850h-103z" />
    <glyph glyph-name="braceright" unicode="}" horiz-adv-x="404" 
d="M301 573q0 -22 -5.5 -43.5t-22.5 -54.5q-13 -26 -16.5 -38.5t-3.5 -24.5q0 -29 14.5 -44t41.5 -15h41v-92h-41q-27 0 -41.5 -15t-14.5 -43q0 -12 4 -25t16 -38q17 -34 22.5 -55t5.5 -43q0 -81 -66.5 -124t-194.5 -43v90q73 0 107.5 19t34.5 62q0 15 -3 30t-14 42
q-12 30 -16 49.5t-4 40.5q0 27 14 55.5t34 44.5q-20 14 -34 42t-14 56q0 21 4 41t16 51q11 26 14 40.5t3 29.5q0 43 -34.5 62.5t-107.5 19.5v90q128 0 194.5 -43t66.5 -124z" />
    <glyph glyph-name="asciitilde" unicode="~" horiz-adv-x="575" 
d="M158 323q-22 0 -45 -4t-71 -21v96q39 16 63.5 20.5t52.5 4.5q21 0 46 -4t76 -18q54 -14 81.5 -18.5t51.5 -4.5q30 0 60.5 8t58.5 24v-96q-45 -21 -70 -26.5t-53 -5.5q-24 0 -51 4.5t-79 18.5q-49 14 -74 18t-47 4z" />
    <glyph glyph-name="uni00A0" unicode="&#xa0;" horiz-adv-x="232" 
 />
    <glyph glyph-name="exclamdown" unicode="&#xa1;" horiz-adv-x="298" 
d="M78 516h134v-139h-134v139zM106 295h84l36 -262v-206h-155v206z" />
    <glyph glyph-name="cent" unicode="&#xa2;" horiz-adv-x="517" 
d="M334 96q39 0 70.5 10.5t65.5 34.5v-110q-25 -17 -58 -27t-73 -13v-73h-84v76q-99 17 -157 88.5t-58 175.5t58.5 175.5t156.5 87.5v81h84v-77q41 -3 71.5 -13t51.5 -27v-109q-25 21 -58 32t-70 11q-78 0 -122.5 -43t-44.5 -118q0 -76 43.5 -119t123.5 -43z" />
    <glyph glyph-name="sterling" unicode="&#xa3;" horiz-adv-x="550" 
d="M55 0v117h18q54 0 83 27.5t29 75.5q0 19 -5 37.5t-20 47.5h-113v78h68q-19 35 -25.5 60t-6.5 51q0 93 67.5 149.5t173.5 56.5q46 0 79 -7t59 -22v-118q-28 13 -57 19t-63 6q-56 0 -89 -25t-33 -69q0 -21 7.5 -42t30.5 -59h177v-78h-134q8 -18 10.5 -32.5t2.5 -29.5
q0 -40 -21 -72t-61 -54h283v-117h-460z" />
    <glyph glyph-name="currency" unicode="&#xa4;" horiz-adv-x="600" 
d="M510 101l-84 83q-26 -17 -58 -26.5t-68 -9.5t-68 9.5t-58 26.5l-83 -83l-54 53l84 83q-18 26 -27.5 58t-9.5 69q0 36 9.5 68t26.5 57l-83 83l53 53l82 -82q27 17 59 26.5t69 9.5q36 0 68.5 -9.5t57.5 -26.5l83 82l53 -53l-82 -82q17 -26 27 -58t10 -68q0 -37 -10 -69.5
t-27 -58.5l82 -82zM299 242q55 0 89.5 34t34.5 88t-34 87.5t-89 34.5q-54 0 -88 -34t-34 -88t34 -88t87 -34z" />
    <glyph glyph-name="yen" unicode="&#xa5;" horiz-adv-x="698" 
d="M282 0v174h-202v78h202v25l-21 32h-181v78h131l-194 303h148l183 -303l185 303h147l-194 -303h122v-78h-172l-21 -32v-25h193v-78h-193v-174h-133z" />
    <glyph glyph-name="brokenbar" unicode="&#xa6;" horiz-adv-x="245" 
d="M71 394v376h103v-376h-103zM71 -80v376h103v-376h-103z" />
    <glyph glyph-name="section" unicode="&#xa7;" horiz-adv-x="505" 
d="M186 426q-16 -9 -25 -22.5t-9 -29.5q0 -27 27.5 -45t111.5 -42q5 -2 11 -3.5t17 -5.5q17 9 25.5 22.5t8.5 29.5q0 27 -27.5 45t-111.5 42q-5 2 -11 3.5t-17 5.5zM395 241q27 -19 40.5 -43t13.5 -54q0 -71 -57 -112.5t-153 -41.5q-49 0 -89.5 7.5t-72.5 23.5v110
q33 -19 74.5 -29.5t83.5 -10.5q44 0 66.5 12t22.5 36q0 19 -17.5 29.5t-96.5 34.5q-95 27 -132.5 60t-37.5 87q0 36 17.5 64.5t52.5 48.5q-28 19 -41.5 43t-13.5 53q0 71 57.5 113.5t153.5 42.5q48 0 88.5 -8t73.5 -24v-111q-34 19 -76 30t-82 11q-45 0 -67 -12t-22 -37
q0 -19 19 -30t95 -33q95 -27 132.5 -60t37.5 -87q0 -36 -17.5 -64.5t-52.5 -48.5z" />
    <glyph glyph-name="dieresis" unicode="&#xa8;" 
d="M393 728v-137h-107v137h107zM213 728v-137h-107v137h107z" />
    <glyph glyph-name="copyright" unicode="&#xa9;" horiz-adv-x="792" 
d="M41 345q0 149 102.5 252t252.5 103q149 0 252 -103.5t103 -251.5t-103 -251.5t-252 -103.5t-252 103t-103 252zM674 345q0 121 -79.5 202t-198.5 81q-120 0 -199.5 -81t-79.5 -202q0 -122 79.5 -203t199.5 -81t199 81t79 203zM222 347q0 77 55 129.5t135 52.5
q29 0 50.5 -5t38.5 -15v-73q-21 12 -39.5 16.5t-43.5 4.5q-53 0 -84.5 -30t-31.5 -80q0 -52 31.5 -81.5t86.5 -29.5q26 0 44.5 4t36.5 13v-69q-24 -12 -42.5 -15.5t-44.5 -3.5q-82 0 -137 51.5t-55 130.5z" />
    <glyph glyph-name="ordfeminine" unicode="&#xaa;" horiz-adv-x="399" 
d="M190 445q23 0 42 12t27 30v35q-13 11 -30.5 17t-37.5 6q-28 0 -45 -14.5t-17 -36.5t17.5 -35.5t43.5 -13.5zM182 638q-24 0 -48.5 -7t-46.5 -20v63q22 12 51 19t59 7q68 0 104.5 -32t36.5 -91v-184h-77v49q-17 -26 -44 -40.5t-60 -14.5q-46 0 -78 29t-32 73t32 73t84 29
q26 0 48.5 -6.5t46.5 -22.5v12q0 32 -19 48t-57 16zM365 325v-74h-332v74h332z" />
    <glyph glyph-name="guillemotleft" unicode="&#xab;" horiz-adv-x="628" 
d="M569 75l-48 -48l-219 191v62l219 191l48 -48l-151 -174zM314 75l-48 -48l-219 191v62l219 191l48 -48l-151 -174z" />
    <glyph glyph-name="logicalnot" unicode="&#xac;" horiz-adv-x="575" 
d="M429 296h-387v95h490v-307h-103v212z" />
    <glyph glyph-name="uni00AD" unicode="&#xad;" horiz-adv-x="432" 
 />
    <glyph glyph-name="registered" unicode="&#xae;" horiz-adv-x="520" 
d="M40 481q0 91 64.5 155t155.5 64t155.5 -64t64.5 -155t-64.5 -155.5t-155.5 -64.5t-155.5 64.5t-64.5 155.5zM428 481q0 74 -47.5 122.5t-120.5 48.5q-74 0 -121.5 -48.5t-47.5 -122.5q0 -75 47.5 -124t121.5 -49q73 0 120.5 49t47.5 124zM304 522q0 13 -9 20.5t-25 7.5
h-46v-56h46q16 0 25 7.5t9 20.5zM303 463l55 -86h-51l-49 80h-34v-80h-45v213h91q38 0 59.5 -17.5t21.5 -48.5q0 -23 -12.5 -39t-35.5 -22z" />
    <glyph glyph-name="macron" unicode="&#xaf;" 
d="M404 706v-97h-309v97h309z" />
    <glyph glyph-name="degree" unicode="&#xb0;" horiz-adv-x="336" 
d="M167 700q62 0 101.5 -39.5t39.5 -101.5q0 -60 -40 -99t-101 -39t-100.5 39t-39.5 99q0 61 39.5 101t100.5 40zM167 491q28 0 47 20t19 48q0 30 -19 50t-47 20t-46.5 -20.5t-18.5 -49.5q0 -28 19 -48t46 -20z" />
    <glyph glyph-name="plusminus" unicode="&#xb1;" horiz-adv-x="575" 
d="M235 635h103v-187h194v-95h-194v-189h-103v189h-193v95h193v187zM532 0h-490v95h490v-95z" />
    <glyph glyph-name="twosuperior" unicode="&#xb2;" horiz-adv-x="415" 
d="M239 577q0 17 -14 26.5t-40 9.5t-49.5 -7t-48.5 -23v93q30 12 58 18t57 6q57 0 94.5 -30.5t37.5 -78.5q0 -32 -16 -59.5t-52 -56.5l-54 -44q-15 -12 -22.5 -21t-7.5 -16h158v-86h-269v32q0 41 14.5 70.5t45.5 54.5l59 47q29 23 39 36t10 29z" />
    <glyph glyph-name="threesuperior" unicode="&#xb3;" horiz-adv-x="415" 
d="M190 391q34 0 51 10t17 31q0 20 -15 30t-46 10h-56v63h57q30 0 44.5 9.5t14.5 29.5q0 17 -15.5 26.5t-42.5 9.5q-28 0 -56.5 -8t-50.5 -21v90q24 14 52.5 21.5t60.5 7.5q61 0 102.5 -31t41.5 -79q0 -31 -15.5 -53t-45.5 -33q31 -11 48.5 -33.5t17.5 -53.5
q0 -49 -45 -81.5t-110 -32.5q-32 0 -59.5 5.5t-48.5 16.5v89q27 -12 50.5 -17.5t48.5 -5.5z" />
    <glyph glyph-name="acute" unicode="&#xb4;" 
d="M393 727l-125 -139h-111l97 139h139z" />
    <glyph glyph-name="mu" unicode="&#xb5;" horiz-adv-x="688" 
d="M556 -10q-51 0 -84.5 24.5t-46.5 71.5q-34 -43 -84.5 -69.5t-101.5 -26.5q-12 0 -23 1.5t-22 5.5v-197h-124v715h131v-317q0 -48 22.5 -71t68.5 -23q39 0 72.5 19t52.5 48v345h129v-363q0 -27 10.5 -41.5t30.5 -14.5q12 0 22.5 4.5t20.5 14.5l47 -82q-26 -23 -55.5 -33.5
t-65.5 -10.5z" />
    <glyph glyph-name="paragraph" unicode="&#xb6;" horiz-adv-x="534" 
d="M267 0v290h-30q-86 0 -139 56t-53 145q0 88 53.5 143.5t138.5 55.5h224v-690h-69v615h-56v-615h-69z" />
    <glyph glyph-name="periodcentered" unicode="&#xb7;" 
d="M242 241h-134v140h134v-140z" />
    <glyph glyph-name="cedilla" unicode="&#xb8;" 
d="M254 -49q46 0 71.5 -19.5t25.5 -54.5q0 -42 -33 -66.5t-89 -24.5q-29 0 -49.5 4t-41.5 13v59q25 -10 43.5 -14t38.5 -4q23 0 35.5 7.5t12.5 21.5t-11.5 21.5t-32.5 7.5h-49l24 127l48 -20l-11 -58h18z" />
    <glyph glyph-name="onesuperior" unicode="&#xb9;" horiz-adv-x="415" 
d="M122 566v90l67 35h89v-389h-95v292z" />
    <glyph glyph-name="ordmasculine" unicode="&#xba;" horiz-adv-x="399" 
d="M357 541q0 -69 -43.5 -111.5t-114.5 -42.5t-114.5 42.5t-43.5 111.5q0 71 43.5 115t114.5 44t114.5 -44t43.5 -115zM275 543q0 38 -20.5 61t-55.5 23q-34 0 -55 -23t-21 -61q0 -37 21 -60t55 -23q35 0 55.5 22.5t20.5 60.5zM365 325v-74h-332v74h332z" />
    <glyph glyph-name="guillemotright" unicode="&#xbb;" horiz-adv-x="628" 
d="M313 423l48 48l219 -191v-62l-219 -191l-48 48l152 174zM58 423l48 48l219 -191v-62l-219 -191l-48 48l152 174z" />
    <glyph glyph-name="onequarter" unicode="&#xbc;" horiz-adv-x="935" 
d="M122 566v90l67 35h89v-389h-95v292zM715 690l-387 -690h-98l392 690h93zM572 137l132 252h97l-131 -249h102v71l90 50v-258h-89v58h-201v76z" />
    <glyph glyph-name="onehalf" unicode="&#xbd;" horiz-adv-x="935" 
d="M122 566v90l67 35h89v-389h-95v292zM700 690l-387 -690h-98l392 690h93zM759 275q0 17 -14 26.5t-40 9.5t-49.5 -7t-48.5 -23v93q30 12 58 18t57 6q57 0 94.5 -30.5t37.5 -78.5q0 -32 -16 -59.5t-52 -56.5l-54 -44q-15 -12 -22.5 -21t-7.5 -16h158v-86h-269v32
q0 41 14.5 70.5t45.5 54.5l59 47q29 23 39 36t10 29z" />
    <glyph glyph-name="threequarters" unicode="&#xbe;" horiz-adv-x="935" 
d="M190 391q34 0 51 10t17 31q0 20 -15 30t-46 10h-56v63h57q30 0 44.5 9.5t14.5 29.5q0 17 -15.5 26.5t-42.5 9.5q-28 0 -56.5 -8t-50.5 -21v90q24 14 52.5 21.5t60.5 7.5q61 0 102.5 -31t41.5 -79q0 -31 -15.5 -53t-45.5 -33q31 -11 48.5 -33.5t17.5 -53.5
q0 -49 -45 -81.5t-110 -32.5q-32 0 -59.5 5.5t-48.5 16.5v89q27 -12 50.5 -17.5t48.5 -5.5zM723 690l-387 -690h-98l392 690h93zM572 137l132 252h97l-131 -249h102v71l90 50v-258h-89v58h-201v76z" />
    <glyph glyph-name="questiondown" unicode="&#xbf;" horiz-adv-x="471" 
d="M209 516h134v-139h-134v139zM213 183l13 108h94l14 -173l-66 -20q-63 -18 -85 -38.5t-22 -55.5q0 -33 23.5 -52.5t64.5 -19.5q33 0 70.5 16t66.5 41l59 -96q-55 -42 -103 -59t-106 -17q-88 0 -144.5 47.5t-56.5 124.5q0 68 38 114.5t112 70.5z" />
    <glyph glyph-name="Agrave" unicode="&#xc0;" horiz-adv-x="720" 
d="M356 554l-115 -303h230zM8 0l272 690h159l272 -690h-144l-54 141h-314l-54 -141h-137zM325 761l-124 139h138l97 -139h-111z" />
    <glyph glyph-name="Aacute" unicode="&#xc1;" horiz-adv-x="720" 
d="M356 554l-115 -303h230zM8 0l272 690h159l272 -690h-144l-54 141h-314l-54 -141h-137zM513 900l-125 -139h-111l97 139h139z" />
    <glyph glyph-name="Acircumflex" unicode="&#xc2;" horiz-adv-x="720" 
d="M356 554l-115 -303h230zM8 0l272 690h159l272 -690h-144l-54 141h-314l-54 -141h-137zM424 900l114 -139h-106l-76 82l-77 -82h-98l113 139h130z" />
    <glyph glyph-name="Atilde" unicode="&#xc3;" horiz-adv-x="720" 
d="M356 554l-115 -303h230zM8 0l272 690h159l272 -690h-144l-54 141h-314l-54 -141h-137zM281 903q23 0 43 -7t50 -30q22 -16 33.5 -20.5t22.5 -4.5q19 0 29.5 16t11.5 44h79q-1 -58 -33.5 -98t-81.5 -40q-24 0 -45.5 7.5t-50.5 30.5q-19 14 -28 18t-18 4q-18 0 -30 -15.5
t-13 -42.5h-79q1 65 30 101.5t80 36.5z" />
    <glyph glyph-name="Adieresis" unicode="&#xc4;" horiz-adv-x="720" 
d="M356 554l-115 -303h230zM8 0l272 690h159l272 -690h-144l-54 141h-314l-54 -141h-137zM503 901v-137h-107v137h107zM323 901v-137h-107v137h107z" />
    <glyph glyph-name="Aring" unicode="&#xc5;" horiz-adv-x="720" 
d="M356 554l-115 -303h230zM8 0l272 690h159l272 -690h-144l-54 141h-314l-54 -141h-137zM360 741q-50 0 -83 32t-33 80q0 50 32.5 81.5t83.5 31.5q50 0 82.5 -32t32.5 -81t-32.5 -80.5t-82.5 -31.5zM360 902q-21 0 -34.5 -13t-13.5 -34q0 -23 13 -36.5t35 -13.5t35 13.5
t13 36.5q0 21 -13.5 34t-34.5 13z" />
    <glyph glyph-name="AE" unicode="&#xc6;" horiz-adv-x="980" 
d="M469 572l-180 -320h180v320zM935 117v-117h-466v142h-239l-80 -142h-143l389 690h539v-118h-333v-164h246v-118h-246v-173h333z" />
    <glyph glyph-name="Ccedilla" unicode="&#xc7;" horiz-adv-x="650" 
d="M370 -214q-28 0 -48.5 4t-42.5 13v59q24 -10 43 -14t39 -4q24 0 36 7.5t12 21.5t-11 21.5t-33 7.5h-49l18 94q-131 21 -212.5 116t-81.5 232q0 155 103.5 255.5t262.5 100.5q60 0 109 -12.5t85 -36.5v-125q-40 26 -88 39t-103 13q-106 0 -168.5 -63t-62.5 -170
q0 -108 62.5 -171t170.5 -63q55 0 104.5 12.5t95.5 37.5v-126q-43 -24 -92 -34.5t-115 -10.5h-10h-10l-7 -39h19q45 0 70.5 -19.5t25.5 -54.5q0 -42 -33 -66.5t-89 -24.5z" />
    <glyph glyph-name="Egrave" unicode="&#xc8;" horiz-adv-x="586" 
d="M75 690h466v-118h-333v-164h246v-118h-246v-173h333v-117h-466v690zM272 761l-124 139h138l97 -139h-111z" />
    <glyph glyph-name="Eacute" unicode="&#xc9;" horiz-adv-x="586" 
d="M75 690h466v-118h-333v-164h246v-118h-246v-173h333v-117h-466v690zM452 900l-125 -139h-111l97 139h139z" />
    <glyph glyph-name="Ecircumflex" unicode="&#xca;" horiz-adv-x="586" 
d="M75 690h466v-118h-333v-164h246v-118h-246v-173h333v-117h-466v690zM370 900l114 -139h-106l-76 82l-77 -82h-98l113 139h130z" />
    <glyph glyph-name="Edieresis" unicode="&#xcb;" horiz-adv-x="586" 
d="M75 690h466v-118h-333v-164h246v-118h-246v-173h333v-117h-466v690zM443 901v-137h-107v137h107zM263 901v-137h-107v137h107z" />
    <glyph glyph-name="Igrave" unicode="&#xcc;" horiz-adv-x="283" 
d="M75 0v690h133v-690h-133zM112 761l-124 139h138l97 -139h-111z" />
    <glyph glyph-name="Iacute" unicode="&#xcd;" horiz-adv-x="283" 
d="M75 0v690h133v-690h-133zM298 900l-125 -139h-111l97 139h139z" />
    <glyph glyph-name="Icircumflex" unicode="&#xce;" horiz-adv-x="283" 
d="M75 0v690h133v-690h-133zM206 900l114 -139h-106l-76 82l-77 -82h-98l113 139h130z" />
    <glyph glyph-name="Idieresis" unicode="&#xcf;" horiz-adv-x="283" 
d="M75 0v690h133v-690h-133zM285 901v-137h-107v137h107zM105 901v-137h-107v137h107z" />
    <glyph glyph-name="Eth" unicode="&#xd0;" horiz-adv-x="732" 
d="M340 298h-129v-181h129q100 0 158 61.5t58 167.5q0 104 -58.5 165t-157.5 61h-129v-179h129v-95zM78 0v298h-68v95h68v297h264q152 0 252 -97.5t100 -245.5q0 -152 -101 -249.5t-258 -97.5h-257z" />
    <glyph glyph-name="Ntilde" unicode="&#xd1;" horiz-adv-x="744" 
d="M669 690v-690h-125l-336 468v-468h-133v690h125l336 -476v476h133zM293 903q23 0 43 -7t50 -30q22 -16 33.5 -20.5t22.5 -4.5q19 0 29.5 16t11.5 44h79q-1 -58 -33.5 -98t-81.5 -40q-24 0 -45.5 7.5t-50.5 30.5q-19 14 -28 18t-18 4q-18 0 -30 -15.5t-13 -42.5h-79
q1 65 30 101.5t80 36.5z" />
    <glyph glyph-name="Ograve" unicode="&#xd2;" horiz-adv-x="797" 
d="M755 345q0 -154 -101.5 -254.5t-256.5 -100.5q-154 0 -255 100.5t-101 253.5q0 154 101.5 255t255.5 101q155 0 256 -100.5t101 -254.5zM179 345q0 -107 60 -170.5t160 -63.5t159 63.5t59 170.5q0 106 -59.5 169.5t-158.5 63.5q-100 0 -160 -63.5t-60 -169.5zM363 761
l-124 139h138l97 -139h-111z" />
    <glyph glyph-name="Oacute" unicode="&#xd3;" horiz-adv-x="797" 
d="M755 345q0 -154 -101.5 -254.5t-256.5 -100.5q-154 0 -255 100.5t-101 253.5q0 154 101.5 255t255.5 101q155 0 256 -100.5t101 -254.5zM179 345q0 -107 60 -170.5t160 -63.5t159 63.5t59 170.5q0 106 -59.5 169.5t-158.5 63.5q-100 0 -160 -63.5t-60 -169.5zM551 900
l-125 -139h-111l97 139h139z" />
    <glyph glyph-name="Ocircumflex" unicode="&#xd4;" horiz-adv-x="797" 
d="M755 345q0 -154 -101.5 -254.5t-256.5 -100.5q-154 0 -255 100.5t-101 253.5q0 154 101.5 255t255.5 101q155 0 256 -100.5t101 -254.5zM179 345q0 -107 60 -170.5t160 -63.5t159 63.5t59 170.5q0 106 -59.5 169.5t-158.5 63.5q-100 0 -160 -63.5t-60 -169.5zM462 900
l114 -139h-106l-76 82l-77 -82h-98l113 139h130z" />
    <glyph glyph-name="Otilde" unicode="&#xd5;" horiz-adv-x="797" 
d="M755 345q0 -154 -101.5 -254.5t-256.5 -100.5q-154 0 -255 100.5t-101 253.5q0 154 101.5 255t255.5 101q155 0 256 -100.5t101 -254.5zM179 345q0 -107 60 -170.5t160 -63.5t159 63.5t59 170.5q0 106 -59.5 169.5t-158.5 63.5q-100 0 -160 -63.5t-60 -169.5zM319 903
q23 0 43 -7t50 -30q22 -16 33.5 -20.5t22.5 -4.5q19 0 29.5 16t11.5 44h79q-1 -58 -33.5 -98t-81.5 -40q-24 0 -45.5 7.5t-50.5 30.5q-19 14 -28 18t-18 4q-18 0 -30 -15.5t-13 -42.5h-79q1 65 30 101.5t80 36.5z" />
    <glyph glyph-name="Odieresis" unicode="&#xd6;" horiz-adv-x="797" 
d="M755 345q0 -154 -101.5 -254.5t-256.5 -100.5q-154 0 -255 100.5t-101 253.5q0 154 101.5 255t255.5 101q155 0 256 -100.5t101 -254.5zM179 345q0 -107 60 -170.5t160 -63.5t159 63.5t59 170.5q0 106 -59.5 169.5t-158.5 63.5q-100 0 -160 -63.5t-60 -169.5zM541 901
v-137h-107v137h107zM361 901v-137h-107v137h107z" />
    <glyph glyph-name="multiply" unicode="&#xd7;" horiz-adv-x="575" 
d="M72 485l68 68l143 -144l147 147l68 -67l-147 -147l149 -149l-67 -68l-150 150l-145 -147l-68 68l146 146z" />
    <glyph glyph-name="Oslash" unicode="&#xd8;" horiz-adv-x="797" 
d="M397 -10q-64 0 -120.5 18.5t-100.5 52.5l-67 -67l-65 62l68 68q-34 44 -52.5 100t-18.5 120q0 154 101.5 255t255.5 101q64 0 120 -18t101 -51l68 68l66 -62l-70 -70q34 -44 53 -101t19 -121q0 -154 -101.5 -254.5t-256.5 -100.5zM179 345q0 -36 7 -68t21 -58l321 321
q-26 19 -58.5 28.5t-70.5 9.5q-100 0 -160 -63.5t-60 -169.5zM399 111q100 0 159 63.5t59 170.5q0 37 -7.5 69t-21.5 58l-322 -321q26 -20 60 -30t73 -10z" />
    <glyph glyph-name="Ugrave" unicode="&#xd9;" horiz-adv-x="718" 
d="M358 111q73 0 115 41t42 112v426h133v-428q0 -122 -79.5 -197t-210.5 -75q-130 0 -209 76.5t-79 200.5v423h133v-426q0 -71 41.5 -112t113.5 -41zM329 761l-124 139h138l97 -139h-111z" />
    <glyph glyph-name="Uacute" unicode="&#xda;" horiz-adv-x="718" 
d="M358 111q73 0 115 41t42 112v426h133v-428q0 -122 -79.5 -197t-210.5 -75q-130 0 -209 76.5t-79 200.5v423h133v-426q0 -71 41.5 -112t113.5 -41zM512 900l-125 -139h-111l97 139h139z" />
    <glyph glyph-name="Ucircumflex" unicode="&#xdb;" horiz-adv-x="718" 
d="M358 111q73 0 115 41t42 112v426h133v-428q0 -122 -79.5 -197t-210.5 -75q-130 0 -209 76.5t-79 200.5v423h133v-426q0 -71 41.5 -112t113.5 -41zM423 900l114 -139h-106l-76 82l-77 -82h-98l113 139h130z" />
    <glyph glyph-name="Udieresis" unicode="&#xdc;" horiz-adv-x="718" 
d="M358 111q73 0 115 41t42 112v426h133v-428q0 -122 -79.5 -197t-210.5 -75q-130 0 -209 76.5t-79 200.5v423h133v-426q0 -71 41.5 -112t113.5 -41zM502 901v-137h-107v137h107zM322 901v-137h-107v137h107z" />
    <glyph glyph-name="Yacute" unicode="&#xdd;" horiz-adv-x="680" 
d="M406 0h-133v277l-265 413h141l187 -296l187 296h148l-265 -413v-277zM495 900l-125 -139h-111l97 139h139z" />
    <glyph glyph-name="Thorn" unicode="&#xde;" horiz-adv-x="657" 
d="M75 0v690h133v-113h146q111 0 184 -65.5t73 -165.5t-73 -166t-184 -66h-146v-114h-133zM354 459h-146v-227h146q55 0 87 30.5t32 83.5q0 52 -32 82.5t-87 30.5z" />
    <glyph glyph-name="germandbls" unicode="&#xdf;" horiz-adv-x="604" 
d="M195 0h-125v495q0 117 61.5 181t175.5 64q101 0 162 -53t61 -136q0 -58 -25.5 -99.5t-75.5 -64.5q68 -17 103.5 -64t35.5 -122q0 -93 -62.5 -152t-154.5 -59q-26 0 -52 5t-55 15v94q17 -8 34.5 -12t39.5 -4q52 0 85.5 34t33.5 90q0 57 -36 89.5t-97 32.5v95q43 0 69.5 27
t26.5 73q0 47 -26 74.5t-72 27.5q-51 0 -79 -33t-28 -95v-503z" />
    <glyph glyph-name="agrave" unicode="&#xe0;" horiz-adv-x="581" 
d="M166 170q0 -41 28.5 -65.5t75.5 -24.5q36 0 67 18t52 50v66q-24 20 -55.5 31.5t-63.5 11.5q-49 0 -76.5 -23t-27.5 -64zM256 425q-44 0 -84 -11.5t-76 -34.5v104q35 20 83.5 31.5t100.5 11.5q114 0 174.5 -54.5t60.5 -155.5v-316h-126v77q-25 -39 -73 -63t-101 -24
q-79 0 -131 49t-52 124q0 77 53.5 126.5t137.5 49.5q47 0 88.5 -12.5t73.5 -36.5v20q0 57 -32.5 86t-96.5 29zM258 588l-124 139h138l97 -139h-111z" />
    <glyph glyph-name="aacute" unicode="&#xe1;" horiz-adv-x="581" 
d="M166 170q0 -41 28.5 -65.5t75.5 -24.5q36 0 67 18t52 50v66q-24 20 -55.5 31.5t-63.5 11.5q-49 0 -76.5 -23t-27.5 -64zM256 425q-44 0 -84 -11.5t-76 -34.5v104q35 20 83.5 31.5t100.5 11.5q114 0 174.5 -54.5t60.5 -155.5v-316h-126v77q-25 -39 -73 -63t-101 -24
q-79 0 -131 49t-52 124q0 77 53.5 126.5t137.5 49.5q47 0 88.5 -12.5t73.5 -36.5v20q0 57 -32.5 86t-96.5 29zM441 727l-125 -139h-111l97 139h139z" />
    <glyph glyph-name="acircumflex" unicode="&#xe2;" horiz-adv-x="581" 
d="M166 170q0 -41 28.5 -65.5t75.5 -24.5q36 0 67 18t52 50v66q-24 20 -55.5 31.5t-63.5 11.5q-49 0 -76.5 -23t-27.5 -64zM256 425q-44 0 -84 -11.5t-76 -34.5v104q35 20 83.5 31.5t100.5 11.5q114 0 174.5 -54.5t60.5 -155.5v-316h-126v77q-25 -39 -73 -63t-101 -24
q-79 0 -131 49t-52 124q0 77 53.5 126.5t137.5 49.5q47 0 88.5 -12.5t73.5 -36.5v20q0 57 -32.5 86t-96.5 29zM354 727l114 -139h-106l-76 82l-77 -82h-98l113 139h130z" />
    <glyph glyph-name="atilde" unicode="&#xe3;" horiz-adv-x="581" 
d="M166 170q0 -41 28.5 -65.5t75.5 -24.5q36 0 67 18t52 50v66q-24 20 -55.5 31.5t-63.5 11.5q-49 0 -76.5 -23t-27.5 -64zM256 425q-44 0 -84 -11.5t-76 -34.5v104q35 20 83.5 31.5t100.5 11.5q114 0 174.5 -54.5t60.5 -155.5v-316h-126v77q-25 -39 -73 -63t-101 -24
q-79 0 -131 49t-52 124q0 77 53.5 126.5t137.5 49.5q47 0 88.5 -12.5t73.5 -36.5v20q0 57 -32.5 86t-96.5 29zM211 730q23 0 43 -7t50 -30q22 -16 33.5 -20.5t22.5 -4.5q19 0 29.5 16t11.5 44h79q-1 -58 -33.5 -98t-81.5 -40q-24 0 -45.5 7.5t-50.5 30.5q-19 14 -28 18
t-18 4q-18 0 -30 -15.5t-13 -42.5h-79q1 65 30 101.5t80 36.5z" />
    <glyph glyph-name="adieresis" unicode="&#xe4;" horiz-adv-x="581" 
d="M166 170q0 -41 28.5 -65.5t75.5 -24.5q36 0 67 18t52 50v66q-24 20 -55.5 31.5t-63.5 11.5q-49 0 -76.5 -23t-27.5 -64zM256 425q-44 0 -84 -11.5t-76 -34.5v104q35 20 83.5 31.5t100.5 11.5q114 0 174.5 -54.5t60.5 -155.5v-316h-126v77q-25 -39 -73 -63t-101 -24
q-79 0 -131 49t-52 124q0 77 53.5 126.5t137.5 49.5q47 0 88.5 -12.5t73.5 -36.5v20q0 57 -32.5 86t-96.5 29zM433 728v-137h-107v137h107zM253 728v-137h-107v137h107z" />
    <glyph glyph-name="aring" unicode="&#xe5;" horiz-adv-x="581" 
d="M166 170q0 -41 28.5 -65.5t75.5 -24.5q36 0 67 18t52 50v66q-24 20 -55.5 31.5t-63.5 11.5q-49 0 -76.5 -23t-27.5 -64zM256 425q-44 0 -84 -11.5t-76 -34.5v104q35 20 83.5 31.5t100.5 11.5q114 0 174.5 -54.5t60.5 -155.5v-316h-126v77q-25 -39 -73 -63t-101 -24
q-79 0 -131 49t-52 124q0 77 53.5 126.5t137.5 49.5q47 0 88.5 -12.5t73.5 -36.5v20q0 57 -32.5 86t-96.5 29zM290 568q-50 0 -83 32t-33 80q0 50 32.5 81.5t83.5 31.5q50 0 82.5 -32t32.5 -81t-32.5 -80.5t-82.5 -31.5zM290 729q-21 0 -34.5 -13t-13.5 -34q0 -23 13 -36.5
t35 -13.5t35 13.5t13 36.5q0 21 -13.5 34t-34.5 13z" />
    <glyph glyph-name="ae" unicode="&#xe6;" horiz-adv-x="917" 
d="M766 303q0 55 -34 89.5t-88 34.5q-53 0 -89 -33.5t-45 -90.5h256zM844 34q-28 -20 -73.5 -32t-96.5 -12q-72 0 -132.5 28.5t-99.5 80.5q-39 -52 -94 -80.5t-115 -28.5q-90 0 -145.5 48t-55.5 125t53.5 126.5t137.5 49.5q44 0 85 -12.5t79 -37.5q1 5 1 8.5v12.5
q0 55 -35 85t-100 30q-43 0 -81.5 -11.5t-75.5 -34.5v104q36 21 83 32t98 11q65 0 108 -20.5t76 -66.5q39 45 84.5 66t101.5 21q105 0 171.5 -67.5t67.5 -172.5q0 -18 -1.5 -37t-4.5 -30h-370q9 -61 53 -94t113 -33q44 0 90.5 12.5t77.5 32.5v-103zM270 257q-49 0 -76.5 -23
t-27.5 -64t28.5 -65.5t75.5 -24.5q39 0 74 23.5t56 62.5q-4 11 -7 23t-5 25q-26 20 -57 31.5t-61 11.5z" />
    <glyph glyph-name="ccedilla" unicode="&#xe7;" horiz-adv-x="505" 
d="M315 -49q45 0 70.5 -19.5t25.5 -54.5q0 -42 -33 -66.5t-89 -24.5q-28 0 -48.5 4t-42.5 13v59q25 -10 43.5 -14t38.5 -4q24 0 36 7.5t12 21.5t-11.5 21.5t-32.5 7.5h-49l17 92q-99 16 -157.5 88t-58.5 176q0 119 75 193.5t196 74.5q50 0 88 -10t64 -31v-109q-24 19 -59 31
t-70 12q-78 0 -122.5 -43t-44.5 -118q0 -76 43.5 -119t123.5 -43q39 0 70 10t67 35v-110q-30 -20 -71 -30.5t-93 -10.5l-7 -39h19z" />
    <glyph glyph-name="egrave" unicode="&#xe8;" horiz-adv-x="571" 
d="M328 -10q-131 0 -211.5 75t-80.5 197q0 116 74 190t191 74q105 0 171.5 -67.5t67.5 -172.5q0 -18 -1.5 -37t-4.5 -30h-370q11 -60 54.5 -93.5t111.5 -33.5q44 0 90.5 12.5t77.5 32.5v-103q-28 -20 -73.5 -32t-96.5 -12zM298 427q-53 0 -89 -33t-46 -91h257q0 55 -34 89.5
t-88 34.5zM257 588l-124 139h138l97 -139h-111z" />
    <glyph glyph-name="eacute" unicode="&#xe9;" horiz-adv-x="571" 
d="M328 -10q-131 0 -211.5 75t-80.5 197q0 116 74 190t191 74q105 0 171.5 -67.5t67.5 -172.5q0 -18 -1.5 -37t-4.5 -30h-370q11 -60 54.5 -93.5t111.5 -33.5q44 0 90.5 12.5t77.5 32.5v-103q-28 -20 -73.5 -32t-96.5 -12zM298 427q-53 0 -89 -33t-46 -91h257q0 55 -34 89.5
t-88 34.5zM443 727l-125 -139h-111l97 139h139z" />
    <glyph glyph-name="ecircumflex" unicode="&#xea;" horiz-adv-x="571" 
d="M328 -10q-131 0 -211.5 75t-80.5 197q0 116 74 190t191 74q105 0 171.5 -67.5t67.5 -172.5q0 -18 -1.5 -37t-4.5 -30h-370q11 -60 54.5 -93.5t111.5 -33.5q44 0 90.5 12.5t77.5 32.5v-103q-28 -20 -73.5 -32t-96.5 -12zM298 427q-53 0 -89 -33t-46 -91h257q0 55 -34 89.5
t-88 34.5zM349 727l114 -139h-106l-76 82l-77 -82h-98l113 139h130z" />
    <glyph glyph-name="edieresis" unicode="&#xeb;" horiz-adv-x="571" 
d="M328 -10q-131 0 -211.5 75t-80.5 197q0 116 74 190t191 74q105 0 171.5 -67.5t67.5 -172.5q0 -18 -1.5 -37t-4.5 -30h-370q11 -60 54.5 -93.5t111.5 -33.5q44 0 90.5 12.5t77.5 32.5v-103q-28 -20 -73.5 -32t-96.5 -12zM298 427q-53 0 -89 -33t-46 -91h257q0 55 -34 89.5
t-88 34.5zM428 728v-137h-107v137h107zM248 728v-137h-107v137h107z" />
    <glyph glyph-name="igrave" unicode="&#xec;" horiz-adv-x="265" 
d="M70 0v516h125v-516h-125zM103 588l-124 139h138l97 -139h-111z" />
    <glyph glyph-name="iacute" unicode="&#xed;" horiz-adv-x="265" 
d="M70 0v516h125v-516h-125zM300 727l-125 -139h-111l97 139h139z" />
    <glyph glyph-name="icircumflex" unicode="&#xee;" horiz-adv-x="265" 
d="M70 0v516h125v-516h-125zM197 727l114 -139h-106l-76 82l-77 -82h-98l113 139h130z" />
    <glyph glyph-name="idieresis" unicode="&#xef;" horiz-adv-x="265" 
d="M70 0v516h125v-516h-125zM276 728v-137h-107v137h107zM96 728v-137h-107v137h107z" />
    <glyph glyph-name="eth" unicode="&#xf0;" horiz-adv-x="614" 
d="M307 -10q-117 0 -193.5 73.5t-76.5 185.5q0 113 68 186.5t173 73.5q47 0 85.5 -14t64.5 -41q-15 37 -39 73.5t-55 70.5l-70 -44l-35 48l61 38q-26 23 -54 43t-58 36l108 21q22 -11 42.5 -23.5t39.5 -26.5l65 41l35 -48l-52 -33q74 -68 117 -158.5t43 -187.5
q0 -143 -73.5 -228.5t-195.5 -85.5zM307 97q66 0 104 42t38 114t-38.5 115t-103.5 43q-66 0 -104.5 -43.5t-38.5 -118.5q0 -69 39 -110.5t104 -41.5z" />
    <glyph glyph-name="ntilde" unicode="&#xf1;" horiz-adv-x="621" 
d="M70 0v516h118v-91q27 47 75 74t107 27q91 0 138.5 -50.5t47.5 -146.5v-329h-125v315q0 50 -27 76t-78 26q-40 0 -75.5 -21.5t-55.5 -56.5v-339h-125zM231 730q23 0 43 -7t50 -30q22 -16 33.5 -20.5t22.5 -4.5q19 0 29.5 16t11.5 44h79q-1 -58 -33.5 -98t-81.5 -40
q-24 0 -45.5 7.5t-50.5 30.5q-19 14 -28 18t-18 4q-18 0 -30 -15.5t-13 -42.5h-79q1 65 30 101.5t80 36.5z" />
    <glyph glyph-name="ograve" unicode="&#xf2;" horiz-adv-x="623" 
d="M36 258q0 116 78 192t197 76t197.5 -76t78.5 -192t-78.5 -192t-197.5 -76t-197 76t-78 192zM163 258q0 -74 40.5 -118.5t107.5 -44.5q68 0 108.5 44.5t40.5 118.5t-40.5 118.5t-108.5 44.5q-67 0 -107.5 -44.5t-40.5 -118.5zM278 588l-124 139h138l97 -139h-111z" />
    <glyph glyph-name="oacute" unicode="&#xf3;" horiz-adv-x="623" 
d="M36 258q0 116 78 192t197 76t197.5 -76t78.5 -192t-78.5 -192t-197.5 -76t-197 76t-78 192zM163 258q0 -74 40.5 -118.5t107.5 -44.5q68 0 108.5 44.5t40.5 118.5t-40.5 118.5t-108.5 44.5q-67 0 -107.5 -44.5t-40.5 -118.5zM462 727l-125 -139h-111l97 139h139z" />
    <glyph glyph-name="ocircumflex" unicode="&#xf4;" horiz-adv-x="623" 
d="M36 258q0 116 78 192t197 76t197.5 -76t78.5 -192t-78.5 -192t-197.5 -76t-197 76t-78 192zM163 258q0 -74 40.5 -118.5t107.5 -44.5q68 0 108.5 44.5t40.5 118.5t-40.5 118.5t-108.5 44.5q-67 0 -107.5 -44.5t-40.5 -118.5zM375 727l114 -139h-106l-76 82l-77 -82h-98
l113 139h130z" />
    <glyph glyph-name="otilde" unicode="&#xf5;" horiz-adv-x="623" 
d="M36 258q0 116 78 192t197 76t197.5 -76t78.5 -192t-78.5 -192t-197.5 -76t-197 76t-78 192zM163 258q0 -74 40.5 -118.5t107.5 -44.5q68 0 108.5 44.5t40.5 118.5t-40.5 118.5t-108.5 44.5q-67 0 -107.5 -44.5t-40.5 -118.5zM232 730q23 0 43 -7t50 -30
q22 -16 33.5 -20.5t22.5 -4.5q19 0 29.5 16t11.5 44h79q-1 -58 -33.5 -98t-81.5 -40q-24 0 -45.5 7.5t-50.5 30.5q-19 14 -28 18t-18 4q-18 0 -30 -15.5t-13 -42.5h-79q1 65 30 101.5t80 36.5z" />
    <glyph glyph-name="odieresis" unicode="&#xf6;" horiz-adv-x="623" 
d="M36 258q0 116 78 192t197 76t197.5 -76t78.5 -192t-78.5 -192t-197.5 -76t-197 76t-78 192zM163 258q0 -74 40.5 -118.5t107.5 -44.5q68 0 108.5 44.5t40.5 118.5t-40.5 118.5t-108.5 44.5q-67 0 -107.5 -44.5t-40.5 -118.5zM454 728v-137h-107v137h107zM274 728v-137
h-107v137h107z" />
    <glyph glyph-name="divide" unicode="&#xf7;" horiz-adv-x="575" 
d="M347 466h-121v127h121v-127zM532 296h-490v95h490v-95zM347 93h-121v127h121v-127z" />
    <glyph glyph-name="oslash" unicode="&#xf8;" horiz-adv-x="623" 
d="M311 -10q-48 0 -90.5 13t-75.5 37l-52 -50l-56 54l52 50q-25 33 -39 75t-14 89q0 116 78 192t197 76q49 0 92 -13.5t77 -38.5l53 52l56 -55l-53 -52q24 -32 37.5 -73.5t13.5 -87.5q0 -116 -78.5 -192t-197.5 -76zM163 258q0 -22 3.5 -41.5t10.5 -36.5l222 215
q-18 13 -40 19.5t-48 6.5q-67 0 -107.5 -44.5t-40.5 -118.5zM311 95q68 0 108.5 44.5t40.5 118.5q0 21 -3.5 40t-9.5 35l-221 -214q18 -11 39 -17.5t46 -6.5z" />
    <glyph glyph-name="ugrave" unicode="&#xf9;" horiz-adv-x="609" 
d="M539 516v-516h-118v91q-28 -49 -72.5 -75t-100.5 -26q-89 0 -136 50t-47 144v332h125v-316q0 -50 25 -76t73 -26q38 0 71 21t54 58v339h126zM279 588l-124 139h138l97 -139h-111z" />
    <glyph glyph-name="uacute" unicode="&#xfa;" horiz-adv-x="609" 
d="M539 516v-516h-118v91q-28 -49 -72.5 -75t-100.5 -26q-89 0 -136 50t-47 144v332h125v-316q0 -50 25 -76t73 -26q38 0 71 21t54 58v339h126zM457 727l-125 -139h-111l97 139h139z" />
    <glyph glyph-name="ucircumflex" unicode="&#xfb;" horiz-adv-x="609" 
d="M539 516v-516h-118v91q-28 -49 -72.5 -75t-100.5 -26q-89 0 -136 50t-47 144v332h125v-316q0 -50 25 -76t73 -26q38 0 71 21t54 58v339h126zM368 727l114 -139h-106l-76 82l-77 -82h-98l113 139h130z" />
    <glyph glyph-name="udieresis" unicode="&#xfc;" horiz-adv-x="609" 
d="M539 516v-516h-118v91q-28 -49 -72.5 -75t-100.5 -26q-89 0 -136 50t-47 144v332h125v-316q0 -50 25 -76t73 -26q38 0 71 21t54 58v339h126zM447 728v-137h-107v137h107zM267 728v-137h-107v137h107z" />
    <glyph glyph-name="yacute" unicode="&#xfd;" horiz-adv-x="578" 
d="M370 46q-59 -139 -121 -198.5t-147 -59.5q-14 0 -27 2t-22 6v103q9 -2 19.5 -3.5t21.5 -1.5q43 0 78 26t63 78l-226 518h127l158 -379l150 379h125zM448 727l-125 -139h-111l97 139h139z" />
    <glyph glyph-name="thorn" unicode="&#xfe;" horiz-adv-x="646" 
d="M335 97q69 0 108 43.5t39 120.5q0 74 -39 116t-108 42q-42 0 -79.5 -23t-60.5 -64v-159q26 -37 62.5 -56.5t77.5 -19.5zM609 260q0 -117 -69.5 -193.5t-175.5 -76.5q-51 0 -97 23t-72 63v-276h-125v919l125 21v-302q29 42 72.5 65t96.5 23q108 0 176.5 -74t68.5 -192z
" />
    <glyph glyph-name="ydieresis" unicode="&#xff;" horiz-adv-x="578" 
d="M370 46q-59 -139 -121 -198.5t-147 -59.5q-14 0 -27 2t-22 6v103q9 -2 19.5 -3.5t21.5 -1.5q43 0 78 26t63 78l-226 518h127l158 -379l150 379h125zM432 728v-137h-107v137h107zM252 728v-137h-107v137h107z" />
    <glyph glyph-name="Amacron" unicode="&#x100;" horiz-adv-x="720" 
d="M356 554l-115 -303h230zM8 0l272 690h159l272 -690h-144l-54 141h-314l-54 -141h-137zM514 879v-97h-309v97h309z" />
    <glyph glyph-name="amacron" unicode="&#x101;" horiz-adv-x="581" 
d="M166 170q0 -41 28.5 -65.5t75.5 -24.5q36 0 67 18t52 50v66q-24 20 -55.5 31.5t-63.5 11.5q-49 0 -76.5 -23t-27.5 -64zM256 425q-44 0 -84 -11.5t-76 -34.5v104q35 20 83.5 31.5t100.5 11.5q114 0 174.5 -54.5t60.5 -155.5v-316h-126v77q-25 -39 -73 -63t-101 -24
q-79 0 -131 49t-52 124q0 77 53.5 126.5t137.5 49.5q47 0 88.5 -12.5t73.5 -36.5v20q0 57 -32.5 86t-96.5 29zM444 706v-97h-309v97h309z" />
    <glyph glyph-name="Abreve" unicode="&#x102;" horiz-adv-x="720" 
d="M356 554l-115 -303h230zM8 0l272 690h159l272 -690h-144l-54 141h-314l-54 -141h-137zM266 899q11 -34 32.5 -49.5t54.5 -15.5q34 0 54.5 15.5t32.5 49.5h81q-8 -65 -53 -103.5t-115 -38.5t-114.5 38t-53.5 104h81z" />
    <glyph glyph-name="abreve" unicode="&#x103;" horiz-adv-x="581" 
d="M166 170q0 -41 28.5 -65.5t75.5 -24.5q36 0 67 18t52 50v66q-24 20 -55.5 31.5t-63.5 11.5q-49 0 -76.5 -23t-27.5 -64zM256 425q-44 0 -84 -11.5t-76 -34.5v104q35 20 83.5 31.5t100.5 11.5q114 0 174.5 -54.5t60.5 -155.5v-316h-126v77q-25 -39 -73 -63t-101 -24
q-79 0 -131 49t-52 124q0 77 53.5 126.5t137.5 49.5q47 0 88.5 -12.5t73.5 -36.5v20q0 57 -32.5 86t-96.5 29zM196 726q11 -34 32.5 -49.5t54.5 -15.5q34 0 54.5 15.5t32.5 49.5h81q-8 -65 -53 -103.5t-115 -38.5t-114.5 38t-53.5 104h81z" />
    <glyph glyph-name="Aogonek" unicode="&#x104;" horiz-adv-x="720" 
d="M592 -144q19 0 40.5 8t39.5 21v-73q-26 -15 -49.5 -21t-52.5 -6q-57 0 -93.5 27t-36.5 70q0 36 30 70.5t90 66.5l-47 122h-314l-54 -141h-137l272 690h159l272 -690h-92q-47 -30 -67 -52.5t-20 -44.5t16 -34.5t44 -12.5zM241 251h230l-115 303z" />
    <glyph glyph-name="aogonek" unicode="&#x105;" horiz-adv-x="581" 
d="M437 -144q19 0 40 8t39 21v-73q-26 -15 -49.5 -21t-51.5 -6q-56 0 -92.5 27t-36.5 70q0 33 25 64t78 62v69q-25 -39 -73 -63t-101 -24q-79 0 -131 49t-52 124q0 77 53.5 126.5t137.5 49.5q47 0 88.5 -12.5t73.5 -36.5v20q0 57 -32.5 86t-96.5 29q-44 0 -84 -11.5
t-76 -34.5v104q35 20 83.5 31.5t100.5 11.5q114 0 174.5 -54.5t60.5 -155.5v-316h-65q-38 -28 -55 -51t-17 -46q0 -22 16 -34.5t43 -12.5zM166 170q0 -41 28.5 -65.5t75.5 -24.5q36 0 67 18t52 50v66q-24 20 -55.5 31.5t-63.5 11.5q-49 0 -76.5 -23t-27.5 -64z" />
    <glyph glyph-name="Cacute" unicode="&#x106;" horiz-adv-x="650" 
d="M178 345q0 -108 62.5 -171t170.5 -63q55 0 104.5 12.5t95.5 37.5v-126q-43 -24 -92 -34.5t-115 -10.5q-159 0 -261.5 99.5t-102.5 254.5t103.5 255.5t262.5 100.5q60 0 109 -12.5t85 -36.5v-125q-40 26 -88 39t-103 13q-106 0 -168.5 -63t-62.5 -170zM518 900l-125 -139
h-111l97 139h139z" />
    <glyph glyph-name="cacute" unicode="&#x107;" horiz-adv-x="505" 
d="M459 376q-24 19 -59 31t-70 12q-78 0 -122.5 -43t-44.5 -118q0 -76 43.5 -119t123.5 -43q39 0 70 10t67 35v-110q-30 -20 -70.5 -30.5t-90.5 -10.5q-121 0 -195.5 74.5t-74.5 193.5t75 193.5t196 74.5q50 0 88 -10t64 -31v-109zM438 727l-125 -139h-111l97 139h139z" />
    <glyph glyph-name="Ccircumflex" unicode="&#x108;" horiz-adv-x="650" 
d="M178 345q0 -108 62.5 -171t170.5 -63q55 0 104.5 12.5t95.5 37.5v-126q-43 -24 -92 -34.5t-115 -10.5q-159 0 -261.5 99.5t-102.5 254.5t103.5 255.5t262.5 100.5q60 0 109 -12.5t85 -36.5v-125q-40 26 -88 39t-103 13q-106 0 -168.5 -63t-62.5 -170zM427 900l114 -139
h-106l-76 82l-77 -82h-98l113 139h130z" />
    <glyph glyph-name="ccircumflex" unicode="&#x109;" horiz-adv-x="505" 
d="M459 376q-24 19 -59 31t-70 12q-78 0 -122.5 -43t-44.5 -118q0 -76 43.5 -119t123.5 -43q39 0 70 10t67 35v-110q-30 -20 -70.5 -30.5t-90.5 -10.5q-121 0 -195.5 74.5t-74.5 193.5t75 193.5t196 74.5q50 0 88 -10t64 -31v-109zM339 727l114 -139h-106l-76 82l-77 -82
h-98l113 139h130z" />
    <glyph glyph-name="Cdotaccent" unicode="&#x10a;" horiz-adv-x="650" 
d="M178 345q0 -108 62.5 -171t170.5 -63q55 0 104.5 12.5t95.5 37.5v-126q-43 -24 -92 -34.5t-115 -10.5q-159 0 -261.5 99.5t-102.5 254.5t103.5 255.5t262.5 100.5q60 0 109 -12.5t85 -36.5v-125q-40 26 -88 39t-103 13q-106 0 -168.5 -63t-62.5 -170zM315 764v137h125
v-137h-125z" />
    <glyph glyph-name="cdotaccent" unicode="&#x10b;" horiz-adv-x="505" 
d="M459 376q-24 19 -59 31t-70 12q-78 0 -122.5 -43t-44.5 -118q0 -76 43.5 -119t123.5 -43q39 0 70 10t67 35v-110q-30 -20 -70.5 -30.5t-90.5 -10.5q-121 0 -195.5 74.5t-74.5 193.5t75 193.5t196 74.5q50 0 88 -10t64 -31v-109zM208 591v137h125v-137h-125z" />
    <glyph glyph-name="Ccaron" unicode="&#x10c;" horiz-adv-x="650" 
d="M178 345q0 -108 62.5 -171t170.5 -63q55 0 104.5 12.5t95.5 37.5v-126q-43 -24 -92 -34.5t-115 -10.5q-159 0 -261.5 99.5t-102.5 254.5t103.5 255.5t262.5 100.5q60 0 109 -12.5t85 -36.5v-125q-40 26 -88 39t-103 13q-106 0 -168.5 -63t-62.5 -170zM541 900l-114 -139
h-130l-113 139h98l77 -80l76 80h106z" />
    <glyph glyph-name="ccaron" unicode="&#x10d;" horiz-adv-x="505" 
d="M459 376q-24 19 -59 31t-70 12q-78 0 -122.5 -43t-44.5 -118q0 -76 43.5 -119t123.5 -43q39 0 70 10t67 35v-110q-30 -20 -70.5 -30.5t-90.5 -10.5q-121 0 -195.5 74.5t-74.5 193.5t75 193.5t196 74.5q50 0 88 -10t64 -31v-109zM454 727l-114 -139h-130l-113 139h98
l77 -80l76 80h106z" />
    <glyph glyph-name="Dcaron" unicode="&#x10e;" horiz-adv-x="728" 
d="M75 0v690h263q152 0 252.5 -97.5t100.5 -245.5q0 -152 -101.5 -249.5t-258.5 -97.5h-256zM336 572h-128v-455h128q100 0 158 61t58 168q0 104 -58 165t-158 61zM539 900l-114 -139h-130l-113 139h98l77 -80l76 80h106z" />
    <glyph glyph-name="dcaron" unicode="&#x10f;" horiz-adv-x="759" 
d="M310 97q41 0 77.5 22t62.5 62v158q-23 37 -60.5 58.5t-79.5 21.5q-69 0 -108 -42t-39 -116q0 -77 39 -120.5t108 -43.5zM576 0h-126v84q-24 -44 -69 -69t-100 -25q-106 0 -175.5 76.5t-69.5 193.5q0 118 68.5 192t176.5 74q54 0 97.5 -20.5t71.5 -58.5v272l126 21v-740z
M693 585h-52v125h122v-70q0 -60 -22.5 -102t-69.5 -72l-31 24q22 18 35 41.5t18 53.5z" />
    <glyph glyph-name="Dcroat" unicode="&#x110;" horiz-adv-x="732" 
d="M340 298h-129v-181h129q100 0 158 61.5t58 167.5q0 104 -58.5 165t-157.5 61h-129v-179h129v-95zM78 0v298h-68v95h68v297h264q152 0 252 -97.5t100 -245.5q0 -152 -101 -249.5t-258 -97.5h-257z" />
    <glyph glyph-name="dcroat" unicode="&#x111;" horiz-adv-x="646" 
d="M310 97q41 0 77.5 22t62.5 62v158q-23 37 -60.5 58.5t-79.5 21.5q-69 0 -108 -42t-39 -116q0 -77 39 -120.5t108 -43.5zM450 84q-24 -44 -69 -69t-100 -25q-106 0 -175.5 76.5t-69.5 193.5q0 118 68.5 192t176.5 74q54 0 97.5 -20.5t71.5 -58.5v138h-202v71h202v63
l126 21v-84h60v-71h-60v-585h-126v84z" />
    <glyph glyph-name="Emacron" unicode="&#x112;" horiz-adv-x="586" 
d="M75 690h466v-118h-333v-164h246v-118h-246v-173h333v-117h-466v690zM454 879v-97h-309v97h309z" />
    <glyph glyph-name="emacron" unicode="&#x113;" horiz-adv-x="571" 
d="M328 -10q-131 0 -211.5 75t-80.5 197q0 116 74 190t191 74q105 0 171.5 -67.5t67.5 -172.5q0 -18 -1.5 -37t-4.5 -30h-370q11 -60 54.5 -93.5t111.5 -33.5q44 0 90.5 12.5t77.5 32.5v-103q-28 -20 -73.5 -32t-96.5 -12zM298 427q-53 0 -89 -33t-46 -91h257q0 55 -34 89.5
t-88 34.5zM452 706v-97h-309v97h309z" />
    <glyph glyph-name="Ebreve" unicode="&#x114;" horiz-adv-x="586" 
d="M75 690h466v-118h-333v-164h246v-118h-246v-173h333v-117h-466v690zM217 899q11 -34 32.5 -49.5t54.5 -15.5q34 0 54.5 15.5t32.5 49.5h81q-8 -65 -53 -103.5t-115 -38.5t-114.5 38t-53.5 104h81z" />
    <glyph glyph-name="ebreve" unicode="&#x115;" horiz-adv-x="571" 
d="M328 -10q-131 0 -211.5 75t-80.5 197q0 116 74 190t191 74q105 0 171.5 -67.5t67.5 -172.5q0 -18 -1.5 -37t-4.5 -30h-370q11 -60 54.5 -93.5t111.5 -33.5q44 0 90.5 12.5t77.5 32.5v-103q-28 -20 -73.5 -32t-96.5 -12zM298 427q-53 0 -89 -33t-46 -91h257q0 55 -34 89.5
t-88 34.5zM201 726q11 -34 32.5 -49.5t54.5 -15.5q34 0 54.5 15.5t32.5 49.5h81q-8 -65 -53 -103.5t-115 -38.5t-114.5 38t-53.5 104h81z" />
    <glyph glyph-name="Edotaccent" unicode="&#x116;" horiz-adv-x="586" 
d="M75 690h466v-118h-333v-164h246v-118h-246v-173h333v-117h-466v690zM239 764v137h125v-137h-125z" />
    <glyph glyph-name="edotaccent" unicode="&#x117;" horiz-adv-x="571" 
d="M328 -10q-131 0 -211.5 75t-80.5 197q0 116 74 190t191 74q105 0 171.5 -67.5t67.5 -172.5q0 -18 -1.5 -37t-4.5 -30h-370q11 -60 54.5 -93.5t111.5 -33.5q44 0 90.5 12.5t77.5 32.5v-103q-28 -20 -73.5 -32t-96.5 -12zM298 427q-53 0 -89 -33t-46 -91h257q0 55 -34 89.5
t-88 34.5zM231 591v137h125v-137h-125z" />
    <glyph glyph-name="Eogonek" unicode="&#x118;" horiz-adv-x="586" 
d="M452 -144q19 0 41 8t39 21v-73q-26 -15 -49.5 -21t-52.5 -6q-56 0 -92.5 27t-36.5 70q0 31 22.5 60t68.5 58h-317v690h466v-118h-333v-164h246v-118h-246v-173h333v-117h-70q-42 -29 -60 -51.5t-18 -45.5q0 -22 16 -34.5t43 -12.5z" />
    <glyph glyph-name="eogonek" unicode="&#x119;" horiz-adv-x="571" 
d="M369 -144q19 0 41 8t39 21v-73q-26 -15 -49.5 -21t-52.5 -6q-56 0 -92.5 27t-36.5 70q0 28 18.5 55t56.5 55q-117 10 -187 83.5t-70 186.5q0 116 74 190t191 74q105 0 171.5 -67.5t67.5 -172.5q0 -18 -1.5 -37t-4.5 -30h-370q12 -61 55.5 -94t110.5 -33q44 0 90.5 12.5
t77.5 32.5v-103q-22 -16 -54.5 -26.5t-70.5 -14.5q-33 -26 -48 -47.5t-15 -42.5q0 -22 16 -34.5t43 -12.5zM420 303q0 55 -34 89.5t-88 34.5q-52 0 -88.5 -33t-46.5 -91h257z" />
    <glyph glyph-name="Ecaron" unicode="&#x11a;" horiz-adv-x="586" 
d="M75 690h466v-118h-333v-164h246v-118h-246v-173h333v-117h-466v690zM477 900l-114 -139h-130l-113 139h98l77 -80l76 80h106z" />
    <glyph glyph-name="ecaron" unicode="&#x11b;" horiz-adv-x="571" 
d="M328 -10q-131 0 -211.5 75t-80.5 197q0 116 74 190t191 74q105 0 171.5 -67.5t67.5 -172.5q0 -18 -1.5 -37t-4.5 -30h-370q11 -60 54.5 -93.5t111.5 -33.5q44 0 90.5 12.5t77.5 32.5v-103q-28 -20 -73.5 -32t-96.5 -12zM298 427q-53 0 -89 -33t-46 -91h257q0 55 -34 89.5
t-88 34.5zM472 727l-114 -139h-130l-113 139h98l77 -80l76 80h106z" />
    <glyph glyph-name="Gcircumflex" unicode="&#x11c;" horiz-adv-x="731" 
d="M409 379h270v-300q-46 -41 -121 -65t-151 -24q-162 0 -264.5 98.5t-102.5 254.5t103.5 256.5t262.5 100.5q58 0 108.5 -10t85.5 -29v-127q-40 22 -88.5 33t-102.5 11q-107 0 -169 -62.5t-62 -170.5t64 -171t174 -63q42 0 78 10t60 28v120h-145v110zM442 900l114 -139
h-106l-76 82l-77 -82h-98l113 139h130z" />
    <glyph glyph-name="gcircumflex" unicode="&#x11d;" horiz-adv-x="646" 
d="M310 97q41 0 77 21.5t63 61.5v160q-23 37 -60.5 58t-79.5 21q-69 0 -108 -42t-39 -116q0 -77 39 -120.5t108 -43.5zM298 -107q73 0 112.5 35.5t39.5 100.5v55q-25 -45 -69.5 -69.5t-100.5 -24.5q-108 0 -176 74.5t-68 195.5q0 118 68.5 192t176.5 74q53 0 97 -21t72 -59
v70h126v-469q0 -121 -71.5 -190t-196.5 -69q-33 0 -63.5 5.5t-51.5 15.5v104q24 -10 51.5 -15t53.5 -5zM384 727l114 -139h-106l-76 82l-77 -82h-98l113 139h130z" />
    <glyph glyph-name="Gbreve" unicode="&#x11e;" horiz-adv-x="731" 
d="M409 379h270v-300q-46 -41 -121 -65t-151 -24q-162 0 -264.5 98.5t-102.5 254.5t103.5 256.5t262.5 100.5q58 0 108.5 -10t85.5 -29v-127q-40 22 -88.5 33t-102.5 11q-107 0 -169 -62.5t-62 -170.5t64 -171t174 -63q42 0 78 10t60 28v120h-145v110zM296 899
q11 -34 32.5 -49.5t54.5 -15.5q34 0 54.5 15.5t32.5 49.5h81q-8 -65 -53 -103.5t-115 -38.5t-114.5 38t-53.5 104h81z" />
    <glyph glyph-name="gbreve" unicode="&#x11f;" horiz-adv-x="646" 
d="M310 97q41 0 77 21.5t63 61.5v160q-23 37 -60.5 58t-79.5 21q-69 0 -108 -42t-39 -116q0 -77 39 -120.5t108 -43.5zM298 -107q73 0 112.5 35.5t39.5 100.5v55q-25 -45 -69.5 -69.5t-100.5 -24.5q-108 0 -176 74.5t-68 195.5q0 118 68.5 192t176.5 74q53 0 97 -21t72 -59
v70h126v-469q0 -121 -71.5 -190t-196.5 -69q-33 0 -63.5 5.5t-51.5 15.5v104q24 -10 51.5 -15t53.5 -5zM228 726q11 -34 32.5 -49.5t54.5 -15.5q34 0 54.5 15.5t32.5 49.5h81q-8 -65 -53 -103.5t-115 -38.5t-114.5 38t-53.5 104h81z" />
    <glyph glyph-name="Gdotaccent" unicode="&#x120;" horiz-adv-x="731" 
d="M409 379h270v-300q-46 -41 -121 -65t-151 -24q-162 0 -264.5 98.5t-102.5 254.5t103.5 256.5t262.5 100.5q58 0 108.5 -10t85.5 -29v-127q-40 22 -88.5 33t-102.5 11q-107 0 -169 -62.5t-62 -170.5t64 -171t174 -63q42 0 78 10t60 28v120h-145v110zM304 764v137h125v-137
h-125z" />
    <glyph glyph-name="gdotaccent" unicode="&#x121;" horiz-adv-x="646" 
d="M310 97q41 0 77 21.5t63 61.5v160q-23 37 -60.5 58t-79.5 21q-69 0 -108 -42t-39 -116q0 -77 39 -120.5t108 -43.5zM298 -107q73 0 112.5 35.5t39.5 100.5v55q-25 -45 -69.5 -69.5t-100.5 -24.5q-108 0 -176 74.5t-68 195.5q0 118 68.5 192t176.5 74q53 0 97 -21t72 -59
v70h126v-469q0 -121 -71.5 -190t-196.5 -69q-33 0 -63.5 5.5t-51.5 15.5v104q24 -10 51.5 -15t53.5 -5zM257 591v137h125v-137h-125z" />
    <glyph glyph-name="Gcommaaccent" unicode="&#x122;" horiz-adv-x="731" 
d="M409 379h270v-300q-46 -41 -121 -65t-151 -24q-162 0 -264.5 98.5t-102.5 254.5t103.5 256.5t262.5 100.5q58 0 108.5 -10t85.5 -29v-127q-40 22 -88.5 33t-102.5 11q-107 0 -169 -62.5t-62 -170.5t64 -171t174 -63q42 0 78 10t60 28v120h-145v110zM378 -191h-52v125h123
v-69q0 -54 -22.5 -91.5t-69.5 -63.5l-31 24q22 14 35 33t17 42z" />
    <glyph glyph-name="gcommaaccent" unicode="&#x123;" horiz-adv-x="646" 
d="M310 97q41 0 77 21.5t63 61.5v160q-23 37 -60.5 58t-79.5 21q-69 0 -108 -42t-39 -116q0 -77 39 -120.5t108 -43.5zM298 -107q73 0 112.5 35.5t39.5 100.5v55q-25 -45 -69.5 -69.5t-100.5 -24.5q-108 0 -176 74.5t-68 195.5q0 118 68.5 192t176.5 74q53 0 97 -21t72 -59
v70h126v-469q0 -121 -71.5 -190t-196.5 -69q-33 0 -63.5 5.5t-51.5 15.5v104q24 -10 51.5 -15t53.5 -5zM328 709h52v-122h-123v67q0 54 22.5 92.5t69.5 65.5l31 -24q-21 -14 -34.5 -34t-17.5 -45z" />
    <glyph glyph-name="Hcircumflex" unicode="&#x124;" horiz-adv-x="752" 
d="M75 0v690h133v-294h336v294h133v-690h-133v278h-336v-278h-133zM440 900l114 -139h-106l-76 82l-77 -82h-98l113 139h130z" />
    <glyph glyph-name="hcircumflex" unicode="&#x125;" horiz-adv-x="621" 
d="M344 911l114 -140h-106l-76 82l-78 -82h-97l113 140h130zM70 0v719l125 21v-308q27 44 73.5 69t101.5 25q91 0 138.5 -50.5t47.5 -146.5v-329h-125v315q0 50 -27 76t-78 26q-39 0 -74.5 -21t-56.5 -56v-340h-125z" />
    <glyph glyph-name="Hbar" unicode="&#x126;" horiz-adv-x="752" 
d="M544 476h-336v-99h336v99zM75 0v476h-60v99h60v115h133v-115h336v115h133v-115h60v-99h-60v-476h-133v278h-336v-278h-133z" />
    <glyph glyph-name="hbar" unicode="&#x127;" horiz-adv-x="621" 
d="M195 0h-125v585h-53v71h53v63l125 21v-84h209v-71h-209v-153q27 44 73.5 69t101.5 25q91 0 138.5 -50.5t47.5 -146.5v-329h-125v315q0 50 -27 76t-78 26q-39 0 -74.5 -21t-56.5 -56v-340z" />
    <glyph glyph-name="Itilde" unicode="&#x128;" horiz-adv-x="283" 
d="M75 0v690h133v-690h-133zM63 903q23 0 43 -7t50 -30q22 -16 33.5 -20.5t22.5 -4.5q19 0 29.5 16t11.5 44h79q-1 -58 -33.5 -98t-81.5 -40q-24 0 -45.5 7.5t-50.5 30.5q-19 14 -28 18t-18 4q-18 0 -30 -15.5t-13 -42.5h-79q1 65 30 101.5t80 36.5z" />
    <glyph glyph-name="itilde" unicode="&#x129;" horiz-adv-x="265" 
d="M70 0v516h125v-516h-125zM54 730q23 0 43 -7t50 -30q22 -16 33.5 -20.5t22.5 -4.5q19 0 29.5 16t11.5 44h79q-1 -58 -33.5 -98t-81.5 -40q-24 0 -45.5 7.5t-50.5 30.5q-19 14 -28 18t-18 4q-18 0 -30 -15.5t-13 -42.5h-79q1 65 30 101.5t80 36.5z" />
    <glyph glyph-name="Imacron" unicode="&#x12a;" horiz-adv-x="283" 
d="M75 0v690h133v-690h-133zM296 879v-97h-309v97h309z" />
    <glyph glyph-name="imacron" unicode="&#x12b;" horiz-adv-x="265" 
d="M70 0v516h125v-516h-125zM287 706v-97h-309v97h309z" />
    <glyph glyph-name="Ibreve" unicode="&#x12c;" horiz-adv-x="283" 
d="M75 0v690h133v-690h-133zM48 899q11 -34 32.5 -49.5t54.5 -15.5q34 0 54.5 15.5t32.5 49.5h81q-8 -65 -53 -103.5t-115 -38.5t-114.5 38t-53.5 104h81z" />
    <glyph glyph-name="ibreve" unicode="&#x12d;" horiz-adv-x="265" 
d="M70 0v516h125v-516h-125zM39 726q11 -34 32.5 -49.5t54.5 -15.5q34 0 54.5 15.5t32.5 49.5h81q-8 -65 -53 -103.5t-115 -38.5t-114.5 38t-53.5 104h81z" />
    <glyph glyph-name="Iogonek" unicode="&#x12e;" horiz-adv-x="283" 
d="M119 -144q19 0 40.5 8t39.5 21v-73q-26 -15 -49.5 -21t-52.5 -6q-56 0 -92.5 27t-36.5 70q0 35 27.5 69t79.5 64v675h133v-690h-70q-41 -28 -59.5 -51t-18.5 -46q0 -22 15.5 -34.5t43.5 -12.5z" />
    <glyph glyph-name="iogonek" unicode="&#x12f;" horiz-adv-x="265" 
d="M70 591v137h125v-137h-125zM120 -144q19 0 40 8t38 21v-73q-25 -14 -48.5 -20.5t-51.5 -6.5q-55 0 -90.5 26.5t-35.5 69.5q0 35 25.5 68t72.5 62v505h125v-516h-62q-36 -27 -52.5 -50.5t-16.5 -47.5q0 -22 15 -34t41 -12z" />
    <glyph glyph-name="Idotaccent" unicode="&#x130;" horiz-adv-x="283" 
d="M75 0v690h133v-690h-133zM79 764v137h125v-137h-125z" />
    <glyph glyph-name="dotlessi" unicode="&#x131;" horiz-adv-x="265" 
d="M70 0v516h125v-516h-125z" />
    <glyph glyph-name="IJ" unicode="&#x132;" horiz-adv-x="734" 
d="M75 0v690h133v-690h-133zM664 240q0 -114 -67 -182t-178 -68q-24 0 -54.5 4.5t-49.5 11.5v117q24 -7 47.5 -10t50.5 -3q57 0 87.5 33t30.5 95v452h133v-450z" />
    <glyph glyph-name="ij" unicode="&#x133;" horiz-adv-x="537" 
d="M70 591v137h125v-137h-125zM70 0v516h125v-516h-125zM466 728v-137h-125v137h125zM249 -105q14 -1 19.5 -1.5t10.5 -0.5q31 0 46.5 18.5t15.5 54.5v550h125v-543q0 -89 -39.5 -137t-111.5 -48q-18 0 -35.5 2t-30.5 6v99z" />
    <glyph glyph-name="Jcircumflex" unicode="&#x134;" horiz-adv-x="451" 
d="M381 240q0 -114 -67 -182t-178 -68q-24 0 -54.5 4.5t-49.5 11.5v117q24 -7 47.5 -10t50.5 -3q57 0 87.5 33t30.5 95v452h133v-450zM359 900l114 -139h-106l-76 82l-77 -82h-98l113 139h130z" />
    <glyph glyph-name="jcircumflex" unicode="&#x135;" horiz-adv-x="271" 
d="M-16 -105q14 -1 19.5 -1.5t10.5 -0.5q31 0 46.5 18.5t15.5 54.5v550h125v-543q0 -89 -39.5 -137t-111.5 -48q-18 0 -35.5 2t-30.5 6v99zM200 727l114 -139h-106l-76 82l-77 -82h-98l113 139h130z" />
    <glyph glyph-name="Kcommaaccent" unicode="&#x136;" horiz-adv-x="671" 
d="M208 0h-133v690h133v-332l277 332h144l-261 -312l290 -378h-160l-212 279l-78 -93v-186zM328 -191h-52v125h123v-69q0 -54 -22.5 -91.5t-69.5 -63.5l-31 24q22 14 35 33t17 42z" />
    <glyph glyph-name="kcommaaccent" unicode="&#x137;" horiz-adv-x="579" 
d="M195 0h-125v719l125 21v-457l209 233h144l-211 -226l231 -290h-153l-161 202l-59 -63v-139zM282 -191h-52v125h123v-69q0 -54 -22.5 -91.5t-69.5 -63.5l-31 24q22 14 35 33t17 42z" />
    <glyph glyph-name="Lacute" unicode="&#x139;" horiz-adv-x="584" 
d="M75 0v690h133v-573h340v-117h-473zM350 900l-125 -139h-111l97 139h139z" />
    <glyph glyph-name="lacute" unicode="&#x13a;" horiz-adv-x="265" 
d="M302 923l-124 -139h-111l97 139h138zM70 719l125 21v-740h-125v719z" />
    <glyph glyph-name="Lcommaaccent" unicode="&#x13b;" horiz-adv-x="584" 
d="M75 0v690h133v-573h340v-117h-473zM289 -191h-52v125h123v-69q0 -54 -22.5 -91.5t-69.5 -63.5l-31 24q22 14 35 33t17 42z" />
    <glyph glyph-name="lcommaaccent" unicode="&#x13c;" horiz-adv-x="265" 
d="M70 719l125 21v-740h-125v719zM126 -191h-52v125h123v-69q0 -54 -22.5 -91.5t-69.5 -63.5l-31 24q22 14 35 33t17 42z" />
    <glyph glyph-name="Lcaron" unicode="&#x13d;" horiz-adv-x="584" 
d="M75 0v690h133v-573h340v-117h-473zM371 585h-52v125h122v-70q0 -60 -22.5 -102t-69.5 -72l-31 24q22 18 35 41.5t18 53.5z" />
    <glyph glyph-name="lcaron" unicode="&#x13e;" horiz-adv-x="378" 
d="M70 719l125 21v-740h-125v719zM312 585h-52v125h122v-70q0 -60 -22.5 -102t-69.5 -72l-31 24q22 18 35 41.5t18 53.5z" />
    <glyph glyph-name="Ldot" unicode="&#x13f;" horiz-adv-x="584" 
d="M75 0v690h133v-573h340v-117h-473zM487 319h-134v139h134v-139z" />
    <glyph glyph-name="ldot" unicode="&#x140;" horiz-adv-x="390" 
d="M70 719l125 21v-740h-125v719zM390 284h-134v139h134v-139z" />
    <glyph glyph-name="Lslash" unicode="&#x141;" horiz-adv-x="588" 
d="M78 0v259l-71 -33v103l71 33v328h133v-267l185 86v-103l-185 -86v-203h341v-117h-474z" />
    <glyph glyph-name="lslash" unicode="&#x142;" horiz-adv-x="280" 
d="M77 0v314l-60 -28v106l60 28v299l126 21v-260l61 29v-107l-61 -29v-373h-126z" />
    <glyph glyph-name="Nacute" unicode="&#x143;" horiz-adv-x="744" 
d="M669 690v-690h-125l-336 468v-468h-133v690h125l336 -476v476h133zM525 900l-125 -139h-111l97 139h139z" />
    <glyph glyph-name="nacute" unicode="&#x144;" horiz-adv-x="621" 
d="M70 0v516h118v-91q27 47 75 74t107 27q91 0 138.5 -50.5t47.5 -146.5v-329h-125v315q0 50 -27 76t-78 26q-40 0 -75.5 -21.5t-55.5 -56.5v-339h-125zM460 727l-125 -139h-111l97 139h139z" />
    <glyph glyph-name="Ncommaaccent" unicode="&#x145;" horiz-adv-x="744" 
d="M669 690v-690h-125l-336 468v-468h-133v690h125l336 -476v476h133zM365 -191h-52v125h123v-69q0 -54 -22.5 -91.5t-69.5 -63.5l-31 24q22 14 35 33t17 42z" />
    <glyph glyph-name="ncommaaccent" unicode="&#x146;" horiz-adv-x="621" 
d="M70 0v516h118v-91q27 47 75 74t107 27q91 0 138.5 -50.5t47.5 -146.5v-329h-125v315q0 50 -27 76t-78 26q-40 0 -75.5 -21.5t-55.5 -56.5v-339h-125zM303 -191h-52v125h123v-69q0 -54 -22.5 -91.5t-69.5 -63.5l-31 24q22 14 35 33t17 42z" />
    <glyph glyph-name="Ncaron" unicode="&#x147;" horiz-adv-x="744" 
d="M669 690v-690h-125l-336 468v-468h-133v690h125l336 -476v476h133zM550 900l-114 -139h-130l-113 139h98l77 -80l76 80h106z" />
    <glyph glyph-name="ncaron" unicode="&#x148;" horiz-adv-x="621" 
d="M70 0v516h118v-91q27 47 75 74t107 27q91 0 138.5 -50.5t47.5 -146.5v-329h-125v315q0 50 -27 76t-78 26q-40 0 -75.5 -21.5t-55.5 -56.5v-339h-125zM488 727l-114 -139h-130l-113 139h98l77 -80l76 80h106z" />
    <glyph glyph-name="Omacron" unicode="&#x14c;" horiz-adv-x="797" 
d="M755 345q0 -154 -101.5 -254.5t-256.5 -100.5q-154 0 -255 100.5t-101 253.5q0 154 101.5 255t255.5 101q155 0 256 -100.5t101 -254.5zM179 345q0 -107 60 -170.5t160 -63.5t159 63.5t59 170.5q0 106 -59.5 169.5t-158.5 63.5q-100 0 -160 -63.5t-60 -169.5zM552 879
v-97h-309v97h309z" />
    <glyph glyph-name="omacron" unicode="&#x14d;" horiz-adv-x="623" 
d="M36 258q0 116 78 192t197 76t197.5 -76t78.5 -192t-78.5 -192t-197.5 -76t-197 76t-78 192zM163 258q0 -74 40.5 -118.5t107.5 -44.5q68 0 108.5 44.5t40.5 118.5t-40.5 118.5t-108.5 44.5q-67 0 -107.5 -44.5t-40.5 -118.5zM465 706v-97h-309v97h309z" />
    <glyph glyph-name="Obreve" unicode="&#x14e;" horiz-adv-x="797" 
d="M755 345q0 -154 -101.5 -254.5t-256.5 -100.5q-154 0 -255 100.5t-101 253.5q0 154 101.5 255t255.5 101q155 0 256 -100.5t101 -254.5zM179 345q0 -107 60 -170.5t160 -63.5t159 63.5t59 170.5q0 106 -59.5 169.5t-158.5 63.5q-100 0 -160 -63.5t-60 -169.5zM304 899
q11 -34 32.5 -49.5t54.5 -15.5q34 0 54.5 15.5t32.5 49.5h81q-8 -65 -53 -103.5t-115 -38.5t-114.5 38t-53.5 104h81z" />
    <glyph glyph-name="obreve" unicode="&#x14f;" horiz-adv-x="623" 
d="M36 258q0 116 78 192t197 76t197.5 -76t78.5 -192t-78.5 -192t-197.5 -76t-197 76t-78 192zM163 258q0 -74 40.5 -118.5t107.5 -44.5q68 0 108.5 44.5t40.5 118.5t-40.5 118.5t-108.5 44.5q-67 0 -107.5 -44.5t-40.5 -118.5zM217 726q11 -34 32.5 -49.5t54.5 -15.5
q34 0 54.5 15.5t32.5 49.5h81q-8 -65 -53 -103.5t-115 -38.5t-114.5 38t-53.5 104h81z" />
    <glyph glyph-name="Ohungarumlaut" unicode="&#x150;" horiz-adv-x="797" 
d="M755 345q0 -154 -101.5 -254.5t-256.5 -100.5q-154 0 -255 100.5t-101 253.5q0 154 101.5 255t255.5 101q155 0 256 -100.5t101 -254.5zM179 345q0 -107 60 -170.5t160 -63.5t159 63.5t59 170.5q0 106 -59.5 169.5t-158.5 63.5q-100 0 -160 -63.5t-60 -169.5zM651 900
l-130 -139h-111l103 139h138zM452 900l-130 -139h-111l103 139h138z" />
    <glyph glyph-name="ohungarumlaut" unicode="&#x151;" horiz-adv-x="623" 
d="M36 258q0 116 78 192t197 76t197.5 -76t78.5 -192t-78.5 -192t-197.5 -76t-197 76t-78 192zM163 258q0 -74 40.5 -118.5t107.5 -44.5q68 0 108.5 44.5t40.5 118.5t-40.5 118.5t-108.5 44.5q-67 0 -107.5 -44.5t-40.5 -118.5zM565 727l-130 -139h-111l103 139h138z
M366 727l-130 -139h-111l103 139h138z" />
    <glyph glyph-name="OE" unicode="&#x152;" horiz-adv-x="1128" 
d="M399 578q-100 0 -160 -63.5t-60 -169.5q0 -107 60 -170.5t160 -63.5t159 63.5t59 170.5q0 106 -59.5 169.5t-158.5 63.5zM1083 117v-117h-466v89q-41 -49 -96.5 -74t-123.5 -25q-154 0 -255 100.5t-101 253.5q0 154 101.5 255t255.5 101q65 0 120 -23t99 -68v81h466v-118
h-333v-164h246v-118h-246v-173h333z" />
    <glyph glyph-name="oe" unicode="&#x153;" horiz-adv-x="995" 
d="M754 92q44 0 90.5 12.5t77.5 32.5v-103q-28 -20 -73.5 -32t-96.5 -12q-71 0 -130.5 28.5t-97.5 80.5q-37 -51 -93 -80t-120 -29q-119 0 -197 76t-78 192t78 192t197 76q63 0 118.5 -27t91.5 -75q33 48 86.5 75t117.5 27q105 0 171.5 -67.5t67.5 -172.5q0 -18 -1.5 -37
t-4.5 -30h-370q9 -60 53 -93.5t113 -33.5zM844 303q0 55 -34 89.5t-88 34.5q-53 0 -89 -33.5t-45 -90.5h256zM163 258q0 -74 40.5 -118.5t107.5 -44.5q68 0 108.5 44.5t40.5 118.5t-40.5 118.5t-108.5 44.5q-67 0 -107.5 -44.5t-40.5 -118.5z" />
    <glyph glyph-name="Racute" unicode="&#x154;" horiz-adv-x="655" 
d="M349 572h-141v-191h141q54 0 85 26t31 71q0 43 -31.5 68.5t-84.5 25.5zM75 0v690h274q110 0 182.5 -59t72.5 -149q0 -67 -39.5 -119t-104.5 -77l175 -286h-155l-152 267h-120v-267h-133zM476 900l-125 -139h-111l97 139h139z" />
    <glyph glyph-name="racute" unicode="&#x155;" horiz-adv-x="392" 
d="M195 424q17 51 47.5 76.5t74.5 25.5q14 0 28.5 -3t24.5 -9v-118q-12 5 -30 8.5t-34 3.5q-36 0 -65 -19t-46 -54v-335h-125v516h125v-92zM342 727l-125 -139h-111l97 139h139z" />
    <glyph glyph-name="Rcommaaccent" unicode="&#x156;" horiz-adv-x="655" 
d="M349 572h-141v-191h141q54 0 85 26t31 71q0 43 -31.5 68.5t-84.5 25.5zM75 0v690h274q110 0 182.5 -59t72.5 -149q0 -67 -39.5 -119t-104.5 -77l175 -286h-155l-152 267h-120v-267h-133zM321 -191h-52v125h123v-69q0 -54 -22.5 -91.5t-69.5 -63.5l-31 24q22 14 35 33
t17 42z" />
    <glyph glyph-name="rcommaaccent" unicode="&#x157;" horiz-adv-x="392" 
d="M195 424q17 51 47.5 76.5t74.5 25.5q14 0 28.5 -3t24.5 -9v-118q-12 5 -30 8.5t-34 3.5q-36 0 -65 -19t-46 -54v-335h-125v516h125v-92zM124 -191h-52v125h123v-69q0 -54 -22.5 -91.5t-69.5 -63.5l-31 24q22 14 35 33t17 42z" />
    <glyph glyph-name="Rcaron" unicode="&#x158;" horiz-adv-x="655" 
d="M349 572h-141v-191h141q54 0 85 26t31 71q0 43 -31.5 68.5t-84.5 25.5zM75 0v690h274q110 0 182.5 -59t72.5 -149q0 -67 -39.5 -119t-104.5 -77l175 -286h-155l-152 267h-120v-267h-133zM499 900l-114 -139h-130l-113 139h98l77 -80l76 80h106z" />
    <glyph glyph-name="rcaron" unicode="&#x159;" horiz-adv-x="392" 
d="M195 424q17 51 47.5 76.5t74.5 25.5q14 0 28.5 -3t24.5 -9v-118q-12 5 -30 8.5t-34 3.5q-36 0 -65 -19t-46 -54v-335h-125v516h125v-92zM385 727l-114 -139h-130l-113 139h98l77 -80l76 80h106z" />
    <glyph glyph-name="Sacute" unicode="&#x15a;" horiz-adv-x="589" 
d="M556 195q0 -94 -77.5 -149.5t-204.5 -55.5q-71 0 -129.5 14t-103.5 41v129q61 -35 119.5 -51t124.5 -16t99.5 20t33.5 59q0 34 -31 57t-115 49q-121 38 -175.5 88t-54.5 122q0 89 72.5 143.5t193.5 54.5q60 0 110 -10t90 -30v-123q-48 22 -101.5 33.5t-104.5 11.5
q-58 0 -90 -18.5t-32 -52.5q0 -31 31.5 -52t133.5 -55q116 -39 163.5 -86t47.5 -123zM445 900l-125 -139h-111l97 139h139z" />
    <glyph glyph-name="sacute" unicode="&#x15b;" horiz-adv-x="477" 
d="M412 384q-34 19 -75.5 29.5t-81.5 10.5q-45 0 -67 -12t-22 -37q0 -21 22 -33.5t91 -31.5q94 -25 132.5 -61.5t38.5 -96.5q0 -77 -58.5 -119.5t-158.5 -42.5q-57 0 -102 9.5t-80 29.5v111q37 -23 84.5 -35.5t101.5 -12.5q43 0 65 13t22 39q0 23 -24 37.5t-102 37.5
q-84 25 -121 60.5t-37 90.5q0 71 57 113.5t154 42.5q48 0 88 -8t73 -24v-110zM388 727l-125 -139h-111l97 139h139z" />
    <glyph glyph-name="Scircumflex" unicode="&#x15c;" horiz-adv-x="589" 
d="M556 195q0 -94 -77.5 -149.5t-204.5 -55.5q-71 0 -129.5 14t-103.5 41v129q61 -35 119.5 -51t124.5 -16t99.5 20t33.5 59q0 34 -31 57t-115 49q-121 38 -175.5 88t-54.5 122q0 89 72.5 143.5t193.5 54.5q60 0 110 -10t90 -30v-123q-48 22 -101.5 33.5t-104.5 11.5
q-58 0 -90 -18.5t-32 -52.5q0 -31 31.5 -52t133.5 -55q116 -39 163.5 -86t47.5 -123zM358 900l114 -139h-106l-76 82l-77 -82h-98l113 139h130z" />
    <glyph glyph-name="scircumflex" unicode="&#x15d;" horiz-adv-x="477" 
d="M412 384q-34 19 -75.5 29.5t-81.5 10.5q-45 0 -67 -12t-22 -37q0 -21 22 -33.5t91 -31.5q94 -25 132.5 -61.5t38.5 -96.5q0 -77 -58.5 -119.5t-158.5 -42.5q-57 0 -102 9.5t-80 29.5v111q37 -23 84.5 -35.5t101.5 -12.5q43 0 65 13t22 39q0 23 -24 37.5t-102 37.5
q-84 25 -121 60.5t-37 90.5q0 71 57 113.5t154 42.5q48 0 88 -8t73 -24v-110zM303 727l114 -139h-106l-76 82l-77 -82h-98l113 139h130z" />
    <glyph glyph-name="Scedilla" unicode="&#x15e;" horiz-adv-x="589" 
d="M287 -214q-28 0 -48.5 4t-42.5 13v59q24 -10 43 -14t39 -4q24 0 36.5 7.5t12.5 21.5t-11.5 21.5t-32.5 7.5h-49l17 88q-63 3 -116 16.5t-94 38.5v129q61 -35 119.5 -51t124.5 -16t99.5 20t33.5 59q0 34 -31 57t-115 49q-121 38 -175.5 88t-54.5 122q0 89 72.5 143.5
t193.5 54.5q60 0 110 -10t90 -30v-123q-48 22 -101.5 33.5t-104.5 11.5q-58 0 -90 -18.5t-32 -52.5q0 -31 31.5 -52t133.5 -55q116 -39 163.5 -86t47.5 -123q0 -89 -69.5 -143.5t-184.5 -60.5l-7 -40h18q45 0 70.5 -19.5t25.5 -54.5q0 -42 -33 -66.5t-89 -24.5z" />
    <glyph glyph-name="scedilla" unicode="&#x15f;" horiz-adv-x="477" 
d="M235 -214q-28 0 -48.5 4t-42.5 13v59q24 -10 43 -14t39 -4q24 0 36.5 7.5t12.5 21.5t-11.5 21.5t-32.5 7.5h-49l17 89q-45 2 -81.5 11.5t-66.5 26.5v111q37 -23 84.5 -35.5t101.5 -12.5q43 0 65 13t22 39q0 23 -24 37.5t-102 37.5q-84 25 -121 60.5t-37 90.5
q0 71 57 113.5t154 42.5q48 0 88 -8t73 -24v-110q-34 19 -75.5 29.5t-81.5 10.5q-45 0 -67 -12t-22 -37q0 -21 22 -33.5t91 -31.5q94 -25 132.5 -61.5t38.5 -96.5q0 -74 -54 -116t-146 -46l-7 -39h18q45 0 70.5 -19.5t25.5 -54.5q0 -42 -33 -66.5t-89 -24.5z" />
    <glyph glyph-name="Scaron" unicode="&#x160;" horiz-adv-x="589" 
d="M556 195q0 -94 -77.5 -149.5t-204.5 -55.5q-71 0 -129.5 14t-103.5 41v129q61 -35 119.5 -51t124.5 -16t99.5 20t33.5 59q0 34 -31 57t-115 49q-121 38 -175.5 88t-54.5 122q0 89 72.5 143.5t193.5 54.5q60 0 110 -10t90 -30v-123q-48 22 -101.5 33.5t-104.5 11.5
q-58 0 -90 -18.5t-32 -52.5q0 -31 31.5 -52t133.5 -55q116 -39 163.5 -86t47.5 -123zM472 900l-114 -139h-130l-113 139h98l77 -80l76 80h106z" />
    <glyph glyph-name="scaron" unicode="&#x161;" horiz-adv-x="477" 
d="M412 384q-34 19 -75.5 29.5t-81.5 10.5q-45 0 -67 -12t-22 -37q0 -21 22 -33.5t91 -31.5q94 -25 132.5 -61.5t38.5 -96.5q0 -77 -58.5 -119.5t-158.5 -42.5q-57 0 -102 9.5t-80 29.5v111q37 -23 84.5 -35.5t101.5 -12.5q43 0 65 13t22 39q0 23 -24 37.5t-102 37.5
q-84 25 -121 60.5t-37 90.5q0 71 57 113.5t154 42.5q48 0 88 -8t73 -24v-110zM415 727l-114 -139h-130l-113 139h98l77 -80l76 80h106z" />
    <glyph glyph-name="uni0162" unicode="&#x162;" horiz-adv-x="612" 
d="M239 0v572h-219v118h572v-118h-220v-572h-133zM301 -191h-52v125h123v-69q0 -54 -22.5 -91.5t-69.5 -63.5l-31 24q22 14 35 33t17 42z" />
    <glyph glyph-name="uni0163" unicode="&#x163;" horiz-adv-x="364" 
d="M268 103q15 0 30 2.5t31 7.5v-109q-21 -6 -44.5 -10t-40.5 -4q-86 0 -126.5 41.5t-40.5 128.5v258h-70v98h70v109l125 20v-129h126v-98h-126v-241q0 -38 15 -56t51 -18zM175 -191h-52v125h123v-69q0 -54 -22.5 -91.5t-69.5 -63.5l-31 24q22 14 35 33t17 42z" />
    <glyph glyph-name="Tcaron" unicode="&#x164;" horiz-adv-x="612" 
d="M239 0v572h-219v118h572v-118h-220v-572h-133zM484 900l-114 -139h-130l-113 139h98l77 -80l76 80h106z" />
    <glyph glyph-name="tcaron" unicode="&#x165;" horiz-adv-x="364" 
d="M289 660h-52v125h123v-70q0 -58 -21.5 -98t-67.5 -68l-31 24q21 17 33 38.5t16 48.5zM268 103q15 0 30 2.5t31 7.5v-109q-21 -6 -44.5 -10t-40.5 -4q-86 0 -126.5 41.5t-40.5 128.5v258h-70v98h70v109l125 20v-129h126v-98h-126v-241q0 -38 15 -56t51 -18z" />
    <glyph glyph-name="Tbar" unicode="&#x166;" horiz-adv-x="612" 
d="M239 0v300h-125v97h125v175h-219v118h572v-118h-220v-175h126v-97h-126v-300h-133z" />
    <glyph glyph-name="tbar" unicode="&#x167;" horiz-adv-x="364" 
d="M244 -10q-86 0 -126.5 41.5t-40.5 128.5v91h-70v88h70v88h-70v89h70v109l125 20v-129h126v-88h-126v-89h126v-88h-126v-74q0 -38 15 -56t51 -18q15 0 30 2.5t31 7.5v-109q-21 -6 -44.5 -10t-40.5 -4z" />
    <glyph glyph-name="Utilde" unicode="&#x168;" horiz-adv-x="718" 
d="M358 111q73 0 115 41t42 112v426h133v-428q0 -122 -79.5 -197t-210.5 -75q-130 0 -209 76.5t-79 200.5v423h133v-426q0 -71 41.5 -112t113.5 -41zM280 903q23 0 43 -7t50 -30q22 -16 33.5 -20.5t22.5 -4.5q19 0 29.5 16t11.5 44h79q-1 -58 -33.5 -98t-81.5 -40
q-24 0 -45.5 7.5t-50.5 30.5q-19 14 -28 18t-18 4q-18 0 -30 -15.5t-13 -42.5h-79q1 65 30 101.5t80 36.5z" />
    <glyph glyph-name="utilde" unicode="&#x169;" horiz-adv-x="609" 
d="M539 516v-516h-118v91q-28 -49 -72.5 -75t-100.5 -26q-89 0 -136 50t-47 144v332h125v-316q0 -50 25 -76t73 -26q38 0 71 21t54 58v339h126zM225 730q23 0 43 -7t50 -30q22 -16 33.5 -20.5t22.5 -4.5q19 0 29.5 16t11.5 44h79q-1 -58 -33.5 -98t-81.5 -40
q-24 0 -45.5 7.5t-50.5 30.5q-19 14 -28 18t-18 4q-18 0 -30 -15.5t-13 -42.5h-79q1 65 30 101.5t80 36.5z" />
    <glyph glyph-name="Umacron" unicode="&#x16a;" horiz-adv-x="718" 
d="M358 111q73 0 115 41t42 112v426h133v-428q0 -122 -79.5 -197t-210.5 -75q-130 0 -209 76.5t-79 200.5v423h133v-426q0 -71 41.5 -112t113.5 -41zM513 879v-97h-309v97h309z" />
    <glyph glyph-name="umacron" unicode="&#x16b;" horiz-adv-x="609" 
d="M539 516v-516h-118v91q-28 -49 -72.5 -75t-100.5 -26q-89 0 -136 50t-47 144v332h125v-316q0 -50 25 -76t73 -26q38 0 71 21t54 58v339h126zM458 706v-97h-309v97h309z" />
    <glyph glyph-name="Ubreve" unicode="&#x16c;" horiz-adv-x="718" 
d="M358 111q73 0 115 41t42 112v426h133v-428q0 -122 -79.5 -197t-210.5 -75q-130 0 -209 76.5t-79 200.5v423h133v-426q0 -71 41.5 -112t113.5 -41zM265 899q11 -34 32.5 -49.5t54.5 -15.5q34 0 54.5 15.5t32.5 49.5h81q-8 -65 -53 -103.5t-115 -38.5t-114.5 38t-53.5 104
h81z" />
    <glyph glyph-name="ubreve" unicode="&#x16d;" horiz-adv-x="609" 
d="M539 516v-516h-118v91q-28 -49 -72.5 -75t-100.5 -26q-89 0 -136 50t-47 144v332h125v-316q0 -50 25 -76t73 -26q38 0 71 21t54 58v339h126zM210 726q11 -34 32.5 -49.5t54.5 -15.5q34 0 54.5 15.5t32.5 49.5h81q-8 -65 -53 -103.5t-115 -38.5t-114.5 38t-53.5 104h81z
" />
    <glyph glyph-name="Uring" unicode="&#x16e;" horiz-adv-x="718" 
d="M358 111q73 0 115 41t42 112v426h133v-428q0 -122 -79.5 -197t-210.5 -75q-130 0 -209 76.5t-79 200.5v423h133v-426q0 -71 41.5 -112t113.5 -41zM359 741q-50 0 -83 32t-33 80q0 50 32.5 81.5t83.5 31.5q50 0 82.5 -32t32.5 -81t-32.5 -80.5t-82.5 -31.5zM359 902
q-21 0 -34.5 -13t-13.5 -34q0 -23 13 -36.5t35 -13.5t35 13.5t13 36.5q0 21 -13.5 34t-34.5 13z" />
    <glyph glyph-name="uring" unicode="&#x16f;" horiz-adv-x="609" 
d="M539 516v-516h-118v91q-28 -49 -72.5 -75t-100.5 -26q-89 0 -136 50t-47 144v332h125v-316q0 -50 25 -76t73 -26q38 0 71 21t54 58v339h126zM304 568q-50 0 -83 32t-33 80q0 50 32.5 81.5t83.5 31.5q50 0 82.5 -32t32.5 -81t-32.5 -80.5t-82.5 -31.5zM304 729
q-21 0 -34.5 -13t-13.5 -34q0 -23 13 -36.5t35 -13.5t35 13.5t13 36.5q0 21 -13.5 34t-34.5 13z" />
    <glyph glyph-name="Uhungarumlaut" unicode="&#x170;" horiz-adv-x="718" 
d="M358 111q73 0 115 41t42 112v426h133v-428q0 -122 -79.5 -197t-210.5 -75q-130 0 -209 76.5t-79 200.5v423h133v-426q0 -71 41.5 -112t113.5 -41zM614 900l-130 -139h-111l103 139h138zM415 900l-130 -139h-111l103 139h138z" />
    <glyph glyph-name="uhungarumlaut" unicode="&#x171;" horiz-adv-x="609" 
d="M539 516v-516h-118v91q-28 -49 -72.5 -75t-100.5 -26q-89 0 -136 50t-47 144v332h125v-316q0 -50 25 -76t73 -26q38 0 71 21t54 58v339h126zM560 727l-130 -139h-111l103 139h138zM361 727l-130 -139h-111l103 139h138z" />
    <glyph glyph-name="Uogonek" unicode="&#x172;" horiz-adv-x="718" 
d="M517 -188q-26 -15 -49.5 -21t-52.5 -6q-56 0 -92.5 27t-36.5 70q0 28 17.5 54.5t54.5 53.5q-130 0 -209 76.5t-79 200.5v423h133v-426q0 -71 41.5 -112t113.5 -41q73 0 115 41t42 112v426h133v-428q0 -96 -51.5 -165t-141.5 -94q-42 -30 -59.5 -53.5t-17.5 -46.5
q0 -22 16 -34.5t43 -12.5q19 0 41 8t39 21v-73z" />
    <glyph glyph-name="uogonek" unicode="&#x173;" horiz-adv-x="609" 
d="M461 -144q19 0 40.5 8t39.5 21v-73q-26 -15 -49.5 -21t-52.5 -6q-56 0 -92.5 27t-36.5 70q0 35 27.5 67.5t83.5 63.5v82q-28 -50 -73 -77.5t-100 -27.5q-89 0 -136 50t-47 144v332h125v-316q0 -51 25.5 -76.5t76.5 -25.5q36 0 68 21.5t53 57.5v339h126v-516h-67
q-37 -27 -53.5 -50t-16.5 -47q0 -22 15.5 -34.5t43.5 -12.5z" />
    <glyph glyph-name="Wcircumflex" unicode="&#x174;" horiz-adv-x="1007" 
d="M574 564l128 -420l164 546h133l-219 -690h-154l-124 400l-131 -400h-147l-217 690h142l159 -546l139 420h127zM576 900l114 -139h-106l-76 82l-77 -82h-98l113 139h130z" />
    <glyph glyph-name="wcircumflex" unicode="&#x175;" horiz-adv-x="848" 
d="M727 516h113l-173 -516h-145l-103 345l-102 -345h-135l-174 516h132l121 -395l115 395h111l117 -395zM488 727l114 -139h-106l-76 82l-77 -82h-98l113 139h130z" />
    <glyph glyph-name="Ycircumflex" unicode="&#x176;" horiz-adv-x="680" 
d="M406 0h-133v277l-265 413h141l187 -296l187 296h148l-265 -413v-277zM404 900l114 -139h-106l-76 82l-77 -82h-98l113 139h130z" />
    <glyph glyph-name="ycircumflex" unicode="&#x177;" horiz-adv-x="578" 
d="M370 46q-59 -139 -121 -198.5t-147 -59.5q-14 0 -27 2t-22 6v103q9 -2 19.5 -3.5t21.5 -1.5q43 0 78 26t63 78l-226 518h127l158 -379l150 379h125zM353 727l114 -139h-106l-76 82l-77 -82h-98l113 139h130z" />
    <glyph glyph-name="Ydieresis" unicode="&#x178;" horiz-adv-x="680" 
d="M406 0h-133v277l-265 413h141l187 -296l187 296h148l-265 -413v-277zM483 901v-137h-107v137h107zM303 901v-137h-107v137h107z" />
    <glyph glyph-name="Zacute" unicode="&#x179;" horiz-adv-x="599" 
d="M562 117v-117h-525v106l353 462h-344v118h513v-107l-354 -462h357zM452 900l-125 -139h-111l97 139h139z" />
    <glyph glyph-name="zacute" unicode="&#x17a;" horiz-adv-x="499" 
d="M463 429l-271 -327h272v-102h-429v87l270 326h-262v103h420v-87zM403 727l-125 -139h-111l97 139h139z" />
    <glyph glyph-name="Zdotaccent" unicode="&#x17b;" horiz-adv-x="599" 
d="M562 117v-117h-525v106l353 462h-344v118h513v-107l-354 -462h357zM236 764v137h125v-137h-125z" />
    <glyph glyph-name="zdotaccent" unicode="&#x17c;" horiz-adv-x="499" 
d="M463 429l-271 -327h272v-102h-429v87l270 326h-262v103h420v-87zM187 591v137h125v-137h-125z" />
    <glyph glyph-name="Zcaron" unicode="&#x17d;" horiz-adv-x="599" 
d="M562 117v-117h-525v106l353 462h-344v118h513v-107l-354 -462h357zM477 900l-114 -139h-130l-113 139h98l77 -80l76 80h106z" />
    <glyph glyph-name="zcaron" unicode="&#x17e;" horiz-adv-x="499" 
d="M463 429l-271 -327h272v-102h-429v87l270 326h-262v103h420v-87zM433 727l-114 -139h-130l-113 139h98l77 -80l76 80h106z" />
    <glyph glyph-name="florin" unicode="&#x192;" horiz-adv-x="538" 
d="M223 485q19 106 75 160.5t146 54.5q19 0 35 -2t38 -9v-116q-15 4 -30 6t-29 2q-50 0 -75 -28t-36 -95l-14 -84h127l-13 -77h-129l-33 -209q-17 -104 -67 -158.5t-128 -54.5q-24 0 -43.5 3t-40.5 10v116q16 -4 32.5 -6t34.5 -2q36 0 55.5 21.5t27.5 71.5l36 208h-98l12 77
h97z" />
    <glyph glyph-name="uni0218" unicode="&#x218;" horiz-adv-x="589" 
d="M556 195q0 -94 -77.5 -149.5t-204.5 -55.5q-71 0 -129.5 14t-103.5 41v129q61 -35 119.5 -51t124.5 -16t99.5 20t33.5 59q0 34 -31 57t-115 49q-121 38 -175.5 88t-54.5 122q0 89 72.5 143.5t193.5 54.5q60 0 110 -10t90 -30v-123q-48 22 -101.5 33.5t-104.5 11.5
q-58 0 -90 -18.5t-32 -52.5q0 -31 31.5 -52t133.5 -55q116 -39 163.5 -86t47.5 -123zM287 -191h-52v125h123v-69q0 -54 -22.5 -91.5t-69.5 -63.5l-31 24q22 14 35 33t17 42z" />
    <glyph glyph-name="uni0219" unicode="&#x219;" horiz-adv-x="477" 
d="M412 384q-34 19 -75.5 29.5t-81.5 10.5q-45 0 -67 -12t-22 -37q0 -21 22 -33.5t91 -31.5q94 -25 132.5 -61.5t38.5 -96.5q0 -77 -58.5 -119.5t-158.5 -42.5q-57 0 -102 9.5t-80 29.5v111q37 -23 84.5 -35.5t101.5 -12.5q43 0 65 13t22 39q0 23 -24 37.5t-102 37.5
q-84 25 -121 60.5t-37 90.5q0 71 57 113.5t154 42.5q48 0 88 -8t73 -24v-110zM232 -191h-52v125h123v-69q0 -54 -22.5 -91.5t-69.5 -63.5l-31 24q22 14 35 33t17 42z" />
    <glyph glyph-name="uni021A" unicode="&#x21a;" horiz-adv-x="612" 
d="M239 0v572h-219v118h572v-118h-220v-572h-133zM301 -191h-52v125h123v-69q0 -54 -22.5 -91.5t-69.5 -63.5l-31 24q22 14 35 33t17 42z" />
    <glyph glyph-name="uni021B" unicode="&#x21b;" horiz-adv-x="364" 
d="M268 103q15 0 30 2.5t31 7.5v-109q-21 -6 -44.5 -10t-40.5 -4q-86 0 -126.5 41.5t-40.5 128.5v258h-70v98h70v109l125 20v-129h126v-98h-126v-241q0 -38 15 -56t51 -18zM175 -191h-52v125h123v-69q0 -54 -22.5 -91.5t-69.5 -63.5l-31 24q22 14 35 33t17 42z" />
    <glyph glyph-name="dotlessj" unicode="&#x237;" horiz-adv-x="271" 
d="M-16 -105q14 -1 19.5 -1.5t10.5 -0.5q31 0 46.5 18.5t15.5 54.5v550h125v-543q0 -89 -39.5 -137t-111.5 -48q-18 0 -35.5 2t-30.5 6v99z" />
    <glyph glyph-name="circumflex" unicode="&#x2c6;" 
d="M314 727l114 -139h-106l-76 82l-77 -82h-98l113 139h130z" />
    <glyph glyph-name="caron" unicode="&#x2c7;" 
d="M428 727l-114 -139h-130l-113 139h98l77 -80l76 80h106z" />
    <glyph glyph-name="breve" unicode="&#x2d8;" 
d="M156 726q11 -34 32.5 -49.5t54.5 -15.5q34 0 54.5 15.5t32.5 49.5h81q-8 -65 -53 -103.5t-115 -38.5t-114.5 38t-53.5 104h81z" />
    <glyph glyph-name="dotaccent" unicode="&#x2d9;" 
d="M187 591v137h125v-137h-125z" />
    <glyph glyph-name="ring" unicode="&#x2da;" 
d="M250 568q-50 0 -83 32t-33 80q0 50 32.5 81.5t83.5 31.5q50 0 82.5 -32t32.5 -81t-32.5 -80.5t-82.5 -31.5zM250 729q-21 0 -34.5 -13t-13.5 -34q0 -23 13 -36.5t35 -13.5t35 13.5t13 36.5q0 21 -13.5 34t-34.5 13z" />
    <glyph glyph-name="ogonek" unicode="&#x2db;" 
d="M408 42q-80 -48 -110.5 -79t-30.5 -60q0 -22 16 -34.5t43 -12.5q19 0 40 7.5t40 21.5v-73q-26 -15 -49.5 -21t-52.5 -6q-56 0 -92.5 27t-36.5 70q0 40 37 77.5t130 82.5h66z" />
    <glyph glyph-name="tilde" unicode="&#x2dc;" 
d="M171 730q23 0 43 -7t50 -30q22 -16 33.5 -20.5t22.5 -4.5q19 0 29.5 16t11.5 44h79q-1 -58 -33.5 -98t-81.5 -40q-24 0 -45.5 7.5t-50.5 30.5q-19 14 -28 18t-18 4q-18 0 -30 -15.5t-13 -42.5h-79q1 65 30 101.5t80 36.5z" />
    <glyph glyph-name="hungarumlaut" unicode="&#x2dd;" 
d="M497 727l-130 -139h-111l103 139h138zM298 727l-130 -139h-111l103 139h138z" />
    <glyph glyph-name="uni0394" unicode="&#x394;" horiz-adv-x="716" 
d="M305 690h103l296 -690h-692zM523 117l-167 400l-163 -400h330z" />
    <glyph glyph-name="uni03A9" unicode="&#x3a9;" horiz-adv-x="782" 
d="M344 0h-284v108h147q-80 36 -123 104t-43 159q0 138 100.5 233.5t249.5 95.5t249.5 -95.5t100.5 -233.5q0 -91 -42.5 -158.5t-122.5 -104.5h145v-108h-282v108q84 33 127.5 94t43.5 145q0 103 -61 167t-158 64t-158 -64t-61 -167q0 -84 44 -145.5t128 -93.5v-108z" />
    <glyph glyph-name="pi" unicode="&#x3c0;" horiz-adv-x="746" 
d="M581 -10q-66 0 -100 40.5t-34 118.5v264h-102l-31 -413h-120l31 413h-29q-35 0 -53 -12.5t-18 -37.5q0 -11 2.5 -23t7.5 -24h-97q-7 20 -11 41.5t-4 39.5q0 57 43.5 88t123.5 31h512v-103h-130v-260q0 -28 10 -42t29 -14q13 0 27.5 7t26.5 19l47 -82q-28 -26 -60.5 -38.5
t-70.5 -12.5z" />
    <glyph glyph-name="Wgrave" unicode="&#x1e80;" horiz-adv-x="1007" 
d="M574 564l128 -420l164 546h133l-219 -690h-154l-124 400l-131 -400h-147l-217 690h142l159 -546l139 420h127zM472 761l-124 139h138l97 -139h-111z" />
    <glyph glyph-name="wgrave" unicode="&#x1e81;" horiz-adv-x="848" 
d="M727 516h113l-173 -516h-145l-103 345l-102 -345h-135l-174 516h132l121 -395l115 395h111l117 -395zM393 588l-124 139h138l97 -139h-111z" />
    <glyph glyph-name="Wacute" unicode="&#x1e82;" horiz-adv-x="1007" 
d="M574 564l128 -420l164 546h133l-219 -690h-154l-124 400l-131 -400h-147l-217 690h142l159 -546l139 420h127zM667 900l-125 -139h-111l97 139h139z" />
    <glyph glyph-name="wacute" unicode="&#x1e83;" horiz-adv-x="848" 
d="M727 516h113l-173 -516h-145l-103 345l-102 -345h-135l-174 516h132l121 -395l115 395h111l117 -395zM582 727l-125 -139h-111l97 139h139z" />
    <glyph glyph-name="Wdieresis" unicode="&#x1e84;" horiz-adv-x="1007" 
d="M574 564l128 -420l164 546h133l-219 -690h-154l-124 400l-131 -400h-147l-217 690h142l159 -546l139 420h127zM656 901v-137h-107v137h107zM476 901v-137h-107v137h107z" />
    <glyph glyph-name="wdieresis" unicode="&#x1e85;" horiz-adv-x="848" 
d="M727 516h113l-173 -516h-145l-103 345l-102 -345h-135l-174 516h132l121 -395l115 395h111l117 -395zM567 728v-137h-107v137h107zM387 728v-137h-107v137h107z" />
    <glyph glyph-name="Ygrave" unicode="&#x1ef2;" horiz-adv-x="680" 
d="M406 0h-133v277l-265 413h141l187 -296l187 296h148l-265 -413v-277zM307 761l-124 139h138l97 -139h-111z" />
    <glyph glyph-name="ygrave" unicode="&#x1ef3;" horiz-adv-x="578" 
d="M370 46q-59 -139 -121 -198.5t-147 -59.5q-14 0 -27 2t-22 6v103q9 -2 19.5 -3.5t21.5 -1.5q43 0 78 26t63 78l-226 518h127l158 -379l150 379h125zM260 588l-124 139h138l97 -139h-111z" />
    <glyph glyph-name="endash" unicode="&#x2013;" 
d="M455 317v-96h-410v96h410z" />
    <glyph glyph-name="emdash" unicode="&#x2014;" horiz-adv-x="1000" 
d="M955 317v-96h-910v96h910z" />
    <glyph glyph-name="quoteleft" unicode="&#x2018;" horiz-adv-x="249" 
d="M131 574h60v-139h-134v89q0 64 36.5 112.5t102.5 71.5v-55q-28 -14 -43.5 -32.5t-21.5 -46.5z" />
    <glyph glyph-name="quoteright" unicode="&#x2019;" horiz-adv-x="249" 
d="M117 550h-60v140h134v-89q0 -64 -36.5 -112.5t-102.5 -71.5v55q27 13 42.5 31.5t22.5 46.5z" />
    <glyph glyph-name="quotesinglbase" unicode="&#x201a;" horiz-adv-x="249" 
d="M117 0h-60v139h134v-89q0 -64 -36.5 -112t-102.5 -71v55q27 13 42.5 31.5t22.5 46.5z" />
    <glyph glyph-name="quotedblleft" unicode="&#x201c;" horiz-adv-x="447" 
d="M330 574h59v-139h-134v89q0 64 36.5 112.5t102.5 71.5v-55q-28 -14 -43.5 -33t-20.5 -46zM131 574h60v-139h-134v89q0 64 36.5 112.5t102.5 71.5v-55q-28 -14 -43.5 -32.5t-21.5 -46.5z" />
    <glyph glyph-name="quotedblright" unicode="&#x201d;" horiz-adv-x="447" 
d="M315 550h-60v140h134v-89q0 -64 -36.5 -112.5t-102.5 -71.5v55q28 13 43.5 32t21.5 46zM117 550h-60v140h134v-89q0 -64 -36.5 -112.5t-102.5 -71.5v55q27 13 42.5 31.5t22.5 46.5z" />
    <glyph glyph-name="quotedblbase" unicode="&#x201e;" horiz-adv-x="451" 
d="M319 0h-60v139h134v-89q0 -64 -36.5 -112t-102.5 -71v55q27 13 42.5 31.5t22.5 46.5zM117 0h-60v139h134v-89q0 -64 -36.5 -112t-102.5 -71v55q27 13 42.5 31.5t22.5 46.5z" />
    <glyph glyph-name="dagger" unicode="&#x2020;" horiz-adv-x="563" 
d="M338 -125h-113v482l-173 -11v120l173 -9v233h113v-233l172 9v-120l-172 11v-482z" />
    <glyph glyph-name="daggerdbl" unicode="&#x2021;" horiz-adv-x="563" 
d="M338 -125h-113v219l-173 -11v121l173 -9v177l-173 -11v120l173 -9v218h113v-218l172 9v-120l-172 11v-177l172 9v-121l-172 11v-219z" />
    <glyph glyph-name="bullet" unicode="&#x2022;" horiz-adv-x="315" 
d="M50 305q0 47 30 77t78 30q47 0 77 -30t30 -77q0 -48 -30 -78.5t-77 -30.5q-48 0 -78 30.5t-30 78.5z" />
    <glyph glyph-name="ellipsis" unicode="&#x2026;" horiz-adv-x="738" 
d="M680 0h-134v139h134v-139zM436 0h-134v139h134v-139zM191 0h-134v139h134v-139z" />
    <glyph glyph-name="perthousand" unicode="&#x2030;" horiz-adv-x="1350" 
d="M383 501q0 -87 -49.5 -142.5t-126.5 -55.5t-126.5 55.5t-49.5 142.5t49.5 143t126.5 56t126.5 -56t49.5 -143zM129 501q0 -53 20 -81.5t58 -28.5t58 28t20 82q0 53 -20 81t-58 28t-58 -28t-20 -81zM710 690l-387 -690h-98l392 690h93zM903 199q0 -87 -49.5 -142.5
t-126.5 -55.5t-126.5 55.5t-49.5 142.5t49.5 143t126.5 56t126.5 -56t49.5 -143zM649 199q0 -53 20 -81.5t58 -28.5t58 28t20 82q0 53 -20 81t-58 28t-58 -28t-20 -81zM1318 199q0 -87 -49.5 -142.5t-126.5 -55.5t-126.5 55.5t-49.5 142.5t49.5 143t126.5 56t126.5 -56
t49.5 -143zM1064 199q0 -53 20 -81.5t58 -28.5t58 28t20 82q0 53 -20 81t-58 28t-58 -28t-20 -81z" />
    <glyph glyph-name="guilsinglleft" unicode="&#x2039;" horiz-adv-x="373" 
d="M314 75l-48 -48l-219 191v62l219 191l48 -48l-151 -174z" />
    <glyph glyph-name="guilsinglright" unicode="&#x203a;" horiz-adv-x="373" 
d="M58 423l48 48l219 -191v-62l-219 -191l-48 48l152 174z" />
    <glyph glyph-name="fraction" unicode="&#x2044;" horiz-adv-x="105" 
d="M295 690l-387 -690h-98l392 690h93z" />
    <glyph glyph-name="zerosuperior" unicode="&#x2070;" horiz-adv-x="415" 
d="M383 501q0 -87 -49.5 -142.5t-126.5 -55.5t-126.5 55.5t-49.5 142.5t49.5 143t126.5 56t126.5 -56t49.5 -143zM129 501q0 -53 20 -81.5t58 -28.5t58 28t20 82q0 53 -20 81t-58 28t-58 -28t-20 -81z" />
    <glyph glyph-name="foursuperior" unicode="&#x2074;" horiz-adv-x="415" 
d="M52 439l132 252h97l-131 -249h102v71l90 50v-258h-89v58h-201v76z" />
    <glyph glyph-name="Euro" unicode="&#x20ac;" horiz-adv-x="668" 
d="M448 -10q-125 0 -211 66t-114 179h-102l11 78h79q0 8 -0.5 16t-0.5 16v13.5t1 13.5h-72l11 78h72q28 115 117.5 182.5t222.5 67.5q46 0 81.5 -7t79.5 -27v-117q-40 15 -76 22t-72 7q-84 0 -137 -32t-74 -96h280l-12 -78h-282q-1 -6 -1 -13v-14q0 -8 0.5 -16t0.5 -16h274
l-11 -78h-247q22 -62 75.5 -93t137.5 -31q39 0 75.5 8.5t71.5 25.5v-117q-43 -20 -84.5 -29t-93.5 -9z" />
    <glyph glyph-name="uni2113" unicode="&#x2113;" horiz-adv-x="571" 
d="M485 101q-36 -53 -87 -82t-110 -29q-72 0 -116 47t-54 135q-8 -5 -26.5 -15t-48.5 -25l-35 74q24 12 50 26t58 32q5 80 24 156.5t51 140.5q44 89 102.5 139t120.5 50q60 0 96 -37t36 -98q0 -95 -76 -185.5t-244 -193.5v-14q0 -70 20.5 -104.5t63.5 -34.5q31 0 59 19.5
t55 60.5zM239 341q104 69 156.5 134t52.5 124q0 27 -11 42t-31 15q-48 0 -98.5 -95t-68.5 -220z" />
    <glyph glyph-name="trademark" unicode="&#x2122;" horiz-adv-x="643" 
d="M115 418v217h-83v55h225v-55h-81v-217h-61zM364 690l83 -125l83 125h59v-272h-60v177l-63 -94h-38l-64 95v-178h-61v272h61z" />
    <glyph glyph-name="Omega" unicode="&#x2126;" horiz-adv-x="782" 
d="M344 0h-284v108h147q-80 36 -123 104t-43 159q0 138 100.5 233.5t249.5 95.5t249.5 -95.5t100.5 -233.5q0 -91 -42.5 -158.5t-122.5 -104.5h145v-108h-282v108q84 33 127.5 94t43.5 145q0 103 -61 167t-158 64t-158 -64t-61 -167q0 -84 44 -145.5t128 -93.5v-108z" />
    <glyph glyph-name="estimated" unicode="&#x212e;" horiz-adv-x="824" 
d="M430 635q149 0 254.5 -95t105.5 -229v-9h-583q-3 0 -4 -1t-1 -3v-176q0 -6 2 -11t6 -9q44 -46 101 -71t120 -25q67 0 127 28t105 79h52q-51 -59 -126 -92.5t-159 -33.5q-149 0 -254.5 95t-105.5 229t105.5 229t254.5 95zM654 320q2 0 3 1.5t1 3.5v178q0 6 -2 11.5t-7 9.5
q-44 44 -100.5 68t-117.5 24q-62 0 -119 -24.5t-101 -70.5q-5 -5 -7 -10t-2 -12v-174q0 -2 1.5 -3.5t3.5 -1.5h447z" />
    <glyph glyph-name="partialdiff" unicode="&#x2202;" horiz-adv-x="627" 
d="M282 526q50 0 90 -19t71 -58q-14 50 -63.5 107t-124.5 107l66 77q139 -93 202 -198.5t63 -241.5t-78 -223t-195 -87q-122 0 -199.5 75t-77.5 192q0 113 72.5 191t173.5 78zM457 262q0 67 -40.5 108.5t-105.5 41.5t-105.5 -42.5t-40.5 -111.5t40.5 -112t105.5 -43
q66 0 106 43.5t40 115.5z" />
    <glyph glyph-name="Delta" unicode="&#x2206;" horiz-adv-x="716" 
d="M305 690h103l296 -690h-692zM523 117l-167 400l-163 -400h330z" />
    <glyph glyph-name="product" unicode="&#x220f;" horiz-adv-x="716" 
d="M208 -150h-133v840h566v-840h-133v722h-300v-722z" />
    <glyph glyph-name="summation" unicode="&#x2211;" horiz-adv-x="576" 
d="M256 253l-216 325v112h497v-118h-341l209 -319l-209 -285h341v-118h-497v112z" />
    <glyph glyph-name="minus" unicode="&#x2212;" horiz-adv-x="575" 
d="M532 296h-490v95h490v-95z" />
    <glyph glyph-name="uni2215" unicode="&#x2215;" horiz-adv-x="105" 
d="M295 690l-387 -690h-98l392 690h93z" />
    <glyph glyph-name="radical" unicode="&#x221a;" horiz-adv-x="587" 
d="M462 740l109 -31l-265 -709h-116l-97 238h-71v117h150l80 -210z" />
    <glyph glyph-name="infinity" unicode="&#x221e;" horiz-adv-x="805" 
d="M218 154q-81 0 -130.5 45.5t-49.5 117.5q0 69 49.5 117.5t118.5 48.5q52 0 95.5 -23.5t94.5 -83.5q52 62 94.5 84.5t93.5 22.5q69 0 118 -48.5t49 -117.5q0 -72 -49.5 -117.5t-129.5 -45.5q-49 0 -95 25.5t-82 71.5q-35 -46 -81.5 -71.5t-95.5 -25.5zM658 317
q0 37 -24 59t-65 22q-32 0 -67 -21.5t-64 -59.5q33 -44 64 -63t65 -19q38 0 64.5 23.5t26.5 58.5zM350 314q-29 39 -64 61.5t-66 22.5q-40 0 -64 -22t-24 -59q0 -35 26.5 -58.5t64.5 -23.5q35 0 65.5 19t61.5 60z" />
    <glyph glyph-name="integral" unicode="&#x222b;" horiz-adv-x="559" 
d="M245 533q13 105 69.5 161t148.5 56q19 0 34.5 -2t37.5 -9v-116q-15 4 -30 6t-29 2q-51 0 -77 -29t-34 -94l-63 -505q-11 -102 -62.5 -157.5t-132.5 -55.5q-24 0 -43.5 3t-40.5 11v116q18 -5 35 -7t33 -2q36 0 56.5 22.5t28.5 71.5z" />
    <glyph glyph-name="approxequal" unicode="&#x2248;" horiz-adv-x="575" 
d="M158 419q-22 0 -45.5 -4.5t-70.5 -20.5v96q39 16 63.5 20.5t52.5 4.5q21 0 46 -4t76 -18q54 -14 81.5 -18.5t51.5 -4.5q30 0 60.5 8t58.5 24v-96q-45 -21 -70 -26.5t-53 -5.5q-24 0 -51 4.5t-78 18.5q-50 14 -75 18t-47 4zM158 227q-22 0 -45.5 -4.5t-70.5 -20.5v95
q42 17 66 21.5t50 4.5q21 0 46 -4t76 -18q54 -14 81.5 -18.5t51.5 -4.5q30 0 60.5 8t58.5 24v-96q-45 -21 -70 -26.5t-53 -5.5q-24 0 -51 4.5t-78 18.5q-50 14 -75 18t-47 4z" />
    <glyph glyph-name="notequal" unicode="&#x2260;" horiz-adv-x="575" 
d="M117 73l55 126h-130v95h172l43 100h-215v95h257l56 128h103l-56 -128h130v-95h-172l-44 -100h216v-95h-258l-55 -126h-102z" />
    <glyph glyph-name="lessequal" unicode="&#x2264;" horiz-adv-x="575" 
d="M532 528l-354 -135l354 -137v-102l-490 190v98l490 189v-103zM532 0h-490v95h490v-95z" />
    <glyph glyph-name="greaterequal" unicode="&#x2265;" horiz-adv-x="575" 
d="M397 393l-355 135v103l490 -189v-98l-490 -190v102zM532 0h-490v95h490v-95z" />
    <glyph glyph-name="lozenge" unicode="&#x25ca;" horiz-adv-x="544" 
d="M216 690h110l185 -344l-185 -346h-110l-184 346zM149 346l122 -236l123 236l-123 233z" />
    <glyph glyph-name="heart" unicode="&#x2665;" horiz-adv-x="602" 
d="M100 395q0 46 28 75.5t71 29.5q30 0 56 -17.5t42 -47.5h8q16 30 42 47.5t56 17.5q43 0 71 -29.5t28 -75.5q0 -66 -56.5 -140.5t-144.5 -119.5q-88 45 -144.5 119.5t-56.5 140.5z" />
    <glyph glyph-name="i.dot" unicode="&#xe166;" horiz-adv-x="265" 
d="M70 591v137h125v-137h-125zM70 0v516h125v-516h-125z" />
    <glyph glyph-name="caron.alt" unicode="&#xe189;" 
d="M164 585h-52v125h122v-70q0 -60 -22.5 -102t-69.5 -72l-31 24q22 18 35 41.5t18 53.5z" />
    <glyph glyph-name="revcommaaccent" unicode="&#xe18a;" 
d="M257 709h52v-122h-123v67q0 54 22.5 92.5t69.5 65.5l31 -24q-21 -14 -34.5 -34t-17.5 -45z" />
    <glyph glyph-name="parenleft.case" unicode="&#xe1e8;" horiz-adv-x="374" 
d="M273 -114q-102 81 -160 201.5t-58 249.5q0 131 58.5 252t161.5 200l61 -49q-75 -91 -111.5 -190.5t-36.5 -212.5q0 -114 36.5 -213t111.5 -189z" />
    <glyph glyph-name="parenright.case" unicode="&#xe1e9;" horiz-adv-x="374" 
d="M186 337q0 113 -36.5 212.5t-111.5 190.5l61 49q103 -79 161.5 -200t58.5 -252q0 -129 -58 -249.5t-160 -201.5l-63 49q75 90 111.5 189t36.5 213z" />
    <glyph glyph-name="braceleft.case" unicode="&#xe1ea;" horiz-adv-x="404" 
d="M131 510q-17 35 -22.5 56t-5.5 44q0 80 66.5 123t194.5 43v-90q-74 0 -108 -19t-34 -63q0 -15 3 -29.5t14 -40.5q12 -31 16 -50.5t4 -40.5q0 -28 -14.5 -56.5t-34.5 -42.5q21 -16 35 -44t14 -56q0 -21 -4 -40.5t-16 -49.5q-11 -27 -14 -42t-3 -30q0 -43 34.5 -62
t107.5 -19v-89q-128 0 -194.5 43t-66.5 123q0 22 5.5 43t22.5 55q12 25 16 38t4 25q0 29 -14.5 44t-41.5 15h-42v91h42q27 0 41.5 15t14.5 44q0 12 -3.5 24.5t-16.5 37.5z" />
    <glyph glyph-name="braceright.case" unicode="&#xe1eb;" horiz-adv-x="404" 
d="M301 610q0 -23 -5.5 -44t-22.5 -56q-13 -25 -16.5 -37.5t-3.5 -24.5q0 -29 14.5 -44t41.5 -15h41v-91h-41q-27 0 -41.5 -15t-14.5 -44q0 -12 4 -25t16 -38q17 -34 22.5 -55t5.5 -43q0 -80 -66.5 -123t-194.5 -43v89q73 0 107.5 19t34.5 62q0 15 -3 30t-14 42
q-12 30 -16 49.5t-4 40.5q0 27 14 55.5t34 44.5q-20 14 -34 42.5t-14 56.5q0 21 4 40.5t16 50.5q11 26 14 40.5t3 29.5q0 43 -34.5 62.5t-107.5 19.5v90q128 0 194.5 -43t66.5 -123z" />
    <glyph glyph-name="bracketleft.case" unicode="&#xe1ec;" horiz-adv-x="371" 
d="M329 776v-95h-146v-674h146v-94h-261v863h261z" />
    <glyph glyph-name="bracketright.case" unicode="&#xe1ed;" horiz-adv-x="371" 
d="M41 681v95h261v-863h-261v94h147v674h-147z" />
    <glyph glyph-name="endash.case" unicode="&#xe1ee;" 
d="M455 374v-95h-410v95h410z" />
    <glyph glyph-name="emdash.case" unicode="&#xe1ef;" horiz-adv-x="1000" 
d="M955 374v-95h-910v95h910z" />
    <glyph glyph-name="guillemotleft.case" unicode="&#xe1f0;" horiz-adv-x="628" 
d="M569 153l-48 -48l-219 191v62l219 191l48 -48l-151 -174zM314 153l-48 -48l-219 191v62l219 191l48 -48l-151 -174z" />
    <glyph glyph-name="guillemotright.case" unicode="&#xe1f1;" horiz-adv-x="628" 
d="M313 501l48 48l219 -191v-62l-219 -191l-48 48l152 174zM58 501l48 48l219 -191v-62l-219 -191l-48 48l152 174z" />
    <glyph glyph-name="guilsinglleft.case" unicode="&#xe1f2;" horiz-adv-x="373" 
d="M314 153l-48 -48l-219 191v62l219 191l48 -48l-151 -174z" />
    <glyph glyph-name="guilsinglright.case" unicode="&#xe1f3;" horiz-adv-x="373" 
d="M58 501l48 48l219 -191v-62l-219 -191l-48 48l152 174z" />
    <glyph glyph-name="bullet.case" unicode="&#xe1f4;" horiz-adv-x="315" 
d="M50 347q0 48 30 78t78 30q47 0 77 -30.5t30 -77.5t-30 -77.5t-77 -30.5q-48 0 -78 30t-30 78z" />
    <glyph glyph-name="questiondown.case" unicode="&#xe1f6;" horiz-adv-x="471" 
d="M209 690h134v-140h-134v140zM213 357l13 108h94l14 -173l-66 -20q-63 -18 -85 -38.5t-22 -55.5q0 -33 23.5 -53t64.5 -20q33 0 70.5 16t66.5 41l59 -96q-55 -42 -103 -59t-106 -17q-88 0 -144.5 47.5t-56.5 124.5q0 68 37.5 114.5t112.5 71.5z" />
    <glyph glyph-name="exclamdown.case" unicode="&#xe1f7;" horiz-adv-x="298" 
d="M78 690h134v-140h-134v140zM106 469h84l36 -262v-207h-155v207z" />
    <glyph glyph-name="hyphen.case" unicode="&#xe1f8;" horiz-adv-x="432" 
d="M371 384v-95h-310v95h310z" />
    <glyph glyph-name="at.case" unicode="&#xe1fb;" horiz-adv-x="988" 
d="M132 323q0 -163 103.5 -253.5t287.5 -90.5q58 0 112.5 10t116.5 33l27 -71q-52 -25 -119 -38.5t-138 -13.5q-217 0 -349.5 116.5t-132.5 309.5q0 191 127 311.5t330 120.5q196 0 323.5 -110.5t127.5 -279.5q0 -119 -62 -196.5t-148 -77.5q-49 0 -80.5 17.5t-52.5 57.5
q-27 -35 -68 -55t-89 -20q-90 0 -145.5 64.5t-55.5 163.5q0 97 60 163t148 66q38 0 73 -17t65 -50v62h113v-300q0 -32 14.5 -50t40.5 -18q43 0 69 51.5t26 133.5q0 143 -97.5 227.5t-258.5 84.5q-171 0 -269.5 -94.5t-98.5 -256.5zM365 322q0 -57 32.5 -94.5t82.5 -37.5
q35 0 67 17.5t46 46.5v134q-15 29 -46 46.5t-66 17.5q-51 0 -83.5 -36.5t-32.5 -93.5z" />
    <glyph glyph-name="commaaccent" unicode="&#xf6c3;" 
d="M243 -191h-52v125h123v-69q0 -54 -22.5 -91.5t-69.5 -63.5l-31 24q22 14 35 33t17 42z" />
    </font>
</defs>
</svg>
