<?xml version="1.0" standalone="no"?> 
<!DOCTYPE svg PUBLIC "-//W3C//DTD SVG 1.1//EN" "http://www.w3.org/Graphics/SVG/1.1/DTD/svg11.dtd" >
<svg xmlns="http://www.w3.org/2000/svg">
<defs>
  <font id="ADGS Icons" horiz-adv-x="16">
    <font-face font-family="ADGS Icons"
      units-per-em="512" ascent="512"
      descent="0" />
    <missing-glyph horiz-adv-x="0" />
    <glyph glyph-name="activity"
      unicode="&#xF1F3;"
      horiz-adv-x="512" d=" M96 432L416 432C451.346224 432 480 403.346224 480 368L480 144C480 108.653776 451.346224 80 416 80L96 80C60.653776 80 32 108.653776 32 144L32 368C32 403.346224 60.653776 432 96 432zM106.388432 331.50614272C120.13418592 331.50614272 131.27732096 342.76298336 131.27732096 356.649C131.27732096 370.53501664 120.13418592 381.79185696 106.388432 381.79185696C92.6426784 381.79185696 81.49954304 370.53501664 81.49954304 356.649C81.49954304 342.76298336 92.6426784 331.50614272 106.388432 331.50614272zM206.6489312 381.68335424C192.7928768 381.68335424 181.56032544 370.45080288 181.56032544 356.59474848C181.56032544 342.73869408 192.7928768 331.50614272 206.6489312 331.50614272L405.4118496 331.50614272C419.267904 331.50614272 430.5004576 342.73869408 430.5004576 356.59474848C430.5004576 370.45080288 419.267904 381.68335424 405.4118496 381.68335424L206.6489312 381.68335424zM82.00476992 281.14285728L82.00476992 130.7396096L430.5004576 130.7396096L430.5004576 281.14285728L82.00476992 281.14285728z" />
    <glyph glyph-name="activity-1"
      unicode="&#x61;&#x63;&#x74;&#x69;&#x76;&#x69;&#x74;&#x79;"
      horiz-adv-x="512" d=" M96 432L416 432C451.346224 432 480 403.346224 480 368L480 144C480 108.653776 451.346224 80 416 80L96 80C60.653776 80 32 108.653776 32 144L32 368C32 403.346224 60.653776 432 96 432zM106.388432 331.50614272C120.13418592 331.50614272 131.27732096 342.76298336 131.27732096 356.649C131.27732096 370.53501664 120.13418592 381.79185696 106.388432 381.79185696C92.6426784 381.79185696 81.49954304 370.53501664 81.49954304 356.649C81.49954304 342.76298336 92.6426784 331.50614272 106.388432 331.50614272zM206.6489312 381.68335424C192.7928768 381.68335424 181.56032544 370.45080288 181.56032544 356.59474848C181.56032544 342.73869408 192.7928768 331.50614272 206.6489312 331.50614272L405.4118496 331.50614272C419.267904 331.50614272 430.5004576 342.73869408 430.5004576 356.59474848C430.5004576 370.45080288 419.267904 381.68335424 405.4118496 381.68335424L206.6489312 381.68335424zM82.00476992 281.14285728L82.00476992 130.7396096L430.5004576 130.7396096L430.5004576 281.14285728L82.00476992 281.14285728z" />
    <glyph glyph-name="add-circle"
      unicode="&#xF177;"
      horiz-adv-x="512" d=" M256 32C132.288216 32 32 132.2882176 32 256C32 379.711784 132.288216 480 256 480C379.7117824 480 480 379.711784 480 256C480 132.2882176 379.7117824 32 256 32zM234.63818432 346.53137504L234.63818432 277.36181568L165.46862496 277.36181568C153.63417888 277.36181568 144 267.8771696 144 256C144 244.20827776 153.63417888 234.63818432 165.46862496 234.63818432L234.63818432 234.63818432L234.63818432 165.468624C234.63818432 153.6341792 244.1228304 144 256 144C267.79172224 144 277.36181568 153.6341792 277.36181568 165.468624L277.36181568 234.63818432L346.531376 234.63818432C358.387184 234.63818432 368 244.1228304 368 256C368 267.79172224 358.3658208 277.36181568 346.531376 277.36181568L277.36181568 277.36181568L277.36181568 346.53137504C277.36181568 358.38718304 267.8771696 368 256 368C244.20827776 368 234.63818432 358.36582112 234.63818432 346.53137504z" />
    <glyph glyph-name="add-circle-1"
      unicode="&#x61;&#x64;&#x64;&#x2D;&#x63;&#x69;&#x72;&#x63;&#x6C;&#x65;"
      horiz-adv-x="512" d=" M256 32C132.288216 32 32 132.2882176 32 256C32 379.711784 132.288216 480 256 480C379.7117824 480 480 379.711784 480 256C480 132.2882176 379.7117824 32 256 32zM234.63818432 346.53137504L234.63818432 277.36181568L165.46862496 277.36181568C153.63417888 277.36181568 144 267.8771696 144 256C144 244.20827776 153.63417888 234.63818432 165.46862496 234.63818432L234.63818432 234.63818432L234.63818432 165.468624C234.63818432 153.6341792 244.1228304 144 256 144C267.79172224 144 277.36181568 153.6341792 277.36181568 165.468624L277.36181568 234.63818432L346.531376 234.63818432C358.387184 234.63818432 368 244.1228304 368 256C368 267.79172224 358.3658208 277.36181568 346.531376 277.36181568L277.36181568 277.36181568L277.36181568 346.53137504C277.36181568 358.38718304 267.8771696 368 256 368C244.20827776 368 234.63818432 358.36582112 234.63818432 346.53137504z" />
    <glyph glyph-name="add-comment"
      unicode="&#xF102;"
      horiz-adv-x="512" d=" M427.3140096 402.8405792L452.0131328 402.8405792C465.4047872 402.8405792 476.2608672 391.97768448 476.2608672 378.36714944C476.2608672 364.85084704 465.2239584 353.89371936 452.0131328 353.89371936L427.3140096 353.89371936L427.3140096 329.19459488C427.3140096 315.80294048 416.4511136 304.94685984 402.8405792 304.94685984C389.3242784000001 304.94685984 378.3671488 315.98376928 378.3671488 329.19459488L378.3671488 353.89371936L353.6680256 353.89371936C340.2763712000001 353.89371936 329.4202880000001 364.75661408 329.4202880000001 378.36714944C329.4202880000001 391.88345152 340.4572 402.8405792 353.6680256 402.8405792L378.3671488 402.8405792L378.3671488 427.53970368C378.3671488 440.93135808 389.2300448 451.78743872 402.8405792 451.78743872C416.35688 451.78743872 427.3140096 440.75052928 427.3140096 427.53970368L427.3140096 402.8405792zM304.94685984 447.2130460800001L304.94685984 397.17047776C289.43494528 400.81506816 273.008368 402.77318464 256.0122224 402.77318464C161.50819744 402.77318464 84.62895296 342.26508768 84.62895296 267.91046368C84.62895296 193.55584 161.50819744 133.047744 256.0122224 133.047744C350.4918016 133.047744 427.3710464 193.55584 427.3710464 267.91046368C427.3710464 272.14592288 427.1215904 276.33645312 426.6336352 280.47342976L475.752352 280.47342976C476.0895296 276.3216016 476.2608672 272.13241536 476.2608672 267.91046368C476.2608672 224.70439872 458.1716352 184.9783456 428.1532832 153.560208L429.0577472 154.050352C409.5507072 133.0967584 447.806992 77.7841728 447.806992 77.7841728L447.806992 77.759664L447.806992 77.7351584C448.44256 76.2402208 448.7847904 74.5982432 448.7847904 72.85824C448.7847904 65.8737088 443.1624608 60.21256 436.1956608 60.21256C434.777856 60.21256 433.4578304 60.6046752 432.1866944 61.021296L432.11336 60.947776C408.81736 64.5503232 377.3812032 78.004736 352.8385152 103.026512C323.5535104 90.9935136 290.77288576 84.033488 256.0122224 84.033488C134.5454608 84.033488 35.7391312 166.52448 35.7391312 267.91046368C35.7391312 369.29644896 134.5454608 451.78743872 256.0122224 451.78743872C272.8249872 451.78743872 289.20390368 450.20639232 304.94685984 447.2130460800001z" />
    <glyph glyph-name="add-comment-1"
      unicode="&#x61;&#x64;&#x64;&#x2D;&#x63;&#x6F;&#x6D;&#x6D;&#x65;&#x6E;&#x74;"
      horiz-adv-x="512" d=" M427.3140096 402.8405792L452.0131328 402.8405792C465.4047872 402.8405792 476.2608672 391.97768448 476.2608672 378.36714944C476.2608672 364.85084704 465.2239584 353.89371936 452.0131328 353.89371936L427.3140096 353.89371936L427.3140096 329.19459488C427.3140096 315.80294048 416.4511136 304.94685984 402.8405792 304.94685984C389.3242784000001 304.94685984 378.3671488 315.98376928 378.3671488 329.19459488L378.3671488 353.89371936L353.6680256 353.89371936C340.2763712000001 353.89371936 329.4202880000001 364.75661408 329.4202880000001 378.36714944C329.4202880000001 391.88345152 340.4572 402.8405792 353.6680256 402.8405792L378.3671488 402.8405792L378.3671488 427.53970368C378.3671488 440.93135808 389.2300448 451.78743872 402.8405792 451.78743872C416.35688 451.78743872 427.3140096 440.75052928 427.3140096 427.53970368L427.3140096 402.8405792zM304.94685984 447.2130460800001L304.94685984 397.17047776C289.43494528 400.81506816 273.008368 402.77318464 256.0122224 402.77318464C161.50819744 402.77318464 84.62895296 342.26508768 84.62895296 267.91046368C84.62895296 193.55584 161.50819744 133.047744 256.0122224 133.047744C350.4918016 133.047744 427.3710464 193.55584 427.3710464 267.91046368C427.3710464 272.14592288 427.1215904 276.33645312 426.6336352 280.47342976L475.752352 280.47342976C476.0895296 276.3216016 476.2608672 272.13241536 476.2608672 267.91046368C476.2608672 224.70439872 458.1716352 184.9783456 428.1532832 153.560208L429.0577472 154.050352C409.5507072 133.0967584 447.806992 77.7841728 447.806992 77.7841728L447.806992 77.759664L447.806992 77.7351584C448.44256 76.2402208 448.7847904 74.5982432 448.7847904 72.85824C448.7847904 65.8737088 443.1624608 60.21256 436.1956608 60.21256C434.777856 60.21256 433.4578304 60.6046752 432.1866944 61.021296L432.11336 60.947776C408.81736 64.5503232 377.3812032 78.004736 352.8385152 103.026512C323.5535104 90.9935136 290.77288576 84.033488 256.0122224 84.033488C134.5454608 84.033488 35.7391312 166.52448 35.7391312 267.91046368C35.7391312 369.29644896 134.5454608 451.78743872 256.0122224 451.78743872C272.8249872 451.78743872 289.20390368 450.20639232 304.94685984 447.2130460800001z" />
    <glyph glyph-name="add-item"
      unicode="&#xF1F4;"
      horiz-adv-x="512" d=" M424 424L448 424C461.2548352 424 472 413.25483392 472 400C472 386.74516608 461.2548352 376 448 376L424 376L424 351.77867136C424 338.6460736 413.3472448 328 400 328C386.7451648 328 376 338.82340416 376 351.77867136L376 376L352 376C338.7451648 376 328 386.74516608 328 400C328 413.25483392 338.7451648 424 352 424L376 424L376 448.22132864C376 461.3539264 386.6527552 472 400 472C413.2548352 472 424 461.17659584 424 448.22132864L424 424zM280 472L280 424L88 424L88 88L424 88L424 280L472 280L472 87.882144C472 61.4375648 450.5770528 40 424.117856 40L87.88214304 40C61.43756576 40 40 61.4229472 40 87.882144L40 424.11785696C40 450.56243424 61.4229472 472 87.88214304 472L280 472z" />
    <glyph glyph-name="add-item-1"
      unicode="&#x61;&#x64;&#x64;&#x2D;&#x69;&#x74;&#x65;&#x6D;"
      horiz-adv-x="512" d=" M424 424L448 424C461.2548352 424 472 413.25483392 472 400C472 386.74516608 461.2548352 376 448 376L424 376L424 351.77867136C424 338.6460736 413.3472448 328 400 328C386.7451648 328 376 338.82340416 376 351.77867136L376 376L352 376C338.7451648 376 328 386.74516608 328 400C328 413.25483392 338.7451648 424 352 424L376 424L376 448.22132864C376 461.3539264 386.6527552 472 400 472C413.2548352 472 424 461.17659584 424 448.22132864L424 424zM280 472L280 424L88 424L88 88L424 88L424 280L472 280L472 87.882144C472 61.4375648 450.5770528 40 424.117856 40L87.88214304 40C61.43756576 40 40 61.4229472 40 87.882144L40 424.11785696C40 450.56243424 61.4229472 472 87.88214304 472L280 472z" />
    <glyph glyph-name="add"
      unicode="&#xF101;"
      horiz-adv-x="512" d=" M416 288C433.6731104 288 448 273.673112 448 256C448 238.326888 433.6731104 224 416 224L288 224L288 96C288 78.3268896 273.673112 64 256 64C238.326888 64 224 78.3268896 224 96L224 224L96 224C78.326888 224 64 238.326888 64 256C64 273.673112 78.326888 288 96 288L224 288L224 416C224 433.673112 238.326888 448 256 448C273.673112 448 288 433.673112 288 416L288 288L416 288z" />
    <glyph glyph-name="add-1"
      unicode="&#xF103;"
      horiz-adv-x="512" d=" M416 288C433.6731104 288 448 273.673112 448 256C448 238.326888 433.6731104 224 416 224L288 224L288 96C288 78.3268896 273.673112 64 256 64C238.326888 64 224 78.3268896 224 96L224 224L96 224C78.326888 224 64 238.326888 64 256C64 273.673112 78.326888 288 96 288L224 288L224 416C224 433.673112 238.326888 448 256 448C273.673112 448 288 433.673112 288 416L288 288L416 288z" />
    <glyph glyph-name="add-2"
      unicode="&#x61;&#x64;&#x64;"
      horiz-adv-x="512" d=" M416 288C433.6731104 288 448 273.673112 448 256C448 238.326888 433.6731104 224 416 224L288 224L288 96C288 78.3268896 273.673112 64 256 64C238.326888 64 224 78.3268896 224 96L224 224L96 224C78.326888 224 64 238.326888 64 256C64 273.673112 78.326888 288 96 288L224 288L224 416C224 433.673112 238.326888 448 256 448C273.673112 448 288 433.673112 288 416L288 288L416 288z" />
    <glyph glyph-name="addon"
      unicode="&#xF1F5;"
      horiz-adv-x="512" d=" M95.37351104 390.46325472L222.63898176 465.73328096C241.83983328 477.08945312 270.2254112 477.05086464 289.36101824 465.73328096L416.6264896 390.46325472C435.8273408 379.10708288 449.9875072 353.9051936 449.9875072 331.27002624L449.9875072 180.7299744C449.9875072 158.0176288 435.762096 132.8543296 416.6264896 121.5367456L289.36101824 46.26672C270.16016672 34.9105472 241.7745888 34.949136 222.63898176 46.26672L95.37351104 121.5367456C76.17265952 132.8929184 62.0124928 158.0948064 62.0124928 180.7299744L62.0124928 331.27002624C62.0124928 353.98237024 76.237904 379.14567104 95.37351104 390.46325472zM264.89298912 422.31908928C260.87686304 424.6943910400001 251.14550464 424.7076201600001 247.10701088 422.31908928L119.84154016 347.04906304C115.82541408 344.67376128 110.94855104 336.0470880000001 110.94855104 331.27002624L110.94855104 180.7299744C110.94855104 175.9793696 115.8030464 167.3394688 119.84154016 164.9509376L247.10701088 89.680912C251.12313696 87.3056096 260.85449536 87.2923808 264.89298912 89.680912L392.1584608 164.9509376C396.1745856 167.32624 401.0514496 175.952912 401.0514496 180.7299744L401.0514496 331.27002624C401.0514496 336.02062976 396.1969536 344.66053216 392.1584608 347.04906304L264.89298912 422.31908928zM256 159.0062464C202.43182912 159.0062464 159.0062464 202.43182912 159.0062464 256C159.0062464 309.5681708800001 202.43182912 352.9937536 256 352.9937536C309.5681708800001 352.9937536 352.9937536 309.5681708800001 352.9937536 256C352.9937536 202.43182912 309.5681708800001 159.0062464 256 159.0062464zM256 207.5031232C282.78408544 207.5031232 304.4968768 229.21591456 304.4968768 256C304.4968768 282.78408544 282.78408544 304.4968768 256 304.4968768C229.21591456 304.4968768 207.5031232 282.78408544 207.5031232 256C207.5031232 229.21591456 229.21591456 207.5031232 256 207.5031232z" />
    <glyph glyph-name="addon-1"
      unicode="&#x61;&#x64;&#x64;&#x6F;&#x6E;"
      horiz-adv-x="512" d=" M95.37351104 390.46325472L222.63898176 465.73328096C241.83983328 477.08945312 270.2254112 477.05086464 289.36101824 465.73328096L416.6264896 390.46325472C435.8273408 379.10708288 449.9875072 353.9051936 449.9875072 331.27002624L449.9875072 180.7299744C449.9875072 158.0176288 435.762096 132.8543296 416.6264896 121.5367456L289.36101824 46.26672C270.16016672 34.9105472 241.7745888 34.949136 222.63898176 46.26672L95.37351104 121.5367456C76.17265952 132.8929184 62.0124928 158.0948064 62.0124928 180.7299744L62.0124928 331.27002624C62.0124928 353.98237024 76.237904 379.14567104 95.37351104 390.46325472zM264.89298912 422.31908928C260.87686304 424.6943910400001 251.14550464 424.7076201600001 247.10701088 422.31908928L119.84154016 347.04906304C115.82541408 344.67376128 110.94855104 336.0470880000001 110.94855104 331.27002624L110.94855104 180.7299744C110.94855104 175.9793696 115.8030464 167.3394688 119.84154016 164.9509376L247.10701088 89.680912C251.12313696 87.3056096 260.85449536 87.2923808 264.89298912 89.680912L392.1584608 164.9509376C396.1745856 167.32624 401.0514496 175.952912 401.0514496 180.7299744L401.0514496 331.27002624C401.0514496 336.02062976 396.1969536 344.66053216 392.1584608 347.04906304L264.89298912 422.31908928zM256 159.0062464C202.43182912 159.0062464 159.0062464 202.43182912 159.0062464 256C159.0062464 309.5681708800001 202.43182912 352.9937536 256 352.9937536C309.5681708800001 352.9937536 352.9937536 309.5681708800001 352.9937536 256C352.9937536 202.43182912 309.5681708800001 159.0062464 256 159.0062464zM256 207.5031232C282.78408544 207.5031232 304.4968768 229.21591456 304.4968768 256C304.4968768 282.78408544 282.78408544 304.4968768 256 304.4968768C229.21591456 304.4968768 207.5031232 282.78408544 207.5031232 256C207.5031232 229.21591456 229.21591456 207.5031232 256 207.5031232z" />
    <glyph glyph-name="advanced"
      unicode="&#xF154;"
      horiz-adv-x="512" d=" M185.6 96L160 32L96 32L120.4123712 96L185.6 96zM157.03092768 192L218.06185568 352L293.93814432 352L354.969072 192L293.3333344 192L256 304L218.6666656 192L157.03092768 192zM391.5876288 96L416 32L352 32L326.4 96L391.5876288 96zM32 160L480 160L480 128L32 128L32 160zM448 480L448 448L384 448L384 384L448 384L448 352L352 352L352 480L448 480zM448 448L480 448L480 384L448 384L448 448z" />
    <glyph glyph-name="advanced-1"
      unicode="&#x61;&#x64;&#x76;&#x61;&#x6E;&#x63;&#x65;&#x64;"
      horiz-adv-x="512" d=" M185.6 96L160 32L96 32L120.4123712 96L185.6 96zM157.03092768 192L218.06185568 352L293.93814432 352L354.969072 192L293.3333344 192L256 304L218.6666656 192L157.03092768 192zM391.5876288 96L416 32L352 32L326.4 96L391.5876288 96zM32 160L480 160L480 128L32 128L32 160zM448 480L448 448L384 448L384 384L448 384L448 352L352 352L352 480L448 480zM448 448L480 448L480 384L448 384L448 448z" />
    <glyph glyph-name="app-access"
      unicode="&#xF1F6;"
      horiz-adv-x="512" d=" M270.2747888 266.5332640000001C234.32379072 242.08746944 210.71027584 200.85041088 210.71027584 154.0981216C210.71027584 121.2929024 222.33655392 91.2031488 241.69349184 67.7244736C161.711528 54.5233216 52.1962416 72.3989632 52.1962416 121.351392C52.1962416 44.2411008 52.1962416 204.0876064 52.1962416 204.0876064C52.1962416 239.01123584 80.76340608 267.32243104 115.90681024 267.32243104L260.2240176 267.32243104C263.64390016 267.32243104 267.000848 267.05269024 270.2747888 266.5332640000001zM188.06541376 289.96729312C138.03976608 289.96729312 97.48596576 330.52109344 97.48596576 380.54674112C97.48596576 430.5723891200001 138.03976608 471.12618912 188.06541376 471.12618912C238.09106176 471.12618912 278.64486208 430.5723891200001 278.64486208 380.54674112C278.64486208 330.52109344 238.09106176 289.96729312 188.06541376 289.96729312zM346.5794496 40.8738112C284.0473881600001 40.8738112 233.35513792 91.5660608 233.35513792 154.0981216C233.35513792 216.6301808 284.0473881600001 267.32243104 346.5794496 267.32243104C409.1115072 267.32243104 459.8037568 216.6301808 459.8037568 154.0981216C459.8037568 91.5660608 409.1115072 40.8738112 346.5794496 40.8738112zM316.55627104 101.310416C324.6942688 93.1724192 337.8690816 93.1724192 346.0070784 101.3312288L408.4469504 163.875168C416.5433216 172.0131648 416.5433216 185.1879776 408.4053248 193.30516064C400.3089536 201.40153088 387.092512 201.44315744 378.9753312000001 193.26353408L331.2504544 145.4762176L314.16274272 162.5639296C306.0455593600001 170.6811136 292.87074624 170.6811136 284.73274944 162.5639296C276.61556608 154.4259328 276.61556608 141.25112 284.73274944 133.133936L316.55627104 101.310416z" />
    <glyph glyph-name="app-access-1"
      unicode="&#x61;&#x70;&#x70;&#x2D;&#x61;&#x63;&#x63;&#x65;&#x73;&#x73;"
      horiz-adv-x="512" d=" M270.2747888 266.5332640000001C234.32379072 242.08746944 210.71027584 200.85041088 210.71027584 154.0981216C210.71027584 121.2929024 222.33655392 91.2031488 241.69349184 67.7244736C161.711528 54.5233216 52.1962416 72.3989632 52.1962416 121.351392C52.1962416 44.2411008 52.1962416 204.0876064 52.1962416 204.0876064C52.1962416 239.01123584 80.76340608 267.32243104 115.90681024 267.32243104L260.2240176 267.32243104C263.64390016 267.32243104 267.000848 267.05269024 270.2747888 266.5332640000001zM188.06541376 289.96729312C138.03976608 289.96729312 97.48596576 330.52109344 97.48596576 380.54674112C97.48596576 430.5723891200001 138.03976608 471.12618912 188.06541376 471.12618912C238.09106176 471.12618912 278.64486208 430.5723891200001 278.64486208 380.54674112C278.64486208 330.52109344 238.09106176 289.96729312 188.06541376 289.96729312zM346.5794496 40.8738112C284.0473881600001 40.8738112 233.35513792 91.5660608 233.35513792 154.0981216C233.35513792 216.6301808 284.0473881600001 267.32243104 346.5794496 267.32243104C409.1115072 267.32243104 459.8037568 216.6301808 459.8037568 154.0981216C459.8037568 91.5660608 409.1115072 40.8738112 346.5794496 40.8738112zM316.55627104 101.310416C324.6942688 93.1724192 337.8690816 93.1724192 346.0070784 101.3312288L408.4469504 163.875168C416.5433216 172.0131648 416.5433216 185.1879776 408.4053248 193.30516064C400.3089536 201.40153088 387.092512 201.44315744 378.9753312000001 193.26353408L331.2504544 145.4762176L314.16274272 162.5639296C306.0455593600001 170.6811136 292.87074624 170.6811136 284.73274944 162.5639296C276.61556608 154.4259328 276.61556608 141.25112 284.73274944 133.133936L316.55627104 101.310416z" />
    <glyph glyph-name="app-switcher"
      unicode="&#xF1F7;"
      horiz-adv-x="512" d=" M16 512L112 512C120.83655584 512 128 504.836556 128 496L128 400C128 391.16344416 120.83655584 384 112 384L16 384C7.163444 384 0 391.16344416 0 400L0 496C0 504.836556 7.163444 512 16 512zM208 512L304 512C312.83655584 512 320 504.836556 320 496L320 400C320 391.16344416 312.83655584 384 304 384L208 384C199.16344416 384 192 391.16344416 192 400L192 496C192 504.836556 199.16344416 512 208 512zM16 320L112 320C120.83655584 320 128 312.83655584 128 304L128 208C128 199.16344416 120.83655584 192 112 192L16 192C7.163444 192 0 199.16344416 0 208L0 304C0 312.83655584 7.163444 320 16 320zM208 320L304 320C312.83655584 320 320 312.83655584 320 304L320 208C320 199.16344416 312.83655584 192 304 192L208 192C199.16344416 192 192 199.16344416 192 208L192 304C192 312.83655584 199.16344416 320 208 320zM400 320L496 320C504.8365568 320 512 312.83655584 512 304L512 208C512 199.16344416 504.8365568 192 496 192L400 192C391.1634432 192 384 199.16344416 384 208L384 304C384 312.83655584 391.1634432 320 400 320zM16 128L112 128C120.83655584 128 128 120.8365568 128 112L128 16C128 7.1634432 120.83655584 0 112 0L16 0C7.163444 0 0 7.1634432 0 16L0 112C0 120.8365568 7.163444 128 16 128zM208 128L304 128C312.83655584 128 320 120.8365568 320 112L320 16C320 7.1634432 312.83655584 0 304 0L208 0C199.16344416 0 192 7.1634432 192 16L192 112C192 120.8365568 199.16344416 128 208 128zM400 128L496 128C504.8365568 128 512 120.8365568 512 112L512 16C512 7.1634432 504.8365568 0 496 0L400 0C391.1634432 0 384 7.1634432 384 16L384 112C384 120.8365568 391.1634432 128 400 128zM400 512L496 512C504.8365568 512 512 504.836556 512 496L512 400C512 391.16344416 504.8365568 384 496 384L400 384C391.1634432 384 384 391.16344416 384 400L384 496C384 504.836556 391.1634432 512 400 512z" />
    <glyph glyph-name="app-switcher-1"
      unicode="&#x61;&#x70;&#x70;&#x2D;&#x73;&#x77;&#x69;&#x74;&#x63;&#x68;&#x65;&#x72;"
      horiz-adv-x="512" d=" M16 512L112 512C120.83655584 512 128 504.836556 128 496L128 400C128 391.16344416 120.83655584 384 112 384L16 384C7.163444 384 0 391.16344416 0 400L0 496C0 504.836556 7.163444 512 16 512zM208 512L304 512C312.83655584 512 320 504.836556 320 496L320 400C320 391.16344416 312.83655584 384 304 384L208 384C199.16344416 384 192 391.16344416 192 400L192 496C192 504.836556 199.16344416 512 208 512zM16 320L112 320C120.83655584 320 128 312.83655584 128 304L128 208C128 199.16344416 120.83655584 192 112 192L16 192C7.163444 192 0 199.16344416 0 208L0 304C0 312.83655584 7.163444 320 16 320zM208 320L304 320C312.83655584 320 320 312.83655584 320 304L320 208C320 199.16344416 312.83655584 192 304 192L208 192C199.16344416 192 192 199.16344416 192 208L192 304C192 312.83655584 199.16344416 320 208 320zM400 320L496 320C504.8365568 320 512 312.83655584 512 304L512 208C512 199.16344416 504.8365568 192 496 192L400 192C391.1634432 192 384 199.16344416 384 208L384 304C384 312.83655584 391.1634432 320 400 320zM16 128L112 128C120.83655584 128 128 120.8365568 128 112L128 16C128 7.1634432 120.83655584 0 112 0L16 0C7.163444 0 0 7.1634432 0 16L0 112C0 120.8365568 7.163444 128 16 128zM208 128L304 128C312.83655584 128 320 120.8365568 320 112L320 16C320 7.1634432 312.83655584 0 304 0L208 0C199.16344416 0 192 7.1634432 192 16L192 112C192 120.8365568 199.16344416 128 208 128zM400 128L496 128C504.8365568 128 512 120.8365568 512 112L512 16C512 7.1634432 504.8365568 0 496 0L400 0C391.1634432 0 384 7.1634432 384 16L384 112C384 120.8365568 391.1634432 128 400 128zM400 512L496 512C504.8365568 512 512 504.836556 512 496L512 400C512 391.16344416 504.8365568 384 496 384L400 384C391.1634432 384 384 391.16344416 384 400L384 496C384 504.836556 391.1634432 512 400 512z" />
    <glyph glyph-name="approve"
      unicode="&#xF104;"
      horiz-adv-x="512" d=" M256 31.9687488C132.27095712 31.9687488 31.968750016 132.2709568 31.968750016 256C31.968750016 379.72904288 132.27095712 480.031249984 256 480.031249984C379.7290432 480.031249984 480.0312512 379.72904288 480.0312512 256C480.0312512 132.2709568 379.7290432 31.9687488 256 31.9687488zM182.62741696 278.62741696C170.13063968 291.12419424 149.86936032 291.12419424 137.37258304 278.62741696C124.87580576 266.13063968 124.87580576 245.86936032 137.37258304 233.37258304L201.37258304 169.3725824C213.86936032 156.8758048 234.13063968 156.8758048 246.62741696 169.3725824L374.6274176 297.37258304C387.1241952 309.86936032 387.1241952 330.13063968 374.6274176 342.62741696C362.1306400000001 355.12419424 341.86936 355.12419424 329.3725824 342.62741696L224 237.25483392L182.62741696 278.62741696z" />
    <glyph glyph-name="approve-1"
      unicode="&#x61;&#x70;&#x70;&#x72;&#x6F;&#x76;&#x65;"
      horiz-adv-x="512" d=" M256 31.9687488C132.27095712 31.9687488 31.968750016 132.2709568 31.968750016 256C31.968750016 379.72904288 132.27095712 480.031249984 256 480.031249984C379.7290432 480.031249984 480.0312512 379.72904288 480.0312512 256C480.0312512 132.2709568 379.7290432 31.9687488 256 31.9687488zM182.62741696 278.62741696C170.13063968 291.12419424 149.86936032 291.12419424 137.37258304 278.62741696C124.87580576 266.13063968 124.87580576 245.86936032 137.37258304 233.37258304L201.37258304 169.3725824C213.86936032 156.8758048 234.13063968 156.8758048 246.62741696 169.3725824L374.6274176 297.37258304C387.1241952 309.86936032 387.1241952 330.13063968 374.6274176 342.62741696C362.1306400000001 355.12419424 341.86936 355.12419424 329.3725824 342.62741696L224 237.25483392L182.62741696 278.62741696z" />
    <glyph glyph-name="arrow-down-circle"
      unicode="&#xF1F8;"
      horiz-adv-x="512" d=" M256 32C132.288216 32 32 132.2882176 32 256C32 379.711784 132.288216 480 256 480C379.7117824 480 480 379.711784 480 256C480 132.2882176 379.7117824 32 256 32zM233.4656 345.6L233.4656 292.3552L233.4656 249.5488000000001L233.4656 220.4736L204.816 248.9664C196.0352 257.7024 181.8112 257.7024 172.9856 248.9664C168.5952 244.576 166.4 238.8416000000001 166.4 233.1296C166.4 227.3952 168.5952 221.6608 172.9856 217.248L240.0512 150.5632C244.4416 146.1952 250.1984 144 255.9776 144C261.7344 144 267.5136 146.1952 271.9264 150.5632L338.992 217.248C347.7952 226.0288 347.7952 240.2080000000001 338.992 248.9664C330.1888 257.7024 315.9424 257.7024 307.1616 248.9664L278.512 220.4736L278.512 249.5488000000001L278.512 292.3552L278.512 345.6C278.512 357.9648 268.432 368 256 368C243.568 368 233.4656 357.9648 233.4656 345.6z" />
    <glyph glyph-name="arrow-down-circle-1"
      unicode="&#x61;&#x72;&#x72;&#x6F;&#x77;&#x2D;&#x64;&#x6F;&#x77;&#x6E;&#x2D;&#x63;&#x69;&#x72;&#x63;&#x6C;&#x65;"
      horiz-adv-x="512" d=" M256 32C132.288216 32 32 132.2882176 32 256C32 379.711784 132.288216 480 256 480C379.7117824 480 480 379.711784 480 256C480 132.2882176 379.7117824 32 256 32zM233.4656 345.6L233.4656 292.3552L233.4656 249.5488000000001L233.4656 220.4736L204.816 248.9664C196.0352 257.7024 181.8112 257.7024 172.9856 248.9664C168.5952 244.576 166.4 238.8416000000001 166.4 233.1296C166.4 227.3952 168.5952 221.6608 172.9856 217.248L240.0512 150.5632C244.4416 146.1952 250.1984 144 255.9776 144C261.7344 144 267.5136 146.1952 271.9264 150.5632L338.992 217.248C347.7952 226.0288 347.7952 240.2080000000001 338.992 248.9664C330.1888 257.7024 315.9424 257.7024 307.1616 248.9664L278.512 220.4736L278.512 249.5488000000001L278.512 292.3552L278.512 345.6C278.512 357.9648 268.432 368 256 368C243.568 368 233.4656 357.9648 233.4656 345.6z" />
    <glyph glyph-name="arrow-down-left"
      unicode="&#xF1F9;"
      horiz-adv-x="512" d=" M300.973952 119.953952C295.181952 114.161952 287.181952 110.577952 278.317952 110.577952L143.149952 110.961952C125.421952 111.057952 111.021952 125.425952 110.989952 143.153952L110.573952 278.28995232C110.637952 287.1539523200001 114.157952 295.18595232 119.981952 300.97795232C125.709952 306.73795232 133.741952 310.28995232 142.605952 310.3219523200001C160.333952 310.2259523200001 174.701952 295.85795232 174.797952 278.1299523200001L174.957952 220.43395232L204.301952 249.77795232L247.565952 293.04195232L346.605952 392.04995232C359.085952 404.59395232 379.437952 404.52995232 391.981952 391.95395232C404.525952 379.40995232 404.589952 359.08995232 392.077952 346.57795232L293.037952 247.53795232L249.773952 204.30595232L220.429952 174.961952L278.157952 174.769952C295.853952 174.705952 310.2539520000001 160.305952 310.317952 142.609952C310.349952 133.745952 306.7659520000001 125.745952 300.973952 119.953952" />
    <glyph glyph-name="arrow-down-left-1"
      unicode="&#x61;&#x72;&#x72;&#x6F;&#x77;&#x2D;&#x64;&#x6F;&#x77;&#x6E;&#x2D;&#x6C;&#x65;&#x66;&#x74;"
      horiz-adv-x="512" d=" M300.973952 119.953952C295.181952 114.161952 287.181952 110.577952 278.317952 110.577952L143.149952 110.961952C125.421952 111.057952 111.021952 125.425952 110.989952 143.153952L110.573952 278.28995232C110.637952 287.1539523200001 114.157952 295.18595232 119.981952 300.97795232C125.709952 306.73795232 133.741952 310.28995232 142.605952 310.3219523200001C160.333952 310.2259523200001 174.701952 295.85795232 174.797952 278.1299523200001L174.957952 220.43395232L204.301952 249.77795232L247.565952 293.04195232L346.605952 392.04995232C359.085952 404.59395232 379.437952 404.52995232 391.981952 391.95395232C404.525952 379.40995232 404.589952 359.08995232 392.077952 346.57795232L293.037952 247.53795232L249.773952 204.30595232L220.429952 174.961952L278.157952 174.769952C295.853952 174.705952 310.2539520000001 160.305952 310.317952 142.609952C310.349952 133.745952 306.7659520000001 125.745952 300.973952 119.953952" />
    <glyph glyph-name="arrow-down-right"
      unicode="&#xF1FA;"
      horiz-adv-x="512" d=" M392.072032 300.973952C397.864032 295.181952 401.416032 287.149952 401.416032 278.317952L401.064032 143.149952C400.968032 125.421952 386.568032 111.021952 368.872032 110.989952L233.73603072 110.573952C224.84003072 110.637952 216.84003072 114.157952 211.01603072 119.981952C205.28803072 125.709952 201.73603072 133.741952 201.70403072 142.605952C201.80003072 160.333952 216.16803072 174.701952 233.89603072 174.765952L291.5920307200001 174.957952L262.21603072 204.301952L218.98403072 247.565952L119.94403072 346.573952C107.43203072 359.085952 107.46403072 379.437952 120.04003072 391.981952C132.61603072 404.525952 152.90403072 404.589952 165.41603072 392.077952L264.48803072 293.037952L307.72003072 249.773952L337.064032 220.429952L337.256032 278.157952C337.3200320000001 295.853952 351.688032 310.2539520000001 369.416032 310.317952C378.280032 310.317952 386.280032 306.765952 392.072032 300.973952" />
    <glyph glyph-name="arrow-down-right-1"
      unicode="&#x61;&#x72;&#x72;&#x6F;&#x77;&#x2D;&#x64;&#x6F;&#x77;&#x6E;&#x2D;&#x72;&#x69;&#x67;&#x68;&#x74;"
      horiz-adv-x="512" d=" M392.072032 300.973952C397.864032 295.181952 401.416032 287.149952 401.416032 278.317952L401.064032 143.149952C400.968032 125.421952 386.568032 111.021952 368.872032 110.989952L233.73603072 110.573952C224.84003072 110.637952 216.84003072 114.157952 211.01603072 119.981952C205.28803072 125.709952 201.73603072 133.741952 201.70403072 142.605952C201.80003072 160.333952 216.16803072 174.701952 233.89603072 174.765952L291.5920307200001 174.957952L262.21603072 204.301952L218.98403072 247.565952L119.94403072 346.573952C107.43203072 359.085952 107.46403072 379.437952 120.04003072 391.981952C132.61603072 404.525952 152.90403072 404.589952 165.41603072 392.077952L264.48803072 293.037952L307.72003072 249.773952L337.064032 220.429952L337.256032 278.157952C337.3200320000001 295.853952 351.688032 310.2539520000001 369.416032 310.317952C378.280032 310.317952 386.280032 306.765952 392.072032 300.973952" />
    <glyph glyph-name="arrow-down-small"
      unicode="&#xF1D3;"
      horiz-adv-x="512" d=" M137.34 326.608C124.892 314.064 124.892 293.7440000000001 137.34 281.2L231.388 186.32C238.364 179.44 247.388 176.016 256.316 176.016C265.2440000000001 176.016 274.108 179.44 280.924 186.32L374.6840000000001 280.88C387.1 293.424 387.1 313.7440000000001 374.6840000000001 326.288C362.236 338.832 342.108 338.832 329.692 326.288L256.156 252.144L182.332 326.608C176.124 332.848 167.964 335.9840000000001 159.836 335.9840000000001C151.676 335.9840000000001 143.516 332.848 137.34 326.608z" />
    <glyph glyph-name="arrow-down-small-1"
      unicode="&#x61;&#x72;&#x72;&#x6F;&#x77;&#x2D;&#x64;&#x6F;&#x77;&#x6E;&#x2D;&#x73;&#x6D;&#x61;&#x6C;&#x6C;"
      horiz-adv-x="512" d=" M137.34 326.608C124.892 314.064 124.892 293.7440000000001 137.34 281.2L231.388 186.32C238.364 179.44 247.388 176.016 256.316 176.016C265.2440000000001 176.016 274.108 179.44 280.924 186.32L374.6840000000001 280.88C387.1 293.424 387.1 313.7440000000001 374.6840000000001 326.288C362.236 338.832 342.108 338.832 329.692 326.288L256.156 252.144L182.332 326.608C176.124 332.848 167.964 335.9840000000001 159.836 335.9840000000001C151.676 335.9840000000001 143.516 332.848 137.34 326.608z" />
    <glyph glyph-name="arrow-down"
      unicode="&#xF140;"
      horiz-adv-x="512" d=" M384 191.304C384 183.112 380.864 174.92 374.592 168.648L278.752 73.352C266.144 60.872 245.792 60.872 233.248 73.352L137.408 168.648C131.168 174.952 128 183.112 128 191.336C128 199.464 131.168 207.656 137.408 213.928C150.016 226.408 170.336 226.408 182.912 213.928L223.84 173.256L223.84 214.76L223.84 275.9120000000001L223.84 415.976C223.84 433.6720000000001 238.24 448.008 256 448.008C273.76 448.008 288.1600000000001 433.6720000000001 288.1600000000001 415.976L288.1600000000001 275.9120000000001L288.1600000000001 214.76L288.1600000000001 173.256L329.088 213.928C341.664 226.408 362.016 226.408 374.592 213.928C380.864 207.688 384 199.496 384 191.304" />
    <glyph glyph-name="arrow-down-1"
      unicode="&#x61;&#x72;&#x72;&#x6F;&#x77;&#x2D;&#x64;&#x6F;&#x77;&#x6E;"
      horiz-adv-x="512" d=" M384 191.304C384 183.112 380.864 174.92 374.592 168.648L278.752 73.352C266.144 60.872 245.792 60.872 233.248 73.352L137.408 168.648C131.168 174.952 128 183.112 128 191.336C128 199.464 131.168 207.656 137.408 213.928C150.016 226.408 170.336 226.408 182.912 213.928L223.84 173.256L223.84 214.76L223.84 275.9120000000001L223.84 415.976C223.84 433.6720000000001 238.24 448.008 256 448.008C273.76 448.008 288.1600000000001 433.6720000000001 288.1600000000001 415.976L288.1600000000001 275.9120000000001L288.1600000000001 214.76L288.1600000000001 173.256L329.088 213.928C341.664 226.408 362.016 226.408 374.592 213.928C380.864 207.688 384 199.496 384 191.304" />
    <glyph glyph-name="arrow-left-circle"
      unicode="&#xF1FB;"
      horiz-adv-x="512" d=" M32 256C32 132.288 132.288 32 256 32C379.712 32 480 132.288 480 256C480 379.712 379.712 480 256 480C132.288 480 32 379.712 32 256zM217.248 172.992L150.56 240.064C146.176 244.512 144 250.272 144 256.0320000000001C144 261.824 146.176 267.552 150.56 271.9360000000001L217.248 339.0080000000001C221.664 343.392 227.392 345.6 233.12 345.6C238.848 345.6 244.544 343.392 248.96 339.0080000000001C257.6960000000001 330.176 257.6960000000001 315.968 248.96 307.2L220.48 278.528L249.568 278.528L292.32 278.528L345.6 278.528C357.984 278.528 368 268.448 368 256C368 243.552 357.984 233.504 345.6 233.504L292.32 233.504L249.568 233.504L220.48 233.504L248.96 204.832C257.6960000000001 196.064 257.6960000000001 181.792 248.96 172.992C244.576 168.576 238.848 166.4 233.12 166.4C227.392 166.4 221.632 168.576 217.248 172.992z" />
    <glyph glyph-name="arrow-left-circle-1"
      unicode="&#x61;&#x72;&#x72;&#x6F;&#x77;&#x2D;&#x6C;&#x65;&#x66;&#x74;&#x2D;&#x63;&#x69;&#x72;&#x63;&#x6C;&#x65;"
      horiz-adv-x="512" d=" M32 256C32 132.288 132.288 32 256 32C379.712 32 480 132.288 480 256C480 379.712 379.712 480 256 480C132.288 480 32 379.712 32 256zM217.248 172.992L150.56 240.064C146.176 244.512 144 250.272 144 256.0320000000001C144 261.824 146.176 267.552 150.56 271.9360000000001L217.248 339.0080000000001C221.664 343.392 227.392 345.6 233.12 345.6C238.848 345.6 244.544 343.392 248.96 339.0080000000001C257.6960000000001 330.176 257.6960000000001 315.968 248.96 307.2L220.48 278.528L249.568 278.528L292.32 278.528L345.6 278.528C357.984 278.528 368 268.448 368 256C368 243.552 357.984 233.504 345.6 233.504L292.32 233.504L249.568 233.504L220.48 233.504L248.96 204.832C257.6960000000001 196.064 257.6960000000001 181.792 248.96 172.992C244.576 168.576 238.848 166.4 233.12 166.4C227.392 166.4 221.632 168.576 217.248 172.992z" />
    <glyph glyph-name="arrow-left"
      unicode="&#xF125;"
      horiz-adv-x="512" d=" M191.304 128C183.112 128 174.92 131.136 168.648 137.408L73.352 233.248C60.872 245.856 60.872 266.208 73.352 278.752L168.648 374.592C174.952 380.832 183.112 384 191.336 384C199.464 384 207.656 380.832 213.928 374.592C226.408 361.9840000000001 226.408 341.664 213.928 329.088L173.256 288.16L214.76 288.16L275.912 288.16L415.976 288.16C433.6720000000001 288.16 448.008 273.76 448.008 256C448.008 238.24 433.6720000000001 223.84 415.976 223.84L275.912 223.84L214.76 223.84L173.256 223.84L213.928 182.912C226.408 170.336 226.408 149.984 213.928 137.408C207.688 131.136 199.496 128 191.304 128" />
    <glyph glyph-name="arrow-left-1"
      unicode="&#x61;&#x72;&#x72;&#x6F;&#x77;&#x2D;&#x6C;&#x65;&#x66;&#x74;"
      horiz-adv-x="512" d=" M191.304 128C183.112 128 174.92 131.136 168.648 137.408L73.352 233.248C60.872 245.856 60.872 266.208 73.352 278.752L168.648 374.592C174.952 380.832 183.112 384 191.336 384C199.464 384 207.656 380.832 213.928 374.592C226.408 361.9840000000001 226.408 341.664 213.928 329.088L173.256 288.16L214.76 288.16L275.912 288.16L415.976 288.16C433.6720000000001 288.16 448.008 273.76 448.008 256C448.008 238.24 433.6720000000001 223.84 415.976 223.84L275.912 223.84L214.76 223.84L173.256 223.84L213.928 182.912C226.408 170.336 226.408 149.984 213.928 137.408C207.688 131.136 199.496 128 191.304 128" />
    <glyph glyph-name="arrow-right-circle"
      unicode="&#xF1FC;"
      horiz-adv-x="512" d=" M32 256C32 132.288 132.288 32 256 32C379.712 32 480 132.288 480 256C480 379.712 379.712 480 256 480C132.288 480 32 379.712 32 256zM144 256C144 268.448 154.048 278.528 166.4 278.528L219.648 278.528L262.432 278.528L291.52 278.528L263.008 307.168C254.304 315.9360000000001 254.304 330.176 263.008 339.0080000000001C271.776 347.776 285.984 347.776 294.752 339.0080000000001L361.44 271.9360000000001C365.792 267.52 368 261.76 368 255.968C368 250.2080000000001 365.792 244.448 361.44 240.064L294.752 172.992C290.336 168.576 284.576 166.4 278.88 166.4C273.152 166.4 267.424 168.576 263.008 172.992C254.304 181.792 254.304 196.032 263.008 204.8L291.52 233.472L262.432 233.472L219.648 233.472L166.4 233.472C154.048 233.472 144 243.552 144 256z" />
    <glyph glyph-name="arrow-right-circle-1"
      unicode="&#x61;&#x72;&#x72;&#x6F;&#x77;&#x2D;&#x72;&#x69;&#x67;&#x68;&#x74;&#x2D;&#x63;&#x69;&#x72;&#x63;&#x6C;&#x65;"
      horiz-adv-x="512" d=" M32 256C32 132.288 132.288 32 256 32C379.712 32 480 132.288 480 256C480 379.712 379.712 480 256 480C132.288 480 32 379.712 32 256zM144 256C144 268.448 154.048 278.528 166.4 278.528L219.648 278.528L262.432 278.528L291.52 278.528L263.008 307.168C254.304 315.9360000000001 254.304 330.176 263.008 339.0080000000001C271.776 347.776 285.984 347.776 294.752 339.0080000000001L361.44 271.9360000000001C365.792 267.52 368 261.76 368 255.968C368 250.2080000000001 365.792 244.448 361.44 240.064L294.752 172.992C290.336 168.576 284.576 166.4 278.88 166.4C273.152 166.4 267.424 168.576 263.008 172.992C254.304 181.792 254.304 196.032 263.008 204.8L291.52 233.472L262.432 233.472L219.648 233.472L166.4 233.472C154.048 233.472 144 243.552 144 256z" />
    <glyph glyph-name="arrow-right"
      unicode="&#xF126;"
      horiz-adv-x="512" d=" M320.6960000000001 384C328.888 384 337.08 380.8640000000001 343.352 374.592L438.648 278.752C451.128 266.144 451.128 245.792 438.648 233.248L343.352 137.408C337.048 131.168 328.888 128 320.664 128C312.536 128 304.344 131.168 298.072 137.408C285.592 150.016 285.592 170.336 298.072 182.912L338.7440000000001 223.84L297.24 223.84L236.088 223.84L96.024 223.84C78.328 223.84 63.992 238.24 63.992 256C63.992 273.76 78.328 288.16 96.024 288.16L236.088 288.16L297.24 288.16L338.7440000000001 288.16L298.072 329.088C285.592 341.664 285.592 362.016 298.072 374.592C304.312 380.8640000000001 312.504 384 320.6960000000001 384" />
    <glyph glyph-name="arrow-right-1"
      unicode="&#x61;&#x72;&#x72;&#x6F;&#x77;&#x2D;&#x72;&#x69;&#x67;&#x68;&#x74;"
      horiz-adv-x="512" d=" M320.6960000000001 384C328.888 384 337.08 380.8640000000001 343.352 374.592L438.648 278.752C451.128 266.144 451.128 245.792 438.648 233.248L343.352 137.408C337.048 131.168 328.888 128 320.664 128C312.536 128 304.344 131.168 298.072 137.408C285.592 150.016 285.592 170.336 298.072 182.912L338.7440000000001 223.84L297.24 223.84L236.088 223.84L96.024 223.84C78.328 223.84 63.992 238.24 63.992 256C63.992 273.76 78.328 288.16 96.024 288.16L236.088 288.16L297.24 288.16L338.7440000000001 288.16L298.072 329.088C285.592 341.664 285.592 362.016 298.072 374.592C304.312 380.8640000000001 312.504 384 320.6960000000001 384" />
    <glyph glyph-name="arrow-up-circle"
      unicode="&#xF1FD;"
      horiz-adv-x="512" d=" M32 256C32 132.288 132.288 32 256 32C379.712 32 480 132.288 480 256C480 379.712 379.712 480 256 480C132.288 480 32 379.712 32 256zM172.992 263.0080000000001C164.192 271.776 164.192 285.9840000000001 172.992 294.752L240.064 361.44C244.512 365.7920000000001 250.272 368 256.032 368C261.824 368 267.552 365.7920000000001 271.936 361.44L339.008 294.752C343.392 290.336 345.6 284.576 345.6 278.88C345.6 273.152 343.392 267.424 339.008 263.0080000000001C330.176 254.304 315.968 254.304 307.2 263.0080000000001L278.528 291.52L278.528 262.432L278.528 219.648L278.528 166.4C278.528 154.048 268.448 144 256 144C243.552 144 233.504 154.048 233.504 166.4L233.504 219.648L233.504 262.432L233.504 291.52L204.832 263.0080000000001C200.448 258.656 194.688 256.48 188.928 256.48C183.168 256.48 177.408 258.656 172.992 263.0080000000001z" />
    <glyph glyph-name="arrow-up-circle-1"
      unicode="&#x61;&#x72;&#x72;&#x6F;&#x77;&#x2D;&#x75;&#x70;&#x2D;&#x63;&#x69;&#x72;&#x63;&#x6C;&#x65;"
      horiz-adv-x="512" d=" M32 256C32 132.288 132.288 32 256 32C379.712 32 480 132.288 480 256C480 379.712 379.712 480 256 480C132.288 480 32 379.712 32 256zM172.992 263.0080000000001C164.192 271.776 164.192 285.9840000000001 172.992 294.752L240.064 361.44C244.512 365.7920000000001 250.272 368 256.032 368C261.824 368 267.552 365.7920000000001 271.936 361.44L339.008 294.752C343.392 290.336 345.6 284.576 345.6 278.88C345.6 273.152 343.392 267.424 339.008 263.0080000000001C330.176 254.304 315.968 254.304 307.2 263.0080000000001L278.528 291.52L278.528 262.432L278.528 219.648L278.528 166.4C278.528 154.048 268.448 144 256 144C243.552 144 233.504 154.048 233.504 166.4L233.504 219.648L233.504 262.432L233.504 291.52L204.832 263.0080000000001C200.448 258.656 194.688 256.48 188.928 256.48C183.168 256.48 177.408 258.656 172.992 263.0080000000001z" />
    <glyph glyph-name="arrow-up-small"
      unicode="&#xF1D4;"
      horiz-adv-x="512" d=" M231.068 325.6960000000001L137.34 231.136C124.892 218.592 124.892 198.272 137.34 185.728C149.756 173.184 169.916 173.184 182.3 185.728L255.836 259.872L329.6600000000001 185.408C342.108 172.864 362.268 172.864 374.6840000000001 185.408C387.1 197.952 387.1 218.272 374.6840000000001 230.816L280.604 325.6960000000001C273.628 332.576 264.636 336 255.708 336C246.78 336 237.884 332.576 231.068 325.6960000000001z" />
    <glyph glyph-name="arrow-up-small-1"
      unicode="&#x61;&#x72;&#x72;&#x6F;&#x77;&#x2D;&#x75;&#x70;&#x2D;&#x73;&#x6D;&#x61;&#x6C;&#x6C;"
      horiz-adv-x="512" d=" M231.068 325.6960000000001L137.34 231.136C124.892 218.592 124.892 198.272 137.34 185.728C149.756 173.184 169.916 173.184 182.3 185.728L255.836 259.872L329.6600000000001 185.408C342.108 172.864 362.268 172.864 374.6840000000001 185.408C387.1 197.952 387.1 218.272 374.6840000000001 230.816L280.604 325.6960000000001C273.628 332.576 264.636 336 255.708 336C246.78 336 237.884 332.576 231.068 325.6960000000001z" />
    <glyph glyph-name="arrow-up"
      unicode="&#xF1AC;"
      horiz-adv-x="512" d=" M128 320.6960000000001C128 328.8880000000001 131.136 337.0800000000001 137.408 343.352L233.248 438.648C245.856 451.128 266.2080000000001 451.128 278.752 438.648L374.592 343.352C380.832 337.048 384 328.8880000000001 384 320.664C384 312.536 380.832 304.344 374.592 298.072C361.984 285.592 341.664 285.592 329.088 298.072L288.1600000000001 338.7440000000001L288.1600000000001 297.24L288.1600000000001 236.088L288.1600000000001 96.024C288.1600000000001 78.328 273.76 63.992 256 63.992C238.24 63.992 223.84 78.328 223.84 96.024L223.84 236.088L223.84 297.24L223.84 338.7440000000001L182.912 298.072C170.336 285.592 149.984 285.592 137.408 298.072C131.136 304.312 128 312.504 128 320.6960000000001" />
    <glyph glyph-name="arrow-up-1"
      unicode="&#x61;&#x72;&#x72;&#x6F;&#x77;&#x2D;&#x75;&#x70;"
      horiz-adv-x="512" d=" M128 320.6960000000001C128 328.8880000000001 131.136 337.0800000000001 137.408 343.352L233.248 438.648C245.856 451.128 266.2080000000001 451.128 278.752 438.648L374.592 343.352C380.832 337.048 384 328.8880000000001 384 320.664C384 312.536 380.832 304.344 374.592 298.072C361.984 285.592 341.664 285.592 329.088 298.072L288.1600000000001 338.7440000000001L288.1600000000001 297.24L288.1600000000001 236.088L288.1600000000001 96.024C288.1600000000001 78.328 273.76 63.992 256 63.992C238.24 63.992 223.84 78.328 223.84 96.024L223.84 236.088L223.84 297.24L223.84 338.7440000000001L182.912 298.072C170.336 285.592 149.984 285.592 137.408 298.072C131.136 304.312 128 312.504 128 320.6960000000001" />
    <glyph glyph-name="attachment"
      unicode="&#xF10A;"
      horiz-adv-x="512" d=" M259.04211904 128.7527552C226.39673536 96.8525632 173.38375296 96.8394592 140.81965952 128.6602176C108.26777088 160.4690496 108.32411648 212.33772032 140.85397728 244.12502688L293.34387136 393.13405536C312.48233376 411.835648 343.1694528 411.8930768 362.3092096 393.19022112C381.3602112 374.57409248 381.3940224 344.50447776 362.386576 325.9309136L219.3836224 186.1922656C214.0347136 180.965456 205.39873344 180.9865568 199.88353888 186.375856C194.36221088 191.7711488 194.33886944 200.19629824 199.88353888 205.61440064L332.7772672 335.474584C340.9322880000001 343.44345056 340.9322880000001 356.363536 332.7772672 364.33240256C324.6222496 372.3012691200001 311.4003488 372.3012691200001 303.24532736 364.33240256L170.35159936 234.47222016C148.4609888 213.08130304 148.55591808 178.8161888 170.35159936 157.5180352C192.1438688 136.223216 227.22346592 136.1375136 248.91556224 157.334448L391.9185152 297.07309504C427.2505472000001 331.5986048 427.18768 387.50835616 391.8411488 422.04803968C356.3659776 456.71342432 299.2351664000001 456.60650816 263.8119312 421.99187424L111.32203744 272.9828448C62.4961552 225.27150432 62.41173952 147.5626944 111.28771968 99.8024C160.1651984 52.04064 239.62197888 52.0602816 288.5740585600001 99.8949376L431.2170688 239.28185536C439.3720896 247.25072192 439.3720896 260.17080768 431.2170688 268.13967424C423.062048 276.10854048 409.8401472 276.10854048 401.6851264 268.13967424L259.04211904 128.7527552z" />
    <glyph glyph-name="attachment-1"
      unicode="&#xF10B;"
      horiz-adv-x="512" d=" M259.04211904 128.7527552C226.39673536 96.8525632 173.38375296 96.8394592 140.81965952 128.6602176C108.26777088 160.4690496 108.32411648 212.33772032 140.85397728 244.12502688L293.34387136 393.13405536C312.48233376 411.835648 343.1694528 411.8930768 362.3092096 393.19022112C381.3602112 374.57409248 381.3940224 344.50447776 362.386576 325.9309136L219.3836224 186.1922656C214.0347136 180.965456 205.39873344 180.9865568 199.88353888 186.375856C194.36221088 191.7711488 194.33886944 200.19629824 199.88353888 205.61440064L332.7772672 335.474584C340.9322880000001 343.44345056 340.9322880000001 356.363536 332.7772672 364.33240256C324.6222496 372.3012691200001 311.4003488 372.3012691200001 303.24532736 364.33240256L170.35159936 234.47222016C148.4609888 213.08130304 148.55591808 178.8161888 170.35159936 157.5180352C192.1438688 136.223216 227.22346592 136.1375136 248.91556224 157.334448L391.9185152 297.07309504C427.2505472000001 331.5986048 427.18768 387.50835616 391.8411488 422.04803968C356.3659776 456.71342432 299.2351664000001 456.60650816 263.8119312 421.99187424L111.32203744 272.9828448C62.4961552 225.27150432 62.41173952 147.5626944 111.28771968 99.8024C160.1651984 52.04064 239.62197888 52.0602816 288.5740585600001 99.8949376L431.2170688 239.28185536C439.3720896 247.25072192 439.3720896 260.17080768 431.2170688 268.13967424C423.062048 276.10854048 409.8401472 276.10854048 401.6851264 268.13967424L259.04211904 128.7527552z" />
    <glyph glyph-name="attachment-2"
      unicode="&#x61;&#x74;&#x74;&#x61;&#x63;&#x68;&#x6D;&#x65;&#x6E;&#x74;"
      horiz-adv-x="512" d=" M259.04211904 128.7527552C226.39673536 96.8525632 173.38375296 96.8394592 140.81965952 128.6602176C108.26777088 160.4690496 108.32411648 212.33772032 140.85397728 244.12502688L293.34387136 393.13405536C312.48233376 411.835648 343.1694528 411.8930768 362.3092096 393.19022112C381.3602112 374.57409248 381.3940224 344.50447776 362.386576 325.9309136L219.3836224 186.1922656C214.0347136 180.965456 205.39873344 180.9865568 199.88353888 186.375856C194.36221088 191.7711488 194.33886944 200.19629824 199.88353888 205.61440064L332.7772672 335.474584C340.9322880000001 343.44345056 340.9322880000001 356.363536 332.7772672 364.33240256C324.6222496 372.3012691200001 311.4003488 372.3012691200001 303.24532736 364.33240256L170.35159936 234.47222016C148.4609888 213.08130304 148.55591808 178.8161888 170.35159936 157.5180352C192.1438688 136.223216 227.22346592 136.1375136 248.91556224 157.334448L391.9185152 297.07309504C427.2505472000001 331.5986048 427.18768 387.50835616 391.8411488 422.04803968C356.3659776 456.71342432 299.2351664000001 456.60650816 263.8119312 421.99187424L111.32203744 272.9828448C62.4961552 225.27150432 62.41173952 147.5626944 111.28771968 99.8024C160.1651984 52.04064 239.62197888 52.0602816 288.5740585600001 99.8949376L431.2170688 239.28185536C439.3720896 247.25072192 439.3720896 260.17080768 431.2170688 268.13967424C423.062048 276.10854048 409.8401472 276.10854048 401.6851264 268.13967424L259.04211904 128.7527552z" />
    <glyph glyph-name="audio-circle"
      unicode="&#xF1FE;"
      horiz-adv-x="512" d=" M256 32C132.288216 32 32 132.2882176 32 256C32 379.711784 132.288216 480 256 480C379.7117824 480 480 379.711784 480 256C480 132.2882176 379.7117824 32 256 32zM345.6 316.85824736L345.6 336.93621856C345.6 342.25762368 341.272512 346.1187824 335.9342848 345.54314688L220.86571648 333.13499392C215.36970304 332.54234368 211.2 327.77261568 211.2 322.4435049600001L211.2 299.53189088L211.2 231.68809504C207.69687616 232.92627296 203.9271168 233.6 200 233.6C181.44323264 233.6 166.4 218.55676704 166.4 200C166.4 181.443232 181.44323264 166.4 200 166.4C217.80406432 166.4 232.37384608 180.2476096 233.52651808 197.76000224L233.6 197.76000224L233.6 291.03002528L323.2 300.69183424L323.2 254.088096C319.6968752 255.32627264 315.92711648 256 312 256C293.44323296 256 278.4 240.95676736 278.4 222.4C278.4 203.84323296 293.44323296 188.8 312 188.8C329.804064 188.8 344.3738432 202.64760832 345.5265152 220.16L345.6 220.16L345.6 316.85824736z" />
    <glyph glyph-name="audio-circle-1"
      unicode="&#x61;&#x75;&#x64;&#x69;&#x6F;&#x2D;&#x63;&#x69;&#x72;&#x63;&#x6C;&#x65;"
      horiz-adv-x="512" d=" M256 32C132.288216 32 32 132.2882176 32 256C32 379.711784 132.288216 480 256 480C379.7117824 480 480 379.711784 480 256C480 132.2882176 379.7117824 32 256 32zM345.6 316.85824736L345.6 336.93621856C345.6 342.25762368 341.272512 346.1187824 335.9342848 345.54314688L220.86571648 333.13499392C215.36970304 332.54234368 211.2 327.77261568 211.2 322.4435049600001L211.2 299.53189088L211.2 231.68809504C207.69687616 232.92627296 203.9271168 233.6 200 233.6C181.44323264 233.6 166.4 218.55676704 166.4 200C166.4 181.443232 181.44323264 166.4 200 166.4C217.80406432 166.4 232.37384608 180.2476096 233.52651808 197.76000224L233.6 197.76000224L233.6 291.03002528L323.2 300.69183424L323.2 254.088096C319.6968752 255.32627264 315.92711648 256 312 256C293.44323296 256 278.4 240.95676736 278.4 222.4C278.4 203.84323296 293.44323296 188.8 312 188.8C329.804064 188.8 344.3738432 202.64760832 345.5265152 220.16L345.6 220.16L345.6 316.85824736z" />
    <glyph glyph-name="audio"
      unicode="&#xF1FF;"
      horiz-adv-x="512" d=" M480 426.4645657600001L480 163.2L480 153.6C480 104.1152864 439.8847136 64 390.4 64L377.6 64C328.1152864 64 288 104.1152864 288 153.6L288 166.4C288 215.8847136 328.1152864 256 377.6 256L390.4 256C399.2956480000001 256 407.8885184 254.703648 416 252.289552L416 376.24855712L224 356.37283552L224 131.2L224 121.6C224 72.1152864 183.8847136 32 134.4 32L121.6 32C72.1152864 32 32 72.1152864 32 121.6L32 134.4C32 183.8847136 72.1152864 224 121.6 224L134.4 224C143.29564928 224 151.88851936 222.703648 160 220.289552L160 377.90146464L160 427.07086848C160 439.2516931200001 169.927864 450.1539289600001 183.01361088 451.50855712L456.9863904 479.87005024C469.6964544 481.185788416 480 472.36028256 480 460.19707104L480 426.4645657600001z" />
    <glyph glyph-name="audio-1"
      unicode="&#x61;&#x75;&#x64;&#x69;&#x6F;"
      horiz-adv-x="512" d=" M480 426.4645657600001L480 163.2L480 153.6C480 104.1152864 439.8847136 64 390.4 64L377.6 64C328.1152864 64 288 104.1152864 288 153.6L288 166.4C288 215.8847136 328.1152864 256 377.6 256L390.4 256C399.2956480000001 256 407.8885184 254.703648 416 252.289552L416 376.24855712L224 356.37283552L224 131.2L224 121.6C224 72.1152864 183.8847136 32 134.4 32L121.6 32C72.1152864 32 32 72.1152864 32 121.6L32 134.4C32 183.8847136 72.1152864 224 121.6 224L134.4 224C143.29564928 224 151.88851936 222.703648 160 220.289552L160 377.90146464L160 427.07086848C160 439.2516931200001 169.927864 450.1539289600001 183.01361088 451.50855712L456.9863904 479.87005024C469.6964544 481.185788416 480 472.36028256 480 460.19707104L480 426.4645657600001z" />
    <glyph glyph-name="backlog"
      unicode="&#xF200;"
      horiz-adv-x="512" d=" M40.76434944 327.64502848L40.76434944 406.93508544C40.76434944 442.28130944 69.41812544 470.93508544 104.76434944 470.93508544L359.4722976 470.93508544C394.8185216 470.93508544 423.4722976 442.28130944 423.4722976 406.93508544L423.4722976 373.33070656C450.9557792 366.1440566400001 471.2356512 341.14452768 471.2356512 311.4083808000001L471.2356512 296.11832384C471.2356512 266.3821769600001 450.9557792 241.382648 423.4722976 234.1959984L423.4722976 105.0649152C423.4722976 69.7186912 394.8185216 41.0649152 359.4722976 41.0649152L104.76434944 41.0649152C69.41812544 41.0649152 40.76434944 69.7186912 40.76434944 105.0649152L40.76434944 279.88167616L89.12883168 279.88167616L89.12883168 327.64502848L40.76434944 327.64502848zM136.83855968 327.64502848L136.83855968 279.88167616L423.4722976 279.88167616L423.4722976 327.64502848L136.83855968 327.64502848zM89.12883168 423.17173312L89.12883168 375.4083808000001L375.7625696 375.4083808000001L375.7625696 423.17173312L89.12883168 423.17173312zM89.12883168 232.11832384L89.12883168 184.3549728L375.7625696 184.3549728L375.7625696 232.11832384L89.12883168 232.11832384zM89.12883168 136.5916192L89.12883168 88.8282656L375.7625696 88.8282656L375.7625696 136.5916192L89.12883168 136.5916192z" />
    <glyph glyph-name="backlog-1"
      unicode="&#x62;&#x61;&#x63;&#x6B;&#x6C;&#x6F;&#x67;"
      horiz-adv-x="512" d=" M40.76434944 327.64502848L40.76434944 406.93508544C40.76434944 442.28130944 69.41812544 470.93508544 104.76434944 470.93508544L359.4722976 470.93508544C394.8185216 470.93508544 423.4722976 442.28130944 423.4722976 406.93508544L423.4722976 373.33070656C450.9557792 366.1440566400001 471.2356512 341.14452768 471.2356512 311.4083808000001L471.2356512 296.11832384C471.2356512 266.3821769600001 450.9557792 241.382648 423.4722976 234.1959984L423.4722976 105.0649152C423.4722976 69.7186912 394.8185216 41.0649152 359.4722976 41.0649152L104.76434944 41.0649152C69.41812544 41.0649152 40.76434944 69.7186912 40.76434944 105.0649152L40.76434944 279.88167616L89.12883168 279.88167616L89.12883168 327.64502848L40.76434944 327.64502848zM136.83855968 327.64502848L136.83855968 279.88167616L423.4722976 279.88167616L423.4722976 327.64502848L136.83855968 327.64502848zM89.12883168 423.17173312L89.12883168 375.4083808000001L375.7625696 375.4083808000001L375.7625696 423.17173312L89.12883168 423.17173312zM89.12883168 232.11832384L89.12883168 184.3549728L375.7625696 184.3549728L375.7625696 232.11832384L89.12883168 232.11832384zM89.12883168 136.5916192L89.12883168 88.8282656L375.7625696 88.8282656L375.7625696 136.5916192L89.12883168 136.5916192z" />
    <glyph glyph-name="billing-filled"
      unicode="&#xF201;"
      horiz-adv-x="512" d=" M103.36000064 410.30461696C103.36000064 445.61515712 132.0800016 474.24000544 167.35669216 474.24000544L344.6433088 474.24000544C379.9877056000001 474.24000544 408.64 445.6013328 408.64 410.30461696L408.64 101.6953824C408.64 66.3848416 379.9199968 37.7599936 344.6433088 37.7599936L167.35669216 37.7599936C132.01229536 37.7599936 103.36000064 66.3986656 103.36000064 101.6953824L103.36000064 410.30461696zM168.77714336 365.12000288C168.77714336 352.98290848 178.66881632 343.29600224 190.87081344 343.29600224L321.1291872 343.29600224C333.3440768 343.29600224 343.2228576 353.06694016 343.2228576 365.12000288C343.2228576 377.2570972800001 333.331184 386.9440032 321.1291872 386.9440032L190.87081344 386.9440032C178.65592352 386.9440032 168.77714336 377.17306528 168.77714336 365.12000288zM168.77714336 299.64800096C168.77714336 287.51090656 178.65533472 277.82400064 190.84070144 277.82400064L255.74215584 277.82400064C267.74399552 277.82400064 277.80571424 287.59493856 277.80571424 299.64800096C277.80571424 311.7850956800001 267.92752256 321.4720016 255.74215584 321.4720016L190.84070144 321.4720016C178.83886176 321.4720016 168.77714336 311.70106368 168.77714336 299.64800096zM168.77714336 234.17599936C168.77714336 222.03890496 178.65533472 212.35199904 190.84070144 212.35199904L255.74215584 212.35199904C267.74399552 212.35199904 277.80571424 222.12293664 277.80571424 234.17599936C277.80571424 246.31309376 267.92752256 256 255.74215584 256L190.84070144 256C178.83886176 256 168.77714336 246.22906208 168.77714336 234.17599936zM168.77714336 168.7039968C168.77714336 156.5669024 178.65533472 146.8799968 190.84070144 146.8799968L255.74215584 146.8799968C267.74399552 146.8799968 277.80571424 156.6509344 277.80571424 168.7039968C277.80571424 180.8410912 267.92752256 190.5279968 255.74215584 190.5279968L190.84070144 190.5279968C178.83886176 190.5279968 168.77714336 180.7570592 168.77714336 168.7039968zM299.61142848 234.17599936C299.61142848 222.03890496 309.3741792 212.35199904 321.4171424 212.35199904C333.5440672 212.35199904 343.2228576 222.12293664 343.2228576 234.17599936C343.2228576 246.31309376 333.4601056 256 321.4171424 256C309.29021792 256 299.61142848 246.22906208 299.61142848 234.17599936zM299.61142848 168.7039968C299.61142848 156.5669024 309.3741792 146.8799968 321.4171424 146.8799968C333.5440672 146.8799968 343.2228576 156.6509344 343.2228576 168.7039968C343.2228576 180.8410912 333.4601056 190.5279968 321.4171424 190.5279968C309.29021792 190.5279968 299.61142848 180.7570592 299.61142848 168.7039968zM299.61142848 299.64800096C299.61142848 287.51090656 309.3741792 277.82400064 321.4171424 277.82400064C333.5440672 277.82400064 343.2228576 287.59493856 343.2228576 299.64800096C343.2228576 311.7850956800001 333.4601056 321.4720016 321.4171424 321.4720016C309.29021792 321.4720016 299.61142848 311.70106368 299.61142848 299.64800096z" />
    <glyph glyph-name="billing-filled-1"
      unicode="&#x62;&#x69;&#x6C;&#x6C;&#x69;&#x6E;&#x67;&#x2D;&#x66;&#x69;&#x6C;&#x6C;&#x65;&#x64;"
      horiz-adv-x="512" d=" M103.36000064 410.30461696C103.36000064 445.61515712 132.0800016 474.24000544 167.35669216 474.24000544L344.6433088 474.24000544C379.9877056000001 474.24000544 408.64 445.6013328 408.64 410.30461696L408.64 101.6953824C408.64 66.3848416 379.9199968 37.7599936 344.6433088 37.7599936L167.35669216 37.7599936C132.01229536 37.7599936 103.36000064 66.3986656 103.36000064 101.6953824L103.36000064 410.30461696zM168.77714336 365.12000288C168.77714336 352.98290848 178.66881632 343.29600224 190.87081344 343.29600224L321.1291872 343.29600224C333.3440768 343.29600224 343.2228576 353.06694016 343.2228576 365.12000288C343.2228576 377.2570972800001 333.331184 386.9440032 321.1291872 386.9440032L190.87081344 386.9440032C178.65592352 386.9440032 168.77714336 377.17306528 168.77714336 365.12000288zM168.77714336 299.64800096C168.77714336 287.51090656 178.65533472 277.82400064 190.84070144 277.82400064L255.74215584 277.82400064C267.74399552 277.82400064 277.80571424 287.59493856 277.80571424 299.64800096C277.80571424 311.7850956800001 267.92752256 321.4720016 255.74215584 321.4720016L190.84070144 321.4720016C178.83886176 321.4720016 168.77714336 311.70106368 168.77714336 299.64800096zM168.77714336 234.17599936C168.77714336 222.03890496 178.65533472 212.35199904 190.84070144 212.35199904L255.74215584 212.35199904C267.74399552 212.35199904 277.80571424 222.12293664 277.80571424 234.17599936C277.80571424 246.31309376 267.92752256 256 255.74215584 256L190.84070144 256C178.83886176 256 168.77714336 246.22906208 168.77714336 234.17599936zM168.77714336 168.7039968C168.77714336 156.5669024 178.65533472 146.8799968 190.84070144 146.8799968L255.74215584 146.8799968C267.74399552 146.8799968 277.80571424 156.6509344 277.80571424 168.7039968C277.80571424 180.8410912 267.92752256 190.5279968 255.74215584 190.5279968L190.84070144 190.5279968C178.83886176 190.5279968 168.77714336 180.7570592 168.77714336 168.7039968zM299.61142848 234.17599936C299.61142848 222.03890496 309.3741792 212.35199904 321.4171424 212.35199904C333.5440672 212.35199904 343.2228576 222.12293664 343.2228576 234.17599936C343.2228576 246.31309376 333.4601056 256 321.4171424 256C309.29021792 256 299.61142848 246.22906208 299.61142848 234.17599936zM299.61142848 168.7039968C299.61142848 156.5669024 309.3741792 146.8799968 321.4171424 146.8799968C333.5440672 146.8799968 343.2228576 156.6509344 343.2228576 168.7039968C343.2228576 180.8410912 333.4601056 190.5279968 321.4171424 190.5279968C309.29021792 190.5279968 299.61142848 180.7570592 299.61142848 168.7039968zM299.61142848 299.64800096C299.61142848 287.51090656 309.3741792 277.82400064 321.4171424 277.82400064C333.5440672 277.82400064 343.2228576 287.59493856 343.2228576 299.64800096C343.2228576 311.7850956800001 333.4601056 321.4720016 321.4171424 321.4720016C309.29021792 321.4720016 299.61142848 311.70106368 299.61142848 299.64800096z" />
    <glyph glyph-name="billing"
      unicode="&#xF202;"
      horiz-adv-x="512" d=" M103.36000064 410.2896064000001C103.36000064 445.59671168 132.0800016 474.21877568 167.35669216 474.21877568L344.6433088 474.21877568C379.9877056000001 474.21877568 408.64 445.58288896 408.64 410.2896064000001L408.64 101.7103936C408.64 66.4032896 379.9199968 37.7812256 344.6433088 37.7812256L167.35669216 37.7812256C132.01229536 37.7812256 103.36000064 66.4171104 103.36000064 101.7103936L103.36000064 410.2896064000001zM146.97142912 430.5750204800001L146.97142912 81.4249792L365.0285696000001 81.4249792L365.0285696000001 430.5750204800001L146.97142912 430.5750204800001zM168.77714336 365.10938784C168.77714336 377.16127808 178.65592352 386.93126528 190.87081344 386.93126528L321.1291872 386.93126528C333.331184 386.93126528 343.2228576 377.24530144 343.2228576 365.10938784C343.2228576 353.0574976000001 333.3440768 343.2875104 321.1291872 343.2875104L190.87081344 343.2875104C178.66881632 343.2875104 168.77714336 352.97347392 168.77714336 365.10938784zM168.77714336 299.6437552C168.77714336 311.69564544 178.83886176 321.46563264 190.84070144 321.46563264L255.74215584 321.46563264C267.92752256 321.46563264 277.80571424 311.7796688 277.80571424 299.6437552C277.80571424 287.59186496 267.74399552 277.82187744 255.74215584 277.82187744L190.84070144 277.82187744C178.65533472 277.82187744 168.77714336 287.50784128 168.77714336 299.6437552zM168.77714336 234.17812256C168.77714336 246.2300124800001 178.83886176 256 190.84070144 256L255.74215584 256C267.92752256 256 277.80571424 246.31403616 277.80571424 234.17812256C277.80571424 222.12623232 267.74399552 212.3562448 255.74215584 212.3562448L190.84070144 212.3562448C178.65533472 212.3562448 168.77714336 222.04220864 168.77714336 234.17812256zM168.77714336 168.7124896C168.77714336 180.7643808 178.83886176 190.534368 190.84070144 190.534368L255.74215584 190.534368C267.92752256 190.534368 277.80571424 180.8484032 277.80571424 168.7124896C277.80571424 156.6605984 267.74399552 146.8906112 255.74215584 146.8906112L190.84070144 146.8906112C178.65533472 146.8906112 168.77714336 156.576576 168.77714336 168.7124896zM299.61142848 234.17812256C299.61142848 246.2300124800001 309.29021792 256 321.4171424 256C333.4601056 256 343.2228576 246.31403616 343.2228576 234.17812256C343.2228576 222.12623232 333.5440672 212.3562448 321.4171424 212.3562448C309.3741792 212.3562448 299.61142848 222.04220864 299.61142848 234.17812256zM299.61142848 168.7124896C299.61142848 180.7643808 309.29021792 190.534368 321.4171424 190.534368C333.4601056 190.534368 343.2228576 180.8484032 343.2228576 168.7124896C343.2228576 156.6605984 333.5440672 146.8906112 321.4171424 146.8906112C309.3741792 146.8906112 299.61142848 156.576576 299.61142848 168.7124896zM299.61142848 299.6437552C299.61142848 311.69564544 309.29021792 321.46563264 321.4171424 321.46563264C333.4601056 321.46563264 343.2228576 311.7796688 343.2228576 299.6437552C343.2228576 287.59186496 333.5440672 277.82187744 321.4171424 277.82187744C309.3741792 277.82187744 299.61142848 287.50784128 299.61142848 299.6437552z" />
    <glyph glyph-name="billing-1"
      unicode="&#x62;&#x69;&#x6C;&#x6C;&#x69;&#x6E;&#x67;"
      horiz-adv-x="512" d=" M103.36000064 410.2896064000001C103.36000064 445.59671168 132.0800016 474.21877568 167.35669216 474.21877568L344.6433088 474.21877568C379.9877056000001 474.21877568 408.64 445.58288896 408.64 410.2896064000001L408.64 101.7103936C408.64 66.4032896 379.9199968 37.7812256 344.6433088 37.7812256L167.35669216 37.7812256C132.01229536 37.7812256 103.36000064 66.4171104 103.36000064 101.7103936L103.36000064 410.2896064000001zM146.97142912 430.5750204800001L146.97142912 81.4249792L365.0285696000001 81.4249792L365.0285696000001 430.5750204800001L146.97142912 430.5750204800001zM168.77714336 365.10938784C168.77714336 377.16127808 178.65592352 386.93126528 190.87081344 386.93126528L321.1291872 386.93126528C333.331184 386.93126528 343.2228576 377.24530144 343.2228576 365.10938784C343.2228576 353.0574976000001 333.3440768 343.2875104 321.1291872 343.2875104L190.87081344 343.2875104C178.66881632 343.2875104 168.77714336 352.97347392 168.77714336 365.10938784zM168.77714336 299.6437552C168.77714336 311.69564544 178.83886176 321.46563264 190.84070144 321.46563264L255.74215584 321.46563264C267.92752256 321.46563264 277.80571424 311.7796688 277.80571424 299.6437552C277.80571424 287.59186496 267.74399552 277.82187744 255.74215584 277.82187744L190.84070144 277.82187744C178.65533472 277.82187744 168.77714336 287.50784128 168.77714336 299.6437552zM168.77714336 234.17812256C168.77714336 246.2300124800001 178.83886176 256 190.84070144 256L255.74215584 256C267.92752256 256 277.80571424 246.31403616 277.80571424 234.17812256C277.80571424 222.12623232 267.74399552 212.3562448 255.74215584 212.3562448L190.84070144 212.3562448C178.65533472 212.3562448 168.77714336 222.04220864 168.77714336 234.17812256zM168.77714336 168.7124896C168.77714336 180.7643808 178.83886176 190.534368 190.84070144 190.534368L255.74215584 190.534368C267.92752256 190.534368 277.80571424 180.8484032 277.80571424 168.7124896C277.80571424 156.6605984 267.74399552 146.8906112 255.74215584 146.8906112L190.84070144 146.8906112C178.65533472 146.8906112 168.77714336 156.576576 168.77714336 168.7124896zM299.61142848 234.17812256C299.61142848 246.2300124800001 309.29021792 256 321.4171424 256C333.4601056 256 343.2228576 246.31403616 343.2228576 234.17812256C343.2228576 222.12623232 333.5440672 212.3562448 321.4171424 212.3562448C309.3741792 212.3562448 299.61142848 222.04220864 299.61142848 234.17812256zM299.61142848 168.7124896C299.61142848 180.7643808 309.29021792 190.534368 321.4171424 190.534368C333.4601056 190.534368 343.2228576 180.8484032 343.2228576 168.7124896C343.2228576 156.6605984 333.5440672 146.8906112 321.4171424 146.8906112C309.3741792 146.8906112 299.61142848 156.576576 299.61142848 168.7124896zM299.61142848 299.6437552C299.61142848 311.69564544 309.29021792 321.46563264 321.4171424 321.46563264C333.4601056 321.46563264 343.2228576 311.7796688 343.2228576 299.6437552C343.2228576 287.59186496 333.5440672 277.82187744 321.4171424 277.82187744C309.3741792 277.82187744 299.61142848 287.50784128 299.61142848 299.6437552z" />
    <glyph glyph-name="board"
      unicode="&#xF203;"
      horiz-adv-x="512" d=" M101.49993184 430.80005472L410.5000672 430.80005472C445.8462912 430.80005472 474.5000672 402.14627872 474.5000672 366.80005472L474.5000672 145.1999456C474.5000672 109.8537216 445.8462912 81.1999456 410.5000672 81.1999456L101.49993184 81.1999456C66.15370784 81.1999456 37.49993184 109.8537216 37.49993184 145.1999456L37.49993184 366.80005472C37.49993184 402.14627872 66.15370784 430.80005472 101.49993184 430.80005472zM343.4000288 387.10004096L343.4000288 124.8999584L430.9476128 124.8999584L430.9476128 387.10004096L343.4000288 387.10004096zM212.15242944 387.10004096L212.15242944 124.8999584L299.70001376 124.8999584L299.70001376 387.10004096L212.15242944 387.10004096zM81.05238848 387.10004096L81.05238848 124.8999584L168.5999728 124.8999584L168.5999728 387.10004096L81.05238848 387.10004096z" />
    <glyph glyph-name="board-1"
      unicode="&#x62;&#x6F;&#x61;&#x72;&#x64;"
      horiz-adv-x="512" d=" M101.49993184 430.80005472L410.5000672 430.80005472C445.8462912 430.80005472 474.5000672 402.14627872 474.5000672 366.80005472L474.5000672 145.1999456C474.5000672 109.8537216 445.8462912 81.1999456 410.5000672 81.1999456L101.49993184 81.1999456C66.15370784 81.1999456 37.49993184 109.8537216 37.49993184 145.1999456L37.49993184 366.80005472C37.49993184 402.14627872 66.15370784 430.80005472 101.49993184 430.80005472zM343.4000288 387.10004096L343.4000288 124.8999584L430.9476128 124.8999584L430.9476128 387.10004096L343.4000288 387.10004096zM212.15242944 387.10004096L212.15242944 124.8999584L299.70001376 124.8999584L299.70001376 387.10004096L212.15242944 387.10004096zM81.05238848 387.10004096L81.05238848 124.8999584L168.5999728 124.8999584L168.5999728 387.10004096L81.05238848 387.10004096z" />
    <glyph glyph-name="bold"
      unicode="&#xF147;"
      horiz-adv-x="512" d=" M96 431.98888576C96 440.83158016 103.08791264 448 111.91127392 448L282.62184864 448C317.0421888 448 384 432 384 352C384 288 352 272 352 272C352 272 416 256 416 176C416 160 416 64 288 64L111.71216576 64C103.03457632 64 96 71.3280192 96 80.0111136L96 431.98888576zM160 128L272 128C304 128 336 136 336 176C336 216 300.67578112 224 272 224L160 224L160 128zM160 287.19327552L256 287.19327552C272.1345344 287.19327552 320 287.19327552 320 336C320 384.80672448 256 384 256 384L160 384.00082624L160 287.19327552z" />
    <glyph glyph-name="bold-1"
      unicode="&#x62;&#x6F;&#x6C;&#x64;"
      horiz-adv-x="512" d=" M96 431.98888576C96 440.83158016 103.08791264 448 111.91127392 448L282.62184864 448C317.0421888 448 384 432 384 352C384 288 352 272 352 272C352 272 416 256 416 176C416 160 416 64 288 64L111.71216576 64C103.03457632 64 96 71.3280192 96 80.0111136L96 431.98888576zM160 128L272 128C304 128 336 136 336 176C336 216 300.67578112 224 272 224L160 224L160 128zM160 287.19327552L256 287.19327552C272.1345344 287.19327552 320 287.19327552 320 336C320 384.80672448 256 384 256 384L160 384.00082624L160 287.19327552z" />
    <glyph glyph-name="book"
      unicode="&#xF204;"
      horiz-adv-x="512" d=" M137.16382144 396.84697152L137.16382144 159.2921792C137.16382144 146.2983392 147.75580096 135.46616 160.82167008 135.46616L351.1783296 135.46616C364.0062944 135.46616 374.8361792 146.1334336 374.8361792 159.2921792L374.8361792 396.84697152C374.8361792 409.84081248 364.2441984 420.6729904 351.1783296 420.6729904L160.82167008 420.6729904C147.99370432 420.6729904 137.16382144 410.0057184 137.16382144 396.84697152zM208.46552864 64.1644544L208.46552864 43.7925376L172.81467488 64.1644544L137.16382144 43.7925376L137.16382144 64.1644544L137.16382144 91.9811424C109.44408928 101.8019136 89.62934976 128.3677568 89.62934976 159.2921792L89.62934976 396.84697152C89.62934976 436.17438848 121.65726016 468.20746208 160.82167008 468.20746208L351.1783296 468.20746208C390.567424 468.20746208 422.3706496 436.02503872 422.3706496 396.84697152L422.3706496 159.2921792C422.3706496 119.9647648 390.3427392 87.9316896 351.1783296 87.9316896L208.46552864 87.9316896L208.46552864 64.1644544zM208.46552864 16.629984L137.16382144 16.629984L208.46552864 16.629984zM184.6982928 373.13851904L184.6982928 278.069576L327.3017088 278.069576L327.3017088 373.13851904L184.6982928 373.13851904zM184.6982928 230.53510464L184.6982928 183.0006336L327.3017088 183.0006336L327.3017088 230.53510464L184.6982928 230.53510464z" />
    <glyph glyph-name="book-1"
      unicode="&#x62;&#x6F;&#x6F;&#x6B;"
      horiz-adv-x="512" d=" M137.16382144 396.84697152L137.16382144 159.2921792C137.16382144 146.2983392 147.75580096 135.46616 160.82167008 135.46616L351.1783296 135.46616C364.0062944 135.46616 374.8361792 146.1334336 374.8361792 159.2921792L374.8361792 396.84697152C374.8361792 409.84081248 364.2441984 420.6729904 351.1783296 420.6729904L160.82167008 420.6729904C147.99370432 420.6729904 137.16382144 410.0057184 137.16382144 396.84697152zM208.46552864 64.1644544L208.46552864 43.7925376L172.81467488 64.1644544L137.16382144 43.7925376L137.16382144 64.1644544L137.16382144 91.9811424C109.44408928 101.8019136 89.62934976 128.3677568 89.62934976 159.2921792L89.62934976 396.84697152C89.62934976 436.17438848 121.65726016 468.20746208 160.82167008 468.20746208L351.1783296 468.20746208C390.567424 468.20746208 422.3706496 436.02503872 422.3706496 396.84697152L422.3706496 159.2921792C422.3706496 119.9647648 390.3427392 87.9316896 351.1783296 87.9316896L208.46552864 87.9316896L208.46552864 64.1644544zM208.46552864 16.629984L137.16382144 16.629984L208.46552864 16.629984zM184.6982928 373.13851904L184.6982928 278.069576L327.3017088 278.069576L327.3017088 373.13851904L184.6982928 373.13851904zM184.6982928 230.53510464L184.6982928 183.0006336L327.3017088 183.0006336L327.3017088 230.53510464L184.6982928 230.53510464z" />
    <glyph glyph-name="branch"
      unicode="&#xF127;"
      horiz-adv-x="512" d=" M368 288C350.336 288 336 302.336 336 320C336 337.664 350.336 352 368 352C385.664 352 400 337.664 400 320C400 302.336 385.664 288 368 288M144 80C126.336 80 112 94.336 112 112C112 129.664 126.336 144 144 144C161.664 144 176 129.664 176 112C176 94.336 161.664 80 144 80M144 432C161.664 432 176 417.664 176 400C176 382.336 161.664 368 144 368C126.336 368 112 382.336 112 400C112 417.664 126.336 432 144 432M464 320C464 372.928 420.928 416 368 416C315.072 416 272 372.928 272 320C272 278.336 298.848 243.168 336 229.92L336 176C336 158.336 321.664 144 304 144L240 144C238.016 144 236.32 143.232 234.432 142.88C224.832 170.88 202.88 192.832 174.88 202.432C175.232 204.32 176 206.016 176 208L176 304C176 305.9840000000001 175.232 307.68 174.88 309.568C212.64 322.496 240 357.952 240 400C240 452.928 196.928 496 144 496C91.072 496 48 452.928 48 400C48 357.952 75.36 322.496 113.12 309.568C112.768 307.68 112 305.9840000000001 112 304L112 208C112 206.016 112.768 204.32 113.12 202.432C75.36 189.504 48 154.048 48 112C48 59.072 91.072 16 144 16C186.048 16 221.504 43.36 234.432 81.12C236.32 80.768 238.016 80 240 80L304 80C356.928 80 400 123.072 400 176L400 229.92C437.152 243.168 464 278.336 464 320" />
    <glyph glyph-name="branch-1"
      unicode="&#xF128;"
      horiz-adv-x="512" d=" M368 288C350.336 288 336 302.336 336 320C336 337.664 350.336 352 368 352C385.664 352 400 337.664 400 320C400 302.336 385.664 288 368 288M144 80C126.336 80 112 94.336 112 112C112 129.664 126.336 144 144 144C161.664 144 176 129.664 176 112C176 94.336 161.664 80 144 80M144 432C161.664 432 176 417.664 176 400C176 382.336 161.664 368 144 368C126.336 368 112 382.336 112 400C112 417.664 126.336 432 144 432M464 320C464 372.928 420.928 416 368 416C315.072 416 272 372.928 272 320C272 278.336 298.848 243.168 336 229.92L336 176C336 158.336 321.664 144 304 144L240 144C238.016 144 236.32 143.232 234.432 142.88C224.832 170.88 202.88 192.832 174.88 202.432C175.232 204.32 176 206.016 176 208L176 304C176 305.9840000000001 175.232 307.68 174.88 309.568C212.64 322.496 240 357.952 240 400C240 452.928 196.928 496 144 496C91.072 496 48 452.928 48 400C48 357.952 75.36 322.496 113.12 309.568C112.768 307.68 112 305.9840000000001 112 304L112 208C112 206.016 112.768 204.32 113.12 202.432C75.36 189.504 48 154.048 48 112C48 59.072 91.072 16 144 16C186.048 16 221.504 43.36 234.432 81.12C236.32 80.768 238.016 80 240 80L304 80C356.928 80 400 123.072 400 176L400 229.92C437.152 243.168 464 278.336 464 320" />
    <glyph glyph-name="branch-2"
      unicode="&#x62;&#x72;&#x61;&#x6E;&#x63;&#x68;"
      horiz-adv-x="512" d=" M368 288C350.336 288 336 302.336 336 320C336 337.664 350.336 352 368 352C385.664 352 400 337.664 400 320C400 302.336 385.664 288 368 288M144 80C126.336 80 112 94.336 112 112C112 129.664 126.336 144 144 144C161.664 144 176 129.664 176 112C176 94.336 161.664 80 144 80M144 432C161.664 432 176 417.664 176 400C176 382.336 161.664 368 144 368C126.336 368 112 382.336 112 400C112 417.664 126.336 432 144 432M464 320C464 372.928 420.928 416 368 416C315.072 416 272 372.928 272 320C272 278.336 298.848 243.168 336 229.92L336 176C336 158.336 321.664 144 304 144L240 144C238.016 144 236.32 143.232 234.432 142.88C224.832 170.88 202.88 192.832 174.88 202.432C175.232 204.32 176 206.016 176 208L176 304C176 305.9840000000001 175.232 307.68 174.88 309.568C212.64 322.496 240 357.952 240 400C240 452.928 196.928 496 144 496C91.072 496 48 452.928 48 400C48 357.952 75.36 322.496 113.12 309.568C112.768 307.68 112 305.9840000000001 112 304L112 208C112 206.016 112.768 204.32 113.12 202.432C75.36 189.504 48 154.048 48 112C48 59.072 91.072 16 144 16C186.048 16 221.504 43.36 234.432 81.12C236.32 80.768 238.016 80 240 80L304 80C356.928 80 400 123.072 400 176L400 229.92C437.152 243.168 464 278.336 464 320" />
    <glyph glyph-name="bullet-list"
      unicode="&#xF14F;"
      horiz-adv-x="512" d=" M224 416L416 416C433.6731104 416 448 401.673112 448 384C448 366.326888 433.6731104 352 416 352L224 352C206.326888 352 192 366.326888 192 384C192 401.673112 206.326888 416 224 416zM224 288L416 288C433.6731104 288 448 273.673112 448 256C448 238.326888 433.6731104 224 416 224L224 224C206.326888 224 192 238.326888 192 256C192 273.673112 206.326888 288 224 288zM96 96C78.326888 96 64 110.3268896 64 128C64 145.6731104 78.326888 160 96 160C113.673112 160 128 145.6731104 128 128C128 110.3268896 113.673112 96 96 96zM96 224C78.326888 224 64 238.326888 64 256C64 273.673112 78.326888 288 96 288C113.673112 288 128 273.673112 128 256C128 238.326888 113.673112 224 96 224zM96 352C78.326888 352 64 366.326888 64 384C64 401.673112 78.326888 416 96 416C113.673112 416 128 401.673112 128 384C128 366.326888 113.673112 352 96 352zM224 160L416 160C433.6731104 160 448 145.6731104 448 128C448 110.3268896 433.6731104 96 416 96L224 96C206.326888 96 192 110.3268896 192 128C192 145.6731104 206.326888 160 224 160z" />
    <glyph glyph-name="bullet-list-1"
      unicode="&#xF1B7;"
      horiz-adv-x="512" d=" M224 416L416 416C433.6731104 416 448 401.673112 448 384C448 366.326888 433.6731104 352 416 352L224 352C206.326888 352 192 366.326888 192 384C192 401.673112 206.326888 416 224 416zM224 288L416 288C433.6731104 288 448 273.673112 448 256C448 238.326888 433.6731104 224 416 224L224 224C206.326888 224 192 238.326888 192 256C192 273.673112 206.326888 288 224 288zM96 96C78.326888 96 64 110.3268896 64 128C64 145.6731104 78.326888 160 96 160C113.673112 160 128 145.6731104 128 128C128 110.3268896 113.673112 96 96 96zM96 224C78.326888 224 64 238.326888 64 256C64 273.673112 78.326888 288 96 288C113.673112 288 128 273.673112 128 256C128 238.326888 113.673112 224 96 224zM96 352C78.326888 352 64 366.326888 64 384C64 401.673112 78.326888 416 96 416C113.673112 416 128 401.673112 128 384C128 366.326888 113.673112 352 96 352zM224 160L416 160C433.6731104 160 448 145.6731104 448 128C448 110.3268896 433.6731104 96 416 96L224 96C206.326888 96 192 110.3268896 192 128C192 145.6731104 206.326888 160 224 160z" />
    <glyph glyph-name="bullet-list-2"
      unicode="&#x62;&#x75;&#x6C;&#x6C;&#x65;&#x74;&#x2D;&#x6C;&#x69;&#x73;&#x74;"
      horiz-adv-x="512" d=" M224 416L416 416C433.6731104 416 448 401.673112 448 384C448 366.326888 433.6731104 352 416 352L224 352C206.326888 352 192 366.326888 192 384C192 401.673112 206.326888 416 224 416zM224 288L416 288C433.6731104 288 448 273.673112 448 256C448 238.326888 433.6731104 224 416 224L224 224C206.326888 224 192 238.326888 192 256C192 273.673112 206.326888 288 224 288zM96 96C78.326888 96 64 110.3268896 64 128C64 145.6731104 78.326888 160 96 160C113.673112 160 128 145.6731104 128 128C128 110.3268896 113.673112 96 96 96zM96 224C78.326888 224 64 238.326888 64 256C64 273.673112 78.326888 288 96 288C113.673112 288 128 273.673112 128 256C128 238.326888 113.673112 224 96 224zM96 352C78.326888 352 64 366.326888 64 384C64 401.673112 78.326888 416 96 416C113.673112 416 128 401.673112 128 384C128 366.326888 113.673112 352 96 352zM224 160L416 160C433.6731104 160 448 145.6731104 448 128C448 110.3268896 433.6731104 96 416 96L224 96C206.326888 96 192 110.3268896 192 128C192 145.6731104 206.326888 160 224 160z" />
    <glyph glyph-name="calendar-filled"
      unicode="&#xF205;"
      horiz-adv-x="512" d=" M159.43111168 424.99555456L159.43111168 400.85333248C159.43111168 387.52682592 148.61539616 376.7111104 135.2888896 376.7111104C121.96238304 376.7111104 111.14666752 387.52682592 111.14666752 400.85333248L111.14666752 424.99555456L111.14666752 449.13777664C111.14666752 462.4642832 121.96238304 473.27999872 135.2888896 473.27999872C148.61539616 473.27999872 159.43111168 462.4642832 159.43111168 449.13777664L159.43111168 424.99555456zM352.5688896 424.99555456L352.5688896 449.13777664C352.5688896 462.4642832 363.3846048 473.27999872 376.7111104 473.27999872C390.037616 473.27999872 400.8533312 462.4642832 400.8533312 449.13777664L400.8533312 424.99555456L400.8533312 400.85333248C400.8533312 387.52682592 390.037616 376.7111104 376.7111104 376.7111104C363.3846048 376.7111104 352.5688896 387.52682592 352.5688896 400.85333248L352.5688896 424.99555456zM424.9955552 424.99555456L425.1162656 424.99555456C451.7209952 424.99555456 473.28 403.38826592 473.28 376.85596384L473.28 86.8595936C473.28 60.2790048 451.745136 38.72 425.1162656 38.72L86.8837344 38.72C60.27900544 38.72 38.72000128 60.3031488 38.72000128 86.8595936L38.72000128 376.85596384C38.72000128 403.4365504 60.25486336 424.99555456 86.8837344 424.99555456L87.00444544 424.99555456L87.00444544 400.85333248C87.00444544 374.00065472 108.62212736 352.5688883200001 135.2888896 352.5688883200001C162.14156736 352.5688883200001 183.57333376 374.1865702400001 183.57333376 400.85333248L183.57333376 424.99555456L328.4266656 424.99555456L328.4266656 400.85333248C328.4266656 374.00065472 350.0443488 352.5688883200001 376.7111104 352.5688883200001C403.5637888 352.5688883200001 424.9955552 374.1865702400001 424.9955552 400.85333248L424.9955552 424.99555456zM135.2888896 231.83363584L183.57333376 231.83363584L183.57333376 280.14222208L135.2888896 280.14222208L135.2888896 231.83363584zM135.2888896 135.2647488L183.57333376 135.2647488L183.57333376 183.5733344L135.2888896 183.5733344L135.2888896 135.2647488zM231.85777792 231.83363584L280.14222208 231.83363584L280.14222208 280.14222208L231.85777792 280.14222208L231.85777792 231.83363584zM231.85777792 135.2647488L280.14222208 135.2647488L280.14222208 183.5733344L231.85777792 183.5733344L231.85777792 135.2647488zM328.4266656 231.83363584L376.7111104 231.83363584L376.7111104 280.14222208L328.4266656 280.14222208L328.4266656 231.83363584zM328.4266656 135.2647488L376.7111104 135.2647488L376.7111104 183.5733344L328.4266656 183.5733344L328.4266656 135.2647488z" />
    <glyph glyph-name="calendar-filled-1"
      unicode="&#x63;&#x61;&#x6C;&#x65;&#x6E;&#x64;&#x61;&#x72;&#x2D;&#x66;&#x69;&#x6C;&#x6C;&#x65;&#x64;"
      horiz-adv-x="512" d=" M159.43111168 424.99555456L159.43111168 400.85333248C159.43111168 387.52682592 148.61539616 376.7111104 135.2888896 376.7111104C121.96238304 376.7111104 111.14666752 387.52682592 111.14666752 400.85333248L111.14666752 424.99555456L111.14666752 449.13777664C111.14666752 462.4642832 121.96238304 473.27999872 135.2888896 473.27999872C148.61539616 473.27999872 159.43111168 462.4642832 159.43111168 449.13777664L159.43111168 424.99555456zM352.5688896 424.99555456L352.5688896 449.13777664C352.5688896 462.4642832 363.3846048 473.27999872 376.7111104 473.27999872C390.037616 473.27999872 400.8533312 462.4642832 400.8533312 449.13777664L400.8533312 424.99555456L400.8533312 400.85333248C400.8533312 387.52682592 390.037616 376.7111104 376.7111104 376.7111104C363.3846048 376.7111104 352.5688896 387.52682592 352.5688896 400.85333248L352.5688896 424.99555456zM424.9955552 424.99555456L425.1162656 424.99555456C451.7209952 424.99555456 473.28 403.38826592 473.28 376.85596384L473.28 86.8595936C473.28 60.2790048 451.745136 38.72 425.1162656 38.72L86.8837344 38.72C60.27900544 38.72 38.72000128 60.3031488 38.72000128 86.8595936L38.72000128 376.85596384C38.72000128 403.4365504 60.25486336 424.99555456 86.8837344 424.99555456L87.00444544 424.99555456L87.00444544 400.85333248C87.00444544 374.00065472 108.62212736 352.5688883200001 135.2888896 352.5688883200001C162.14156736 352.5688883200001 183.57333376 374.1865702400001 183.57333376 400.85333248L183.57333376 424.99555456L328.4266656 424.99555456L328.4266656 400.85333248C328.4266656 374.00065472 350.0443488 352.5688883200001 376.7111104 352.5688883200001C403.5637888 352.5688883200001 424.9955552 374.1865702400001 424.9955552 400.85333248L424.9955552 424.99555456zM135.2888896 231.83363584L183.57333376 231.83363584L183.57333376 280.14222208L135.2888896 280.14222208L135.2888896 231.83363584zM135.2888896 135.2647488L183.57333376 135.2647488L183.57333376 183.5733344L135.2888896 183.5733344L135.2888896 135.2647488zM231.85777792 231.83363584L280.14222208 231.83363584L280.14222208 280.14222208L231.85777792 280.14222208L231.85777792 231.83363584zM231.85777792 135.2647488L280.14222208 135.2647488L280.14222208 183.5733344L231.85777792 183.5733344L231.85777792 135.2647488zM328.4266656 231.83363584L376.7111104 231.83363584L376.7111104 280.14222208L328.4266656 280.14222208L328.4266656 231.83363584zM328.4266656 135.2647488L376.7111104 135.2647488L376.7111104 183.5733344L328.4266656 183.5733344L328.4266656 135.2647488z" />
    <glyph glyph-name="calendar"
      unicode="&#xF11A;"
      horiz-adv-x="512" d=" M400.8533312 424.99555456L425.1162656 424.99555456C451.7209952 424.99555456 473.28 403.38826592 473.28 376.85596384L473.28 86.8595936C473.28 60.2790048 451.745136 38.72 425.1162656 38.72L86.8837344 38.72C60.27900544 38.72 38.72000128 60.3031488 38.72000128 86.8595936L38.72000128 376.85596384C38.72000128 403.4365504 60.25486336 424.99555456 86.8837344 424.99555456L111.14666752 424.99555456L111.14666752 449.13777664C111.14666752 462.4642832 121.96238304 473.27999872 135.2888896 473.27999872C148.61539616 473.27999872 159.43111168 462.4642832 159.43111168 449.13777664L159.43111168 424.99555456L352.5688896 424.99555456L352.5688896 449.13777664C352.5688896 462.4642832 363.3846048 473.27999872 376.7111104 473.27999872C390.037616 473.27999872 400.8533312 462.4642832 400.8533312 449.13777664L400.8533312 424.99555456zM87.00444544 328.4266662400001L87.00444544 111.1466688C87.00444544 97.8132864 97.8132864 87.0044448 111.14666752 87.0044448L400.8533312 87.0044448C414.1867136 87.0044448 424.9955552 97.8132864 424.9955552 111.1466688L424.9955552 328.4266662400001L87.00444544 328.4266662400001zM135.2888896 231.85777792L135.2888896 280.16636416L183.57333376 280.16636416L183.57333376 231.85777792L135.2888896 231.85777792zM328.4266656 231.85777792L328.4266656 280.16636416L376.7111104 280.16636416L376.7111104 231.85777792L328.4266656 231.85777792zM231.85777792 231.85777792L231.85777792 280.16636416L280.16636416 280.16636416L280.16636416 231.85777792L231.85777792 231.85777792zM135.2888896 135.2888896L135.2888896 183.5733344L183.57333376 183.5733344L183.57333376 135.2888896L135.2888896 135.2888896zM231.85777792 135.2888896L231.85777792 183.5733344L280.16636416 183.5733344L280.16636416 135.2888896L231.85777792 135.2888896zM328.4266656 135.2888896L328.4266656 183.5733344L376.7111104 183.5733344L376.7111104 135.2888896L328.4266656 135.2888896z" />
    <glyph glyph-name="calendar-1"
      unicode="&#x63;&#x61;&#x6C;&#x65;&#x6E;&#x64;&#x61;&#x72;"
      horiz-adv-x="512" d=" M400.8533312 424.99555456L425.1162656 424.99555456C451.7209952 424.99555456 473.28 403.38826592 473.28 376.85596384L473.28 86.8595936C473.28 60.2790048 451.745136 38.72 425.1162656 38.72L86.8837344 38.72C60.27900544 38.72 38.72000128 60.3031488 38.72000128 86.8595936L38.72000128 376.85596384C38.72000128 403.4365504 60.25486336 424.99555456 86.8837344 424.99555456L111.14666752 424.99555456L111.14666752 449.13777664C111.14666752 462.4642832 121.96238304 473.27999872 135.2888896 473.27999872C148.61539616 473.27999872 159.43111168 462.4642832 159.43111168 449.13777664L159.43111168 424.99555456L352.5688896 424.99555456L352.5688896 449.13777664C352.5688896 462.4642832 363.3846048 473.27999872 376.7111104 473.27999872C390.037616 473.27999872 400.8533312 462.4642832 400.8533312 449.13777664L400.8533312 424.99555456zM87.00444544 328.4266662400001L87.00444544 111.1466688C87.00444544 97.8132864 97.8132864 87.0044448 111.14666752 87.0044448L400.8533312 87.0044448C414.1867136 87.0044448 424.9955552 97.8132864 424.9955552 111.1466688L424.9955552 328.4266662400001L87.00444544 328.4266662400001zM135.2888896 231.85777792L135.2888896 280.16636416L183.57333376 280.16636416L183.57333376 231.85777792L135.2888896 231.85777792zM328.4266656 231.85777792L328.4266656 280.16636416L376.7111104 280.16636416L376.7111104 231.85777792L328.4266656 231.85777792zM231.85777792 231.85777792L231.85777792 280.16636416L280.16636416 280.16636416L280.16636416 231.85777792L231.85777792 231.85777792zM135.2888896 135.2888896L135.2888896 183.5733344L183.57333376 183.5733344L183.57333376 135.2888896L135.2888896 135.2888896zM231.85777792 135.2888896L231.85777792 183.5733344L280.16636416 183.5733344L280.16636416 135.2888896L231.85777792 135.2888896zM328.4266656 135.2888896L328.4266656 183.5733344L376.7111104 183.5733344L376.7111104 135.2888896L328.4266656 135.2888896z" />
    <glyph glyph-name="camera-filled"
      unicode="&#xF206;"
      horiz-adv-x="512" d=" M170.11199936 406.328888L170.11199936 427.8044432C170.11199936 439.66506496 179.8395952 449.27999872 191.8675488 449.27999872L320.1324512 449.27999872C332.1477088 449.27999872 341.888 439.7477552000001 341.888 427.8044432L341.888 406.328888L406.4284928 406.328888C441.935712 406.328888 470.72 377.6239936 470.72 342.5039699200001L470.72 126.5449184C470.72 91.295392 441.8764064 62.72 406.4284928 62.72L105.57150624 62.72C70.06428704 62.72 41.27999872 91.424896 41.27999872 126.5449184L41.27999872 342.5039699200001C41.27999872 377.75349888 70.1235936 406.328888 105.57150624 406.328888L170.11199936 406.328888zM256 148.622224C303.43463296 148.622224 341.888 187.0819584 341.888 234.52444448C341.888 281.96693152 303.43463296 320.4266662400001 256 320.4266662400001C208.56536704 320.4266662400001 170.11199936 281.96693152 170.11199936 234.52444448C170.11199936 187.0819584 208.56536704 148.622224 256 148.622224zM363.36 320.4266662400001C363.36 308.48335456 372.973344 298.95111072 384.832 298.95111072C396.7733344 298.95111072 406.304 308.56604448 406.304 320.4266662400001C406.304 332.36997824 396.6906592000001 341.90222176 384.832 341.90222176C372.8906656 341.90222176 363.36 332.287288 363.36 320.4266662400001zM256 191.5733344C232.28268352 191.5733344 213.05599968 210.80320096 213.05599968 234.52444448C213.05599968 258.245688 232.28268352 277.47555552 256 277.47555552C279.71731648 277.47555552 298.94400032 258.245688 298.94400032 234.52444448C298.94400032 210.80320096 279.71731648 191.5733344 256 191.5733344z" />
    <glyph glyph-name="camera-filled-1"
      unicode="&#x63;&#x61;&#x6D;&#x65;&#x72;&#x61;&#x2D;&#x66;&#x69;&#x6C;&#x6C;&#x65;&#x64;"
      horiz-adv-x="512" d=" M170.11199936 406.328888L170.11199936 427.8044432C170.11199936 439.66506496 179.8395952 449.27999872 191.8675488 449.27999872L320.1324512 449.27999872C332.1477088 449.27999872 341.888 439.7477552000001 341.888 427.8044432L341.888 406.328888L406.4284928 406.328888C441.935712 406.328888 470.72 377.6239936 470.72 342.5039699200001L470.72 126.5449184C470.72 91.295392 441.8764064 62.72 406.4284928 62.72L105.57150624 62.72C70.06428704 62.72 41.27999872 91.424896 41.27999872 126.5449184L41.27999872 342.5039699200001C41.27999872 377.75349888 70.1235936 406.328888 105.57150624 406.328888L170.11199936 406.328888zM256 148.622224C303.43463296 148.622224 341.888 187.0819584 341.888 234.52444448C341.888 281.96693152 303.43463296 320.4266662400001 256 320.4266662400001C208.56536704 320.4266662400001 170.11199936 281.96693152 170.11199936 234.52444448C170.11199936 187.0819584 208.56536704 148.622224 256 148.622224zM363.36 320.4266662400001C363.36 308.48335456 372.973344 298.95111072 384.832 298.95111072C396.7733344 298.95111072 406.304 308.56604448 406.304 320.4266662400001C406.304 332.36997824 396.6906592000001 341.90222176 384.832 341.90222176C372.8906656 341.90222176 363.36 332.287288 363.36 320.4266662400001zM256 191.5733344C232.28268352 191.5733344 213.05599968 210.80320096 213.05599968 234.52444448C213.05599968 258.245688 232.28268352 277.47555552 256 277.47555552C279.71731648 277.47555552 298.94400032 258.245688 298.94400032 234.52444448C298.94400032 210.80320096 279.71731648 191.5733344 256 191.5733344z" />
    <glyph glyph-name="camera-rotate"
      unicode="&#xF207;"
      horiz-adv-x="512" d=" M170.11199936 406.328888L170.11199936 427.8044432C170.11199936 439.66506496 179.8395952 449.27999872 191.8675488 449.27999872L320.1324512 449.27999872C332.1477088 449.27999872 341.888 439.7477552000001 341.888 427.8044432L341.888 406.328888L406.4284928 406.328888C441.935712 406.328888 470.72 377.6239936 470.72 342.5039699200001L470.72 126.5449184C470.72 91.295392 441.8764064 62.72 406.4284928 62.72L105.57150624 62.72C70.06428704 62.72 41.27999872 91.424896 41.27999872 126.5449184L41.27999872 342.5039699200001C41.27999872 377.75349888 70.1235936 406.328888 105.57150624 406.328888L170.11199936 406.328888zM255.99731584 129.583296C267.85597408 129.583296 277.46931616 139.1982304 277.46931616 151.0588512C277.46931616 162.919472 267.85597408 172.5344064 255.99731584 172.5344064C220.42134144 172.5344064 191.58131552 201.379208 191.58131552 236.96107328C191.58131552 272.5429385600001 220.42134144 301.38773952 255.99731584 301.38773952C288.30223872 301.38773952 315.05294752 277.60338624 319.69905888 246.58780448L314.10054848 252.18724192C309.93498016 256.37497536 304.4381481600001 258.4795798400001 298.94131616 258.4795798400001C293.44448416 258.4795798400001 287.92618016 256.37497536 283.73914016 252.18724192C275.38653216 243.79029984 275.38653216 230.17479776 283.73914016 221.7993312L326.6187232 178.9341216C330.8487072 174.7034368 336.3455392 172.5344064 341.9067872 172.5344064C347.3606752 172.5344064 352.8789792 174.6604864 357.1733792 178.9341216L400.0100224000001 221.7993312C408.4055744 230.17479776 408.4055744 243.79029984 400.0100224000001 252.18724192C395.8015072 256.37497536 390.3046752 258.458104 384.8078432 258.458104C379.3324832 258.458104 373.8356512 256.37497536 369.6486112 252.18724192L363.0187776 245.5511804800001C358.6433792000001 300.83791872 312.39959936 344.33885024 255.99731584 344.33885024C196.70402496 344.33885024 148.63731552 296.26418208 148.63731552 236.96107328C148.63731552 177.6579648 196.70402496 129.583296 255.99731584 129.583296z" />
    <glyph glyph-name="camera-rotate-1"
      unicode="&#x63;&#x61;&#x6D;&#x65;&#x72;&#x61;&#x2D;&#x72;&#x6F;&#x74;&#x61;&#x74;&#x65;"
      horiz-adv-x="512" d=" M170.11199936 406.328888L170.11199936 427.8044432C170.11199936 439.66506496 179.8395952 449.27999872 191.8675488 449.27999872L320.1324512 449.27999872C332.1477088 449.27999872 341.888 439.7477552000001 341.888 427.8044432L341.888 406.328888L406.4284928 406.328888C441.935712 406.328888 470.72 377.6239936 470.72 342.5039699200001L470.72 126.5449184C470.72 91.295392 441.8764064 62.72 406.4284928 62.72L105.57150624 62.72C70.06428704 62.72 41.27999872 91.424896 41.27999872 126.5449184L41.27999872 342.5039699200001C41.27999872 377.75349888 70.1235936 406.328888 105.57150624 406.328888L170.11199936 406.328888zM255.99731584 129.583296C267.85597408 129.583296 277.46931616 139.1982304 277.46931616 151.0588512C277.46931616 162.919472 267.85597408 172.5344064 255.99731584 172.5344064C220.42134144 172.5344064 191.58131552 201.379208 191.58131552 236.96107328C191.58131552 272.5429385600001 220.42134144 301.38773952 255.99731584 301.38773952C288.30223872 301.38773952 315.05294752 277.60338624 319.69905888 246.58780448L314.10054848 252.18724192C309.93498016 256.37497536 304.4381481600001 258.4795798400001 298.94131616 258.4795798400001C293.44448416 258.4795798400001 287.92618016 256.37497536 283.73914016 252.18724192C275.38653216 243.79029984 275.38653216 230.17479776 283.73914016 221.7993312L326.6187232 178.9341216C330.8487072 174.7034368 336.3455392 172.5344064 341.9067872 172.5344064C347.3606752 172.5344064 352.8789792 174.6604864 357.1733792 178.9341216L400.0100224000001 221.7993312C408.4055744 230.17479776 408.4055744 243.79029984 400.0100224000001 252.18724192C395.8015072 256.37497536 390.3046752 258.458104 384.8078432 258.458104C379.3324832 258.458104 373.8356512 256.37497536 369.6486112 252.18724192L363.0187776 245.5511804800001C358.6433792000001 300.83791872 312.39959936 344.33885024 255.99731584 344.33885024C196.70402496 344.33885024 148.63731552 296.26418208 148.63731552 236.96107328C148.63731552 177.6579648 196.70402496 129.583296 255.99731584 129.583296z" />
    <glyph glyph-name="camera-take-picture"
      unicode="&#xF208;"
      horiz-adv-x="512" d=" M256 32C132.288216 32 32 132.2882176 32 256C32 379.711784 132.288216 480 256 480C379.7117824 480 480 379.711784 480 256C480 132.2882176 379.7117824 32 256 32zM256 64C362.038672 64 448 149.961328 448 256C448 362.038672 362.038672 448 256 448C149.961328 448 64 362.038672 64 256C64 149.961328 149.961328 64 256 64zM256 96C167.63444 96 96 167.6344416 96 256C96 344.36556 167.63444 416 256 416C344.3655584 416 416 344.36556 416 256C416 167.6344416 344.3655584 96 256 96z" />
    </font>
</defs>
</svg>
