<?xml version="1.0" standalone="no"?>
<!DOCTYPE svg PUBLIC "-//W3C//DTD SVG 1.1//EN" "http://www.w3.org/Graphics/SVG/1.1/DTD/svg11.dtd" >
<svg xmlns="http://www.w3.org/2000/svg">
<metadata>Generated by IcoMoon</metadata>
<defs>
<font id="sys-icon" horiz-adv-x="1024">
<font-face units-per-em="1024" ascent="960" descent="-64" />
<missing-glyph horiz-adv-x="1024" />
<glyph unicode="&#x20;" horiz-adv-x="512" d="" />
<glyph unicode="&#xe900;" glyph-name="spread" d="M64 832.38v0-768.76c0-35.072 28.531-63.62 63.62-63.62h768.76c35.072 0 63.62 28.531 63.62 63.62v768.76c0 35.072-28.531 63.62-63.62 63.62h-768.76c-35.072 0-63.62-28.531-63.62-63.62v0zM0 832.38c0 70.483 57.249 127.62 127.62 127.62h768.76c70.483 0 127.62-57.249 127.62-127.62v-768.76c0-70.483-57.249-127.62-127.62-127.62h-768.76c-70.483 0-127.62 57.249-127.62 127.62v768.76zM256 512h512c35.346 0 64-28.654 64-64s-28.654-64-64-64h-512c-35.346 0-64 28.654-64 64s28.654 64 64 64z" />
<glyph unicode="&#xe901;" glyph-name="singlebox" d="M512 49.778v0c219.932 0 398.222 178.29 398.222 398.222s-178.29 398.222-398.222 398.222c-219.932 0-398.222-178.29-398.222-398.222s178.29-398.222 398.222-398.222v0zM512-64v0c-282.77 0-512 229.23-512 512s229.23 512 512 512c282.77 0 512-229.23 512-512s-229.23-512-512-512v0z" />
<glyph unicode="&#xe902;" glyph-name="sequencedown" horiz-adv-x="1280" d="M1193.706 960c94.327 0 134.086-38.015 0-257.789l-468.998-712.86c-46.834-71.187-122.836-71.083-169.602 0l-468.998 712.86c-145.805 217.242-79.061 257.789 0 257.789h1107.598z" />
<glyph unicode="&#xe903;" glyph-name="forward2" horiz-adv-x="1152" d="M1150.959 435.579c-1.338-8.698-4.185-17.176-8.66-24.85-0.043-0.073-0.085-0.146-0.128-0.218-3.516-6.084-7.956-11.537-13.287-16.020l-531.456-446.829c-23.989-20.169-58.542-13.698-75.688 15.705-16.645 28.543-11.059 70.043 13.596 90.772l468.36 393.78-468.541 393.932c-23.989 20.169-30.742 61.369-13.596 90.772 16.645 28.543 51.033 36.435 75.688 15.705l531.456-446.829c0.141-0.118 0.281-0.238 0.421-0.357 5.083-4.186 9.63-9.492 13.356-15.881 8.552-14.666 11.236-32.752 8.479-49.684zM638.959 435.579c-1.338-8.698-4.185-17.176-8.66-24.85-0.043-0.073-0.085-0.146-0.128-0.218-3.516-6.084-7.956-11.537-13.287-16.020l-531.456-446.829c-23.989-20.169-58.542-13.698-75.688 15.705-16.645 28.543-11.059 70.043 13.596 90.772l468.36 393.78-468.541 393.932c-23.989 20.169-30.742 61.369-13.596 90.772 16.645 28.543 51.033 36.435 75.688 15.705l531.456-446.829c0.141-0.118 0.281-0.238 0.421-0.357 5.083-4.186 9.63-9.492 13.356-15.881 8.552-14.666 11.236-32.752 8.479-49.684z" />
<glyph unicode="&#xe904;" glyph-name="forward" horiz-adv-x="640" d="M638.959 435.579c-1.338-8.698-4.185-17.176-8.66-24.85-0.043-0.073-0.085-0.146-0.128-0.218-3.516-6.084-7.956-11.537-13.287-16.020l-531.456-446.829c-23.989-20.169-58.542-13.698-75.688 15.705-16.645 28.543-11.059 70.043 13.596 90.772l468.36 393.78-468.541 393.932c-23.989 20.169-30.742 61.369-13.596 90.772 16.645 28.543 51.033 36.435 75.688 15.705l531.456-446.829c0.141-0.118 0.281-0.238 0.421-0.357 5.083-4.186 9.63-9.492 13.356-15.881 8.552-14.666 11.236-32.752 8.479-49.684v0z" />
<glyph unicode="&#xe905;" glyph-name="foldup" d="M64 832.38v0-768.76c0-35.072 28.531-63.62 63.62-63.62h768.76c35.072 0 63.62 28.531 63.62 63.62v768.76c0 35.072-28.531 63.62-63.62 63.62h-768.76c-35.072 0-63.62-28.531-63.62-63.62v0zM0 832.38c0 70.483 57.249 127.62 127.62 127.62h768.76c70.483 0 127.62-57.249 127.62-127.62v-768.76c0-70.483-57.249-127.62-127.62-127.62h-768.76c-70.483 0-127.62 57.249-127.62 127.62v768.76zM448 512h-192.295c-34.543 0-63.705-28.654-63.705-64 0-35.593 28.522-64 63.705-64h192.295v-192.295c0-34.543 28.654-63.705 64-63.705 35.593 0 64 28.522 64 63.705v192.295h192.295c34.543 0 63.705 28.654 63.705 64 0 35.593-28.522 64-63.705 64h-192.295v192.295c0 34.543-28.654 63.705-64 63.705-35.593 0-64-28.522-64-63.705v-192.295z" />
<glyph unicode="&#xe906;" glyph-name="dropdownmin" horiz-adv-x="1229" d="M1145.958 960c90.554 0 128.723-38.015 0-257.789l-450.238-712.86c-44.961-71.187-117.923-71.083-162.818 0l-450.238 712.86c-139.973 217.242-75.899 257.789 0 257.789h1063.294z" />
<glyph unicode="&#xe907;" glyph-name="dropdownmax" horiz-adv-x="1280" d="M1193.706 960c94.327 0 134.086-38.015 0-257.789l-468.998-712.86c-46.834-71.187-122.836-71.083-169.602 0l-468.998 712.86c-145.805 217.242-79.061 257.789 0 257.789h1107.598z" />
<glyph unicode="&#xe908;" glyph-name="close" d="M149.961 85.961c-199.948 199.948-199.948 524.129 0 724.077s524.129 199.948 724.077 0c199.948-199.948 199.948-524.129 0-724.077s-524.129-199.948-724.077 0zM512 529.015l-121.708 121.708c-21.863 21.863-58.457 22.185-80.828-0.186-22.528-22.528-22.455-58.56-0.186-80.828l121.708-121.708-121.708-121.708c-21.863-21.863-22.185-58.457 0.186-80.828 22.528-22.528 58.56-22.455 80.828-0.186l121.708 121.708 121.708-121.708c21.863-21.863 58.457-22.185 80.828 0.186 22.528 22.528 22.455 58.56 0.186 80.828l-121.708 121.708 121.708 121.708c21.863 21.863 22.185 58.457-0.186 80.828-22.528 22.528-58.56 22.455-80.828 0.186l-121.708-121.708z" />
<glyph unicode="&#xe909;" glyph-name="backward2" horiz-adv-x="1152" d="M1.041 435.579c1.338-8.698 4.185-17.176 8.66-24.85 0.043-0.073 0.085-0.146 0.128-0.218 3.516-6.084 7.956-11.537 13.287-16.020l531.456-446.829c23.989-20.169 58.542-13.698 75.688 15.705 16.645 28.543 11.059 70.043-13.596 90.772l-468.36 393.78 468.541 393.932c23.989 20.169 30.742 61.369 13.596 90.772-16.645 28.543-51.033 36.435-75.688 15.705l-531.456-446.829c-0.141-0.118-0.281-0.238-0.421-0.357-5.083-4.186-9.63-9.492-13.356-15.881-8.552-14.666-11.236-32.752-8.479-49.684zM513.041 435.579c1.338-8.698 4.185-17.176 8.66-24.85 0.043-0.073 0.085-0.146 0.128-0.218 3.516-6.084 7.956-11.537 13.287-16.020l531.456-446.829c23.989-20.169 58.542-13.698 75.688 15.705 16.645 28.543 11.059 70.043-13.596 90.772l-468.36 393.78 468.541 393.932c23.989 20.169 30.742 61.369 13.596 90.772-16.645 28.543-51.033 36.435-75.688 15.705l-531.456-446.829c-0.141-0.118-0.281-0.238-0.421-0.357-5.083-4.186-9.63-9.492-13.356-15.881-8.552-14.666-11.236-32.752-8.479-49.684z" />
<glyph unicode="&#xe90a;" glyph-name="backward" horiz-adv-x="640" d="M1.041 435.579c1.338-8.698 4.185-17.176 8.66-24.85 0.043-0.073 0.085-0.146 0.128-0.218 3.516-6.084 7.956-11.537 13.287-16.020l531.456-446.829c23.989-20.169 58.542-13.698 75.688 15.705 16.645 28.543 11.059 70.043-13.596 90.772l-468.36 393.78 468.541 393.932c23.989 20.169 30.742 61.369 13.596 90.772-16.645 28.543-51.033 36.435-75.688 15.705l-531.456-446.829c-0.141-0.118-0.281-0.238-0.421-0.357-5.083-4.186-9.63-9.492-13.356-15.881-8.552-14.666-11.236-32.752-8.479-49.684v0z" />
<glyph unicode="&#xe90b;" glyph-name="arrowup2" horiz-adv-x="1170" d="M599.338 959.048c9.941-1.223 19.63-3.826 28.401-7.918 0.083-0.039 0.167-0.078 0.25-0.117 6.953-3.215 13.186-7.274 18.308-12.148l510.661-485.902c23.050-21.933 15.654-53.524-17.949-69.201-32.621-15.218-80.049-10.111-103.74 12.431l-450.034 428.215-450.208-428.38c-23.050-21.933-70.136-28.107-103.74-12.431-32.621 15.218-41.639 46.659-17.949 69.201l510.661 485.902c0.135 0.129 0.271 0.257 0.408 0.385 4.783 4.647 10.848 8.805 18.15 12.211 16.761 7.819 37.431 10.273 56.781 7.752zM599.338 520.191c9.941-1.223 19.63-3.826 28.401-7.918 0.083-0.039 0.167-0.078 0.25-0.117 6.953-3.215 13.186-7.274 18.308-12.148l510.661-485.902c23.050-21.933 15.654-53.524-17.949-69.201-32.621-15.218-80.049-10.111-103.74 12.431l-450.034 428.215-450.208-428.38c-23.050-21.933-70.136-28.107-103.74-12.431-32.621 15.218-41.639 46.659-17.949 69.201l510.661 485.902c0.135 0.129 0.271 0.257 0.408 0.385 4.783 4.647 10.848 8.805 18.15 12.211 16.761 7.819 37.431 10.273 56.781 7.752z" />
<glyph unicode="&#xe90c;" glyph-name="arrowup" horiz-adv-x="1877" d="M938.667 607.931l635.786-554.115c49.682-43.3 130.071-43.441 180.331 0.363 49.912 43.5 49.193 114.654 0.416 157.166l-723.818 630.839c-25.544 22.262-59.205 33.116-92.714 32.454-33.51 0.662-67.171-10.192-92.714-32.454l-723.818-630.839c-48.777-42.512-49.496-113.666 0.416-157.166 50.26-43.804 130.649-43.663 180.331-0.363l635.786 554.115z" />
<glyph unicode="&#xe90d;" glyph-name="arrowright" horiz-adv-x="512" d="M351.959 448l-332.469-381.472c-25.98-29.809-26.065-78.043 0.218-108.198 26.1-29.947 68.793-29.516 94.3-0.25l378.504 434.291c13.357 15.326 19.87 35.523 19.472 55.629 0.397 20.106-6.115 40.302-19.472 55.629l-378.504 434.291c-25.507 29.266-68.199 29.698-94.3-0.25-26.282-30.156-26.198-78.389-0.218-108.198l332.469-381.472z" />
<glyph unicode="&#xe90e;" glyph-name="arrowleftM7" horiz-adv-x="512" d="M160.041 448l332.469-381.472c25.98-29.809 26.065-78.043-0.218-108.198-26.1-29.947-68.793-29.516-94.3-0.25l-378.504 434.291c-13.357 15.326-19.87 35.523-19.472 55.629-0.397 20.106 6.115 40.302 19.472 55.629l378.504 434.291c25.507 29.266 68.199 29.698 94.3-0.25 26.282-30.156 26.198-78.389 0.218-108.198l-332.469-381.472z" />
<glyph unicode="&#xe90f;" glyph-name="arrowleft" horiz-adv-x="512" d="M160.041 448l332.469-381.472c25.98-29.809 26.065-78.043-0.218-108.198-26.1-29.947-68.793-29.516-94.3-0.25l-378.504 434.291c-13.357 15.326-19.87 35.523-19.472 55.629-0.397 20.106 6.115 40.302 19.472 55.629l378.504 434.291c25.507 29.266 68.199 29.698 94.3-0.25 26.282-30.156 26.198-78.389 0.218-108.198l-332.469-381.472z" />
<glyph unicode="&#xe910;" glyph-name="arrowdownM7" horiz-adv-x="1877" d="M938.667 288.069l635.786 554.115c49.682 43.3 130.071 43.441 180.331-0.363 49.912-43.5 49.193-114.654 0.416-157.166l-723.818-630.839c-25.544-22.262-59.205-33.116-92.714-32.454-33.51-0.662-67.171 10.192-92.714 32.454l-723.818 630.839c-48.777 42.512-49.496 113.666 0.416 157.166 50.26 43.804 130.649 43.663 180.331 0.363l635.786-554.115z" />
<glyph unicode="&#xe911;" glyph-name="arrowdown2" horiz-adv-x="1170" d="M599.338-63.048c9.941 1.223 19.63 3.826 28.401 7.918 0.083 0.039 0.167 0.078 0.25 0.117 6.953 3.215 13.186 7.274 18.308 12.148l510.661 485.902c23.050 21.933 15.654 53.524-17.949 69.201-32.621 15.218-80.049 10.111-103.74-12.431l-450.034-428.215-450.208 428.38c-23.050 21.933-70.136 28.107-103.74 12.431-32.621-15.218-41.639-46.659-17.949-69.201l510.661-485.902c0.135-0.129 0.271-0.257 0.408-0.385 4.783-4.647 10.848-8.805 18.15-12.211 16.761-7.819 37.431-10.273 56.781-7.752zM599.338 375.809c9.941 1.223 19.63 3.826 28.401 7.918 0.083 0.039 0.167 0.078 0.25 0.117 6.953 3.215 13.186 7.274 18.308 12.148l510.661 485.902c23.050 21.933 15.654 53.524-17.949 69.201-32.621 15.218-80.049 10.111-103.74-12.431l-450.034-428.215-450.208 428.38c-23.050 21.933-70.136 28.107-103.74 12.431-32.621-15.218-41.639-46.659-17.949-69.201l510.661-485.902c0.135-0.129 0.271-0.257 0.408-0.385 4.783-4.647 10.848-8.805 18.15-12.211 16.761-7.819 37.431-10.273 56.781-7.752z" />
<glyph unicode="&#xe912;" glyph-name="arrowdown" horiz-adv-x="1877" d="M938.667 288.069l635.786 554.115c49.682 43.3 130.071 43.441 180.331-0.363 49.912-43.5 49.193-114.654 0.416-157.166l-723.818-630.839c-25.544-22.262-59.205-33.116-92.714-32.454-33.51-0.662-67.171 10.192-92.714 32.454l-723.818 630.839c-48.777 42.512-49.496 113.666 0.416 157.166 50.26 43.804 130.649 43.663 180.331 0.363l635.786-554.115z" />
</font>
</defs>
</svg>
