<?xml version="1.0" standalone="no"?>
  <!DOCTYPE svg PUBLIC "-//W3C//DTD SVG 1.1//EN" "http://www.w3.org/Graphics/SVG/1.1/DTD/svg11.dtd" >
  <svg>
  <metadata>
  Created by font-carrier
  </metadata>
  <defs>
  <font id="iconfont" horiz-adv-x="1024" vert-adv-y="1024" >
    <font-face
      
      font-family="iconfont"
      
      font-weight="400"
      
      font-stretch="normal"
      
      units-per-em="1024"
      
      ascent="812"
      
      descent="-212"
      
    />
      <missing-glyph />

      
      <glyph glyph-name="x" unicode="&#x78;" horiz-adv-x="100"
        d="M20 20 L50 20 L50 -20 Z" />
      

      
      <glyph glyph-name="uniE101" unicode="&#xE101;" d="M288 460L336 508 512 332 688 508 736 460 512 236ZM288 268L336 316 512 140 688 316 736 268 512 44Z"  horiz-adv-x="1024" vert-adv-y="1024"  />

      
      <glyph glyph-name="uniE102" unicode="&#xE102;" d="M697.6 530.4L745.6 482.4 569.6 306.4 745.6 130.4 697.6 82.4 473.6 306.4 697.6 530.4ZM505.6 530.4L553.6 482.4 377.6 306.4 553.6 130.4 505.6 82.4 281.6 306.4 505.6 530.4Z"  horiz-adv-x="1024" vert-adv-y="1024"  />

      
      <glyph glyph-name="uniE103" unicode="&#xE103;" d="M358.4 82.4L310.4 130.4 486.4 306.4 310.4 482.4 358.4 530.4 582.4 306.4 358.4 82.4ZM550.4 82.4L502.4 130.4 678.4 306.4 502.4 482.4 550.4 530.4 774.4 306.4 550.4 82.4Z"  horiz-adv-x="1024" vert-adv-y="1024"  />

      
      <glyph glyph-name="uniE104" unicode="&#xE104;" d="M736 140L688 92 512 268 336 92 288 140 512 364ZM736 332L688 284 512 460 336 284 288 332 512 556Z"  horiz-adv-x="1024" vert-adv-y="1024"  />

      
      <glyph glyph-name="uniE105" unicode="&#xE105;" d="M376 308L600 532 648 484 472 308 648 132 600 84 376 308Z"  horiz-adv-x="1024" vert-adv-y="1024"  />

      
      <glyph glyph-name="uniE106" unicode="&#xE106;" d="M288 364L336 412 512 236 688 412 736 364 512 140Z"  horiz-adv-x="1024" vert-adv-y="1024"  />

      
      <glyph glyph-name="uniE107" unicode="&#xE107;" d="M424 84L376 132 552 308 376 484 424 532 648 308 424 84Z"  horiz-adv-x="1024" vert-adv-y="1024"  />

      
      <glyph glyph-name="uniE108" unicode="&#xE108;" d="M512 444L736 220 688 172 512 348 336 172 288 220 512 444Z"  horiz-adv-x="1024" vert-adv-y="1024"  />

      
      <glyph glyph-name="uniE109" unicode="&#xE109;" d="M352.2133-212H96.0427C43.008-212 0-168.992 0-115.9573V140.2133C0 193.248 43.008 236.256 96.0427 236.256H352.2133C405.248 236.256 448.256 193.248 448.256 140.2133V-115.9573C448.256-168.992 405.248-212 352.2133-212ZM352.2133 300.3413H96.0427C43.008 300.3413 0 343.3493 0 396.384V652.5547C0 705.5893 43.008 748.5973 96.0427 748.5973H352.2133C405.248 748.5973 448.256 705.5893 448.256 652.5547V396.384C448.256 343.3493 405.248 300.3413 352.2133 300.3413ZM864.5547-212H608.384C555.3493-212 512.3413-168.992 512.3413-115.9573V140.2133C512.3413 193.248 555.3493 236.256 608.384 236.256H864.5547C917.5893 236.256 960.5973 193.248 960.5973 140.2133V-115.9573C960.5973-168.992 917.5893-212 864.5547-212ZM752.4693 268.2987C752.4267 268.2987 752.3413 268.2987 752.2987 268.2987 725.8453 268.2987 701.8667 279.0507 684.5867 296.4587L508.4587 472.5867C491.0933 489.952 480.384 513.9733 480.384 540.4693S491.136 590.9867 508.4587 608.352L684.5867 784.48C702.2507 801.248 726.144 811.5733 752.4693 811.5733S802.688 801.248 820.3947 784.4373L996.48 608.352C1013.8453 590.9867 1024.5547 566.9653 1024.5547 540.4693S1013.8027 489.952 996.48 472.5867L820.352 296.4587C803.072 279.0507 779.0933 268.2987 752.64 268.2987 752.5973 268.2987 752.512 268.2987 752.4693 268.2987Z"  horiz-adv-x="1024" vert-adv-y="1024"  />

      
      <glyph glyph-name="uniE10A" unicode="&#xE10A;" d="M352.2133-212H96.0427C43.008-212 0-168.992 0-115.9573V140.2133C0 193.248 43.008 236.256 96.0427 236.256H352.2133C405.248 236.256 448.256 193.248 448.256 140.2133V-115.9573C448.256-168.992 405.248-212 352.2133-212ZM96.0427 172.256C78.3787 172.256 64.0427 157.92 64.0427 140.256V-115.9147C64.0427-133.5787 78.3787-147.9147 96.0427-147.9147H352.2133C369.8773-147.9147 384.2133-133.5787 384.2133-115.9147V140.256C384.2133 157.92 369.8773 172.256 352.2133 172.256ZM352.2133 300.3413H96.0427C43.008 300.3413 0 343.3493 0 396.384V652.5547C0 705.5893 43.008 748.5973 96.0427 748.5973H352.2133C405.248 748.5973 448.256 705.5893 448.256 652.5547V396.384C448.256 343.3493 405.248 300.3413 352.2133 300.3413ZM96.0427 684.5547C78.3787 684.5547 64.0427 670.2187 64.0427 652.5547V396.384C64.0427 378.72 78.3787 364.384 96.0427 364.384H352.2133C369.8773 364.384 384.2133 378.72 384.2133 396.384V652.5547C384.2133 670.2187 369.8773 684.5547 352.2133 684.5547ZM864.5547-212H608.384C555.3493-212 512.3413-168.992 512.3413-115.9573V140.2133C512.3413 193.248 555.3493 236.256 608.384 236.256H864.5547C917.5893 236.256 960.5973 193.248 960.5973 140.2133V-115.9573C960.5973-168.992 917.5893-212 864.5547-212ZM608.384 172.256C590.72 172.256 576.384 157.92 576.384 140.256V-115.9147C576.384-133.5787 590.72-147.9147 608.384-147.9147H864.5547C882.2187-147.9147 896.5547-133.5787 896.5547-115.9147V140.256C896.5547 157.92 882.2187 172.256 864.5547 172.256ZM752.4693 268.2987C752.4267 268.2987 752.3413 268.2987 752.2987 268.2987 725.8453 268.2987 701.8667 279.0507 684.5867 296.4587L508.4587 472.5867C491.0933 489.952 480.384 513.9733 480.384 540.4693S491.136 590.9867 508.4587 608.352L684.5867 784.48C702.2507 801.248 726.144 811.5733 752.4693 811.5733S802.688 801.248 820.3947 784.4373L996.48 608.352C1013.8453 590.9867 1024.5547 566.9653 1024.5547 540.4693S1013.8027 489.952 996.48 472.5867L820.352 296.4587C803.072 279.0507 779.0933 268.2987 752.64 268.2987 752.5973 268.2987 752.512 268.2987 752.4693 268.2987ZM752.4693 748.5973C743.68 748.4693 735.7867 744.8 730.0693 738.9973L553.3013 562.8693C547.456 557.0667 543.8293 549.0027 543.8293 540.128S547.456 523.1893 553.3013 517.3867L730.0693 341.2587C735.872 335.4133 743.936 331.7867 752.8107 331.7867S769.7493 335.4133 775.552 341.2587L951.68 518.0267C957.5253 523.8293 961.152 531.8933 961.152 540.768S957.5253 557.7067 951.68 563.5093L774.912 739.6373C769.152 745.184 761.344 748.5973 752.6827 748.5973 752.5973 748.5973 752.5547 748.5973 752.4693 748.5973Z"  horiz-adv-x="1024" vert-adv-y="1024"  />

      
      <glyph glyph-name="uniE10B" unicode="&#xE10B;" d="M160 44L160 620 96 620 96-20 128-20 160-20 960-20 960 44 160 44ZM883.04 111.36L912 111.36 912 151.68 912 444 912 555.36 670.08 353.6 421.76 478.08 216.96 309.76 216.96 220 216.96 151.68 216.96 124 216.96 111.36 832 111.36 883.04 111.36Z"  horiz-adv-x="1024" vert-adv-y="1024"  />

      
      <glyph glyph-name="uniE10C" unicode="&#xE10C;" d="M512 812C229.248 812 0 582.752 0 300S229.248-212 512-212C794.752-212 1024 17.248 1024 300S794.752 812 512 812ZM723.2 224.48L531.2 52.32 526.08 49.12H521.6C518.1013 47.6267 514.048 46.7307 509.7813 46.7307S501.4187 47.584 497.7493 49.1627L493.4827 49.0773 488.3627 52.2773 296.3627 224.4373C289.024 230.368 284.416 239.328 284.416 249.3973 284.416 267.0613 298.752 281.3973 316.416 281.3973 325.376 281.3973 333.44 277.728 339.2427 271.7973L480.0427 148.2773V523.9573C480.0427 541.6213 494.3787 555.9573 512.0427 555.9573S544.0427 541.6213 544.0427 523.9573V148.2773L680.3627 271.7973C686.1653 277.728 694.272 281.3973 703.1893 281.3973 720.8533 281.3973 735.1893 267.0613 735.1893 249.3973 735.1893 239.328 730.5387 230.368 723.2853 224.48Z"  horiz-adv-x="1024" vert-adv-y="1024"  />

      
      <glyph glyph-name="uniE10D" unicode="&#xE10D;" d="M512 812C229.76 812 0 582.24 0 300S229.76-212 512-212 1024 17.76 1024 300 794.24 812 512 812ZM512-148C264.96-148 64 52.96 64 300S264.96 748 512 748C759.04 748 960 547.04 960 300S759.04-148 512-148ZM680.32 271.84L544 148.32V524C544 541.92 529.92 556 512 556S480 541.92 480 524V148.32L344.32 271.84C331.52 283.36 311.04 282.72 298.88 269.92 286.72 256.48 288 236.64 300.8 224.48L490.24 52.32C491.52 51.04 493.44 50.4 495.36 49.12 496.64 48.48 497.92 47.2 499.84 46.56 503.68 44.64 508.16 44 512 44S520.32 44.64 524.16 46.56C526.08 47.2 527.36 48.48 528.64 49.12 530.56 50.4 532.48 51.04 533.76 52.32L723.2 224.48C736.64 236.64 737.28 256.48 725.12 269.92 713.6 282.72 693.12 284 680.32 271.84Z"  horiz-adv-x="1024" vert-adv-y="1024"  />

      
      <glyph glyph-name="uniE10E" unicode="&#xE10E;" d="M963.4133 197.6C963.0293 204.1707 960.512 210.0587 956.544 214.7093L956.5867 218.9333C953.856 221.536 950.784 223.7973 947.4133 225.632L947.2 225.76H652.8V726.6667C652.8 773.8133 614.6133 812 567.4667 812H482.1333C434.9867 812 396.8 773.8133 396.8 726.6667V234.2933H110.08C105.1733 230.624 101.1627 226.1013 98.2613 220.8533L98.1333 220.64V216.3733C93.9947 211.5947 91.4347 205.3227 91.3067 198.496 91.2213 197.4293 91.1787 196.2773 91.1787 195.04S91.2213 192.6507 91.3493 191.456L91.3493 191.6267C91.136 190.0907 91.0507 188.2987 91.0507 186.5067S91.1787 182.9227 91.392 181.1733C91.3067 180.4907 91.264 179.4667 91.264 178.4S91.3067 176.3093 91.392 175.2853C92.7147 172.8107 94.1227 170.592 95.744 168.5013L98.2187 160.9067 495.0187-200.0533C502.5707-206.88 512.5973-211.0613 523.6053-211.0613S544.64-206.88 552.2347-200.0533L951.552 160.0107 956.672 166.8373 960.9387 173.664C961.024 174.56 961.024 175.584 961.024 176.6507S960.9813 178.7413 960.896 179.7653C961.1093 181.1733 961.1947 182.9227 961.1947 184.7573S961.0667 188.3413 960.8533 190.0907L960.8533 189.8773C961.8773 192.0533 962.7307 194.6133 963.3707 197.3013Z"  horiz-adv-x="1024" vert-adv-y="1024"  />

      
      <glyph glyph-name="uniE10F" unicode="&#xE10F;" d="M480 204V524H544V204L640 300 688 252 512 76 336 252 384 300Z"  horiz-adv-x="1024" vert-adv-y="1024"  />

      
      <glyph glyph-name="uniE110" unicode="&#xE110;" d="M512 812C229.248 812 0 582.752 0 300S229.248-212 512-212C794.752-212 1024 17.248 1024 300S794.752 812 512 812ZM736 268H360.32L483.84 131.68C489.7707 125.8773 493.44 117.7707 493.44 108.8533 493.44 91.1893 479.104 76.8533 461.44 76.8533 451.3707 76.8533 442.4107 81.504 436.5227 88.7573L264.32 280.8C264.2347 281.568 264.192 282.464 264.192 283.36S264.2347 285.152 264.32 286.048L264.32 290.4C262.8693 293.8987 262.0587 297.9947 262.0587 302.2187S262.912 310.5387 264.4053 314.2933L264.32 318.56C264.2347 319.328 264.192 320.224 264.192 321.12S264.2347 322.912 264.32 323.808L436.48 515.68C442.4107 523.0187 451.3707 527.6267 461.44 527.6267 479.104 527.6267 493.44 513.2907 493.44 495.6267 493.44 486.6667 489.7707 478.6027 483.84 472.8L360.32 332H736C753.664 332 768 317.664 768 300S753.664 268 736 268Z"  horiz-adv-x="1024" vert-adv-y="1024"  />

      
      <glyph glyph-name="uniE111" unicode="&#xE111;" d="M512 812C229.76 812 0 582.24 0 300S229.76-212 512-212 1024 17.76 1024 300 794.24 812 512 812ZM512-148C264.96-148 64 52.96 64 300S264.96 748 512 748C759.04 748 960 547.04 960 300S759.04-148 512-148ZM736 332H360.32L483.84 468.32C496 481.12 494.72 501.6 481.92 513.76 469.12 525.28 448.64 524 436.48 511.2L264.32 321.76C263.04 319.84 262.4 317.92 261.12 316.64 260.48 314.72 259.2 313.44 258.56 312.16 255.36 304.48 255.36 296.16 258.56 288.48 259.2 286.56 260.48 285.28 261.12 284 262.4 282.08 263.04 280.16 264.32 278.24L436.48 88.8C442.88 81.76 451.2 78.56 460.16 78.56 467.84 78.56 475.52 81.12 481.92 86.88 494.72 99.04 496 118.88 483.84 132.32L360.32 268H736C753.92 268 768 282.08 768 300S753.92 332 736 332Z"  horiz-adv-x="1024" vert-adv-y="1024"  />

      
      <glyph glyph-name="uniE112" unicode="&#xE112;" d="M938.6667 415.2H446.2933V685.7067C446.3787 686.6027 446.3787 687.6267 446.3787 688.6933S446.336 690.784 446.2507 691.808C446.464 693.216 446.5493 694.9653 446.5493 696.8S446.4213 700.384 446.208 702.1333L446.208 701.92C442.5387 706.8267 438.016 710.8373 432.768 713.7387L432.5547 713.8667 426.5813 718.9867 418.048 724.1067H386.4747L379.648 719.84 372.8213 713.8667 11.008 316.2133C4.1813 308.6613 0 298.6347 0 287.6267S4.1813 266.592 11.008 258.9973L371.9253-139.4667 378.752-144.5867 385.5787-148.8533H418.0053L426.5387-143.7333H430.8053C433.408-141.0027 435.6693-137.9307 437.504-134.56L437.632-134.3467C437.8027-132.9387 437.888-131.3173 437.888-129.6533S437.8027-126.368 437.632-124.7467C437.7173-123.936 437.8027-122.7413 437.8027-121.5467S437.76-119.1573 437.6747-117.9627L437.6747 159.2H938.5813C985.728 159.2 1023.9147 197.3867 1023.9147 244.5333V329.8667C1023.9147 377.0133 985.728 415.2 938.5813 415.2Z"  horiz-adv-x="1024" vert-adv-y="1024"  />

      
      <glyph glyph-name="uniE113" unicode="&#xE113;" d="M416 332H736V268H416L512 172 464 124 288 300 464 476 512 428Z"  horiz-adv-x="1024" vert-adv-y="1024"  />

      
      <glyph glyph-name="uniE114" unicode="&#xE114;" d="M1024 708.1493C1024.1707 709.344 1024.256 710.752 1024.256 712.16S1024.1707 714.976 1024 716.3413C1022.7627 718.9867 1021.312 721.376 1019.5627 723.552L1019.6053 727.8613 1012.3093 732.9813 1002.0693 738.8267H975.0187L966.9547 734.432H963.2853L512 320.4373 61.44 729.312H57.0453L49.7493 738.8267H16.8533L10.2827 733.7067V729.312C8.6187 727.1787 7.168 724.7893 5.9733 722.2293 5.7173 720.8213 5.632 719.4133 5.632 718.0053S5.7173 715.1893 5.888 713.824C5.8027 713.2267 5.76 712.3307 5.76 711.4347S5.8027 709.6427 5.8453 708.7467L5.8453 328.5013H0C-0.128 327.3067-0.2133 325.8987-0.2133 324.4907S-0.128 321.6747 0.0427 320.3093C-0.0427 319.584-0.0853 318.56-0.0853 317.536S-0.0427 315.488 0.0427 314.464L0.0427 310.1973C1.536 307.424 3.2427 304.992 5.2053 302.8587L5.1627 302.9013 480.5973-128.6293C487.168-134.5173 495.9147-138.144 505.472-138.144S523.776-134.56 530.3893-128.6293L1012.352 299.9573C1014.272 302.0907 1015.9787 304.48 1017.3867 307.0827L1017.472 311.648C1017.5573 312.544 1017.6 313.5253 1017.6 314.592S1017.5573 316.64 1017.472 317.664C1017.6427 318.7307 1017.728 320.1387 1017.728 321.5467S1017.6427 324.3627 1017.472 325.728L1017.472 325.5573V702.9867C1019.9893 704.48 1022.1227 706.1867 1024.0427 708.1067Z"  horiz-adv-x="1024" vert-adv-y="1024"  />

      
      <glyph glyph-name="uniE115" unicode="&#xE115;" d="M950.8693-162.2507C949.6747-159.1787 948.1813-156.5333 946.3893-154.1013L946.4747-150.56 532.48 300 941.3547 750.56V754.9547C943.0187 757.088 944.4693 759.4773 945.664 762.0373 945.8773 763.4453 945.9627 764.8533 945.9627 766.2613S945.8773 769.0773 945.7067 770.4427C945.792 771.04 945.8347 771.936 945.8347 772.832S945.792 774.624 945.7493 775.52L945.7493 775.392C945.9627 776.8 946.048 778.464 946.048 780.128S945.92 783.456 945.7067 785.0773C945.7493 785.5467 945.792 786.3147 945.792 787.0827S945.7493 788.6187 945.7067 789.3867L945.7067 794.4213C944.1707 796.896 942.5067 799.072 940.5867 800.992L940.5867 800.992H936.192L928.128 811.9573H522.1973L511.9573 800.992 80.4267 325.5573C74.5387 318.9867 70.912 310.24 70.912 300.6827S74.496 282.3787 80.4267 275.7653L511.9573-200.352 519.2533-205.472H925.9093L933.2053-201.0773H937.6C939.52-198.944 941.2267-196.5547 942.6347-193.952L942.72-189.3867C942.8053-187.296 942.848-184.864 942.848-182.432S942.8053-177.568 942.72-175.136L942.72-175.4773C942.8053-174.5813 942.848-173.6 942.848-172.5333S942.8053-170.4853 942.72-169.4613C945.8347-167.5413 948.48-165.1093 950.7413-162.336Z"  horiz-adv-x="1024" vert-adv-y="1024"  />

      
      <glyph glyph-name="uniE116" unicode="&#xE116;" d="M941.3547 324.8747L512 800.3093 504.704 805.4293 497.408 812H95.872L88.576 807.6053H84.1813C82.2613 805.6853 80.5973 803.5093 79.1467 801.1627L73.216 790.0267C73.1733 789.3867 73.1733 788.6187 73.1733 787.8507S73.216 786.3147 73.2587 785.5467C73.0453 784.224 72.96 782.56 72.96 780.896S73.088 777.568 73.3013 775.9467L73.3013 776.1173C73.2587 775.3493 73.216 774.4533 73.216 773.5573S73.2587 771.7653 73.3013 770.8693C73.1733 769.76 73.088 768.3947 73.088 766.944S73.1733 764.128 73.344 762.7627C74.5813 760.16 76.032 757.728 77.7813 755.552L77.7387 751.2427 491.7333 299.9573 83.584-149.8773V-153.5467C81.8773-155.8507 80.4267-158.5387 79.2747-161.3547 79.0613-162.6773 79.0187-163.9573 79.0187-165.2373S79.104-167.7973 79.232-169.0347C79.1467-169.76 79.104-170.784 79.104-171.808S79.1467-173.856 79.232-174.88L73.3867-174.752C73.3013-176.8427 73.2587-179.2747 73.2587-181.7067S73.3013-186.5707 73.3867-189.0027L73.3867-193.056C74.88-195.8293 76.5867-198.2187 78.5493-200.3947L78.5067-200.352H82.9013L90.1973-204.7467H496.8533L504.1493-199.6267H512.2133L943.744 275.808C949.632 282.3787 953.2587 291.1253 953.2587 300.6827S949.6747 318.9867 943.744 325.6Z"  horiz-adv-x="1024" vert-adv-y="1024"  />

      
      <glyph glyph-name="uniE117" unicode="&#xE117;" d="M1024 272.224C1024.128 273.4187 1024.2133 274.8267 1024.2133 276.2347S1024.128 279.0507 1023.9573 280.416C1024.0427 281.1413 1024.0853 282.1653 1024.0853 283.1893S1024.0427 285.2373 1023.9573 286.2613L1023.9573 290.528C1022.464 293.3013 1020.7573 295.6907 1018.7947 297.8667L1018.8373 297.824 543.4027 729.3547C536.832 735.2427 528.0853 738.8693 518.528 738.8693S500.224 735.2853 493.6107 729.3547L11.648 300.0427C9.728 297.9093 8.0213 295.52 6.6133 292.9173L-0.0427 285.408C-0.0853 284.64-0.128 283.744-0.128 282.848S-0.0853 281.056-0.0427 280.16C-0.2133 279.0507-0.2987 277.6853-0.2987 276.2773S-0.2133 273.4613-0.0427 272.096L-0.0427 272.2667V-102.2187C-0.128-102.9867-0.128-103.8827-0.128-104.7787S-0.0853-106.5707 0-107.4667C-0.1707-108.576-0.256-109.9413-0.256-111.392S-0.1707-114.208 0-115.5733C1.2373-118.2187 2.688-120.608 4.4373-122.784L4.3947-127.0933 10.9653-132.2133H43.8613L51.1573-127.8187H55.552L511.9573 279.6053 961.792-128.544H965.4613L973.5253-132.9387H1004.9707L1012.2667-127.8187V-123.424C1013.9307-121.2907 1015.3813-118.9013 1016.576-116.3413 1016.832-114.9333 1016.9173-113.5253 1016.9173-112.1173S1016.832-109.3013 1016.6613-107.936C1016.7467-107.3387 1016.7893-106.4427 1016.7893-105.5467S1016.7467-103.7547 1016.704-102.8587L1016.704 271.4987Z"  horiz-adv-x="1024" vert-adv-y="1024"  />

      
      <glyph glyph-name="uniE118" unicode="&#xE118;" d="M512 812C229.248 812 0 582.752 0 300S229.248-212 512-212C794.752-212 1024 17.248 1024 300S794.752 812 512 812ZM768 300C768.2987 298.3787 768.4693 296.5013 768.4693 294.5387S768.2987 290.7413 767.9573 288.9067L768 284.64C768.0853 283.872 768.128 282.976 768.128 282.08S768.0853 280.288 768 279.392L595.84 87.52C589.9093 80.1813 580.9493 75.5733 570.88 75.5733 553.216 75.5733 538.88 89.9093 538.88 107.5733 538.88 116.5333 542.5493 124.5973 548.48 130.4L663.68 268H288C270.336 268 256 282.336 256 300S270.336 332 288 332H663.68L540.16 467.68C534.2293 473.4827 530.56 481.5893 530.56 490.5067 530.56 508.1707 544.896 522.5067 562.56 522.5067 572.6293 522.5067 581.5893 517.856 587.4773 510.6027L759.68 318.56C759.7653 317.792 759.808 316.896 759.808 316S759.7653 314.208 759.68 313.312L759.68 308.96C763.008 306.528 765.7813 303.5413 767.9147 300.128L768 300Z"  horiz-adv-x="1024" vert-adv-y="1024"  />

      
      <glyph glyph-name="uniE119" unicode="&#xE119;" d="M512 812C229.76 812 0 582.24 0 300S229.76-212 512-212 1024 17.76 1024 300 794.24 812 512 812ZM512-148C264.96-148 64 52.96 64 300S264.96 748 512 748C759.04 748 960 547.04 960 300S759.04-148 512-148ZM768 299.36C768 299.36 768 300 768 300S768 300.64 768 300.64C768 304.48 767.36 308.32 766.08 311.52 765.44 313.44 764.16 314.72 763.52 316 762.24 317.92 761.6 319.84 760.32 321.12L587.52 511.2C575.36 524 555.52 525.28 542.08 513.12 529.28 500.96 528 481.12 540.16 467.68L663.68 331.36H288C270.08 332 256 317.92 256 300S270.08 268 288 268H663.68L540.16 131.68C528 118.88 529.28 98.4 542.08 86.24 548.48 80.48 556.16 77.92 563.84 77.92 572.8 77.92 581.12 81.12 587.52 88.16L759.68 277.6C760.96 278.88 761.6 280.8 762.88 282.72 763.52 284 764.8 285.92 765.44 287.2 766.72 291.68 768 295.52 768 299.36Z"  horiz-adv-x="1024" vert-adv-y="1024"  />

      
      <glyph glyph-name="uniE11A" unicode="&#xE11A;" d="M1012.9067 316.2133L651.9467 713.8667 645.12 718.9867 638.2933 723.2533H606.72L597.3333 718.9867 591.36 713.8667C588.3733 710.9227 585.8133 707.552 583.808 703.84L583.68 703.6267C583.4667 702.0907 583.3813 700.2987 583.3813 698.5067S583.5093 694.9227 583.7227 693.1733C583.6373 692.4907 583.5947 691.4667 583.5947 690.4S583.6373 688.3093 583.7227 687.2853L583.7227 415.2H85.376C38.2293 415.2 0.0427 377.0133 0.0427 329.8667V244.5333C0.0427 197.3867 38.2293 159.2 85.376 159.2H577.7493V-111.3067C577.664-112.3307 577.6213-113.5253 577.6213-114.72S577.664-117.1093 577.7493-118.304C577.5787-119.5413 577.4933-121.2053 577.4933-122.8267S577.5787-126.112 577.7493-127.7333L577.7493-127.52C579.712-131.104 581.9733-134.176 584.576-136.9067L584.576-136.9067H588.8427L597.376-142.0267H629.8027L636.6293-137.76 651.136-139.4667 1012.096 257.3333C1018.9227 264.8853 1023.104 274.912 1023.104 285.92S1018.9227 306.9547 1012.096 314.5493Z"  horiz-adv-x="1024" vert-adv-y="1024"  />

      
      <glyph glyph-name="uniE11B" unicode="&#xE11B;" d="M608 332H288V268H608L512 172 560 124 736 300 560 476 512 428Z"  horiz-adv-x="1024" vert-adv-y="1024"  />

      
      <glyph glyph-name="uniE11C" unicode="&#xE11C;" d="M512 812C229.248 812 0 582.752 0 300S229.248-212 512-212C794.752-212 1024 17.248 1024 300S794.752 812 512 812ZM725.12 330.08C719.3173 324.2347 711.296 320.608 702.3787 320.608S685.44 324.2347 679.68 330.08L544 451.68V76C544 58.336 529.664 44 512 44S480 58.336 480 76V451.68L344.32 328.16C338.5173 322.2293 330.4107 318.56 321.4933 318.56 303.8293 318.56 289.4933 332.896 289.4933 350.56 289.4933 360.6293 294.144 369.5893 301.3973 375.4773L493.44 547.68H503.04C505.472 551.008 508.4587 553.7813 511.872 555.9147L512 556C513.6213 556.2987 515.4987 556.4693 517.4613 556.4693S521.2587 556.2987 523.0933 555.9573L527.36 556H532.48L724.48 383.84C733.5253 378.08 739.456 368.096 739.456 356.7467 739.456 345.6533 733.824 335.8827 725.248 330.1653Z"  horiz-adv-x="1024" vert-adv-y="1024"  />

      
      <glyph glyph-name="uniE11D" unicode="&#xE11D;" d="M512 812C229.76 812 0 582.24 0 300S229.76-212 512-212 1024 17.76 1024 300 794.24 812 512 812ZM512-148C264.96-148 64 52.96 64 300S264.96 748 512 748C759.04 748 960 547.04 960 300S759.04-148 512-148ZM533.76 547.68C531.84 548.96 529.92 549.6 528.64 550.88 526.72 551.52 525.44 552.8 523.52 553.44 520.32 554.72 516.48 555.36 513.28 556 512.64 556 512.64 556 512 556 512 556 511.36 556 511.36 556 507.52 556 503.68 555.36 499.84 553.44 498.56 552.8 497.28 551.52 495.36 550.88 494.08 549.6 492.16 548.96 490.24 547.68L300.8 375.52C288 363.36 286.72 343.52 298.88 330.08 311.04 317.28 330.88 316 344.32 328.16L480 451.68V76C480 58.08 494.08 44 512 44S544 58.08 544 76V451.68L680.32 328.16C686.72 322.4 694.4 319.84 702.08 319.84 711.04 319.84 719.36 323.68 725.76 330.08 737.92 342.88 736.64 363.36 723.84 375.52L533.76 547.68Z"  horiz-adv-x="1024" vert-adv-y="1024"  />

      
      <glyph glyph-name="uniE11E" unicode="&#xE11E;" d="M964.2667 409.2267C964.48 410.7627 964.5653 412.5547 964.5653 414.3467S964.4373 417.9307 964.224 419.68C964.3093 420.3627 964.352 421.3867 964.352 422.4533S964.3093 424.544 964.224 425.568L959.9573 432.2667 951.424 439.0933 553.7707 800.9067C546.2187 807.7333 536.192 811.9147 525.184 811.9147S504.1493 807.7333 496.5547 800.9067L98.0907 439.9893 92.9707 433.1627C91.4347 431.2 90.0267 428.9387 88.832 426.592 88.6613 425.44 88.6187 424.416 88.6187 423.3493S88.6613 421.2587 88.7467 420.2347C88.5333 418.8267 88.448 417.0773 88.448 415.2427S88.576 411.6587 88.7893 409.9093L88.7893 410.1227C88.704 409.0987 88.6613 407.904 88.6613 406.7093S88.704 404.32 88.832 403.1253C88.7467 402.4427 88.6613 401.4613 88.6613 400.48 88.6613 394.848 90.2827 389.6427 93.1413 385.248L93.056 381.1093H98.176C101.12 378.1227 104.4907 375.5627 108.2027 373.5573L108.416 373.4293H396.8427V-126.624C396.8427-173.7707 435.0293-211.9573 482.176-211.9573H567.5093C614.656-211.9573 652.8427-173.7707 652.8427-126.624V365.7493H939.5627C944.4693 369.4187 948.48 373.9413 951.3813 379.1893L951.5093 379.4027V383.6693C955.6053 388.4907 958.1227 394.72 958.336 401.5467 958.4213 402.4853 958.464 403.5093 958.464 404.576S958.4213 406.6667 958.336 407.6907Z"  horiz-adv-x="1024" vert-adv-y="1024"  />

      
      <glyph glyph-name="uniE11F" unicode="&#xE11F;" d="M544 396V76H480V396L384 300 336 348 512 524 688 348 640 300Z"  horiz-adv-x="1024" vert-adv-y="1024"  />

      
      <glyph glyph-name="uniE120" unicode="&#xE120;" d="M896 684L896 300 896-84 600.64 108 320 300 600.64 492 896 684ZM128 684H192V-84H128Z"  horiz-adv-x="1024" vert-adv-y="1024"  />

      
      <glyph glyph-name="uniE121" unicode="&#xE121;" d="M832 747.36C824.96 747.36 817.92 745.44 812.16 740.32L300.16 324.96C284.16 312.16 284.16 287.84 300.16 275.04L812.16-140.32C818.56-145.44 825.6-147.36 832-147.36 848.64-147.36 864-134.56 864-115.36V715.36C864 733.92 848.64 747.36 832 747.36ZM800-48.16L370.56 300 800 648.16V-48.16ZM160 748C142.08 748 128 733.92 128 716V-116C128-133.92 142.08-148 160-148S192-133.92 192-116V716C192 733.92 177.92 748 160 748Z"  horiz-adv-x="1024" vert-adv-y="1024"  />

      
      <glyph glyph-name="uniE122" unicode="&#xE122;" d="M544 556H237.44L311.04 629.6C323.84 642.4 323.84 662.24 311.04 675.04S278.4 687.84 265.6 675.04L182.4 591.84C145.28 554.72 145.28 493.28 182.4 456.16L264.96 373.6C271.36 367.2 279.68 364 288 364S304.64 367.2 310.4 373.6C323.2 386.4 323.2 406.24 310.4 419.04L237.44 492H544C702.72 492 832 377.44 832 236S717.44-20 576-20H288C270.08-20 256-34.08 256-52S270.08-84 288-84H576C752.64-84 896 59.36 896 236S737.92 556 544 556Z"  horiz-adv-x="1024" vert-adv-y="1024"  />

      
      <glyph glyph-name="uniE123" unicode="&#xE123;" d="M992-20H64V652C64 669.92 49.92 684 32 684S0 669.92 0 652V-52C0-69.92 14.08-84 32-84H992C1009.92-84 1024-69.92 1024-52S1009.92-20 992-20ZM200.32 76H248.32C266.24 76 280.32 90.08 280.32 108V460C280.32 477.92 266.24 492 248.32 492H200.32C182.4 492 168.32 477.92 168.32 460V108C168.32 90.08 182.4 76 200.32 76ZM424.32 76H472.32C490.24 76 504.32 90.08 504.32 108V652C504.32 669.92 490.24 684 472.32 684H424.32C406.4 684 392.32 669.92 392.32 652V108C392.32 90.08 406.4 76 424.32 76ZM648.32 76H696.32C714.24 76 728.32 90.08 728.32 108V332C728.32 349.92 714.24 364 696.32 364H648.32C630.4 364 616.32 349.92 616.32 332V108C616.32 90.08 630.4 76 648.32 76ZM872.32 76H920.32C938.24 76 952.32 90.08 952.32 108V204C952.32 221.92 938.24 236 920.32 236H872.32C854.4 236 840.32 221.92 840.32 204V108C840.32 90.08 854.4 76 872.32 76Z"  horiz-adv-x="1024" vert-adv-y="1024"  />

      
      <glyph glyph-name="uniE124" unicode="&#xE124;" d="M384 522.72C487.5093 503.7333 567.8933 423.3493 586.624 321.376L592 284C593.664 200.3733 624.5973 124.2987 674.944 65.2907 707.6693 27.4453 755.968 2.9973 810.0267 1.76 812.928 1.632 816.0853 1.5467 819.2427 1.5467 869.0773 1.5467 914.7307 19.5093 950.0587 49.3333 997.4613 91.7013 1027.3707 153.44 1027.3707 222.1333 1027.3707 236.0853 1026.1333 249.696 1023.7867 262.9653 1008 378.592 927.488 473.3973 820.0533 509.8773 814.208 569.8667 786.56 622.0907 744.576 658.1013 707.2427 692.5333 657.536 713.5253 602.9653 713.5253 587.52 713.5253 572.4587 711.8613 557.952 708.6613 506.9653 695.52 462.9333 665.824 431.744 625.5893 426.4107 619.4453 423.3813 612.0213 423.3813 603.9147 423.3813 594.2293 427.6907 585.5253 434.5173 579.6373L438.4 579.5947C422.1867 583.648 403.4987 586.208 384.2987 586.6347 378.1973 587.0187 371.3707 587.2747 364.5013 587.2747S350.8053 587.0613 344.064 586.592L345.0027 597.5147C347.136 623.328 362.1973 645.216 383.6587 656.8213 392.832 662.8373 398.592 672.6933 398.592 683.9147 398.592 701.664 384.2133 716.0427 366.464 716.0427 359.936 716.0427 353.8347 714.08 348.7573 710.7093 327.4667 697.056 310.5707 677.8987 299.9467 655.2853 284.672 661.728 267.0933 665.9947 248.5333 665.9947 239.872 665.9947 231.424 665.056 223.2747 663.3067 209.2373 660.1067 198.3147 647.0507 198.3147 631.4347 198.3147 613.344 212.992 598.6667 231.0827 598.6667 233.5573 598.6667 235.9893 598.9653 238.336 599.4773 240.4693 599.776 243.1573 599.9893 245.888 599.9893 263.936 599.9893 280.064 591.584 290.5173 578.4427L290.6027 578.3147C168.3627 550.1547 93.4827 438.7947 50.6027 341.5147 17.3227 266.6347-30.0373 125.8347 26.2827 24.7147 55.8933-36.3413 115.2427-78.8373 185.0027-84.0427L889.6427-84.0853C907.3067-84.0853 921.6427-69.7493 921.6427-52.0853S907.3067-20.0853 889.6427-20.0853H185.6427C138.7947-15.1787 99.84 14.3893 81.664 55.264 37.1627 135.4347 85.1627 264.0747 108.2027 315.9147 174.1227 463.1147 265.0027 533.5147 384.0427 522.6347ZM480 582.88C502.8267 613.856 535.296 636.512 572.8853 646.624 582.9547 648.8 593.152 649.8667 603.6053 649.8667 641.4933 649.8667 676.0533 635.616 702.208 612.192 733.9947 583.392 753.9627 541.792 753.9627 495.4987 753.9627 494.2613 753.9627 493.024 753.92 491.7867L753.92 459.3173 778.88 455.4773C874.1547 432.1813 946.1333 353.9733 959.872 257.0773 961.792 246.5813 962.816 235.9573 962.816 225.0773 962.816 172.5547 939.2213 125.5787 902.0587 94.0907 880.5547 77.536 853.5467 67.7227 824.2347 67.7227 820.0107 67.7227 815.7867 67.936 811.648 68.32 812.16 68.2773 812.16 68.2773 812.16 68.2773 776.576 68.2773 744.6187 83.808 722.688 108.4693 683.3067 157.2373 659.2853 219.6587 658.6027 287.6267L652.8427 330.0373C629.888 441.7813 552.5333 531.424 450.2613 571.1893 449.152 571.8293 450.4747 571.744 451.7973 571.744 462.0373 571.744 471.2107 576.2667 477.3973 583.4347Z"  horiz-adv-x="1024" vert-adv-y="1024"  />

      
      <glyph glyph-name="uniE125" unicode="&#xE125;" d="M375.68-212H102.4C45.8667-212 0-166.1333 0-109.6V-109.6 163.68C0 220.2133 45.8667 266.08 102.4 266.08V266.08H375.68C432.2133 266.08 478.08 220.2133 478.08 163.68V163.68-109.6C478.08-166.1333 432.2133-212 375.68-212V-212ZM375.68 333.92H102.4C45.8667 333.92 0 379.7867 0 436.32V436.32 709.6C0 766.1333 45.8667 812 102.4 812V812H375.68C432.2133 812 478.08 766.1333 478.08 709.6V709.6 436.32C478.08 379.7867 432.2133 333.92 375.68 333.92V333.92ZM921.6-212H648.32C591.7867-212 545.92-166.1333 545.92-109.6V-109.6 163.68C545.92 220.2133 591.7867 266.08 648.32 266.08V266.08H921.6C978.1333 266.08 1024 220.2133 1024 163.68V163.68-109.6C1024-166.1333 978.1333-212 921.6-212V-212ZM921.6 333.92H648.32C591.7867 333.92 545.92 379.7867 545.92 436.32V436.32 709.6C545.92 766.1333 591.7867 812 648.32 812H921.6C978.1333 812 1024 766.1333 1024 709.6V709.6 436.32C1024 379.7867 978.1333 333.92 921.6 333.92V333.92Z"  horiz-adv-x="1024" vert-adv-y="1024"  />

      
      <glyph glyph-name="uniE126" unicode="&#xE126;" d="M238.08 780H270.08C287.744 780 302.08 765.664 302.08 748V620C302.08 602.336 287.744 588 270.08 588H238.08C220.416 588 206.08 602.336 206.08 620V748C206.08 765.664 220.416 780 238.08 780ZM752 780H784C801.664 780 816 765.664 816 748V620C816 602.336 801.664 588 784 588H752C734.336 588 720 602.336 720 620V748C720 765.664 734.336 780 752 780ZM992 444H32C14.336 444 0 429.664 0 412V-100C0-153.0347 42.9653-196 96-196H928C981.0347-196 1024-153.0347 1024-100V412C1024 429.664 1009.664 444 992 444ZM800-4H224C206.336-4 192 10.336 192 28S206.336 60 224 60H800C817.664 60 832 45.664 832 28S817.664-4 800-4ZM800 188H352C334.336 188 320 202.336 320 220S334.336 252 352 252H800C817.664 252 832 237.664 832 220S817.664 188 800 188ZM928 700H848V620C848 584.672 819.328 556 784 556H752C716.672 556 688 584.672 688 620V700H334.08V620C334.08 584.672 305.408 556 270.08 556H238.08C202.752 556 174.08 584.672 174.08 620V700H96C42.9653 700 0 657.0347 0 604V540C0 522.336 14.336 508 32 508H992C1009.664 508 1024 522.336 1024 540V604C1024 657.0347 981.0347 700 928 700Z"  horiz-adv-x="1024" vert-adv-y="1024"  />

      
      <glyph glyph-name="uniE127" unicode="&#xE127;" d="M928 700H816V748C816 765.664 801.664 780 784 780H752C734.336 780 720 765.664 720 748V700H302.08V748C302.08 765.664 287.744 780 270.08 780H238.08C220.416 780 206.08 765.664 206.08 748V700H96C42.9653 700 0 657.0347 0 604V-100C0-153.0347 42.9653-196 96-196H928C981.0347-196 1024-153.0347 1024-100V604C1024 657.0347 981.0347 700 928 700ZM64 604C64 621.664 78.336 636 96 636H206.08V620C206.08 602.336 220.416 588 238.08 588H270.08C287.744 588 302.08 602.336 302.08 620V636H720V620C720 602.336 734.336 588 752 588H784C801.664 588 816 602.336 816 620V636H928C945.664 636 960 621.664 960 604V508H64ZM928-132H96C78.336-132 64-117.664 64-100V444H960V-100C960-117.664 945.664-132 928-132ZM800 252H352C334.336 252 320 237.664 320 220S334.336 188 352 188H800C817.664 188 832 202.336 832 220S817.664 252 800 252ZM800 60H224C206.336 60 192 45.664 192 28S206.336-4 224-4H800C817.664-4 832 10.336 832 28S817.664 60 800 60Z"  horiz-adv-x="1024" vert-adv-y="1024"  />

      
      <glyph glyph-name="uniE128" unicode="&#xE128;" d="M991.9573 71.0933L756.864 306.1867C738.176 325.1733 712.704 337.4187 684.3733 338.912 683.904 338.912 683.6907 338.912 683.4773 338.912 655.1893 338.912 629.5893 327.2213 611.3707 308.3627L586.5813 283.5733 493.44 372.3627 519.6373 398.56C539.3493 418.3147 551.552 445.5787 551.552 475.7013S539.3493 533.088 519.6373 552.8427L290.3893 779.9147C270.6347 799.6267 243.3707 811.8293 213.248 811.8293S155.8613 799.6267 136.1067 779.9147L32.0427 675.8507C12.3307 656.096 0.128 628.832 0.128 598.7093S12.3307 541.3227 32.0427 521.568L261.2907 292.32C281.0453 272.608 308.3093 260.4053 338.432 260.4053S395.8187 272.608 415.5733 292.32L439.5947 318.5173 528.384 231.904 503.6373 207.1573C484.9067 188.5547 473.2587 162.8693 473.088 134.4107 474.5813 105.7813 486.8267 80.2667 505.8133 61.6213L740.9067-173.472C760.7893-193.5253 788.3093-206.0267 818.7307-206.24 847.232-205.984 872.9173-194.336 891.5627-175.6907L992.7253-74.528C1010.048-55.4987 1020.672-30.0693 1020.672-2.1653 1020.672 26.1227 1009.7493 51.8507 991.9147 71.0933ZM366.8053 344.032C360.1493 337.5467 351.0187 333.5787 340.9493 333.5787S321.792 337.5893 315.0933 344.0747L83.6693 573.3227C77.0133 579.936 72.9173 589.0667 72.9173 599.1787S77.0133 618.4213 83.6693 624.992L187.7333 728.3307C194.3467 734.9867 203.4773 739.0827 213.5893 739.0827S232.832 734.9867 239.4027 728.3307L467.9253 499.0827C474.5813 492.4693 478.6773 483.3387 478.6773 473.2267S474.5813 453.984 467.9253 447.4133L439.552 421.9413 405.3333 456.16C398.72 462.7733 389.5893 466.8693 379.4773 466.8693 359.296 466.8693 342.9547 450.528 342.9547 430.3467 342.9547 420.2773 347.0507 411.104 353.664 404.4907L390.0587 372.448ZM945.408-30.0693L844.2453-131.232C837.8453-137.4187 829.0987-141.216 819.4987-141.216S801.152-137.4187 794.752-131.232L557.4827 106.7627C550.8267 113.504 546.688 122.72 546.56 132.96 546.7733 141.1947 550.0587 148.576 555.3067 154.1227L580.0533 178.8693 617.8987 141.024C624.512 134.4107 633.6427 130.3147 643.7547 130.3147 663.936 130.3147 680.2773 146.656 680.2773 166.8373 680.2773 176.9067 676.1813 186.08 669.568 192.6933L631.7227 230.5387 657.92 256.736C663.552 262.1547 671.1893 265.4827 679.6373 265.4827 679.936 265.4827 680.2347 265.4827 680.5333 265.4827L680.4907 265.4827C690.7307 265.3547 699.9467 261.216 706.688 254.56L941.7387 19.5093C948.1387 13.0667 952.1067 4.192 952.1067-5.6213 952.1067-15.0507 948.4373-23.6267 942.464-30.0267Z"  horiz-adv-x="1024" vert-adv-y="1024"  />

      
      <glyph glyph-name="uniE129" unicode="&#xE129;" d="M704 460L752 412 448 108 272 284 320 332 448 204Z"  horiz-adv-x="1024" vert-adv-y="1024"  />

      
      <glyph glyph-name="uniE12A" unicode="&#xE12A;" d="M512 748C264 748 64 548 64 300S264-148 512-148 960 52 960 300 760 748 512 748ZM448 108L272 284 320 332 448 204 704 460 752 412 448 108Z"  horiz-adv-x="1024" vert-adv-y="1024"  />

      
      <glyph glyph-name="uniE12B" unicode="&#xE12B;" d="M512 748C760 748 960 548 960 300S760-148 512-148 64 52 64 300 264 748 512 748ZM512 684C299.2 684 128 512.8 128 300 128 87.2 299.2-84 510.4-85.6 612.8-85.6 710.4-45.6 784 28 934.4 178.4 934.4 421.6 785.6 570.4 785.6 570.4 785.6 570.4 784 572 712 644 614.4 684 512 684ZM704 460L752 412 448 108 272 284 320 332 448 204Z"  horiz-adv-x="1024" vert-adv-y="1024"  />

      
      <glyph glyph-name="uniE12C" unicode="&#xE12C;" d="M512 812C494.08 812 480 797.92 480 780S494.08 748 512 748C759.04 748 960 547.04 960 300S759.04-148 512-148C494.08-148 480-162.08 480-180S494.08-212 512-212C794.24-212 1024 17.76 1024 300S794.24 812 512 812Z"  horiz-adv-x="1024" vert-adv-y="1024"  />

      
      <glyph glyph-name="uniE12D" unicode="&#xE12D;" d="M512 812C494.08 812 480 797.92 480 780S494.08 748 512 748C759.04 748 960 547.04 960 300 960 282.08 974.08 268 992 268S1024 282.08 1024 300C1024 582.24 794.24 812 512 812Z"  horiz-adv-x="1024" vert-adv-y="1024"  />

      
      <glyph glyph-name="uniE12E" unicode="&#xE12E;" d="M512 300M64 300A448 448 0 1 1 960 300 448 448 0 1 1 64 300Z"  horiz-adv-x="1024" vert-adv-y="1024"  />

      
      <glyph glyph-name="uniE12F" unicode="&#xE12F;" d="M512 684A384 384 0 1 0 128 300 384 384 0 0 0 512 684M512 748A448 448 0 1 1 960 300 448 448 0 0 1 512 748Z"  horiz-adv-x="1024" vert-adv-y="1024"  />

      
      <glyph glyph-name="uniE130" unicode="&#xE130;" d="M1024 236C1024.0853 236.8533 1024.1707 237.8773 1024.1707 238.8587S1024.128 240.864 1024 241.8453L1024 246.8373 852.48 459.9573 848 463.7973H576C540.672 463.7973 512 435.1253 512 399.7973V-141.6427C512-180.512 543.5307-212.0427 582.4-212.0427H954.24C992.768-212.0427 1024-180.8107 1024-142.2827V235.9573ZM640 534.88C675.328 534.88 704 563.552 704 598.88V716C704 769.0347 661.0347 812 608 812H96C42.9653 812 0 769.0347 0 716V12C0-41.0347 42.9653-84 96-84H384C419.328-84 448-55.328 448-20V455.52C448 455.52 448 455.52 448 455.52 448 499.1253 483.1573 534.496 526.6773 534.88ZM480 620H224C206.336 620 192 634.336 192 652S206.336 684 224 684H480C497.664 684 512 669.664 512 652S497.664 620 480 620Z"  horiz-adv-x="1024" vert-adv-y="1024"  />

      
      <glyph glyph-name="uniE131" unicode="&#xE131;" d="M1024 293.6C1023.744 298.4213 1022.08 302.816 1019.4773 306.4853L1019.52 309.6 832 543.84 826.88 548.32H704V720.48C704 720.6507 704 720.9067 704 721.12 704 771.0827 663.68 811.616 613.8027 812H90.24C40.32 811.6587 0 771.0827 0 721.12 0 720.9067 0 720.6507 0 720.4373V7.52C0 7.3493 0 7.0933 0 6.88 0-43.0827 40.32-83.616 90.1973-84H448V-133.92C448.3413-177.1413 483.456-212 526.72-212 526.72-212 526.72-212 526.72-212H945.92C989.1413-211.6587 1024-176.544 1024-133.28 1024-133.28 1024-133.28 1024-133.28V289.12C1024.0427 289.8027 1024.0853 290.5707 1024.0853 291.3387S1024.0427 292.9173 1024 293.6853ZM443.52-20H90.24C75.648-19.6587 64-7.7547 64 6.88 64 7.0933 64 7.3493 64 7.5627L64 720.48C64 720.6933 64 720.9067 64 721.12 64 735.7547 75.6907 747.6587 90.1973 748L613.76 748C628.352 747.6587 640 735.7547 640 721.12 640 720.9067 640 720.6507 640 720.4373L640 556H526.72C483.2427 556 448 520.7573 448 477.28V-20ZM945.92-148H526.72C518.5707-148 512-141.4293 512-133.28V477.28C512 485.4293 518.5707 492 526.72 492H790.4L960 278.24V-133.28C960-141.4293 953.4293-148 945.28-148ZM512 652C512 669.664 497.664 684 480 684H224C206.336 684 192 669.664 192 652S206.336 620 224 620H480C497.664 620 512 634.336 512 652Z"  horiz-adv-x="1024" vert-adv-y="1024"  />

      
      <glyph glyph-name="uniE132" unicode="&#xE132;" d="M512 748C264 748 64 548 64 300S264-148 512-148 960 52 960 300 760 748 512 748ZM625.6 132L448 268V556H512V300L664 183.2 625.6 132Z"  horiz-adv-x="1024" vert-adv-y="1024"  />

      
      <glyph glyph-name="uniE133" unicode="&#xE133;" d="M512 684C724.8 684 896 512.8 896 300S724.8-84 512-84 128 87.2 128 300 299.2 684 512 684M512 748C264 748 64 548 64 300S264-148 512-148 960 52 960 300 760 748 512 748ZM512 300L512 556 448 556 448 268 625.6 132 664 183.2Z"  horiz-adv-x="1024" vert-adv-y="1024"  />

      
      <glyph glyph-name="uniE134" unicode="&#xE134;" d="M512 748C264 748 64 548 64 300S264-148 512-148 960 52 960 300 760 748 512 748ZM692.8 164L648 119.2 512 255.2 376 119.2 331.2 164 467.2 300 331.2 436 376 480.8 512 344.8 648 480.8 692.8 436 556.8 300 692.8 164Z"  horiz-adv-x="1024" vert-adv-y="1024"  />

      
      <glyph glyph-name="uniE135" unicode="&#xE135;" d="M512 684C724.8 684 896 512.8 896 300S724.8-84 512-84 128 87.2 128 300 299.2 684 512 684M512 748C264 748 64 548 64 300S264-148 512-148 960 52 960 300 760 748 512 748ZM648 480.8L692.8 436 556.8 300 692.8 164 648 119.2 512 255.2 376 119.2 331.2 164 467.2 300 331.2 436 376 480.8 512 344.8 648 480.8Z"  horiz-adv-x="1024" vert-adv-y="1024"  />

      
      <glyph glyph-name="uniE136" unicode="&#xE136;" d="M678.4 514.4L512 344.8 345.6 514.4 297.6 466.4 467.2 300 297.6 133.6 345.6 85.6 512 255.2 678.4 85.6 726.4 133.6 556.8 300 726.4 466.4Z"  horiz-adv-x="1024" vert-adv-y="1024"  />

      
      <glyph glyph-name="uniE137" unicode="&#xE137;" d="M672 588V652C672 687.2 643.2 716 608 716H416C380.8 716 352 687.2 352 652V588H96V524H208V-52C208-87.2 236.8-116 272-116H752C787.2-116 816-87.2 816-52V524H928V588H672ZM416 636C416 645.6 422.4 652 432 652H592C601.6 652 608 645.6 608 636V588H416V636ZM448 60H384V412H448V60ZM640 60H576V412H640V60Z"  horiz-adv-x="1024" vert-adv-y="1024"  />

      
      <glyph glyph-name="uniE138" unicode="&#xE138;" d="M1011.2 322.4L787.2 546.4C774.4 559.2 754.56 559.2 741.76 546.4S728.96 513.76 741.76 500.96L943.36 300 741.76 98.4C728.96 85.6 728.96 65.76 741.76 52.96 748.16 46.56 756.48 43.36 764.16 43.36S780.8 46.56 786.56 52.96L1010.56 276.96C1023.36 289.76 1023.36 310.24 1011.2 322.4ZM282.24 546.4C269.44 559.2 249.6 559.2 236.8 546.4L12.8 322.4C0 309.6 0 289.76 12.8 276.96L236.8 52.96C243.2 47.2 251.52 44 259.84 44S276.48 47.2 282.24 53.6C295.04 66.4 295.04 86.24 282.24 99.04L80.64 300 282.24 501.6C294.4 513.76 294.4 534.24 282.24 546.4ZM616.32 682.72C599.68 687.84 581.76 677.6 577.28 660.32L385.28-43.68C380.8-60.96 390.4-78.24 407.68-82.72 410.24-83.36 413.44-84 416-84 430.08-84 442.88-74.4 446.72-60.32L638.72 643.68C643.2 660.32 633.6 678.24 616.32 682.72Z"  horiz-adv-x="1024" vert-adv-y="1024"  />

      
      <glyph glyph-name="uniE139" unicode="&#xE139;" d="M512 300M416 300A96 96 0 1 1 608 300 96 96 0 1 1 416 300ZM860.8 253.6C865.6 284 865.6 316 860.8 346.4L928 404C937.6 412 942.4 426.4 937.6 439.2 918.4 498.4 886.4 554.4 844.8 600.8 838.4 607.2 830.4 612 820.8 612 817.6 612 812.8 612 809.6 610.4L726.4 580C702.4 599.2 673.6 615.2 644.8 626.4L628.8 712.8C627.2 725.6 616 735.2 603.2 738.4 542.4 751.2 478.4 751.2 417.6 738.4 404.8 735.2 395.2 725.6 393.6 712.8L377.6 626.4C348.8 615.2 321.6 599.2 296 580L212.8 610.4C209.6 612 206.4 612 201.6 612 192 612 184 608.8 177.6 600.8 136 554.4 104 500 84.8 439.2 80 426.4 84.8 412 94.4 404L161.6 346.4C160 316 160 284 163.2 253.6L96 196C86.4 188 81.6 173.6 86.4 160.8 105.6 101.6 137.6 45.6 179.2-0.8 185.6-7.2 193.6-12 203.2-12 206.4-12 211.2-12 214.4-10.4L297.6 20C321.6 0.8 350.4-15.2 379.2-26.4L395.2-112.8C396.8-125.6 408-135.2 420.8-138.4 481.6-151.2 545.6-151.2 606.4-138.4 619.2-135.2 628.8-125.6 632-112.8L648-26.4C676.8-15.2 704 0.8 729.6 20L812.8-10.4C816-12 819.2-12 824-12 833.6-12 841.6-8.8 848-0.8 889.6 45.6 921.6 100 940.8 160.8 944 173.6 940.8 188 929.6 196L860.8 253.6ZM512 140C424 140 352 212 352 300S424 460 512 460 672 388 672 300 600 140 512 140Z"  horiz-adv-x="1024" vert-adv-y="1024"  />

      
      <glyph glyph-name="uniE13A" unicode="&#xE13A;" d="M512 684C531.2 684 552 682.4 571.2 679.2L582.4 613.6 588.8 578.4 620.8 565.6C644.8 556 667.2 543.2 688 527.2L715.2 506.4 748.8 519.2 811.2 541.6C836.8 511.2 856 476 870.4 439.2L819.2 396 792 373.6 796.8 338.4C800 312.8 800 287.2 796.8 261.6L792 226.4 819.2 204 870.4 160.8C856 124 836.8 88.8 811.2 58.4L748.8 80.8 715.2 93.6 688 72.8C667.2 56.8 644.8 44 620.8 34.4L588.8 21.6 582.4-13.6 571.2-79.2C531.2-85.6 492.8-85.6 452.8-79.2L441.6-13.6 435.2 21.6 403.2 34.4C379.2 44 356.8 56.8 336 72.8L308.8 93.6 275.2 80.8 212.8 58.4C187.2 88.8 168 124 153.6 160.8L204.8 204 232 226.4 227.2 261.6C224 287.2 224 312.8 227.2 338.4L232 373.6 204.8 396 153.6 437.6C168 474.4 187.2 509.6 212.8 540L275.2 517.6 308.8 504.8 336 525.6C356.8 541.6 379.2 554.4 401.6 564L433.6 576.8 440 612 451.2 677.6C472 682.4 491.2 684 512 684M512 748C480 748 449.6 744.8 419.2 738.4 406.4 735.2 396.8 725.6 393.6 712.8L377.6 626.4C348.8 615.2 321.6 599.2 296 580L212.8 610.4C209.6 612 206.4 612 201.6 612 192 612 184 608.8 177.6 600.8 136 554.4 104 500 84.8 439.2 80 426.4 84.8 412 94.4 404L161.6 346.4C160 316 160 284 163.2 253.6L96 196C86.4 188 81.6 173.6 86.4 160.8 105.6 101.6 137.6 45.6 179.2-0.8 185.6-7.2 193.6-12 203.2-12 206.4-12 211.2-12 214.4-10.4L297.6 20C321.6 0.8 350.4-15.2 379.2-26.4L395.2-112.8C396.8-125.6 408-135.2 420.8-138.4 481.6-151.2 545.6-151.2 606.4-138.4 619.2-135.2 628.8-125.6 632-112.8L648-26.4C676.8-15.2 704 0.8 729.6 20L812.8-10.4C816-12 819.2-12 824-12 833.6-12 841.6-8.8 848-0.8 889.6 45.6 921.6 100 940.8 160.8 944 173.6 940.8 188 929.6 196L862.4 253.6C867.2 284 867.2 316 862.4 346.4L929.6 404C939.2 412 944 426.4 939.2 439.2 920 498.4 888 554.4 846.4 600.8 840 607.2 832 612 822.4 612 819.2 612 814.4 612 811.2 610.4L728 580C704 599.2 675.2 615.2 646.4 626.4L630.4 712.8C628.8 725.6 617.6 735.2 604.8 738.4 574.4 744.8 542.4 748 512 748ZM512 396C564.8 396 608 352.8 608 300S564.8 204 512 204 416 247.2 416 300 459.2 396 512 396M512 460C424 460 352 388 352 300S424 140 512 140 672 212 672 300 600 460 512 460Z"  horiz-adv-x="1024" vert-adv-y="1024"  />

      
      <glyph glyph-name="uniE13B" unicode="&#xE13B;" d="M512 812C229.248 812 0 582.752 0 300S229.248-212 512-212C794.752-212 1024 17.248 1024 300S794.752 812 512 812ZM416 428H352V76C352 58.336 337.664 44 320 44S288 58.336 288 76V428H224C206.336 428 192 442.336 192 460S206.336 492 224 492H416C433.664 492 448 477.664 448 460S433.664 428 416 428ZM800 428H736V76C736 58.336 721.664 44 704 44S672 58.336 672 76V428H608C590.336 428 576 442.336 576 460S590.336 492 608 492H800C817.664 492 832 477.664 832 460S817.664 428 800 428Z"  horiz-adv-x="1024" vert-adv-y="1024"  />

      
      <glyph glyph-name="uniE13C" unicode="&#xE13C;" d="M512 812C229.76 812 0 582.24 0 300S229.76-212 512-212 1024 17.76 1024 300 794.24 812 512 812ZM512-148C264.96-148 64 52.96 64 300S264.96 748 512 748C759.04 748 960 547.04 960 300S759.04-148 512-148ZM416 492H224C206.08 492 192 477.92 192 460S206.08 428 224 428H288V76C288 58.08 302.08 44 320 44S352 58.08 352 76V428H416C433.92 428 448 442.08 448 460S433.92 492 416 492ZM800 492H608C590.08 492 576 477.92 576 460S590.08 428 608 428H672V76C672 58.08 686.08 44 704 44S736 58.08 736 76V428H800C817.92 428 832 442.08 832 460S817.92 492 800 492Z"  horiz-adv-x="1024" vert-adv-y="1024"  />

      
      <glyph glyph-name="uniE13D" unicode="&#xE13D;" d="M512 652C229.248 652 0 422.752 0 140 0 72.2453 13.1413 7.6053 37.0347-51.616L35.7973-48.16C37.2053-51.104 38.912-53.6213 40.96-55.8827L40.9173-55.84H45.3973L51.1573-59.68C52.6933-59.936 54.4853-60.1067 56.2773-60.1067S59.8613-59.936 61.568-59.68L959.9573-59.7227C965.9307-59.4667 971.4347-57.5893 976.0853-54.5173L975.9573-54.6027C980.736-51.232 984.448-46.6667 986.752-41.376L986.8373-41.1627C1007.7867 12.5973 1019.9467 74.8907 1019.9467 139.9573 1019.9467 421.3013 793.0027 649.6533 512.1707 651.9573ZM700.16 372.96L565.76 124C571.8187 114.784 575.5733 103.5627 576 91.488 576 56.032 547.328 27.36 512 27.36S448 56.032 448 91.36C448 126.688 476.672 155.36 512 155.36L645.76 403.04C651.3067 413.0667 661.8453 419.7653 673.92 419.7653 691.6267 419.7653 706.0053 405.3867 706.0053 387.68 706.0053 382.048 704.5547 376.7573 701.9947 372.1493Z"  horiz-adv-x="1024" vert-adv-y="1024"  />

      
      <glyph glyph-name="uniE13E" unicode="&#xE13E;" d="M700.16 444.64L565.76 196.32C571.52 186.72 576 175.84 576 164.32 576 129.12 547.2 100.32 512 100.32S448 129.12 448 164.32C448 198.88 475.52 227.04 510.08 227.68L643.84 475.36C652.16 490.72 672 496.48 687.36 488.16S708.48 460.64 700.16 444.64ZM512 724.32C229.76 724.32 0 494.56 0 212.32 0 147.68 12.16 84.32 35.84 24.8 42.24 8.16 60.8 0.48 77.44 6.88S101.76 31.84 95.36 48.48C74.24 99.68 64 155.36 64 211.68 64 458.72 264.96 659.68 512 659.68S960 458.72 960 211.68C960 154.72 949.76 99.68 928.64 47.2 922.24 30.56 929.92 12 946.56 5.6 950.4 4.32 954.24 3.04 958.08 3.04 970.88 3.04 983.04 10.72 987.52 23.52 1011.84 84.32 1024 147.04 1024 211.68 1024 494.56 794.24 724.32 512 724.32Z"  horiz-adv-x="1024" vert-adv-y="1024"  />

      
      <glyph glyph-name="uniE13F" unicode="&#xE13F;" d="M512 748C511.9147 748 511.8293 748 511.7867 748 229.0347 748-0.2133 518.752-0.2133 236-0.2133 78.1333 71.2107-63.008 183.5093-156.96L184.32-157.6H192.64C194.3893-157.9413 196.352-158.112 198.4-158.112S202.4107-157.9413 204.3733-157.5573L839.04-157.6 844.8-154.4H848.64C955.9893-57.9733 1023.4027 81.0773 1024 235.872 1024 518.752 794.752 748 512 748ZM512-4C476.672-4 448 24.672 448 60 448.384 83.168 461.0133 103.3067 479.7013 114.2293L480 396C480 413.664 494.336 428 512 428S544 413.664 544 396V114.4C562.9867 103.3067 575.616 83.168 576 60.0427 576 24.6293 547.328-4 512-4ZM840.32 367.84C836.0533 365.4933 831.0187 364.0427 825.6 364 825.472 364 825.344 364 825.216 364 812.928 364 802.2613 370.9547 796.8853 381.1093 742.656 485.6427 635.4347 555.7013 511.8293 555.7013 394.112 555.7013 291.2853 492.1707 235.6907 397.4933 229.2053 386.272 218.88 379.872 207.0187 379.872 189.2693 379.872 174.8907 394.2507 174.8907 412 174.8907 417.888 176.4693 423.392 179.2427 428.1707 246.784 543.6267 370.3467 620.0853 511.744 620.0853 660.0533 620.0853 788.736 535.9893 852.6933 412.896 855.936 406.496 857.2587 401.4613 857.2587 396.128 857.2587 383.968 850.4747 373.3867 840.448 367.968Z"  horiz-adv-x="1024" vert-adv-y="1024"  />

      
      <glyph glyph-name="uniE140" unicode="&#xE140;" d="M576 124C576 88.8 547.2 60 512 60S448 88.8 448 124C448 147.04 461.44 166.88 480 178.4V460C480 477.92 494.08 492 512 492S544 477.92 544 460V178.4C562.56 166.88 576 147.04 576 124ZM512 812C229.76 812 0 582.24 0 300 0 146.4 67.84 2.4 186.88-95.52 192.64-100.64 200.32-102.56 207.36-102.56 216.32-102.56 225.92-98.72 232.32-91.04 243.84-77.6 241.28-57.12 227.84-46.24 123.52 39.52 64 165.6 64 300 64 547.04 264.96 748 512 748S960 547.04 960 300C960 169.44 903.68 45.92 804.48-39.2 791.04-50.72 789.76-71.2 801.28-84.64S833.28-99.36 846.72-87.84C959.36 9.44 1024 150.88 1024 300 1024 582.24 794.24 812 512 812ZM825.6 428C830.72 428 835.84 429.28 840.32 431.84 856.32 440.16 862.08 459.36 854.4 474.72 787.84 604 656.64 684 512 684 375.68 684 247.68 610.4 179.2 492 170.24 476.64 176 457.44 191.36 448.48S225.92 444.64 234.88 460C291.84 558.56 398.08 620 512 620 632.96 620 741.76 553.44 796.8 445.92 802.56 434.4 814.08 428 825.6 428Z"  horiz-adv-x="1024" vert-adv-y="1024"  />

      
      <glyph glyph-name="uniE141" unicode="&#xE141;" d="M154.24 594.4C242.3893 572.8107 343.5947 560.3947 447.6587 560.3947S652.928 572.768 749.8667 596.1493C842.88 619.9573 896 660.9173 896 683.9573 896 726.8373 737.92 811.9573 448 811.9573S0 728.1173 0 683.9573C0 660.9173 53.12 619.9573 154.24 594.3573ZM749.44 3.68C662.6133-18.72 562.944-31.5627 460.288-31.5627 455.9787-31.5627 451.6693-31.52 447.36-31.4773 444.3307-31.52 440.0213-31.5627 435.6693-31.5627 333.0133-31.5627 233.3867-18.72 138.2827 5.5147 39.0827-26.9973 0.0427-66.0373 0.0427-83.9573 0.0427-126.8373 158.1227-211.9573 448.0427-211.9573S896.0427-128.7573 896.0427-83.9573C896.0427-66.0373 857.0027-26.9973 749.4827 3.7227ZM749.44 263.52C658.9867 241.5893 555.136 229.0027 448.2987 229.0027S237.6533 241.5893 138.112 265.3547C38.9973 232.8-0.0427 193.12-0.0427 172-0.0427 129.12 158.0373 44 447.9573 44S895.9573 127.2 895.9573 172C895.9573 193.12 856.9173 232.8 749.3973 263.52ZM749.44 521.44H737.92C650.9227 499.2107 550.9973 486.4107 448.0853 486.24 445.3973 486.24 442.368 486.1973 439.296 486.1973 339.5413 486.1973 242.5173 498.1013 149.6747 520.5867L147.1573 518.88C38.9973 492-0.0427 451.04-0.0427 431.84-0.0427 388.96 158.0373 303.84 447.9573 303.84S895.9573 387.68 895.9573 431.84C895.9573 451.04 856.9173 492 749.3973 521.44Z"  horiz-adv-x="896" vert-adv-y="1024"  />

      
      <glyph glyph-name="uniE142" unicode="&#xE142;" d="M1026.56 416.7787C1026.56 461.0667 989.3547 498.272 919.424 528.4373 983.5947 556.6827 1026.56 592.608 1026.56 639.4133 1026.56 869.088 0 869.088 0 639.4133 0 593.8453 41.6853 557.92 107.136 528.4373 37.2053 498.912 0 461.0667 0 416.7787S43.648 332.7253 111.6587 301.28C38.528 274.3147 0 237.1093 0 190.944S44.288 108.8107 113.5787 77.3653C39.168 44.64 0 8.7147 0-36.8533 0-151.712 256.64-212 513.28-212S1026.56-151.6693 1026.56-36.8533C1026.56 8.7147 987.4347 47.2 912.9813 77.3653 982.272 108.8107 1026.56 143.456 1026.56 190.944S988.0747 274.3573 914.9013 301.28C982.912 332.7253 1026.56 369.9307 1026.56 416.7787ZM64.1707 639.4133C64.1707 677.2587 222.6347 750.3893 513.28 750.3893S962.3893 677.2587 962.3893 639.4133C962.3893 617.6107 909.1413 584.2453 807.7653 559.2 718.2933 539.7867 615.5093 528.6507 510.1227 528.6507 406.9973 528.6507 306.3467 539.3173 209.2373 559.5413 117.376 584.2027 64.128 617.568 64.128 639.3707ZM962.3893-36.8533C962.3893-74.6987 803.9253-147.8293 513.28-147.8293S64.1707-74.6987 64.1707-36.8533C64.1707-20.1707 103.296 14.4747 211.1147 41.44 298.0267 21.8133 397.824 10.592 500.224 10.592 504.832 10.592 509.3973 10.6347 514.0053 10.6773 517.1627 10.6347 521.728 10.592 526.2933 10.592 628.736 10.592 728.576 21.8133 824.576 43.1467 923.264 14.5173 962.3893-19.488 962.3893-36.8107ZM962.3893 190.944C962.3893 153.0987 803.9253 79.968 513.28 79.968S64.1707 153.0987 64.1707 190.944C64.1707 207.6267 103.296 242.272 211.1147 269.2373 301.8667 249.9947 406.144 238.944 512.9813 238.944S724.096 249.9947 824.704 270.944C923.264 242.272 962.3893 207.6267 962.3893 190.944ZM513.28 305.76C222.6347 305.76 64.1707 378.8907 64.1707 416.736 64.1707 433.4187 103.296 468.064 211.1147 495.0293H222.0373C309.5893 475.488 410.112 464.2667 513.3227 464.224 514.7733 464.224 516.48 464.224 518.1867 464.224 619.392 464.224 718.08 474.976 813.1413 495.4133L815.488 493.7493C923.264 468.1067 962.432 434.1013 962.432 416.7787 962.432 379.5733 803.968 305.8027 513.3227 305.8027Z"  horiz-adv-x="1024" vert-adv-y="1024"  />

      
      <glyph glyph-name="uniE143" unicode="&#xE143;" d="M0 324.32V172C0 120.16 174.72 44 448 44S896 118.88 896 172V324.32C799.36 263.52 623.36 232.16 448 232.16S96.64 263.52 0 324.32ZM0 577.76V431.84C0 380 174.72 303.84 448 303.84S896 378.72 896 431.84V577.76C799.36 516.96 623.36 485.6 448 485.6S96.64 516.96 0 577.76ZM448 556C721.28 556 896 630.88 896 684S721.28 812 448 812 0 737.12 0 684 174.72 556 448 556ZM0 66.4V-84C0-135.84 174.72-212 448-212S896-137.12 896-84V66.4C799.36 5.6 623.36-25.76 448-25.76S96.64 5.6 0 66.4Z"  horiz-adv-x="896" vert-adv-y="1024"  />

      
      <glyph glyph-name="uniE144" unicode="&#xE144;" d="M889.8987 675.3387C806.4853 857.568 91.7333 857.568 8.32 675.3387 3.2 669.792 0 662.368 0 654.176V-51.616C0.0427-59.808 3.2-67.232 8.3627-72.8213 50.048-164.5547 250.24-212.0427 449.1093-212.0427S848.1707-164.5547 889.8987-72.8213C895.0187-67.2747 898.2187-59.8507 898.2187-51.6587V654.1333C898.176 662.3253 895.0187 669.7493 889.856 675.3387ZM834.0907 190.944C834.0907 145.376 683.9467 79.968 449.1093 79.968S64.128 144.1387 64.128 190.944V322.4853C165.888 270.9867 285.9947 240.8213 413.1413 240.8213 425.7707 240.8213 438.3573 241.12 450.8587 241.7173 459.8187 241.12 472.4053 240.8213 485.0347 240.8213 612.1813 240.8213 732.288 270.9867 838.5707 324.5333ZM834.0907 416.7787C834.0907 371.2107 683.9467 305.8027 449.1093 305.8027S64.128 371.8933 64.128 416.7787V545.12C165.888 493.6213 285.9947 463.456 413.1413 463.456 425.7707 463.456 438.3573 463.7547 450.8587 464.352 459.8187 463.7547 472.4053 463.456 485.0347 463.456 612.1813 463.456 732.288 493.6213 838.5707 547.168ZM449.1093 750.3893C683.9467 750.3893 834.0907 686.2187 834.0907 639.4133S683.9467 528.4373 449.1093 528.4373 64.128 592.608 64.128 639.4133 214.272 750.3893 449.1093 750.3893ZM449.1093-147.8293C214.272-147.8293 64.128-83.6587 64.128-36.8533V96.608C165.9307 45.1093 286.08 14.944 413.2693 14.944 425.856 14.944 438.4 15.2427 450.8587 15.84 459.776 15.2427 472.32 14.944 484.9067 14.944 612.096 14.944 732.2453 45.1093 838.5707 98.656L834.048-36.8533C834.048-83.7013 683.904-147.8293 449.0667-147.8293Z"  horiz-adv-x="896" vert-adv-y="1024"  />

      
      <glyph glyph-name="uniE145" unicode="&#xE145;" d="M63.36 299.36L234.24 139.36V458.72L63.36 299.36ZM32 652H992C1009.664 652 1024 666.336 1024 684S1009.664 716 992 716H32C14.336 716 0 701.664 0 684S14.336 652 32 652ZM32-117.28H992C1009.664-117.28 1024-102.944 1024-85.28S1009.664-53.28 992-53.28H32C14.336-53.28 0-67.616 0-85.28S14.336-117.28 32-117.28ZM476.8 396.64H992C1009.664 396.64 1024 410.976 1024 428.64S1009.664 460.64 992 460.64H476.8C459.136 460.64 444.8 446.304 444.8 428.64S459.136 396.64 476.8 396.64ZM476.8 140H992C1009.664 140 1024 154.336 1024 172S1009.664 204 992 204H476.8C459.136 204 444.8 189.664 444.8 172S459.136 140 476.8 140Z"  horiz-adv-x="1024" vert-adv-y="1024"  />

      
      <glyph glyph-name="uniE146" unicode="&#xE146;" d="M928 588H672V652C672 687.2 643.2 716 608 716H416C380.8 716 352 687.2 352 652V588H96V524H208V-52C208-87.2 236.8-116 272-116H752C787.2-116 816-87.2 816-52V524H928V588ZM432 652H592C601.6 652 608 645.6 608 636V588H416V636C416 645.6 422.4 652 432 652ZM736-52H288C278.4-52 272-45.6 272-36V524H752V-36C752-45.6 745.6-52 736-52ZM576 412H640V60H576ZM384 412H448V60H384Z"  horiz-adv-x="1024" vert-adv-y="1024"  />

      
      <glyph glyph-name="uniE147" unicode="&#xE147;" d="M832 197.6V658.4C830.2507 708.2773 789.4187 748.0427 739.2427 748.0427 738.0907 748.0427 736.9387 748.0427 735.8293 748L96 748C95.0187 748.0427 93.9093 748.0427 92.7573 748.0427 42.624 748.0427 1.7493 708.2773 0 658.528L0 197.5573C1.7493 147.68 42.5813 107.9147 92.7573 107.9147 93.9093 107.9147 95.0613 107.9147 96.1707 107.9573L128 107.9573V11.9573C128.0853-1.2693 136.1493-12.576 147.6267-17.3973 149.6747-17.8667 151.7653-18.0373 153.8987-18.0373S158.1653-17.824 160.1707-17.44C168.7467-17.3547 176.64-13.6853 182.3573-7.8827L301.3973 107.9573H735.9573C736.9387 107.9147 738.048 107.9147 739.2 107.9147 789.3333 107.9147 830.208 147.68 831.9573 197.4293ZM928 620C910.336 620 896 605.664 896 588V140C896 86.9653 853.0347 44 800 44H416C398.336 44 384 29.664 384 12S398.336-20 416-20H722.56L840.96-138.4C846.8053-144.4587 854.9547-148.2133 864-148.2133 881.664-148.2133 896-133.8773 896-116.2133 896-116.128 896-116.0853 896-116V-20H928C928.9813-20.0427 930.0907-20.0427 931.2427-20.0427 981.376-20.0427 1022.2507 19.7227 1024 69.472L1024 530.4427C1022.2507 580.32 981.4187 620.0853 931.2427 620.0853 930.0907 620.0853 928.9387 620.0853 927.8293 620.0427Z"  horiz-adv-x="1024" vert-adv-y="1024"  />

      
      <glyph glyph-name="uniE148" unicode="&#xE148;" d="M832 197.6V658.4C830.2507 708.2773 789.4187 748.0427 739.2427 748.0427 738.0907 748.0427 736.9387 748.0427 735.8293 748L96 748C95.0187 748.0427 93.9093 748.0427 92.7573 748.0427 42.624 748.0427 1.7493 708.2773 0 658.528L0 197.5573C1.7493 147.68 42.5813 107.9147 92.7573 107.9147 93.9093 107.9147 95.0613 107.9147 96.1707 107.9573L128 107.9573V11.9573C128.0853-1.2693 136.1493-12.576 147.6267-17.3973 149.6747-17.8667 151.7653-18.0373 153.8987-18.0373S158.1653-17.824 160.1707-17.44C168.7467-17.3547 176.64-13.6853 182.3573-7.8827L301.3973 107.9573H735.9573C736.9387 107.9147 738.048 107.9147 739.2 107.9147 789.3333 107.9147 830.208 147.68 831.9573 197.4293ZM288 172C279.2107 171.872 271.3173 168.2027 265.6 162.4L192 89.44V140C192 157.664 177.664 172 160 172H96C95.3173 171.9573 94.5493 171.9147 93.7387 171.9147 78.6773 171.9147 66.2187 182.9653 64 197.4293L64 658.4C65.92 672.992 78.2507 684.128 93.2267 684.128 94.208 684.128 95.1893 684.0853 96.128 684L736 684C736.8533 684.0853 737.792 684.128 738.7733 684.128 753.7067 684.128 766.08 672.992 767.9573 658.528L767.9573 197.6C766.0373 183.008 753.7067 171.872 738.7307 171.872 737.7493 171.872 736.768 171.9147 735.8293 172ZM928 620C910.336 620 896 605.664 896 588S910.336 556 928 556C928.8533 556.0853 929.792 556.128 930.7733 556.128 945.7067 556.128 958.08 544.992 959.9573 530.528L959.9573 69.6C958.0373 55.008 945.7067 43.872 930.7307 43.872 929.7493 43.872 928.768 43.9147 927.8293 44L863.9573 44C846.2933 44 831.9573 29.664 831.9573 12V-38.56L758.3573 35.04C752.5973 40.5867 744.7893 44 736.1707 44 736.0853 44 736.0427 44 735.9573 44H415.9573C398.2933 44 383.9573 29.664 383.9573 12S398.2933-20 415.9573-20H722.5173L840.9173-138.4C846.7627-144.4587 854.912-148.2133 863.9573-148.2133 881.6213-148.2133 895.9573-133.8773 895.9573-116.2133 895.9573-116.128 895.9573-116.0853 895.9573-116V-20H927.9573C928.9387-20.0427 930.048-20.0427 931.2-20.0427 981.3333-20.0427 1022.208 19.7227 1023.9573 69.472L1023.9573 530.4427C1022.208 580.32 981.376 620.0853 931.2 620.0853 930.048 620.0853 928.896 620.0853 927.7867 620.0427Z"  horiz-adv-x="1024" vert-adv-y="1024"  />

      
      <glyph glyph-name="uniE149" unicode="&#xE149;" d="M832 197.6V658.4C830.2507 708.2773 789.4187 748.0427 739.2427 748.0427 738.0907 748.0427 736.9387 748.0427 735.8293 748L96 748C95.0187 748.0427 93.9093 748.0427 92.7573 748.0427 42.624 748.0427 1.7493 708.2773 0 658.528L0 197.5573C1.7493 147.68 42.5813 107.9147 92.7573 107.9147 93.9093 107.9147 95.0613 107.9147 96.1707 107.9573L128 107.9573V11.9573C128.0853-1.2693 136.1493-12.576 147.6267-17.3973 149.6747-17.8667 151.7653-18.0373 153.8987-18.0373S158.1653-17.824 160.1707-17.44C168.7467-17.3547 176.64-13.6853 182.3573-7.8827L301.3973 107.9573H735.9573C736.9387 107.9147 738.048 107.9147 739.2 107.9147 789.3333 107.9147 830.208 147.68 831.9573 197.4293ZM224 364C188.672 364 160 392.672 160 428S188.672 492 224 492C259.328 492 288 463.328 288 428S259.328 364 224 364ZM416 364C380.672 364 352 392.672 352 428S380.672 492 416 492C451.328 492 480 463.328 480 428S451.328 364 416 364ZM608 364C572.672 364 544 392.672 544 428S572.672 492 608 492C643.328 492 672 463.328 672 428S643.328 364 608 364ZM928 620C910.336 620 896 605.664 896 588V140C896 86.9653 853.0347 44 800 44H416C398.336 44 384 29.664 384 12S398.336-20 416-20H722.56L840.96-138.4C846.8053-144.4587 854.9547-148.2133 864-148.2133 881.664-148.2133 896-133.8773 896-116.2133 896-116.128 896-116.0853 896-116V-20H928C928.9813-20.0427 930.0907-20.0427 931.2427-20.0427 981.376-20.0427 1022.2507 19.7227 1024 69.472L1024 530.4427C1022.2507 580.32 981.4187 620.0853 931.2427 620.0853 930.0907 620.0853 928.9387 620.0853 927.8293 620.0427Z"  horiz-adv-x="1024" vert-adv-y="1024"  />

      
      <glyph glyph-name="uniE14A" unicode="&#xE14A;" d="M832 197.6V658.4C830.2507 708.2773 789.4187 748.0427 739.2427 748.0427 738.0907 748.0427 736.9387 748.0427 735.8293 748L96 748C95.0187 748.0427 93.9093 748.0427 92.7573 748.0427 42.624 748.0427 1.7493 708.2773 0 658.528L0 197.5573C1.7493 147.68 42.5813 107.9147 92.7573 107.9147 93.9093 107.9147 95.0613 107.9147 96.1707 107.9573L128 107.9573V11.9573C128.0853-1.2693 136.1493-12.576 147.6267-17.3973 149.6747-17.8667 151.7653-18.0373 153.8987-18.0373S158.1653-17.824 160.1707-17.44C168.7467-17.3547 176.64-13.6853 182.3573-7.8827L301.3973 107.9573H735.9573C736.9387 107.9147 738.048 107.9147 739.2 107.9147 789.3333 107.9147 830.208 147.68 831.9573 197.4293ZM288 172C279.2107 171.872 271.3173 168.2027 265.6 162.4L192 89.44V140C192 157.664 177.664 172 160 172H96C95.3173 171.9573 94.5493 171.9147 93.7387 171.9147 78.6773 171.9147 66.2187 182.9653 64 197.4293L64 658.4C65.92 672.992 78.2507 684.128 93.2267 684.128 94.208 684.128 95.1893 684.0853 96.128 684L736 684C736.8533 684.0853 737.792 684.128 738.7733 684.128 753.7067 684.128 766.08 672.992 767.9573 658.528L767.9573 197.6C766.0373 183.008 753.7067 171.872 738.7307 171.872 737.7493 171.872 736.768 171.9147 735.8293 172ZM1024 530.4V69.6C1022.2507 19.7227 981.4187-20.0427 931.2427-20.0427 930.0907-20.0427 928.9387-20.0427 927.8293-20L896-20V-116C895.744-133.4933 881.536-147.5307 864-147.5307 855.2533-147.5307 847.36-144.032 841.6-138.3573L722.56-19.9573H416C398.336-19.9573 384-5.6213 384 12.0427S398.336 44.0427 416 44.0427H736C744.7893 43.9147 752.6827 40.2453 758.4 34.4427L832-38.5173V12.0427C832 29.7067 846.336 44.0427 864 44.0427H928C928.8533 43.9573 929.792 43.9147 930.7733 43.9147 945.7067 43.9147 958.08 55.0507 959.9573 69.5147L959.9573 530.4427C958.0373 545.0347 945.7067 556.1707 930.7307 556.1707 929.7493 556.1707 928.768 556.128 927.8293 556.0427 910.2933 556.0427 895.9573 570.3787 895.9573 588.0427S910.2933 620.0427 927.9573 620.0427C928.9387 620.0853 930.048 620.0853 931.2 620.0853 981.3333 620.0853 1022.208 580.32 1023.9573 530.5707ZM288 428C288 392.672 259.328 364 224 364S160 392.672 160 428C160 463.328 188.672 492 224 492S288 463.328 288 428ZM480 428C480 392.672 451.328 364 416 364S352 392.672 352 428C352 463.328 380.672 492 416 492S480 463.328 480 428ZM672 428C672 392.672 643.328 364 608 364S544 392.672 544 428C544 463.328 572.672 492 608 492S672 463.328 672 428Z"  horiz-adv-x="1024" vert-adv-y="1024"  />

      
      <glyph glyph-name="uniE14B" unicode="&#xE14B;" d="M512 812C229.248 812 0 582.752 0 300S229.248-212 512-212C794.752-212 1024 17.248 1024 300S794.752 812 512 812ZM304 508C330.496 508 352 486.496 352 460S330.496 412 304 412C277.504 412 256 433.504 256 460S277.504 508 304 508ZM740.48 44C739.0293 43.7867 737.3653 43.616 735.6587 43.616 719.6587 43.616 706.3893 55.3493 704.0427 70.6667 690.3893 164.704 610.4747 235.9573 513.92 235.9573 513.2373 235.9573 512.5973 235.9573 511.9147 235.9573 416 233.3973 336.9813 163.5947 320.2133 72.0747 317.4827 55.52 304.2987 43.9573 288.4267 43.9573 288.2987 43.9573 288.128 43.9573 288 43.9573H282.9227C267.3493 46.304 255.5733 59.5733 255.5733 75.616 255.5733 77.536 255.744 79.4133 256.0853 81.248 277.504 205.152 383.6587 298.5493 511.9147 299.9147 641.152 299.8293 748.16 205.408 767.872 81.888 768.2987 78.9867 768.4267 77.3227 768.4267 75.6587 768.4267 59.4453 756.352 46.048 740.736 43.9573ZM720 411.36C693.504 411.36 672 432.864 672 459.36S693.504 507.36 720 507.36C746.2827 507.36 767.616 486.24 768 460.0427 768 433.504 746.496 412 720 412Z"  horiz-adv-x="1024" vert-adv-y="1024"  />

      
      <glyph glyph-name="uniE14C" unicode="&#xE14C;" d="M256 460C256 486.24 277.76 508 304 508S352 486.24 352 460C352 433.76 330.24 412 304 412S256 433.76 256 460ZM1024 300C1024 17.76 794.24-212 512-212S0 17.76 0 300 229.76 812 512 812 1024 582.24 1024 300ZM960 300C960 547.04 759.04 748 512 748S64 547.04 64 300C64 52.96 264.96-148 512-148S960 52.96 960 300ZM720 508C693.76 508 672 486.24 672 460S693.76 412 720 412 768 433.76 768 460C768 486.24 746.24 508 720 508ZM512 300C387.2 300 277.12 205.92 256.64 81.12 253.44 63.84 265.6 47.2 282.88 44 284.8 44 286.08 44 288 44 303.36 44 316.8 54.88 319.36 70.88 334.72 163.68 419.2 236 512 236 608 236 690.56 164.96 704.64 71.52 707.2 54.24 723.84 42.08 741.12 44.64S770.56 63.2 768 81.12C748.8 205.92 639.36 300 512 300Z"  horiz-adv-x="1024" vert-adv-y="1024"  />

      
      <glyph glyph-name="uniE14D" unicode="&#xE14D;" d="M1006.8907 401.0773C967.7227 427.6587 921.856 428.256 891.52 424.4587 876.5013 487.52 819.328 523.232 816.512 524.9387L794.9227 538.1653 779.4773 518.0693C730.7093 454.5813 743.5947 385.4613 764.2453 342.9227 738.56 329.312 712.9173 328.8427 712.704 328.8427H695.3813V433.5893H577.28V637.8347H434.6027V535.6907H200.7893V433.5467H83.8827V328.8H7.6373L4.0107 304.864C3.2 299.4453-15.104 171.0613 70.3573 71.648 132.864-1.056 232.7893-37.92 367.2747-37.92 575.0613-37.92 702.7627 53.6 773.248 130.4 828.2453 190.304 857.6 250.08 870.1867 280.2027 1000.3627 282.3787 1018.0267 368.736 1018.752 372.576L1022.1227 390.6667 1006.8907 401.0347ZM475.6053 434.016V494.7733H536.3627V434.016H475.6053ZM241.792 331.872V392.6293H302.5493V331.872H241.792ZM358.6987 331.872V392.6293H419.456V331.872H358.6987ZM475.6053 331.872V392.6293H536.3627V331.872H475.6053ZM593.7067 392.6293H654.464V331.872H593.7067V392.6293ZM475.6053 596.8747H536.3627V536.1173H475.6053V596.8747ZM358.6987 494.7733H419.456V434.016H358.6987V494.7733ZM241.792 494.7733H302.5493V434.016H241.792V494.7733ZM124.8853 392.6293H185.6427V331.872H124.8853V392.6293ZM367.3173 18.4853C303.4453 18.4853 249.0027 27.4453 204.3733 45.2373 237.4827 52.192 275.2 65.1627 309.1627 89.056 321.8773 98.016 324.9493 115.552 315.9893 128.2667S289.4933 144.0533 276.736 135.0933C221.5253 96.2667 150.2293 93.536 126.9333 93.8347 122.1973 98.3573 117.7173 103.0933 113.4507 108 64.384 164.7467 57.8987 236.0427 58.2827 272.5653H712.7467C715.2213 272.5653 773.888 273.0347 820.352 313.5253L823.8507 316.5973C818.4747 300.8533 716.8427 18.4853 367.2747 18.4853ZM852.2667 336.8213L834.8587 337.632 824.3627 351.584C823.936 352.1813 786.8587 402.6987 809.344 458.1653 823.7227 443.232 839.5947 420.192 838.784 391.6053L837.632 351.712 875.6053 364C876.0747 364.1707 915.968 376.3307 952.704 365.1093 939.6907 350.944 911.488 333.9627 852.2667 336.8213ZM379.264 222.432C353.92 222.432 333.312 201.824 333.312 176.48S353.92 130.528 379.264 130.528C404.608 130.528 425.216 151.136 425.216 176.48S404.608 222.432 379.264 222.432ZM379.264 166.112C373.5467 166.112 368.896 170.7627 368.896 176.48S373.5467 186.848 379.264 186.848 389.632 182.1973 389.632 176.48C389.632 170.7627 384.9813 166.112 379.264 166.112Z"  horiz-adv-x="1024" vert-adv-y="1024"  />

      
      <glyph glyph-name="uniE14E" unicode="&#xE14E;" d="M512 44C505.6 44 498.56 46.56 493.44 52.32L136.96 436.32C128.64 445.28 126.08 459.36 129.92 471.52S144 492 155.52 492H868.48C880 492 889.6 483.68 894.08 471.52S895.36 445.28 887.04 436.32L530.56 52.32C525.44 46.56 518.4 44 512 44Z"  horiz-adv-x="1024" vert-adv-y="1024"  />

      
      <glyph glyph-name="uniE14F" unicode="&#xE14F;" d="M992 204C974.336 204 960 189.664 960 172V-84C960-101.664 945.664-116 928-116H96C78.336-116 64-101.664 64-84V172C64 189.664 49.664 204 32 204S0 189.664 0 172V-84C0-137.0347 42.9653-180 96-180H928C981.0347-180 1024-137.0347 1024-84V172C1024 189.664 1009.664 204 992 204ZM492.16 19.04V19.04C497.1093 15.1147 503.4667 12.7253 510.4213 12.7253S523.6907 15.1147 528.7253 19.0827L528.6827 19.04 688.6827 147.04C697.344 152.8427 702.976 162.6133 702.976 173.7067 702.976 191.3707 688.64 205.7067 670.976 205.7067 662.4427 205.7067 654.72 202.3787 649.0027 196.96L544.0427 110.56V748C544.0427 765.664 529.7067 780 512.0427 780S480.0427 765.664 480.0427 748V108L371.8827 196.96C366.8907 200.3307 360.7893 202.2933 354.176 202.2933 336.512 202.2933 322.176 187.9573 322.176 170.2933 322.176 161.12 326.016 152.8853 332.2027 147.04Z"  horiz-adv-x="1024" vert-adv-y="1024"  />

      
      <glyph glyph-name="uniE150" unicode="&#xE150;" d="M480 172C462.464 172.2133 448.3413 186.464 448.3413 204 448.3413 212.1067 451.3707 219.5307 456.32 225.1627L968.2773 801.12C974.1227 807.1787 982.272 810.9333 991.36 810.9333 1009.024 810.9333 1023.36 796.5973 1023.36 778.9333 1023.36 771.296 1020.672 764.2987 1016.2347 758.7947L504.2773 182.8373C498.3893 176.1387 489.8133 171.9573 480.256 171.9573 480.1707 171.9573 480.0427 171.9573 479.9573 171.9573ZM864-212H160C71.6373-212 0-140.3627 0-52V652C0 740.3627 71.6373 812 160 812H672C689.664 812 704 797.664 704 780S689.664 748 672 748H160C106.9653 748 64 705.0347 64 652V-52C64-105.0347 106.9653-148 160-148H864C917.0347-148 960-105.0347 960-52V460C960 477.664 974.336 492 992 492S1024 477.664 1024 460V-52C1024-140.3627 952.3627-212 864-212Z"  horiz-adv-x="1024" vert-adv-y="1024"  />

      
      <glyph glyph-name="uniE151" unicode="&#xE151;" d="M288 140H736V76H288ZM400 188L336 188 336 252 560 476 624 412ZM576.4595 491.829L608.1374 523.5079 671.4952 460.1523 639.8174 428.4733Z"  horiz-adv-x="1024" vert-adv-y="1024"  />

      
      <glyph glyph-name="uniE152" unicode="&#xE152;" d="M320 300C320 264.8 291.2 236 256 236S192 264.8 192 300C192 335.2 220.8 364 256 364S320 335.2 320 300ZM512 364C476.8 364 448 335.2 448 300S476.8 236 512 236 576 264.8 576 300C576 335.2 547.2 364 512 364ZM768 364C732.8 364 704 335.2 704 300S732.8 236 768 236 832 264.8 832 300C832 335.2 803.2 364 768 364Z"  horiz-adv-x="1024" vert-adv-y="1024"  />

      
      <glyph glyph-name="uniE153" unicode="&#xE153;" d="M981.5893 702.304H42.4533C18.8587 701.4933 0.0427 682.1653 0.0427 658.4427 0.0427 658.1867 0.0427 657.9307 0.0427 657.632L0.0427 545.76 499.6267 226.8693C503.0827 224.4373 507.392 222.9867 512.0427 222.9867S521.0027 224.4373 524.544 226.912L1024.0427 545.76V657.6747C1024.0427 657.888 1024.0427 658.144 1024.0427 658.4427 1024.0427 682.1653 1005.2267 701.4933 981.6747 702.304ZM512 133.216C490.7947 133.216 471.0827 139.488 454.528 150.2827L0 441.1413V-57.6747C0-57.888 0-58.144 0-58.4427 0-82.1653 18.816-101.4933 42.368-102.304L981.5893-102.304C1005.184-101.4933 1024-82.1653 1024-58.4427 1024-58.1867 1024-57.9307 1024-57.632L1024 441.184 569.0453 148.6187C553.4293 138.976 534.4853 133.216 514.2187 133.216 513.4507 133.216 512.64 133.216 511.872 133.2587Z"  horiz-adv-x="1024" vert-adv-y="1024"  />

      
      <glyph glyph-name="uniE154" unicode="&#xE154;" d="M914.304 702.304H109.7387C49.152 702.304 0.0427 653.1947 0.0427 592.608V7.4773C0.0427-53.1093 49.152-102.2187 109.7387-102.2187H914.304C974.8907-102.2187 1024-53.1093 1024 7.4773V592.608C1024 653.1947 974.8907 702.304 914.304 702.304ZM109.696 629.1307H914.2613C934.4427 629.1307 950.8267 612.7467 950.8267 592.5653V501.1307L522.9227 239.2853C519.936 237.3653 516.2667 236.2133 512.2987 236.2133S504.704 237.3653 501.632 239.3707L73.088 501.1733V592.608C73.088 612.7893 89.472 629.1733 109.6533 629.1733ZM914.304-29.1307H109.7387C89.5573-29.1307 73.1733-12.7467 73.1733 7.4347V415.584L463.0187 177.12C476.8853 168.544 493.696 163.5093 511.6587 163.5093S546.432 168.5867 560.6827 177.376L950.8693 415.584V7.4347C950.8693-12.7467 934.4853-29.1307 914.304-29.1307Z"  horiz-adv-x="1024" vert-adv-y="1024"  />

      
      <glyph glyph-name="uniE155" unicode="&#xE155;" d="M96 332H384A128 128 0 0 1 640 332H928A32 32 0 0 1 960 364L832 716A32 32 0 0 1 800 748H224A32 32 0 0 1 192 716L64 364A32 32 0 0 1 96 332ZM928 268H692.8A192 192 0 0 0 331.2 268H96A32 32 0 0 1 64 236V12A32 32 0 0 1 96-20H928A32 32 0 0 1 960 12V236A32 32 0 0 1 928 268Z"  horiz-adv-x="1024" vert-adv-y="1024"  />

      
      <glyph glyph-name="uniE156" unicode="&#xE156;" d="M832 716A32 32 0 0 1 800 748H224A32 32 0 0 1 192 716L64 300V12A32 32 0 0 1 96-20H928A32 32 0 0 1 960 12V300ZM249.12 684H774.88L883.2 332H608A96 96 0 0 0 416 332H140.8ZM896 44H128V268H365.44A160 160 0 0 1 658.56 268H896Z"  horiz-adv-x="1024" vert-adv-y="1024"  />

      
      <glyph glyph-name="uniE157" unicode="&#xE157;" d="M512-149.92C264.96-149.92 64 51.04 64 298.08 64 469.6 160 623.84 313.6 700 329.6 707.68 348.8 701.28 356.48 685.28 364.8 669.28 357.76 650.08 342.4 642.4 209.92 577.12 128 445.28 128 298.08 128 86.24 300.16-85.92 512-85.92S896 86.24 896 298.08C896 445.92 812.8 577.76 679.68 642.4 663.68 650.08 657.28 669.28 664.96 685.28S691.84 707.68 707.84 700C863.36 624.48 960 470.24 960 298.08 960 51.04 759.04-149.92 512-149.92ZM512 428C494.08 428 480 442.08 480 460V780C480 797.92 494.08 812 512 812S544 797.92 544 780V460C544 442.08 529.92 428 512 428Z"  horiz-adv-x="1024" vert-adv-y="1024"  />

      
      <glyph glyph-name="uniE158" unicode="&#xE158;" d="M512 748C264 748 64 548 64 300S264-148 512-148 960 52 960 300 760 748 512 748ZM512 44C484.8 44 464 64.8 464 92S484.8 140 512 140C539.2 140 560 119.2 560 92S539.2 44 512 44ZM560 503.2L544 204C544 186.4 529.6 172 512 172 494.4 172 480 186.4 480 204L464 503.2C464 504.8 464 506.4 464 508 464 535.2 484.8 556 512 556 539.2 556 560 535.2 560 508 560 506.4 560 504.8 560 503.2Z"  horiz-adv-x="1024" vert-adv-y="1024"  />

      
      <glyph glyph-name="uniE159" unicode="&#xE159;" d="M512 748C264 748 64 548 64 300S264-148 512-148 960 52 960 300 760 748 512 748ZM512-84C299.2-84 128 87.2 128 300S299.2 684 512 684 896 512.8 896 300 724.8-84 512-84ZM512 92M464 92A48 48 0 1 1 560 92 48 48 0 1 1 464 92ZM512 556C484.8 556 464 535.2 464 508 464 506.4 464 504.8 464 503.2L480 204C480 186.4 494.4 172 512 172 529.6 172 544 186.4 544 204L560 503.2C560 504.8 560 506.4 560 508 560 535.2 539.2 556 512 556Z"  horiz-adv-x="1024" vert-adv-y="1024"  />

      
      <glyph glyph-name="uniE15A" unicode="&#xE15A;" d="M947.2 31.2L592 660C566.4 703.2 512 719.2 467.2 695.2 452.8 687.2 441.6 674.4 432 660L76.8 31.2C60.8 2.4 60.8-32.8 76.8-61.6 92.8-90.4 123.2-108 155.2-106.4H868.8C900.8-106.4 931.2-88.8 947.2-61.6 963.2-32.8 964.8 2.4 947.2 31.2ZM512 44C492.8 44 475.2 60 475.2 79.2 475.2 98.4 491.2 116 510.4 116 529.6 116 547.2 100 547.2 80.8 547.2 80.8 547.2 80.8 547.2 80.8 547.2 60 531.2 44 512 44L512 44ZM547.2 388L536 164C536 151.2 524.8 140 512 140S488 151.2 488 164L476.8 388C476.8 389.6 476.8 391.2 476.8 391.2 476.8 410.4 492.8 428 513.6 428S548.8 412 548.8 391.2L548.8 391.2C548.8 391.2 548.8 389.6 547.2 388Z"  horiz-adv-x="1024" vert-adv-y="1024"  />

      
      <glyph glyph-name="uniE15B" unicode="&#xE15B;" d="M512 642.4C521.6 642.4 531.2 637.6 536 628L892.8-2.4C900.8-15.2 896-32.8 883.2-40.8 878.4-42.4 875.2-44 870.4-44H155.2C139.2-44 128-31.2 128-15.2 128-10.4 129.6-5.6 131.2-2.4L488 628C492.8 637.6 502.4 642.4 512 642.4M512 706.4C478.4 706.4 448 688.8 432 660L76.8 31.2C60.8 2.4 60.8-32.8 76.8-61.6 92.8-90.4 123.2-108 155.2-106.4H868.8C900.8-106.4 931.2-88.8 947.2-61.6 963.2-32.8 963.2 2.4 947.2 31.2L592 660C576 688.8 545.6 706.4 512 706.4ZM512 79.2M476.8 79.2A35.2 35.2 0 1 1 547.2 79.2 35.2 35.2 0 1 1 476.8 79.2ZM488 164C488 151.2 499.2 140 512 140S536 151.2 536 164L547.2 388C547.2 389.6 547.2 391.2 547.2 391.2 547.2 410.4 531.2 426.4 512 426.4S476.8 410.4 476.8 391.2L476.8 391.2C476.8 389.6 476.8 388 476.8 388L488 164Z"  horiz-adv-x="1024" vert-adv-y="1024"  />

      
      <glyph glyph-name="uniE15C" unicode="&#xE15C;" d="M512-12M440-12A72 72 0 1 1 584-12 72 72 0 1 1 440-12ZM512 684A70.72 70.72 0 0 1 440 612V604L464 156A48 48 0 0 1 560 156L584 604V612A70.72 70.72 0 0 1 512 684Z"  horiz-adv-x="1024" vert-adv-y="1024"  />

      
      <glyph glyph-name="uniE15D" unicode="&#xE15D;" d="M884.48 610.4C889.8987 622.2187 893.056 636.0427 893.056 650.592 893.056 705.0347 848.9387 749.152 794.496 749.152S695.936 705.0347 695.936 650.592C695.936 596.1493 740.0533 552.032 794.496 552.032 811.52 552.032 827.52 556.3413 841.472 563.936L840.96 563.68C897.664 496.1387 932.096 408.2027 932.096 312.288 932.096 223.968 902.912 142.4747 853.6747 76.896L854.4 77.92C850.3893 72.6293 848 65.9733 848 58.72 848 41.056 862.336 26.72 880 26.72 890.4533 26.72 899.712 31.712 905.5573 39.4347L905.6 39.52C962.2613 114.5707 996.352 209.4187 996.352 312.2027 996.352 426.848 953.984 531.552 884.0107 611.552L884.48 611.04ZM220.16 312.16C219.776 353.3333 193.4933 388.2773 156.8427 401.5467L156.16 401.76C198.016 576.4373 352.8533 704.2667 537.5573 704.2667 564.5227 704.2667 590.848 701.536 616.2773 696.3733L613.76 696.8C615.296 696.544 617.088 696.3733 618.9227 696.3733 634.5813 696.3733 647.68 707.424 650.8373 722.1867L650.88 722.4C651.264 724.2773 651.52 726.4533 651.52 728.672 651.52 744.288 640.2987 757.3013 625.4933 760.1173L625.28 760.16C599.6373 765.28 570.1973 768.1813 540.032 768.1813 320.0427 768.1813 136.448 612.5333 93.312 405.344L92.8 402.4C55.2107 388.832 28.8 353.4187 28.8 311.904 28.8 258.8693 71.7653 215.904 124.8 215.904S220.8 258.8693 220.8 311.904C220.8 311.9893 220.8 312.0747 220.8 312.2027V312.2027ZM732.16 24.16C680.96 23.8613 639.232-16.5013 636.8-67.1467L636.8-67.36C607.488-75.2533 573.8667-79.776 539.1787-79.776 383.6587-79.776 249.3867 11.1467 186.624 142.7307L185.6 145.0773C180.7787 157.0667 169.2587 165.3867 155.8187 165.3867 138.1547 165.3867 123.8187 151.0507 123.8187 133.3867 123.8187 127.584 125.3547 122.1227 128.0853 117.4293L128 117.6C202.112-38.176 358.2293-143.9467 539.0507-143.9467 580.3947-143.9467 620.4587-138.4 658.56-128.032L655.36-128.7573C673.024-152.5653 701.056-167.7973 732.6293-167.7973 785.664-167.7973 828.6293-124.832 828.6293-71.7973S785.664 24.2027 732.6293 24.2027C732.4587 24.2027 732.288 24.2027 732.1173 24.2027H732.16Z"  horiz-adv-x="1024" vert-adv-y="1024"  />

      
      <glyph glyph-name="uniE15E" unicode="&#xE15E;" d="M640 300C640 229.3013 582.6987 172 512 172S384 229.3013 384 300C384 370.6987 441.3013 428 512 428S640 370.6987 640 300ZM512 684C229.76 684 0 511.84 0 300S229.76-84 512-84 1024 88.16 1024 300 794.24 684 512 684ZM512 108C405.9733 108 320 193.9733 320 300S405.9733 492 512 492C618.0267 492 704 406.0267 704 300S618.0267 108 512 108Z"  horiz-adv-x="1024" vert-adv-y="1024"  />

      
      <glyph glyph-name="uniE15F" unicode="&#xE15F;" d="M116.48 676.32C110.9333 681.0987 103.6373 684 95.7013 684 78.0373 684 63.7013 669.664 63.7013 652 63.7013 642.272 68.0107 633.568 74.88 627.7227L906.9227-76.32C912.4693-81.0987 919.7653-84 927.744-84 945.408-84 959.744-69.664 959.744-52 959.744-42.272 955.4347-33.568 948.5653-27.7227ZM512 428L640 319.2C630.3573 381.152 577.3653 428 513.4507 428 512.9387 428 512.4267 428 511.9147 428ZM512 492C617.9413 491.9147 703.8293 405.984 703.8293 300 703.8293 288.0107 702.72 276.2773 700.6293 264.8853L926.72 74.08C985.856 131.424 1022.8907 211.296 1024 299.7867 1024 511.84 794.24 684 512 684 511.2747 684 510.4213 684 509.568 684 420.864 684 336.384 666.1227 259.4133 633.7813L448 479.84C466.9867 487.1787 488.9173 491.5733 511.8293 492ZM512 172L384 280.8C393.6427 218.848 446.6347 172 510.5493 172 511.0613 172 511.5733 172 512.0853 172ZM512 108C406.0587 108.0853 320.1707 194.016 320.1707 300 320.1707 311.9893 321.28 323.7227 323.3707 335.1147L97.28 525.92C38.144 468.576 1.1093 388.704 0 300.2133 0 88.16 229.76-84 512-84 512.7253-84 513.5787-84 514.432-84 603.136-84 687.616-66.1227 764.5867-33.7813L576 120.16C557.0133 112.8213 535.0827 108.4267 512.1707 108Z"  horiz-adv-x="1024" vert-adv-y="1024"  />

      
      <glyph glyph-name="uniE160" unicode="&#xE160;" d="M878.08 31.84C963.7547 92.0853 1020.0747 189.0667 1024 299.4027 1024 511.84 794.24 684 512 684 510.3787 684 508.4587 684.0427 506.496 684.0427 394.496 684.0427 289.408 654.6027 198.4853 603.0613L116.48 676.3627C110.9333 681.1413 103.6373 684.0427 95.7013 684.0427 78.0373 684.0427 63.7013 669.7067 63.7013 652.0427 63.7013 642.3147 68.0107 633.6107 74.88 627.7653L145.3227 568.2027C59.904 507.8293 3.84 410.848 0.0427 300.5973 0.0427 88.2027 229.8027-83.9573 512.0427-83.9573 513.664-83.9573 515.584-84 517.5467-84 629.5467-84 734.6347-54.56 825.5573-3.0187L907.5627-76.32C913.1093-81.0987 920.4053-84 928.384-84 946.048-84 960.384-69.664 960.384-52 960.384-42.272 956.0747-33.568 949.2053-27.7227ZM512 620C759.04 620 960 476.64 960 300 955.4773 204.9813 904.7467 122.72 829.9093 74.7627L676.48 202.08C693.5893 230.0267 703.7867 263.776 704 299.9573 704 406.0693 618.0267 492 512 492 464.9387 491.5307 421.9733 474.1653 388.864 445.7067L256 561.12C330.0267 598.24 417.3227 620 509.696 620 510.5067 620 511.3173 620 512.128 620ZM396.8 355.04L585.6 195.68C565.2907 181.472 540.032 172.9813 512.8107 172.9813 442.112 172.9813 384.8107 230.2827 384.8107 300.9813 384.8107 320.608 389.248 339.2107 397.0987 355.808ZM437.76 404.32C458.2827 418.9547 483.8827 427.7013 511.488 427.7013 582.1867 427.7013 639.488 370.4 639.488 299.7013 639.488 279.8187 634.9653 261.0027 626.8587 244.192ZM512-20C264.96-20 64 123.36 64 300 68.5227 395.0187 119.2533 477.28 194.0907 525.2373L347.52 397.92C330.4107 369.9733 320.2133 336.224 320 300.0427 320 193.9307 405.9733 108 512 108 559.0613 108.4693 602.0267 125.8347 635.136 154.2933L768 38.88C693.9733 1.76 606.6773-20 514.304-20 513.4933-20 512.6827-20 511.872-20Z"  horiz-adv-x="1024" vert-adv-y="1024"  />

      
      <glyph glyph-name="uniE161" unicode="&#xE161;" d="M512-84C229.76-84 0 88.16 0 300S229.76 684 512 684 1024 511.84 1024 300 794.24-84 512-84ZM512 620C264.96 620 64 476.64 64 300S264.96-20 512-20 960 123.36 960 300 759.04 620 512 620ZM512 108C405.9733 108 320 193.9733 320 300S405.9733 492 512 492C618.0267 492 704 406.0267 704 300S618.0267 108 512 108ZM512 428C441.3013 428 384 370.6987 384 300S441.3013 172 512 172C582.6987 172 640 229.3013 640 300S582.6987 428 512 428Z"  horiz-adv-x="1024" vert-adv-y="1024"  />

      
      <glyph glyph-name="uniE162" unicode="&#xE162;" d="M911.36 496.736C909.3547 501.3013 906.6667 505.184 903.3387 508.4267L610.7733 800.992C604.2027 807.5627 595.2 811.744 585.216 811.9573L212.864 811.9573C212.4373 811.9573 211.9253 811.9573 211.3707 811.9573 155.7333 811.9573 110.5493 767.2427 109.696 711.8187L109.696-111.8613C110.5067-167.3707 155.7333-212.0853 211.3707-212.0853 211.8827-212.0853 212.3947-212.0853 212.9067-212.0853L811.136-212.0853C811.5627-212.0853 812.0747-212.0853 812.6293-212.0853 868.2667-212.0853 913.4507-167.3707 914.304-111.9467L914.304 482.784C914.2613 487.8187 913.152 492.5973 911.2747 496.9067ZM658.304 153.696H548.608V44C548.608 23.8187 532.224 7.4347 512.0427 7.4347S475.4773 23.8187 475.4773 44V153.696H365.7813C345.6 153.696 329.216 170.08 329.216 190.2613S345.6 226.8267 365.7813 226.8267H475.4773V336.5227C475.4773 356.704 491.8613 373.088 512.0427 373.088S548.608 356.704 548.608 336.5227V226.8267H658.304C678.4853 226.8267 694.8693 210.4427 694.8693 190.2613S678.4853 153.696 658.304 153.696Z"  horiz-adv-x="1024" vert-adv-y="1024"  />

      
      <glyph glyph-name="uniE163" unicode="&#xE163;" d="M864 466.4C864 466.4 864 466.4 864 466.4 864 472.8 857.6 479.2 857.6 485.6L601.6 741.6C595.2 741.6 588.8 748 582.4 748 582.4 748 582.4 748 576 748 576 748 576 748 576 748H249.6C198.4 748 160 709.6 160 658.4V-64.8C160-116 198.4-154.4 249.6-154.4H774.4C825.6-154.4 864-116 864-64.8V466.4C864 460 864 460 864 466.4ZM608 639.2L755.2 492H608V639.2ZM774.4-84H249.6C236.8-84 224-71.2 224-58.4V658.4C224 671.2 236.8 684 249.6 684H544V460C544 440.8 556.8 428 576 428H800V-58.4C800-71.2 787.2-84 774.4-84ZM640 236H544V332C544 351.2 531.2 364 512 364S480 351.2 480 332V236H384C364.8 236 352 223.2 352 204S364.8 172 384 172H480V76C480 56.8 492.8 44 512 44S544 56.8 544 76V172H640C659.2 172 672 184.8 672 204S659.2 236 640 236Z"  horiz-adv-x="1024" vert-adv-y="1024"  />

      
      <glyph glyph-name="uniE164" unicode="&#xE164;" d="M911.36 496.736C909.3547 501.3013 906.6667 505.184 903.3387 508.4267L610.7733 800.992C604.2027 807.5627 595.2 811.744 585.216 811.9573L212.864 811.9573C212.4373 811.9573 211.9253 811.9573 211.3707 811.9573 155.7333 811.9573 110.5493 767.2427 109.696 711.8187L109.696-111.8613C110.5067-167.3707 155.7333-212.0853 211.3707-212.0853 211.8827-212.0853 212.3947-212.0853 212.9067-212.0853L811.136-212.0853C811.5627-212.0853 812.0747-212.0853 812.6293-212.0853 868.2667-212.0853 913.4507-167.3707 914.304-111.9467L914.304 482.784C914.2613 487.8187 913.152 492.5973 911.2747 496.9067Z"  horiz-adv-x="1024" vert-adv-y="1024"  />

      
      <glyph glyph-name="uniE165" unicode="&#xE165;" d="M864 466.4C864 466.4 864 466.4 864 466.4 864 472.8 857.6 479.2 857.6 485.6L601.6 741.6C595.2 741.6 588.8 748 582.4 748 582.4 748 582.4 748 576 748 576 748 576 748 576 748H249.6C198.4 748 160 709.6 160 658.4V-64.8C160-116 198.4-154.4 249.6-154.4H774.4C825.6-154.4 864-116 864-64.8V466.4C864 460 864 460 864 466.4ZM608 639.2L755.2 492H608V639.2ZM774.4-84H249.6C236.8-84 224-71.2 224-58.4V658.4C224 671.2 236.8 684 249.6 684H544V460C544 440.8 556.8 428 576 428H800V-58.4C800-71.2 787.2-84 774.4-84Z"  horiz-adv-x="1024" vert-adv-y="1024"  />

      
      <glyph glyph-name="uniE166" unicode="&#xE166;" d="M202.24 390.88C204.032 447.1147 250.0267 492 306.5173 492 306.9867 492 307.456 492 307.9253 492L876.16 492C876.3307 492 876.544 492 876.7573 492 883.84 492 889.5573 497.7173 889.5573 504.8 889.5573 506.1653 889.344 507.488 888.9173 508.7253 867.712 573.7493 807.5093 620 736.512 620 736.3413 620 736.128 620 735.9573 620H448V652C448 705.0347 405.0347 748 352 748H96C42.9653 748 0 705.0347 0 652V12C0 11.0187-0.0427 9.9093-0.0427 8.7573-0.0427-68.2987 54.4-132.64 126.9333-147.8293 127.8293-145.9093 127.744-143.4347 127.744-140.96S127.8293-136.0107 128-133.5787ZM960 428H307.84C284.8853 428 266.24 409.3547 266.24 386.4L192-135.2C191.5733-137.12 191.36-139.3387 191.36-141.6S191.616-146.08 192.0427-148.2133L896-148C931.328-148 960-119.328 960-84L1024 364C1024 399.328 995.328 428 960 428Z"  horiz-adv-x="1024" vert-adv-y="1024"  />

      
      <glyph glyph-name="uniE167" unicode="&#xE167;" d="M928 492H892.8C877.3973 565.5573 813.056 620 736.0427 620 736.0427 620 736 620 736 620H448V652C448 705.0347 405.0347 748 352 748H96C42.9653 748 0 705.0347 0 652V12C0-76.3627 71.6373-148 160-148H864C864.384-148 864.8533-148 865.3227-148 916.5227-148 958.208-107.3813 960-56.6507L1024 396C1024 449.0347 981.0347 492 928 492ZM64 12V652C64 669.664 78.336 684 96 684H352C369.664 684 384 669.664 384 652V588C384 570.336 398.336 556 416 556H736C777.4293 555.872 812.7147 529.504 826.0267 492.6827L288 492C287.616 492 287.1467 492 286.6773 492 235.4773 492 193.792 451.3813 192 400.6507L128-52C128.128-61.856 129.7493-71.328 132.6507-80.2027 92.672-67.36 64.1707-31.0507 64 11.9573ZM896-52C896-69.664 881.664-84 864-84H224C223.9147-84 223.7867-84 223.7013-84 207.616-84 194.304-72.1387 192.0427-56.6507L256.0427 396C256.0427 413.664 270.3787 428 288.0427 428H928.0427C928.128 428 928.256 428 928.3413 428 944.4267 428 957.7387 416.1387 960 400.6507Z"  horiz-adv-x="1024" vert-adv-y="1024"  />

      
      <glyph glyph-name="uniE168" unicode="&#xE168;" d="M864 620H448V652C448 705.0347 405.0347 748 352 748H96C42.9653 748 0 705.0347 0 652V12C0-76.3627 71.6373-148 160-148H864C952.3627-148 1024-76.3627 1024 12V460C1024 548.3627 952.3627 620 864 620ZM640 172H544V76C544 58.336 529.664 44 512 44S480 58.336 480 76V172H384C366.336 172 352 186.336 352 204S366.336 236 384 236H480V332C480 349.664 494.336 364 512 364S544 349.664 544 332V236H640C657.664 236 672 221.664 672 204S657.664 172 640 172Z"  horiz-adv-x="1024" vert-adv-y="1024"  />

      
      <glyph glyph-name="uniE169" unicode="&#xE169;" d="M864 620H448V652C448 703.2 403.2 748 352 748H96C44.8 748 0 703.2 0 652V12C0-77.6 70.4-148 160-148H864C953.6-148 1024-77.6 1024 12V460C1024 549.6 953.6 620 864 620ZM960 12C960-39.2 915.2-84 864-84H160C108.8-84 64-39.2 64 12V652C64 671.2 76.8 684 96 684H352C371.2 684 384 671.2 384 652V588C384 568.8 396.8 556 416 556H864C915.2 556 960 511.2 960 460V12ZM640 236H544V332C544 351.2 531.2 364 512 364S480 351.2 480 332V236H384C364.8 236 352 223.2 352 204S364.8 172 384 172H480V76C480 56.8 492.8 44 512 44S544 56.8 544 76V172H640C659.2 172 672 184.8 672 204S659.2 236 640 236Z"  horiz-adv-x="1024" vert-adv-y="1024"  />

      
      <glyph glyph-name="uniE16A" unicode="&#xE16A;" d="M864 620H448V652C448 705.0347 405.0347 748 352 748H96C42.9653 748 0 705.0347 0 652V12C0-76.3627 71.6373-148 160-148H864C952.3627-148 1024-76.3627 1024 12V460C1024 548.3627 952.3627 620 864 620Z"  horiz-adv-x="1024" vert-adv-y="1024"  />

      
      <glyph glyph-name="uniE16B" unicode="&#xE16B;" d="M864-148H160C71.6373-148 0-76.3627 0 12V652C0 705.0347 42.9653 748 96 748H352C405.0347 748 448 705.0347 448 652V620H864C952.3627 620 1024 548.3627 1024 460V12C1024-76.3627 952.3627-148 864-148ZM96 684C78.336 684 64 669.664 64 652V12C64-41.0347 106.9653-84 160-84H864C917.0347-84 960-41.0347 960 12V460C960 513.0347 917.0347 556 864 556H416C398.336 556 384 570.336 384 588V652C384 669.664 369.664 684 352 684Z"  horiz-adv-x="1024" vert-adv-y="1024"  />

      
      <glyph glyph-name="uniE16C" unicode="&#xE16C;" d="M352 812H32C14.336 812 0 797.664 0 780V460C0 442.336 14.336 428 32 428S64 442.336 64 460V748H352C369.664 748 384 762.336 384 780S369.664 812 352 812ZM992 812H672C654.336 812 640 797.664 640 780S654.336 748 672 748H960V460C960 442.336 974.336 428 992 428S1024 442.336 1024 460V780C1024 797.664 1009.664 812 992 812ZM352-148H64V140C64 157.664 49.664 172 32 172S0 157.664 0 140V-180C0-197.664 14.336-212 32-212H352C369.664-212 384-197.664 384-180S369.664-148 352-148ZM992 172C974.336 172 960 157.664 960 140V-148H672C654.336-148 640-162.336 640-180S654.336-212 672-212H992C1009.664-212 1024-197.664 1024-180V140C1024 157.664 1009.664 172 992 172Z"  horiz-adv-x="1024" vert-adv-y="1024"  />

      
      <glyph glyph-name="uniE16D" unicode="&#xE16D;" d="M741.12 748C681.4293 746.5067 626.688 726.3253 582.3147 693.088 555.136 673.2053 531.584 648.8 512.64 621.024 492.416 648.8 468.864 673.2053 441.7707 693.0453 397.2693 726.3253 342.5707 746.5067 283.2213 748 282.112 748 281.216 748 280.2773 748 126.8053 748 2.1333 624.6507 0 471.6907 2.6027 379.36 32.1707 294.5813 80.9813 224.224 129.5787 152.6293 186.1973 89.5253 250.1973 34.8267 324.3947-31.392 405.4613-90.4427 492.1173-141.0027 502.912-146.8053 507.3067-148 512-148H512C516.6933-148 521.088-146.8053 524.928-144.7147 618.5387-90.9547 699.6053-32.5013 774.0587 33.248 837.76 87.648 894.3787 150.752 941.8667 220.5547 992.1707 293.216 1021.7387 378.6773 1023.9573 470.9653 1021.824 624.6933 897.152 748 743.68 748 742.784 748 741.8453 748 740.9493 748Z"  horiz-adv-x="1024" vert-adv-y="1024"  />

      
      <glyph glyph-name="uniE16E" unicode="&#xE16E;" d="M512-148C507.52-148 503.04-146.72 499.2-144.8 494.08-142.24 373.76-76.32 251.52 31.84 179.2 95.84 121.6 161.12 80 225.76 26.88 308.32 0 390.88 0 471.52 0 623.84 126.72 748 282.88 748 336 748 391.68 728.8 440.96 693.6 469.76 673.12 494.08 648.16 512 621.92 529.92 648.16 554.24 673.12 583.04 693.6 632.32 728.8 688 748 741.12 748 897.28 748 1024 623.84 1024 471.52 1024 391.52 997.12 308.96 944 225.76 902.4 161.12 844.8 95.84 772.48 31.84 650.24-75.68 529.92-141.6 524.8-144.8 520.96-146.72 516.48-148 512-148V-148ZM288 684C164.48 684 64 586.08 64 465.12 64 308.96 188.16 166.24 291.84 74.72 384.64-7.2 478.72-64.8 512-84 545.28-64.8 639.36-7.2 732.16 74.72 835.84 166.88 960 308.96 960 465.12 960 586.08 859.52 684 736 684 646.4 684 559.36 611.68 536.96 547.04 533.12 536.8 523.52 529.76 512 529.76S490.88 536.8 487.04 547.68C464.64 611.68 377.6 684 288 684Z"  horiz-adv-x="1024" vert-adv-y="1024"  />

      
      <glyph glyph-name="uniE16F" unicode="&#xE16F;" d="M896 368.48C948.48 407.52 992 454.24 1020.16 508 1028.48 523.36 1022.08 543.2 1006.72 550.88 991.36 559.2 971.52 553.44 963.84 537.44 893.44 404.32 712.32 314.72 512 314.72S130.56 404.32 60.16 537.44C51.84 553.44 32.64 559.2 17.28 550.88 1.28 543.2-4.48 523.36 3.84 508 32 454.24 75.52 406.88 128 368.48L7.04 217.44C-3.84 203.36-1.92 182.88 12.16 172 17.92 167.52 24.96 164.96 32 164.96 41.6 164.96 50.56 168.8 56.96 177.12L182.4 333.28C238.08 301.92 302.08 278.88 371.2 265.44L291.2 90.72C283.52 74.72 291.2 55.52 307.2 48.48 311.68 46.56 316.16 45.28 320.64 45.28 332.8 45.28 344.32 52.32 350.08 63.84L437.12 255.2C461.44 252.64 486.4 250.72 512 250.72 532.48 250.72 552.32 252.64 572.16 253.92L659.2 63.84C664.32 52.32 675.84 45.28 688 45.28 692.48 45.28 696.96 45.92 701.44 48.48 717.44 55.52 724.48 74.72 717.44 90.72L638.72 262.88C713.6 275.68 782.08 300 841.6 333.92L966.4 177.76C972.8 170.08 981.76 165.6 991.36 165.6 998.4 165.6 1005.44 168.16 1011.2 172.64 1025.28 183.52 1027.2 204 1016.32 217.44L896 368.48Z"  horiz-adv-x="1024" vert-adv-y="1024"  />

      
      <glyph glyph-name="uniE170" unicode="&#xE170;" d="M936 304.8L560 695.2C534.4 722.4 491.2 722.4 465.6 696.8L464 695.2 88 304.8C67.2 284 67.2 250.4 89.6 229.6 99.2 220 112 215.2 124.8 215.2H200V-68C200-103.2 227.2-130.4 262.4-130.4L262.4-130.4H764.8C800-130.4 828.8-103.2 828.8-68V213.6H904C932.8 215.2 956.8 240.8 955.2 269.6 953.6 282.4 945.6 295.2 936 304.8ZM606.4-69.6H417.6V122.4C417.6 154.4 444.8 181.6 476.8 181.6L476.8 181.6H547.2C579.2 181.6 606.4 154.4 606.4 122.4L606.4 122.4V-69.6Z"  horiz-adv-x="1024" vert-adv-y="1024"  />

      
      <glyph glyph-name="uniE171" unicode="&#xE171;" d="M936 304.8L560 695.2C547.2 709.6 529.6 716 512 716 494.4 716 478.4 709.6 465.6 696.8L464 695.2 88 304.8C67.2 284 67.2 250.4 89.6 229.6 99.2 220 112 215.2 124.8 215.2H200V-68C200-103.2 227.2-130.4 262.4-130.4H764.8C800-130.4 828.8-103.2 828.8-68V213.6H904C932.8 215.2 956.8 240.8 955.2 269.6 953.6 282.4 945.6 295.2 936 304.8ZM828.8 277.6H764.8V213.6-66.4L606.4-66.4V122.4C606.4 154.4 579.2 181.6 547.2 181.6H476.8C444.8 181.6 417.6 154.4 417.6 122.4V-66.4L264-66.4V215.2 279.2H200 152L508.8 650.4 510.4 652C510.4 652 510.4 652 512 652 513.6 652 513.6 652 513.6 650.4L873.6 277.6H828.8Z"  horiz-adv-x="1024" vert-adv-y="1024"  />

      
      <glyph glyph-name="uniE172" unicode="&#xE172;" d="M352 364M304 364A48 48 0 1 1 400 364 48 48 0 1 1 304 364ZM928 652H96C78.4 652 64 637.6 64 620V-20C64-37.6 78.4-52 96-52H928C945.6-52 960-37.6 960-20V620C960 637.6 945.6 652 928 652ZM576 412H736V348H576V412ZM448 156C448 208.8 404.8 252 352 252S256 208.8 256 156H190.4C190.4 212 219.2 263.2 265.6 292 230.4 333.6 230.4 396 265.6 437.6 305.6 485.6 376 490.4 424 450.4S476.8 338.4 436.8 292C483.2 261.6 512 210.4 512 156H448ZM832 220H576V284H832V220Z"  horiz-adv-x="1024" vert-adv-y="1024"  />

      
      <glyph glyph-name="uniE173" unicode="&#xE173;" d="M928 652H96C78.4 652 64 637.6 64 620V-20C64-37.6 78.4-52 96-52H928C945.6-52 960-37.6 960-20V620C960 637.6 945.6 652 928 652ZM896 12H128V588H896V12ZM576 284H832V220H576ZM576 412H736V348H576ZM256 156L256 156C256 208.8 299.2 252 352 252S448 208.8 448 156H512C512 210.4 483.2 261.6 436.8 292 476.8 338.4 472 410.4 424 450.4S305.6 485.6 265.6 437.6C230.4 396 230.4 333.6 265.6 292 219.2 263.2 190.4 212 190.4 156H256ZM352 412C379.2 412 400 391.2 400 364S379.2 316 352 316 304 336.8 304 364 324.8 412 352 412Z"  horiz-adv-x="1024" vert-adv-y="1024"  />

      
      <glyph glyph-name="uniE174" unicode="&#xE174;" d="M896 716H128C110.4 716 96 701.6 96 684V-84C96-101.6 110.4-116 128-116H896C913.6-116 928-101.6 928-84V684C928 701.6 913.6 716 896 716ZM864 652V224.8L648 440.8 406.4 200.8 288 319.2 160 191.2V652H864ZM336 476M240 476A96 96 0 1 1 432 476 96 96 0 1 1 240 476Z"  horiz-adv-x="1024" vert-adv-y="1024"  />

      
      <glyph glyph-name="uniE175" unicode="&#xE175;" d="M896 716H128C110.4 716 96 701.6 96 684V-84C96-101.6 110.4-116 128-116H896C913.6-116 928-101.6 928-84V684C928 701.6 913.6 716 896 716ZM864 652V224.8L648 440.8 406.4 200.8 288 319.2 160 191.2V652H864ZM160-52V100L288 228 406.4 109.6 648 351.2 864 135.2V-52H160ZM336 476M240 476A96 96 0 1 1 432 476 96 96 0 1 1 240 476Z"  horiz-adv-x="1024" vert-adv-y="1024"  />

      
      <glyph glyph-name="uniE176" unicode="&#xE176;" d="M234.24 299.36L63.36 139.36V458.72L234.24 299.36ZM32 652H992C1009.664 652 1024 666.336 1024 684S1009.664 716 992 716H32C14.336 716 0 701.664 0 684S14.336 652 32 652ZM32-117.28H992C1009.664-117.28 1024-102.944 1024-85.28S1009.664-53.28 992-53.28H32C14.336-53.28 0-67.616 0-85.28S14.336-117.28 32-117.28ZM476.8 396.64H992C1009.664 396.64 1024 410.976 1024 428.64S1009.664 460.64 992 460.64H476.8C459.136 460.64 444.8 446.304 444.8 428.64S459.136 396.64 476.8 396.64ZM476.8 140H992C1009.664 140 1024 154.336 1024 172S1009.664 204 992 204H476.8C459.136 204 444.8 189.664 444.8 172S459.136 140 476.8 140Z"  horiz-adv-x="1024" vert-adv-y="1024"  />

      
      <glyph glyph-name="uniE177" unicode="&#xE177;" d="M512 748C264 748 64 548 64 300S264-148 512-148 960 52 960 300 760 748 512 748ZM560 556C587.2 556 608 535.2 608 508S587.2 460 560 460 512 480.8 512 508 532.8 556 560 556ZM598.4 80.8C576 58.4 548.8 42.4 518.4 36 499.2 31.2 478.4 32.8 460.8 40.8 444.8 50.4 435.2 64.8 432 82.4 428.8 98.4 440 146.4 462.4 223.2 473.6 266.4 483.2 298.4 488 317.6 492.8 332 494.4 344.8 492.8 359.2 491.2 367.2 484.8 370.4 473.6 368.8 457.6 362.4 443.2 352.8 433.6 340 419.2 322.4 393.6 344.8 417.6 367.2 438.4 388 465.6 402.4 494.4 408.8 512 413.6 532.8 413.6 548.8 407.2 561.6 400.8 571.2 388 574.4 373.6 579.2 354.4 561.6 277.6 521.6 141.6 516.8 128.8 513.6 114.4 515.2 100 518.4 87.2 526.4 80.8 540.8 84 556.8 87.2 571.2 96.8 580.8 109.6 595.2 124 624 106.4 598.4 80.8Z"  horiz-adv-x="1024" vert-adv-y="1024"  />

      
      </font>
</defs>
</svg>
