<?xml version="1.0" standalone="no"?>
  <!DOCTYPE svg PUBLIC "-//W3C//DTD SVG 1.1//EN" "http://www.w3.org/Graphics/SVG/1.1/DTD/svg11.dtd" >
  <svg>
  <metadata>
  Created by font-carrier
  </metadata>
  <defs>
  <font id="iconfont" horiz-adv-x="1024" vert-adv-y="1024" >
    <font-face
      
      font-family="iconfont"
      
      font-weight="400"
      
      font-stretch="normal"
      
      units-per-em="1024"
      
      ascent="812"
      
      descent="-212"
      
    />
      <missing-glyph />

      
      <glyph glyph-name="x" unicode="&#x78;" horiz-adv-x="100"
        d="M20 20 L50 20 L50 -20 Z" />
      

      
      <glyph glyph-name="uniE136" unicode="&#xE136;" d="M539.4 684C544.9 683.6 550.4 683.1 555.8 682.5L568.5 619.1 575.6 583.7 609.5 571.4C641.8 559.7 671.4 542.5 697.7 520.2L725.3 496.8 759.6 508.4 820.7 529.1C826 522 831 514.6 835.8 507.2L853 477.4C857.2 469.4 861 461.2 864.6 452.9L815.9 410 788.9 386.3 795.1 350.9C798 334.4 799.5 317.5 799.5 300.6 799.5 283.4 798 266.3 795 249.6L788.7 214.1 815.8 190.3 864.4 147.6C858.5 134 851.8 120.7 844.3 107.8 837 95.2 828.9 83 820.2 71.3L758.9 92 724.7 103.6 697.1 80.3C671 58.3 641.6 41.3 609.7 29.7L575.8 17.4 568.7-17.9 556-81.4C541.2-83.1 526.4-84 511.5-84 496.9-84 482.4-83.2 468-81.6L455.4-18.4 448.3 17.1 414.3 29.3C382.2 40.8 352.5 57.9 326.3 80L298.7 103.2 264.6 91.6 203 70.9C198.8 76.5 194.8 82.2 190.9 88.1L166.9 129.7C164.1 135.3 161.5 141 158.9 146.8L207.3 189.4 234.5 213.3 228.1 248.9C225 265.8 223.5 283.2 223.5 300.6 223.5 317.7 225 334.9 228 351.6L234.3 387.1 207.2 410.9 158.6 453.6C160.3 457.5 162 461.3 163.8 465.1L194.8 518.8C197.3 522.4 199.8 525.9 202.4 529.5L263.6 508.8 297.9 497.2 325.5 520.6C352 543 381.9 560.3 414.4 571.9L448.5 584.1 455.6 619.6 468.2 682.8C473.3 683.4 478.5 683.8 483.6 684.2H539.4M541.6 748H481.4C458.4 746.5 436 743.2 414.1 738.4L392.8 632C352.7 617.6 316 596.2 284.1 569.2L181.3 604C166.5 588 153 570.8 140.6 552.8L107.1 494.8C97.8 475.4 89.8 455.3 83.3 434.5L164.9 362.8C161.3 342.6 159.4 321.8 159.4 300.6 159.4 279.1 161.3 258 165 237.6L83.5 165.9C90.7 142.9 99.8 120.7 110.4 99.5L136.4 54.5C150 33.9 165.2 14.4 181.9-3.7L284.9 31.1C316.5 4.5 352.9-16.6 392.5-30.9L413.8-137.3C445.2-144.3 477.9-148 511.4-148 545.3-148 578.3-144.2 610.1-137.1L631.4-30.5C670.7-16.2 706.8 4.8 738.2 31.3L841.1-3.5C885.5 44.6 919.5 102.5 939.5 166.5L858 238.2C861.6 258.4 863.5 279.2 863.5 300.5 863.5 321.5 861.7 342 858.2 361.9L939.9 433.7C931.9 459.6 921.5 484.5 909.2 508.1L890.6 540.2C876.3 562.8 860 584 842 603.7L739.2 569C707.6 595.9 671.1 617.2 631.3 631.6L610 738.1C587.8 743.1 564.9 746.5 541.6 748L541.6 748ZM511.5 396.5C564.4 396.5 607.5 353.4 607.5 300.5S564.4 204.5 511.5 204.5 415.5 247.6 415.5 300.5 458.6 396.5 511.5 396.5M511.5 460.5C423.1 460.5 351.5 388.9 351.5 300.5S423.1 140.5 511.5 140.5 671.5 212.1 671.5 300.5 599.9 460.5 511.5 460.5L511.5 460.5Z"  horiz-adv-x="1024" vert-adv-y="1024"  />

      
      <glyph glyph-name="uniE124" unicode="&#xE124;" d="M288 364L336 412 512 236 688 412 736 364 512 140Z"  horiz-adv-x="1024" vert-adv-y="1024"  />

      
      <glyph glyph-name="uniE110" unicode="&#xE110;" d="M512 748C264 748 64 548 64 300S264-148 512-148 960 52 960 300 760 748 512 748ZM736 268H544V76H480V268H288V332H480V524H544V332H736V268Z"  horiz-adv-x="1024" vert-adv-y="1024"  />

      
      <glyph glyph-name="uniE10F" unicode="&#xE10F;" d="M512 748C264 748 64 548 64 300S264-148 512-148 960 52 960 300 760 748 512 748ZM736 268H288V332H736V268Z"  horiz-adv-x="1024" vert-adv-y="1024"  />

      
      <glyph glyph-name="uniE128" unicode="&#xE128;" d="M512 300M416 300A96 96 0 1 1 608 300 96 96 0 1 1 416 300ZM860.8 253.6C865.6 284 865.6 316 860.8 346.4L928 404C937.6 412 942.4 426.4 937.6 439.2 918.4 498.4 886.4 554.4 844.8 600.8 838.4 607.2 830.4 612 820.8 612 817.6 612 812.8 612 809.6 610.4L726.4 580C702.4 599.2 673.6 615.2 644.8 626.4L628.8 712.8C627.2 725.6 616 735.2 603.2 738.4 542.4 751.2 478.4 751.2 417.6 738.4 404.8 735.2 395.2 725.6 393.6 712.8L377.6 626.4C348.8 615.2 321.6 599.2 296 580L212.8 610.4C209.6 612 206.4 612 201.6 612 192 612 184 608.8 177.6 600.8 136 554.4 104 500 84.8 439.2 80 426.4 84.8 412 94.4 404L161.6 346.4C160 316 160 284 163.2 253.6L96 196C86.4 188 81.6 173.6 86.4 160.8 105.6 101.6 137.6 45.6 179.2-0.8 185.6-7.2 193.6-12 203.2-12 206.4-12 211.2-12 214.4-10.4L297.6 20C321.6 0.8 350.4-15.2 379.2-26.4L395.2-112.8C396.8-125.6 408-135.2 420.8-138.4 481.6-151.2 545.6-151.2 606.4-138.4 619.2-135.2 628.8-125.6 632-112.8L648-26.4C676.8-15.2 704 0.8 729.6 20L812.8-10.4C816-12 819.2-12 824-12 833.6-12 841.6-8.8 848-0.8 889.6 45.6 921.6 100 940.8 160.8 944 173.6 940.8 188 929.6 196L860.8 253.6ZM512 140C424 140 352 212 352 300S424 460 512 460 672 388 672 300 600 140 512 140Z"  horiz-adv-x="1024" vert-adv-y="1024"  />

      
      <glyph glyph-name="uniE111" unicode="&#xE111;" d="M864 684H496V620H787.2L361.6 194.4 406.4 149.6 832 575.2V284H896V652C896 669.6 881.6 684 864 684ZM832 108V-20H192V620H318.4V684H160C142.4 684 128 669.6 128 652V-52C128-69.6 142.4-84 160-84H864C881.6-84 896-69.6 896-52V108H832Z"  horiz-adv-x="1024" vert-adv-y="1024"  />

      
      <glyph glyph-name="uniE11F" unicode="&#xE11F;" d="M512 748C264 748 64 548 64 300S264-148 512-148 960 52 960 300 760 748 512 748ZM512-84C299.2-84 128 87.2 128 300S299.2 684 512 684 896 512.8 896 300 724.8-84 512-84ZM494.4 408.8C465.6 402.4 438.4 388 417.6 367.2 393.6 344.8 419.2 322.4 433.6 340 443.2 352.8 457.6 362.4 473.6 368.8 484.8 370.4 491.2 367.2 492.8 359.2 494.4 344.8 492.8 332 488 317.6 483.2 298.4 473.6 266.4 462.4 223.2 440 146.4 428.8 98.4 432 82.4 435.2 64.8 444.8 50.4 460.8 40.8 478.4 32.8 499.2 31.2 518.4 36 548.8 42.4 576 58.4 598.4 80.8 624 106.4 595.2 124 580.8 109.6 571.2 96.8 556.8 87.2 540.8 84 526.4 80.8 518.4 87.2 515.2 100 513.6 114.4 516.8 128.8 521.6 141.6 561.6 277.6 579.2 354.4 574.4 373.6 571.2 388 561.6 400.8 548.8 407.2 532.8 413.6 512 413.6 494.4 408.8ZM560 508M512 508A48 48 0 1 1 608 508 48 48 0 1 1 512 508Z"  horiz-adv-x="1024" vert-adv-y="1024"  />

      
      <glyph glyph-name="uniE138" unicode="&#xE138;" d="M739.552 755.104H284.448C256 755.104 227.552 726.656 227.552 698.208V-98.24C227.552-126.688 256-155.136 284.448-155.136H739.552C768-155.136 796.448-126.688 796.448-98.24V698.208C796.448 726.656 768 755.104 739.552 755.104ZM512 72.448C477.856 72.448 455.104 95.2 455.104 129.344S477.856 186.24 512 186.24 568.896 163.488 568.896 129.344C568.896 95.2 546.144 72.448 512 72.448ZM682.656 413.792H341.312V470.688H682.656V413.792ZM682.656 584.448H341.312V641.344H682.656V584.448Z"  horiz-adv-x="1024" vert-adv-y="1024"  />

      
      <glyph glyph-name="uniE130" unicode="&#xE130;" d="M256 300L676-116 768-24.96 440 300 768 624.96 676 716 256 300Z"  horiz-adv-x="1024" vert-adv-y="1024"  />

      
      <glyph glyph-name="uniE125" unicode="&#xE125;" d="M832 552.8L764.8 620 512 367.2 259.2 620 192 552.8 444.8 300 192 47.2 259.2-20 512 232.8 764.8-20 832 47.2 579.2 300Z"  horiz-adv-x="1024" vert-adv-y="1024"  />

      
      <glyph glyph-name="uniE127" unicode="&#xE127;" d="M332.8 568.8C358.4 543.2 358.4 504.8 332.8 479.2 307.2 453.6 268.8 453.6 243.2 479.2L217.6 504.8 198.4 524C172.8 549.6 172.8 588 198.4 613.6S262.4 639.2 288 613.6L313.6 588 332.8 568.8ZM192 364C230.4 364 256 338.4 256 300S230.4 236 192 236H160 128C89.6 236 64 261.6 64 300S89.6 364 128 364H160 192ZM243.2 120.8C268.8 146.4 307.2 146.4 332.8 120.8 358.4 95.2 358.4 56.8 332.8 31.2L307.2 5.6 281.6-20C256-45.6 217.6-45.6 192-20S166.4 44 192 69.6L217.6 95.2 243.2 120.8ZM448-20C448 18.4 473.6 44 512 44S576 18.4 576-20V-52-84C576-122.4 550.4-148 512-148S448-122.4 448-84V-52-20ZM825.6-13.6C800-39.2 761.6-39.2 736-13.6L710.4 12 710.4 12 684.8 37.6C659.2 63.2 659.2 101.6 684.8 127.2S748.8 152.8 774.4 127.2L800 101.6 825.6 76 825.6 76C851.2 50.4 851.2 5.6 825.6-13.6ZM896 364L864 236H832C793.6 236 768 261.6 768 300S793.6 364 832 364H896ZM960 300C960 261.6 934.4 236 896 236H864L896 364C934.4 364 960 338.4 960 300ZM742.4 620C768 639.2 806.4 639.2 825.6 613.6 851.2 588 851.2 549.6 825.6 524L800 498.4 774.4 472.8C748.8 447.2 710.4 447.2 684.8 472.8S659.2 536.8 684.8 562.4M448 652L576 620C576 581.6 550.4 556 512 556S448 581.6 448 620V652ZM512 748C550.4 748 576 722.4 576 684V652H448V684C448 722.4 473.6 748 512 748ZM448 652H576V620H448V652Z"  horiz-adv-x="1024" vert-adv-y="1024"  />

      
      <glyph glyph-name="uniE113" unicode="&#xE113;" d="M1024 300A512 512 0 0 0 512-212 512 512 0 0 0 0 300 512 512 0 0 0 1024 300ZM787.6923 300A275.6923 275.6923 0 0 0 512 24.3077 275.6923 275.6923 0 0 0 236.3077 300 275.6923 275.6923 0 0 0 787.6923 300Z"  horiz-adv-x="1024" vert-adv-y="1024"  />

      
      <glyph glyph-name="uniE114" unicode="&#xE114;" d="M1024 300A512 512 0 0 0 512-212 512 512 0 0 0 0 300 512 512 0 0 0 1024 300ZM787.6923 300A275.6923 275.6923 0 0 0 512 24.3077 275.6923 275.6923 0 0 0 236.3077 300 275.6923 275.6923 0 0 0 787.6923 300Z"  horiz-adv-x="1024" vert-adv-y="1024"  />

      
      <glyph glyph-name="uniE118" unicode="&#xE118;" d="M1024 300A512 512 0 0 0 512-212 512 512 0 0 0 0 300 512 512 0 0 0 1024 300ZM787.6923 300A275.6923 275.6923 0 0 0 512 24.3077 275.6923 275.6923 0 0 0 236.3077 300 275.6923 275.6923 0 0 0 787.6923 300Z"  horiz-adv-x="1024" vert-adv-y="1024"  />

      
      <glyph glyph-name="uniE102" unicode="&#xE102;" d="M500.16 508A355.04 355.04 0 0 0 628.16 483.2L676.16 532.16A426.08 426.08 0 0 1 500.16 572V508ZM763.2 483.2L717.12 437.12A822.24 822.24 0 0 0 877.12 298.24 807.52 807.52 0 0 0 790.24 213.12C723.84 157.76 620.48 92 502.56 92A331.52 331.52 0 0 0 391.52 111.52L342.08 62.24A402.4 402.4 0 0 1 502.08 28C768 28 960 300 960 300A962.56 962.56 0 0 1 763.2 483.2ZM254.88 110.88L300.96 156.96A706.56 706.56 0 0 0 144.32 300.96C197.44 369.12 328.16 508 500.16 508V572H500.16C234.72 572 64 300 64 300A838.72 838.72 0 0 1 254.88 110.88ZM512 172A128 128 0 0 1 622.24 364.96L888 630.72A32 32 0 1 1 842.72 676L576.96 410.24A128 128 0 0 1 400.96 234.24L136-30.72A32 32 0 1 1 181.28-76L447.04 189.76A128 128 0 0 1 512 172ZM576 300A64 64 0 0 0 512 236 60.96 60.96 0 0 0 496 238.4L573.6 316A60.96 60.96 0 0 0 576 300ZM512 364A60.96 60.96 0 0 0 528 361.6L450.4 284A60.96 60.96 0 0 0 448 300 64 64 0 0 0 512 364Z"  horiz-adv-x="1024" vert-adv-y="1024"  />

      
      <glyph glyph-name="uniE103" unicode="&#xE103;" d="M512 428A128 128 0 1 1 640 300 128 128 0 0 1 512 428ZM512 236A64 64 0 1 0 576 300 64 64 0 0 0 512 236ZM512 572C264.64 572 64 300 64 300S264.64 28 512 28 960 300 960 300 759.36 572 512 572ZM512 92C352 92 208 231.04 147.04 300 208 369.12 352 508 512 508S816 368.96 876.96 300C816 230.88 672 92 512 92Z"  horiz-adv-x="1024" vert-adv-y="1024"  />

      
      <glyph glyph-name="uniE115" unicode="&#xE115;" d="M704 300A192 192 0 0 0 512 108 192 192 0 0 0 320 300 192 192 0 0 0 704 300ZM512 44C370.8 44 256 158.8 256 300 256 441.2 370.8 556 512 556 653.2 556 768 441.2 768 300 768 158.8 653.2 44 512 44ZM512 492C406.1 492 320 405.9 320 300S406.1 108 512 108 704 194.1 704 300 617.9 492 512 492Z"  horiz-adv-x="1024" vert-adv-y="1024"  />

      
      <glyph glyph-name="uniE10E" unicode="&#xE10E;" d="M160 652H784V400H848V684A32 32 0 0 1 816 716H128A32 32 0 0 1 96 684V-70.4H96V-84A32 32 0 0 1 128-116H534.72V-52H160ZM256.8 520H677.28V456H256.8ZM256.8 356.48H434.56V292.48H256.8ZM256.8 192.96H429.28V128.96H256.8ZM838.56 18.72A191.04 191.04 0 1 1 793.28-26.4L882.72-116 928-70.72ZM683.52 2.72A126.56 126.56 0 1 0 809.92 129.12 126.56 126.56 0 0 0 683.52 2.56Z"  horiz-adv-x="1024" vert-adv-y="1024"  />

      
      <glyph glyph-name="uniE10D" unicode="&#xE10D;" d="M928 588H672V652C672 687.2 643.2 716 608 716H416C380.8 716 352 687.2 352 652V588H96V524H208V-52C208-87.2 236.8-116 272-116H752C787.2-116 816-87.2 816-52V524H928V588ZM432 652H592C601.6 652 608 645.6 608 636V588H416V636C416 645.6 422.4 652 432 652ZM736-52H288C278.4-52 272-45.6 272-36V524H752V-36C752-45.6 745.6-52 736-52ZM576 412H640V60H576ZM384 412H448V60H384Z"  horiz-adv-x="1024" vert-adv-y="1024"  />

      
      <glyph glyph-name="uniE12A" unicode="&#xE12A;" d="M128 460H320V652H128ZM192 588H256V524H192ZM128 204H320V396H128ZM192 332H256V268H192ZM128-52H320V140H128ZM192 76H256V12H192ZM384 652V460H896V652ZM832 524H448V588H832ZM384 204H896V396H384ZM448 332H832V268H448ZM384-52H896V140H384ZM448 76H832V12H448Z"  horiz-adv-x="1024" vert-adv-y="1024"  />

      
      <glyph glyph-name="uniE101" unicode="&#xE101;" d="M192 684H832V620H192V684ZM544 145.76L543.04 268 542.72 268 541.76 268 479.04 268 480 145.76 352 145.12 512.64 12 672 146.4 544 145.76ZM192-20H832V-84H192V-20ZM669.12 454.24L509.76 588.64 349.12 455.52 477.12 454.88 476.16 332.64 538.88 332.64 539.84 332.64 540.16 332.64 541.12 454.56 669.12 454.24Z"  horiz-adv-x="1024" vert-adv-y="1024"  />

      
      <glyph glyph-name="uniE12F" unicode="&#xE12F;" d="M676.8 684L785.6 575.2 731.2 520.8 622.4 629.6 676.8 684ZM593.6 602.4L704 492 320 108H209.6V218.4L593.6 602.4ZM896 26.4V-84H128V26.4H896Z"  horiz-adv-x="1024" vert-adv-y="1024"  />

      
      <glyph glyph-name="uniE12E" unicode="&#xE12E;" d="M814.4 570.4C793.6 570.4 780.8 557.6 780.8 536.8V503.2C747.2 551.2 699.2 588 646.4 608.8 478.4 684 278.4 605.6 204.8 436S208 68 376-7.2 744-4 817.6 165.6H814.4C814.4 186.4 801.6 199.2 780.8 199.2 760 199.2 747.2 186.4 747.2 165.6H744C713.6 114.4 670.4 74.4 612.8 50.4 475.2-7.2 320 60 262.4 199.2S272 496.8 411.2 551.2C536 605.6 676.8 551.2 745.6 436H681.6C660.8 436 648 423.2 648 402.4 648 381.6 660.8 368.8 681.6 368.8H816C836.8 368.8 849.6 381.6 849.6 402.4V538.4C848 557.6 835.2 570.4 814.4 570.4Z"  horiz-adv-x="1024" vert-adv-y="1024"  />

      
      <glyph glyph-name="uniE139" unicode="&#xE139;" d="M685.7654 129.6529L685.7654-32.3845 557.0503-105.0936C529.162-119.6355 496.9832-119.6355 469.095-105.0936L469.095-105.0936 340.3799-32.3845 340.3799 129.6529 357.5419 119.2659 479.8212 50.7116 512 32.015 544.1788 50.7116 685.7654 129.6529ZM130.1453 248.0649L273.8771 167.0462 273.8771 5.0087 173.0503 61.0986C145.162 75.6404 128 104.7241 130.1453 135.8851L130.1453 135.8851 130.1453 248.0649ZM896 248.0649L896 135.8851C896 104.7241 878.838 75.6404 850.9497 61.0986L850.9497 61.0986 752.256 6.208 752.2682 167.0462 896 248.0649ZM512 493.1985L683.6201 395.5606 683.6201 204.4394 512 106.8015 340.3799 204.4394 340.3799 395.5606 512 493.1985ZM722.2346 611.6105L848.8045 538.9014C876.6927 522.2821 893.8547 495.2759 893.8547 464.1149L893.8547 464.1149 893.8547 320.774 750.1229 239.7553 750.1229 432.9538 717.9441 451.6504 578.5028 530.5918 722.2346 611.6105ZM301.7654 611.6105L445.4972 530.5918 389.7207 499.4307 303.9106 451.6504 271.7318 432.9538 271.7318 239.7553 128 320.774 128 464.1149C128 495.2759 145.162 524.3596 173.0503 538.9014L173.0503 538.9014 301.7654 611.6105ZM466.9497 705.0936C494.838 719.6355 527.0168 719.6355 554.905 705.0936L554.905 705.0936 655.7318 649.0037 512 567.985 366.1229 649.0037Z"  horiz-adv-x="1024" vert-adv-y="1024"  />

      
      <glyph glyph-name="uniE104" unicode="&#xE104;" d="M587.0433 44.8571C657.6716 45.4453 715.3863-11.2721 716-81.9004 716.5881-152.5287 659.8451-210.269 589.2424-210.8571 518.6397-211.4453 460.8994-154.7023 460.2857-84.0996L460.2857-84.0996 460.2857-83C460.2857-12.832 516.8497 44.269 587.0433 44.8571ZM126.7576 44.8571C197.3859 45.4453 255.1006-11.2721 255.7143-81.9004 256.3024-152.5287 199.5594-210.269 128.9567-210.8571 58.354-211.4453 0.6137-154.7023 0-84.0996L0-84.0996 0-83C0-12.832 56.564 44.269 126.7576 44.8571ZM587.0433 428.4286C657.6716 429.0167 715.3863 372.2993 716 301.671 716.5881 231.0427 659.8451 173.3024 589.2424 172.7143 518.6397 172.1261 460.8994 228.8691 460.2857 299.4719L460.2857 299.4719 460.2857 300.5714C460.2857 370.7394 516.8497 427.8404 587.0433 428.4286ZM126.7576 428.4286C197.3859 429.0167 255.1006 372.2993 255.7143 301.671 256.3024 231.0427 199.5594 173.3024 128.9567 172.7143 58.354 172.1261 0.6137 228.8691 0 299.4719L0 299.4719 0 300.5714C0 370.7394 56.564 427.8404 126.7576 428.4286ZM587.0433 812C657.6716 812.5881 715.3863 755.8707 716 685.2424 716.5881 614.6141 659.8451 556.8739 589.2424 556.2857 518.6397 555.6976 460.8994 612.4406 460.2857 683.0433L460.2857 683.0433 460.2857 684.1429C460.2857 754.3109 516.8497 811.4119 587.0433 812ZM126.7576 812C197.3859 812.5881 255.1006 755.8707 255.7143 685.2424 256.3024 614.6141 199.5594 556.8739 128.9567 556.2857 58.354 555.6976 0.6137 612.4406 0 683.0433L0 683.0433 0 684.1429C0 754.3109 56.564 811.4119 126.7576 812Z"  horiz-adv-x="716" vert-adv-y="1024"  />

      
      <glyph glyph-name="uniE105" unicode="&#xE105;" d="M550.4 536.8H614.4V338.4H550.4V536.8ZM352 536.8H416V338.4H352V536.8ZM1600 812H128C57.6 812 0 754.4 0 684V-84C0-154.4 57.6-212 128-212H1600C1670.4-212 1728-154.4 1728-84V684C1728 754.4 1670.4 812 1600 812ZM710.4 556H755.2V140H710.4V556ZM697.6 293.6H652.8V56.8C652.8 18.4 633.6-0.8 601.6-0.8 588.8-0.8 569.6-0.8 550.4-0.8 550.4 12 544 31.2 544 44 563.2 44 576 37.6 595.2 37.6 608 37.6 620.8 44 620.8 63.2V293.6H556.8V229.6C556.8 127.2 537.6 44 499.2-13.6 486.4-0.8 480 12 467.2 18.4 492.8 69.6 512 140 512 229.6V293.6H454.4V69.6C454.4 31.2 435.2 5.6 403.2 5.6 390.4 5.6 371.2 5.6 358.4 5.6 358.4 18.4 352 37.6 352 50.4 371.2 50.4 384 44 396.8 44 409.6 44 416 50.4 416 69.6V293.6H352V223.2C352 127.2 332.8 50.4 294.4-13.6 281.6-0.8 275.2 12 262.4 18.4 294.4 69.6 313.6 140 313.6 229.6V293.6H262.4V338.4H313.6V575.2H454.4V338.4H512V575.2H652.8V332H697.6V293.6ZM851.2 63.2C851.2 18.4 832-7.2 793.6-7.2 768-7.2 742.4-7.2 710.4-7.2 710.4 12 704 24.8 704 44 736 44 755.2 37.6 774.4 37.6 800 37.6 806.4 50.4 806.4 69.6V600.8H851.2V63.2ZM998.4 114.4C992 133.6 992 146.4 985.6 165.6 1004.8 159.2 1024 159.2 1043.2 159.2 1068.8 159.2 1081.6 191.2 1068.8 242.4 1062.4 274.4 1043.2 306.4 1017.6 344.8 1030.4 396 1049.6 453.6 1068.8 517.6H992V-20H947.2V568.8H1126.4V524C1107.2 460 1088 408.8 1075.2 357.6 1107.2 312.8 1126.4 274.4 1132.8 248.8 1145.6 172 1126.4 127.2 1075.2 114.4 1043.2 114.4 1024 114.4 998.4 114.4ZM1088 50.4C1120 88.8 1152 140 1184 191.2L1222.4 165.6C1190.4 108 1158.4 63.2 1126.4 18.4 1120 31.2 1100.8 37.6 1088 50.4ZM1484.8 31.2C1440 82.4 1401.6 120.8 1376 159.2L1408 184.8C1446.4 146.4 1484.8 108 1523.2 63.2L1484.8 31.2ZM1504 344.8C1420.8 396 1356.8 453.6 1305.6 530.4 1267.2 479.2 1228.8 428 1177.6 389.6H1433.6V344.8H1324.8V268H1491.2V223.2H1324.8V69.6C1324.8 24.8 1299.2-0.8 1254.4-0.8 1235.2-0.8 1216-0.8 1184-0.8 1184 12 1177.6 31.2 1177.6 50.4 1203.2 44 1222.4 44 1241.6 44 1267.2 44 1273.6 56.8 1273.6 76V223.2H1113.6V268H1273.6V344.8H1158.4V376.8C1152 364 1139.2 351.2 1126.4 338.4 1120 351.2 1107.2 364 1094.4 383.2 1184 440.8 1248 511.2 1292.8 594.4H1344L1337.6 575.2C1382.4 498.4 1446.4 440.8 1536 402.4 1523.2 376.8 1510.4 364 1504 344.8ZM806.4 82.4C806.4 56.8 793.6 50.4 774.4 50.4 755.2 50.4 729.6 50.4 704 56.8 710.4 37.6 710.4 24.8 710.4 5.6 742.4 5.6 768 5.6 793.6 5.6 832 5.6 851.2 31.2 851.2 76V600.8H806.4V82.4ZM710.4 556H755.2V140H710.4V556ZM652.8 575.2H512V332H454.4V575.2H313.6V338.4H262.4V300H313.6V236C313.6 146.4 294.4 76 262.4 24.8 268.8 18.4 281.6 5.6 294.4-7.2 332.8 56.8 352 133.6 352 229.6V293.6H416V76C416 56.8 409.6 50.4 396.8 50.4 384 50.4 371.2 50.4 352 56.8 358.4 44 358.4 31.2 358.4 12 377.6 12 390.4 12 403.2 12 435.2 12 454.4 31.2 454.4 76V293.6H512V229.6C512 140 492.8 69.6 460.8 18.4 467.2 12 480-0.8 492.8-13.6 531.2 44 550.4 127.2 550.4 229.6V293.6H614.4V63.2C614.4 44 608 31.2 588.8 37.6 576 37.6 556.8 37.6 537.6 44 544 31.2 544 18.4 544-0.8 563.2-0.8 582.4-0.8 595.2-0.8 627.2-0.8 646.4 18.4 646.4 56.8V293.6H691.2V338.4H646.4V575.2ZM416 338.4H352V536.8H416V338.4ZM614.4 338.4H550.4V536.8H614.4V338.4ZM1337.6 575.2L1344 588H1292.8C1248 504.8 1184 434.4 1094.4 376.8 1107.2 364 1113.6 351.2 1126.4 332 1139.2 351.2 1152 364 1171.2 376.8V344.8H1286.4V268H1126.4V223.2H1286.4V76C1286.4 50.4 1273.6 44 1254.4 44 1235.2 44 1209.6 44 1190.4 50.4 1196.8 31.2 1196.8 12 1196.8-0.8 1228.8-0.8 1248-0.8 1267.2-0.8 1312-0.8 1337.6 24.8 1337.6 69.6V223.2H1504V268H1337.6V344.8H1446.4V389.6H1190.4C1235.2 428 1280 479.2 1318.4 530.4 1363.2 460 1433.6 396 1516.8 344.8 1510.4 364 1523.2 376.8 1536 396 1446.4 440.8 1376 498.4 1337.6 575.2ZM1184 191.2C1158.4 133.6 1126.4 88.8 1088 50.4 1100.8 37.6 1113.6 31.2 1126.4 24.8 1158.4 69.6 1190.4 120.8 1222.4 172L1184 191.2ZM1113.6 248.8C1107.2 280.8 1088 319.2 1056 364 1068.8 408.8 1088 466.4 1107.2 530.4V568.8H928V-13.6H972.8V524H1049.6C1030.4 460 1017.6 402.4 998.4 351.2 1030.4 312.8 1049.6 274.4 1049.6 248.8 1062.4 197.6 1049.6 165.6 1024 165.6 1004.8 165.6 985.6 165.6 966.4 172 972.8 152.8 979.2 133.6 979.2 120.8 1004.8 120.8 1024 120.8 1043.2 120.8 1107.2 127.2 1126.4 172 1113.6 248.8ZM1369.6 159.2C1401.6 127.2 1440 82.4 1478.4 31.2L1516.8 63.2C1478.4 108 1440 146.4 1401.6 184.8L1369.6 159.2Z"  horiz-adv-x="1728" vert-adv-y="1024"  />

      
      <glyph glyph-name="uniE108" unicode="&#xE108;" d="M1184 114.4H1427.2V56.8H1184V114.4ZM1600 812H128C57.6 812 0 754.4 0 684V-84C0-154.4 57.6-212 128-212H1600C1670.4-212 1728-154.4 1728-84V684C1728 754.4 1670.4 812 1600 812ZM281.6 530.4H416C409.6 549.6 403.2 568.8 390.4 588L428.8 607.2C441.6 588 454.4 562.4 467.2 543.2L441.6 530.4H576V492H281.6V530.4ZM262.4 389.6H364.8C345.6 415.2 332.8 440.8 313.6 460L345.6 485.6C358.4 466.4 377.6 447.2 396.8 415.2L364.8 389.6H448C473.6 421.6 492.8 453.6 512 485.6L556.8 460C537.6 434.4 518.4 408.8 499.2 389.6H595.2V351.2H262.4V389.6ZM262.4 76C281.6 108 307.2 146.4 326.4 204L371.2 184.8C345.6 140 326.4 95.2 307.2 56.8 294.4 63.2 281.6 69.6 262.4 76ZM454.4 69.6C454.4 24.8 435.2 5.6 390.4 5.6 371.2 5.6 352 5.6 332.8 5.6 332.8 18.4 326.4 37.6 326.4 50.4 345.6 44 364.8 44 377.6 44 396.8 44 409.6 56.8 409.6 76V229.6H281.6V268H409.6V332H454.4V274.4H576V236H454.4V69.6ZM473.6 172L512 197.6C537.6 165.6 556.8 133.6 576 108L537.6 82.4C512 114.4 492.8 146.4 473.6 172ZM889.6 319.2H800V-7.2H755.2V319.2H665.6V287.2C665.6 159.2 633.6 56.8 576-13.6 563.2-0.8 556.8 12 544 24.8 595.2 82.4 627.2 172 627.2 287.2V549.6C710.4 549.6 793.6 556 864 575.2L883.2 524C800 511.2 729.6 504.8 672 504.8V364H902.4V319.2ZM921.6 63.2L902.4 114.4C928 120.8 953.6 127.2 985.6 140V396H908.8V440.8H985.6V594.4H1030.4V440.8H1094.4V396H1030.4V152.8C1056 159.2 1081.6 165.6 1107.2 178.4 1107.2 159.2 1107.2 140 1107.2 127.2 1056 108 992 88.8 921.6 63.2ZM1472-13.6H1427.2V18.4H1184V-13.6H1139.2V248.8H1472V-13.6ZM1497.6 280.8H1452.8V300H1158.4V280.8H1113.6V517.6H1222.4C1209.6 536.8 1190.4 562.4 1171.2 581.6L1209.6 607.2C1228.8 581.6 1248 556 1267.2 536.8L1235.2 517.6H1344C1363.2 543.2 1382.4 575.2 1401.6 607.2L1446.4 581.6C1427.2 556 1414.4 536.8 1395.2 517.6H1504V280.8ZM1158.4 338.4H1286.4V479.2H1158.4V338.4ZM1216 453.6C1235.2 428 1248 408.8 1267.2 383.2L1228.8 364C1216 383.2 1196.8 408.8 1184 428L1216 453.6ZM1331.2 338.4H1459.2V479.2H1331.2V338.4ZM1395.2 453.6L1433.6 434.4C1408 396 1395.2 376.8 1382.4 364L1350.4 383.2C1363.2 402.4 1376 428 1395.2 453.6ZM1184 210.4H1427.2V152.8H1184V210.4ZM576 530.4H441.6L460.8 543.2C448 562.4 435.2 588 422.4 607.2L390.4 588C403.2 568.8 409.6 549.6 422.4 530.4H281.6V492H576V530.4ZM576 268H454.4V332H409.6V274.4H281.6V236H409.6V82.4C409.6 63.2 396.8 50.4 377.6 50.4 364.8 50.4 345.6 50.4 320 56.8 320 37.6 326.4 24.8 326.4 12 352 12 371.2 12 384 12 428.8 12 448 31.2 448 76V229.6H576V268ZM512 197.6L473.6 172C492.8 146.4 512 114.4 531.2 82.4L569.6 108C556.8 140 531.2 165.6 512 197.6ZM659.2 504.8C716.8 511.2 787.2 517.6 870.4 524L851.2 575.2C780.8 562.4 704 549.6 614.4 549.6V287.2C614.4 172 588.8 82.4 531.2 24.8 544 12 556.8-0.8 563.2-13.6 627.2 56.8 652.8 159.2 652.8 287.2V319.2H742.4V-7.2H787.2V319.2H876.8V364H646.4V504.8ZM332.8 204C307.2 152.8 288 108 268.8 76 281.6 69.6 300.8 63.2 307.2 50.4 326.4 88.8 352 133.6 371.2 178.4L332.8 204ZM595.2 389.6H499.2C518.4 408.8 537.6 434.4 556.8 460L512 485.6C492.8 453.6 473.6 421.6 448 389.6H364.8L403.2 415.2C377.6 440.8 364.8 466.4 352 485.6L313.6 460C326.4 440.8 345.6 415.2 364.8 389.6H262.4V351.2H588.8V389.6ZM1433.6 434.4L1395.2 453.6C1382.4 421.6 1363.2 402.4 1350.4 376.8L1382.4 357.6C1388.8 370.4 1408 396 1433.6 434.4ZM1446.4 581.6L1401.6 607.2C1382.4 575.2 1363.2 543.2 1344 517.6H1241.6L1273.6 536.8C1260.8 556 1241.6 581.6 1216 607.2L1177.6 581.6C1196.8 562.4 1209.6 536.8 1228.8 517.6H1120V280.8H1164.8V300H1459.2V280.8H1504V517.6H1395.2C1408 536.8 1427.2 562.4 1446.4 581.6ZM1286.4 338.4H1158.4V479.2H1286.4V338.4ZM1459.2 479.2V338.4H1331.2V479.2H1459.2ZM1030.4 152.8V396H1094.4V440.8H1030.4V594.4H985.6V440.8H908.8V396H985.6V140C960 133.6 928 120.8 902.4 114.4L921.6 63.2C992 88.8 1056 108 1107.2 120.8 1107.2 133.6 1107.2 152.8 1107.2 172 1081.6 165.6 1056 159.2 1030.4 152.8ZM1260.8 383.2C1248 402.4 1235.2 428 1216 453.6L1184 428C1196.8 408.8 1216 383.2 1228.8 364L1260.8 383.2ZM1139.2-13.6H1184V18.4H1427.2V-13.6H1472V248.8H1139.2V-13.6ZM1184 210.4H1427.2V152.8H1184V210.4ZM1184 114.4H1427.2V56.8H1184V114.4Z"  horiz-adv-x="1728" vert-adv-y="1024"  />

      
      <glyph glyph-name="uniE109" unicode="&#xE109;" d="M1600 812H128C57.6 812 0 754.4 0 684V-84C0-154.4 57.6-212 128-212H1600C1670.4-212 1728-154.4 1728-84V684C1728 754.4 1670.4 812 1600 812ZM1068.8 607.2C1088 581.6 1100.8 556 1113.6 524L1068.8 498.4C1056 530.4 1036.8 556 1024 581.6L1068.8 607.2ZM915.2 498.4H1228.8V453.6H915.2V498.4ZM1132.8 434.4C1158.4 408.8 1190.4 370.4 1222.4 332L1184 300C1158.4 332 1126.4 370.4 1094.4 408.8L1132.8 434.4ZM1004.8 434.4L1043.2 408.8C1011.2 357.6 972.8 312.8 934.4 268 921.6 274.4 908.8 287.2 896 293.6 928 332 966.4 376.8 1004.8 434.4ZM851.2-7.2C710.4 44 620.8 120.8 582.4 223.2 550.4 127.2 454.4 50.4 307.2-13.6 300.8-0.8 288 12 268.8 31.2 422.4 82.4 518.4 159.2 544 255.2H275.2V306.4H550.4C550.4 332 556.8 376.8 556.8 434.4H390.4C371.2 402.4 352 370.4 326.4 338.4 320 344.8 307.2 351.2 288 364 339.2 428 371.2 498.4 396.8 575.2L448 562.4C441.6 536.8 428.8 504.8 416 479.2H556.8C556.8 517.6 556.8 556 556.8 600.8H608C608 556 608 517.6 608 479.2H844.8V434.4H608C608 383.2 608 344.8 601.6 306.4H876.8V261.6H608C646.4 159.2 742.4 82.4 883.2 50.4 876.8 24.8 864 12 851.2-7.2ZM1088 133.6C1043.2 76 992 31.2 934.4-7.2 928 5.6 915.2 18.4 902.4 31.2 966.4 63.2 1017.6 114.4 1056 172 1024 204 992 236 966.4 268L998.4 300C1024 274.4 1056 248.8 1081.6 216.8 1100.8 248.8 1113.6 280.8 1132.8 312.8L1177.6 287.2C1158.4 248.8 1139.2 210.4 1120 178.4 1152 146.4 1177.6 114.4 1209.6 88.8L1164.8 50.4C1139.2 76 1113.6 108 1088 133.6ZM1504-13.6C1452.8 18.4 1408 63.2 1369.6 108 1331.2 63.2 1286.4 18.4 1228.8-20 1222.4-7.2 1209.6 5.6 1190.4 18.4 1254.4 56.8 1299.2 108 1337.6 152.8 1299.2 216.8 1280 287.2 1267.2 370.4 1254.4 351.2 1248 338.4 1235.2 319.2 1228.8 332 1216 344.8 1203.2 357.6 1254.4 428 1286.4 504.8 1299.2 600.8L1350.4 594.4C1344 556 1337.6 517.6 1324.8 485.6H1523.2V440.8H1478.4C1465.6 319.2 1440 223.2 1401.6 152.8 1433.6 108 1478.4 63.2 1536 31.2 1523.2 18.4 1510.4-0.8 1504-13.6ZM1305.6 440.8C1312 351.2 1331.2 268 1369.6 204 1401.6 268 1427.2 344.8 1427.2 440.8H1305.6ZM608 261.6H876.8V306.4H608C608 338.4 608 383.2 614.4 434.4H851.2V479.2H608C608 517.6 608 556 608 600.8H563.2C563.2 556 563.2 517.6 563.2 479.2H416C428.8 504.8 441.6 536.8 448 562.4L403.2 575.2C377.6 498.4 339.2 428 288 364 307.2 351.2 320 344.8 332.8 332 358.4 364 377.6 396 396.8 428H563.2C563.2 370.4 563.2 332 556.8 300H275.2V255.2H544C512 159.2 422.4 82.4 268.8 31.2 288 12 300.8-7.2 307.2-13.6 460.8 50.4 550.4 127.2 582.4 223.2 620.8 120.8 710.4 44 851.2-7.2 864 12 876.8 24.8 889.6 44 742.4 82.4 652.8 152.8 608 261.6ZM1222.4 332C1190.4 370.4 1158.4 408.8 1132.8 434.4L1100.8 408.8C1132.8 370.4 1164.8 332 1190.4 300L1222.4 332ZM915.2 498.4H1228.8V453.6H915.2V498.4ZM1401.6 152.8C1440 223.2 1472 319.2 1478.4 440.8H1523.2V485.6H1324.8C1337.6 517.6 1344 556 1356.8 594.4L1305.6 600.8C1286.4 504.8 1254.4 428 1209.6 357.6 1222.4 344.8 1235.2 332 1241.6 319.2 1254.4 332 1260.8 351.2 1273.6 370.4 1280 287.2 1305.6 216.8 1344 152.8 1305.6 101.6 1254.4 56.8 1196.8 18.4 1209.6 5.6 1222.4-7.2 1235.2-20 1292.8 18.4 1337.6 63.2 1376 108 1408 63.2 1452.8 18.4 1510.4-13.6 1516.8-0.8 1529.6 18.4 1542.4 37.6 1478.4 69.6 1433.6 108 1401.6 152.8ZM1305.6 440.8H1427.2C1420.8 351.2 1401.6 268 1369.6 204 1337.6 268 1312 351.2 1305.6 440.8ZM1043.2 408.8L1004.8 434.4C966.4 376.8 934.4 332 902.4 293.6 915.2 280.8 928 274.4 940.8 268 972.8 312.8 1011.2 357.6 1043.2 408.8ZM1120 178.4C1139.2 210.4 1158.4 248.8 1177.6 287.2L1132.8 312.8C1120 274.4 1100.8 242.4 1081.6 216.8 1056 242.4 1024 268 998.4 300L966.4 268C992 236 1024 204 1056 172 1011.2 114.4 960 69.6 902.4 31.2 915.2 12 928-0.8 934.4-7.2 992 31.2 1043.2 76 1088 133.6 1113.6 108 1139.2 76 1164.8 50.4L1209.6 88.8C1177.6 114.4 1145.6 146.4 1120 178.4ZM1113.6 524C1100.8 556 1088 581.6 1068.8 607.2L1024 588C1036.8 562.4 1056 536.8 1068.8 504.8L1113.6 524Z"  horiz-adv-x="1728" vert-adv-y="1024"  />

      
      <glyph glyph-name="uniE10A" unicode="&#xE10A;" d="M192 343H832V279H192V343ZM543.9 88.2L542.9-34H542.6 541.6 478.9L479.9 88.2 351.9 88.8 512.5 222 671.9 87.6 543.9 88.2ZM669 530.4L509.6 396 349 529.1 477 529.7 476 652H538.7 539.7 540L541 530.1 669 530.4Z"  horiz-adv-x="1024" vert-adv-y="1024"  />

      
      <glyph glyph-name="uniE10B" unicode="&#xE10B;" d="M156.6517 14.6571C211.0276 15.1099 255.4615-28.5554 255.934-82.9304 256.3868-137.3053 212.701-181.7581 158.3448-182.2109 103.9886-182.6637 59.535-138.9787 59.0625-84.6234L59.0625-84.6234 59.0625-83.7769C59.0625-29.7563 102.6105 14.2043 156.6517 14.6571ZM156.6517 383.7977C211.0276 384.2505 255.4615 340.5852 255.934 286.2103 256.3868 231.8353 212.701 187.3825 158.3448 186.9297 103.9886 186.4769 59.535 230.1619 59.0625 284.5172L59.0625 284.5172 59.0625 285.3637C59.0625 339.3843 102.6105 383.345 156.6517 383.7977ZM156.6517 752.9384C211.0276 753.3912 255.4615 709.7258 255.934 655.3509 256.3868 600.9759 212.701 556.5231 158.3448 556.0704 103.9886 555.6176 59.535 599.3026 59.0625 653.6578L59.0625 653.6578 59.0625 654.5044C59.0625 708.5249 102.6105 752.4856 156.6517 752.9384Z"  horiz-adv-x="315" vert-adv-y="1024"  />

      
      <glyph glyph-name="uniE10C" unicode="&#xE10C;" d="M128 812H1536C1606.4 812 1664 754.4 1664 684V-84C1664-154.4 1606.4-212 1536-212H128C57.6-212 0-154.4 0-84V684C0 754.4 57.6 812 128 812ZM204.8 50.4H492.8V95.2H249.6V133.6H486.4V184.8H320V159.2H275.2V396H486.4V447.2H211.2V485.6H492.8V530.4C416 530.4 332.8 530.4 256 524 256 536.8 249.6 549.6 249.6 568.8 460.8 568.8 633.6 575.2 761.6 588L768 543.2C691.2 536.8 614.4 536.8 537.6 530.4V479.2H819.2V440.8H537.6V396H748.8V159.2H704V184.8H537.6V133.6H774.4V95.2H537.6V50.4H819.2V12H204.8V50.4ZM320 312.8H486.4V364H320V312.8ZM320 223.2H486.4V274.4H320V223.2ZM704 364H537.6V312.8H704V364ZM537.6 223.2H704V274.4H537.6V223.2ZM838.4 428C896 472.8 947.2 536.8 985.6 607.2H1043.2C1030.4 588 1024 568.8 1011.2 556H1452.8V517.6H985.6C972.8 504.8 960 485.6 953.6 472.8H1395.2V242.4H1344V255.2H979.2V236H934.4V453.6C915.2 428 889.6 408.8 870.4 389.6 864 402.4 851.2 415.2 838.4 428ZM838.4 101.6C915.2 140 979.2 184.8 1024 242.4H1081.6C1075.2 229.6 1062.4 216.8 1056 210.4H1395.2V172C1356.8 133.6 1305.6 101.6 1241.6 76 1305.6 56.8 1382.4 44 1472 37.6 1459.2 18.4 1452.8-0.8 1440-13.6 1337.6-0.8 1254.4 18.4 1177.6 50.4 1100.8 24.8 1011.2-0.8 908.8-20 902.4-7.2 889.6 5.6 883.2 24.8 985.6 44 1068.8 56.8 1126.4 76 1081.6 101.6 1043.2 127.2 1011.2 152.8 972.8 114.4 928 88.8 883.2 63.2 864 76 851.2 88.8 838.4 101.6ZM1344 434.4H979.2V383.2H1344V434.4ZM979.2 293.6H1344V344.8H979.2V293.6ZM1318.4 172H1036.8C1075.2 140 1120 114.4 1177.6 95.2 1235.2 120.8 1280 146.4 1318.4 172Z"  horiz-adv-x="1664" vert-adv-y="1024"  />

      
      <glyph glyph-name="uniE11A" unicode="&#xE11A;" d="M511.991 812L298.6532 598.6667 469.3021 598.6667 469.3021 342.6667 213.3181 342.6667 213.3181 513.3547-0.0197 300.0213 213.3181 86.688 213.3181 257.3333 469.3021 257.3333 469.3021 1.3333 298.6532 1.3333 511.991-212 725.3288 1.3333 554.6585 1.3333 554.6585 257.3333 810.6425 257.3333 810.6425 86.688 1023.9803 300.0213 810.6425 513.3547 810.6425 342.6667 554.6585 342.6667 554.6585 598.6667 725.3288 598.6667Z"  horiz-adv-x="1024" vert-adv-y="1024"  />

      
      <glyph glyph-name="uniE11B" unicode="&#xE11B;" d="M832-212L0 812 182.08 812 832 812 1481.92 812 1664 812Z"  horiz-adv-x="1664" vert-adv-y="1024"  />

      
      <glyph glyph-name="uniE119" unicode="&#xE119;" d="M630 300.125L0-211.75 0-99.7281 0 300.125 0 699.9781 0 812Z"  horiz-adv-x="630" vert-adv-y="1024"  />

      
      <glyph glyph-name="uniE11D" unicode="&#xE11D;" d="M877.7 692C896.1 692 911 677.1 911 658.7L911 658.7V58.7C911 40.3 896.1 25.4 877.7 25.4L877.7 25.4H777.7V-74.6C777.7-93 762.8-107.9 744.4-107.9L744.4-107.9H144.4C126-107.9 111.1-93 111.1-74.6L111.1-74.6V525.4C111.1 543.8 126 558.7 144.4 558.7L144.4 558.7H244.4V658.7C244.4 677.1 259.3 692 277.7 692L277.7 692H877.7ZM711 492H177.7V-41.3H711V492ZM620.1 146.5V73.8H256.5V146.5H620.1ZM844.3 625.3H311V558.6H744.3C762.7 558.6 777.6 543.7 777.6 525.3L777.6 525.3V92H844.3V625.3ZM620.1 255.6V182.9H256.5V255.6H620.1ZM620.1 364.7V292H256.5V364.7H620.1Z"  horiz-adv-x="1024" vert-adv-y="1024"  />

      
      <glyph glyph-name="uniE11E" unicode="&#xE11E;" d="M932.6696 300.5714C932.6696 324.5714 930.5179 348 926.3339 370.7429L1024 452.8C1014.4366 482.4 1002.0042 510.8571 987.3005 537.8286L965.0656 574.5143C947.9711 600.3429 928.4856 624.5714 906.968 647.0857L784.0784 607.4286C746.3031 638.1714 702.6701 662.5143 655.0922 678.9714L629.6297 800.6857C603.0913 806.4 575.7161 810.1714 547.8627 812L475.8982 812C448.4035 810.2857 421.626 806.5143 395.4462 801.0286L369.9837 679.4286C322.0472 662.9714 278.1751 638.5143 240.0411 607.6571L117.1515 647.4286C99.4593 629.1429 83.321 609.4857 68.4978 588.9143L28.4511 522.6286C17.3336 500.4571 7.7703 477.4857 0 453.7143L97.5466 371.7714C93.2431 348.6857 90.9717 324.9143 90.9717 300.6857 90.9717 276.1143 93.2431 252 97.6661 228.6857L0.2391 146.7429C8.8461 120.4571 19.7245 95.0857 32.396 70.8571L63.477 19.4286C79.7348-4.1143 97.9052-26.4 117.8688-47.0857L240.9974-7.3143C278.7728-37.7143 322.2862-61.8286 369.625-78.1714L395.0876-199.7714C432.6239-207.7714 471.7142-212 511.7609-212 552.2858-212 591.7348-207.6571 629.7492-199.5429L655.2118-77.7143C702.1919-61.3714 745.3467-37.3714 782.883-7.0857L905.8921-46.8571C958.9689 8.1143 999.6134 74.2857 1023.5218 147.4286L926.0948 229.3714C930.3983 252.4571 932.6696 276.2286 932.6696 300.5714ZM511.8805 483.4286C617.5559 483.4286 703.1483 401.6 703.1483 300.5714 703.1483 199.5429 617.5559 117.7143 511.8805 117.7143 406.205 117.7143 320.6127 199.5429 320.6127 300.5714 320.6127 401.6 406.205 483.4286 511.8805 483.4286ZM511.8805 410.2857C448.4999 410.2857 397.1198 361.165 397.1198 300.5714 397.1198 239.9779 448.4999 190.8571 511.8805 190.8571 575.261 190.8571 626.6411 239.9779 626.6411 300.5714 626.6411 361.165 575.261 410.2857 511.8805 410.2857Z"  horiz-adv-x="1024" vert-adv-y="1024"  />

      
      <glyph glyph-name="uniE120" unicode="&#xE120;" d="M630 300.125L113.2031-211.75 0-99.7281 403.5938 300.125 0 699.9781 113.2031 812Z"  horiz-adv-x="630" vert-adv-y="1024"  />

      
      <glyph glyph-name="uniE121" unicode="&#xE121;" d="M832-212L0 627.9466 182.312 812 832 156.1067 1481.688 812 1664 627.9466Z"  horiz-adv-x="1664" vert-adv-y="1024"  />

      
      <glyph glyph-name="uniE122" unicode="&#xE122;" d="M977.0006 812L46.9994 812C7.6609 812-14.2056 770.592 10.3703 742.6453L404.1392 294.688C404.5018 294.2827 404.9711 294.0053 405.3338 293.6213L405.3338-212 618.6662-101.6213 618.6662 293.6213C619.0289 294.0053 619.4982 294.2827 619.8608 294.688L1013.6297 742.6453C1038.2056 770.592 1016.3391 812 977.0006 812"  horiz-adv-x="1024" vert-adv-y="1024"  />

      
      <glyph glyph-name="uniE123" unicode="&#xE123;" d="M324 812L0 393.4354 648 393.4354ZM0 207.4067L323.9894-211.1579 648 207.4067Z"  horiz-adv-x="648" vert-adv-y="1024"  />

      
      <glyph glyph-name="uniE129" unicode="&#xE129;" d="M100.5293 354.5117H211.2715V243.7695H100.5293V354.5117ZM100.5293 533.4219H211.2715V422.6797H100.5293V533.4219ZM100.5293 175.6016H211.2715V64.8594H100.5293V175.6016ZM100.5293-3.2778H211.2715V-114.02H100.5293V-3.2778ZM100.5293 712.332H211.2715V601.5898H100.5293V712.332Z"  horiz-adv-x="315" vert-adv-y="1024"  />

      
      <glyph glyph-name="uniE12B" unicode="&#xE12B;" d="M191.9864 684C156.6402 684 127.9864 655.3462 127.9864 620L127.9864-20C127.9864-55.3462 156.6402-84 191.9864-84L383.9864-84 383.9864-20 191.9864-20 191.9864 620 831.9864 620 831.9864 428 895.9864 428 895.9864 620C895.9864 655.3462 867.3326 684 831.9864 684L191.9864 684ZM661.216 347.4419L661.216 177.5219 305.3633 177.5041 305.3633 116.4132 661.216 116.4339 661.216-36.5581 981.216 155.4419 661.216 347.4419Z"  horiz-adv-x="1024" vert-adv-y="1024"  />

      
      <glyph glyph-name="uniE12D" unicode="&#xE12D;" d="M160 780H864C934.4 780 992 722.4 992 652V-52C992-122.4 934.4-180 864-180H160C89.6-180 32-122.4 32-52V652C32 722.4 89.6 780 160 780ZM864-212H160C70.4-212 0-141.6 0-52V652C0 741.6 70.4 812 160 812H864C953.6 812 1024 741.6 1024 652V-52C1024-141.6 953.6-212 864-212ZM160 748C108.8 748 64 703.2 64 652V-52C64-103.2 108.8-148 160-148H864C915.2-148 960-103.2 960-52V652C960 703.2 915.2 748 864 748H160ZM704 261.6V287.2H537.6V44H723.2V216.8H774.4V-32.8H723.2V-7.2H249.6V216.8H300.8V37.6H480V287.2H268.8V511.2H320V332H480V568.8H531.2V332H704V511.2H755.2V261.6H704Z"  horiz-adv-x="1024" vert-adv-y="1024"  />

      
      <glyph glyph-name="uniE131" unicode="&#xE131;" d="M512.1411 748C545.4264 748 578.8052 744.156 585.9983 743 600.8098 740.5 612.6189 729.1 615.6212 714.4L628.3311 651C630.6329 639.4 638.539 629.5 649.5475 624.9 676.8687 613.4 702.3884 598.6 725.6064 580.9 735.2138 573.7 747.7235 571.7 759.0323 575.5L820.0796 596.1C834.3907 600.9 850.2029 596.3 859.7103 584.7 871.2192 570.6 881.9275 555.8 891.7351 540.3L910.3495 508.2C918.8561 491.9 926.462 475 932.967 457.5 938.171 443.5 934.0678 427.8 922.8592 417.9L874.0213 375C865.0144 367.1 860.611 355.3 862.012 343.4 863.6133 329.4 864.514 315.1 864.514 300.6 864.514 285.8 863.6133 271.2 861.8119 256.9 860.4108 245 864.8142 233.1 873.8212 225.2L922.3588 182.5C933.6675 172.6 937.6706 156.8 932.3665 142.7 914.853 96.1 889.7335 53.2 858.6094 15.5 849.1021 3.9 833.3899-0.5 819.1789 4.3L757.8314 25C746.5226 28.8 734.0129 26.7 724.4055 19.5 701.5878 2.3 676.5684-12.3 649.8477-23.6 638.7391-28.3 630.7329-38.1 628.4312-49.8L615.7213-113.3C612.719-128 601.0099-139.4 586.1984-141.9 562.0798-145.9 537.3606-148 512.1411-148 487.3219-148 462.903-146 439.1846-142.1 424.3731-139.6 412.564-128.2 409.6617-113.5L396.9519-50.2C394.6501-38.6 386.744-28.7 375.7355-24.1 348.7145-12.7 323.2948 2 300.1769 19.4 290.5695 26.6 278.0598 28.6 266.7511 24.8L205.3035 4C191.0925-0.8 175.3803 3.7 165.8729 15.2 160.9414 21.1522 140.8355 44.2594 124.7144 71.9959 113.4333 91.405 102.5672 114.8064 92.1158 142.2 86.8117 156.3 90.8148 172.1 102.1236 182L150.6611 224.6C159.6681 232.5 164.1716 244.3 162.6705 256.1 160.769 270.6 159.8683 285.5 159.8683 300.6 159.8683 315.3 160.769 329.8 162.5704 344.1 164.0715 356 159.568 367.9 150.5611 375.8L101.9234 418.5C90.6146 428.4 86.6115 444.2 91.9157 458.3 96.4191 470.3 101.423 482 106.8272 493.4 107.2275 494.3 107.7279 495.1 108.2283 496L140.2531 551.4C140.7535 552.3 141.2539 553.2 141.8543 554 149.2601 564.6 156.966 574.9 165.1724 584.9 174.6798 596.5 190.492 601 204.703 596.2L265.8504 575.5C277.2592 571.7 289.7689 573.7 299.3763 581 322.8945 598.8 348.5144 613.7 376.0357 625.2 387.0442 629.8 395.0504 639.6 397.3522 651.3L409.962 714.5C412.8642 729.3 424.6734 740.7 439.5849 743.1 446.3544 744.1942 479.2034 748 512.1411 748ZM540.1628 684L483.619 684 480.8168 683.8C473.7113 683.2 467.9068 678 466.5058 671.1L456.1978 619.5 450.8937 592.8C449.7928 587.4 445.8898 582.9 440.6858 581L414.9658 571.8C382.4406 560.2 352.5175 542.9 325.9969 520.5L305.1808 502.9C300.9776 499.3 295.1731 498.2 289.869 500L264.049 508.7 214.0102 525.6C207.305 527.9 199.8993 525.5 195.8962 519.7 195.7961 519.6 195.696 519.4 195.5959 519.3L194.8954 518.1 164.5719 465.6C164.3718 465.2 164.1716 464.8 163.9715 464.4L162.964 461.5959C161.5022 455.8898 163.3281 449.7429 167.8745 445.8L207.7053 410.8 228.1211 392.9C232.2243 389.2 234.2259 383.7 233.2251 378.2L228.5214 351.5C225.5191 334.8 224.018 317.6 224.018 300.5 224.018 283.1 225.5191 265.7 228.6215 248.8L233.4252 222C234.426 216.6 232.5245 211 228.3213 207.3L207.8054 189.3 168.2748 154.5C162.9707 149.8 161.4695 142.2 164.4718 135.8L167.274 130.1C167.4742 129.8 167.5742 129.5 167.7744 129.2L191.2926 88.5C191.4928 88.2 191.6929 87.9 191.8931 87.6 193.3942 85.2 195.0956 82.8 196.6968 80.5 200.6999 74.8 208.0056 72.4 214.7108 74.6L265.2499 91.6 290.8697 100.3C296.0738 102.1 301.9783 101 306.1816 97.4L326.9977 80C353.218 57.9 382.941 40.8 415.0659 29.3L440.6858 20.1C445.8898 18.2 449.7928 13.8 450.8937 8.3L456.1978-18.4 466.5058-70C467.8068-77 473.7113-82.1 480.8168-82.7 491.325-83.6 501.8331-84 512.3412-84 523.2497-84 534.1581-83.5 544.9665-82.6 551.9719-82 557.7764-76.8 559.1775-69.9L569.5856-17.9 574.8897 8.7C575.9905 14.1 579.7935 18.6 584.9975 20.5L610.5173 29.8C642.442 41.4 671.8648 58.4 697.985 80.4L718.8011 97.9C723.0044 101.5 728.8089 102.6 734.113 100.8L759.8329 92.1 810.0718 75.1C816.777 72.8 824.1828 75.2 828.1859 81 834.2906 89.7 839.995 98.6 845.2991 107.8 850.8034 117.3 855.9073 126.9 860.5109 136.7 863.5132 143.1 861.912 150.7 856.6079 155.4L816.777 190.3 796.3612 208.2C792.258 211.9 790.2565 217.4 791.2573 222.9L795.9609 249.6C798.9632 266.3 800.4644 283.4 800.4644 300.6 800.4644 317.5 798.9632 334.4 796.061 350.9L791.3573 377.5C790.4566 383 792.3581 388.5 796.5614 392.2L816.8771 410 856.7079 444.8C862.012 449.5 863.6133 457 860.611 463.4 858.5093 468 856.3076 472.6 853.9058 477.1L836.6924 506.9C834.0904 511 831.3883 515.1 828.5862 519.1 824.5831 524.9 817.1773 527.4 810.4721 525.1L760.4334 508.2 734.6134 499.5C729.4094 497.7 723.5048 498.8 719.3015 502.4L698.4854 520C672.165 542.3 642.5421 559.5 610.217 571.2L584.6973 580.5C579.4933 582.4 575.6903 586.9 574.5895 592.3L569.2853 619 558.8773 670.9C557.4762 677.8 551.6717 683 544.6663 683.6 543.1651 683.8 541.664 683.9 540.1628 684ZM512.2412 460.5C600.7097 460.5 672.3652 388.9 672.3652 300.5 672.3652 212.1 600.7097 140.5 512.2412 140.5 423.7727 140.5 352.1172 212.1 352.1172 300.5 352.1172 388.9 423.7727 460.5 512.2412 460.5ZM512.2412 396.5C459.3002 396.5 416.1668 353.4 416.1668 300.5 416.1668 247.6 459.3002 204.5 512.2412 204.5 565.1822 204.5 608.3156 247.6 608.3156 300.5 608.3156 353.4 565.1822 396.5 512.2412 396.5Z"  horiz-adv-x="1024" vert-adv-y="1024"  />

      
      <glyph glyph-name="uniE132" unicode="&#xE132;" d="M729.5 350.6C706.7 350.6 689.3 344.6 676.1 331.4 663.5 318.8 655.1 300.2 650.9 275.6H810.5C804.5 326 777.5 350.6 729.5 350.6ZM1222.1 350.6C1199.3 350.6 1181.9 344.6 1168.7 331.4 1156.1 318.8 1147.7 300.2 1143.5 275.6H1303.1C1297.1 326 1270.1 350.6 1222.1 350.6ZM313.1 456.2H239.9V147.8H313.1C366.5 147.8 405.5 160.4 430.1 185 454.1 210.2 466.1 249.2 466.1 302 466.1 356 454.1 395.6 430.1 419.6 405.5 444.2 366.5 456.2 313.1 456.2ZM1779.5 350.6C1756.7 350.6 1739.3 344.6 1726.1 331.4 1713.5 318.8 1705.1 300.2 1700.9 275.6H1860.5C1854.5 326 1827.5 350.6 1779.5 350.6ZM1956.3 812H157.2C71.2 812 0.8 754.4 0.8 684V-84C0.8-154.4 71.2-212 157.2-212H1956.3C2042.3-212 2112.7-154.4 2112.7-84V684C2112.8 754.4 2042.4 812 1956.3 812ZM484.1 145.4C448.1 107 395.9 87.8 326.3 87.8H169.7V516.2H326.3C395.9 516.2 448.1 497 484.1 458.6 518.3 422.6 535.7 370.4 535.7 302 535.7 234.2 518.3 182 484.1 145.4ZM673.1 158C686.3 143 705.5 135.2 730.1 135.2 751.1 135.2 767.9 140 781.1 149.6 791.3 157.4 800.3 170 808.7 187.4H877.1C869.9 158.6 855.5 134 833.9 114.8 806.3 91.4 772.1 79.4 730.7 79.4 684.5 79.4 647.9 93.8 620.9 122 592.1 151.4 577.7 191.6 577.7 243.2 577.7 289.4 590.9 327.8 618.5 359 644.9 390.8 681.5 406.4 727.7 406.4 778.7 406.4 817.7 389.6 844.7 354.8 869.3 323.6 881.9 279.8 881.9 224H649.7C652.1 195.2 659.9 173 673.1 158ZM1010.3 87.8H941.9V524.6H1010.3V87.8ZM1165.7 158C1178.9 143 1198.1 135.2 1222.7 135.2 1243.7 135.2 1260.5 140 1273.7 149.6 1283.9 157.4 1292.9 170 1301.3 187.4H1369.7C1362.5 158.6 1348.1 134 1326.5 114.8 1298.9 91.4 1264.7 79.4 1223.3 79.4 1177.1 79.4 1140.5 93.8 1113.5 122 1084.7 151.4 1070.3 191.6 1070.3 243.2 1070.3 289.4 1083.5 327.8 1111.1 359 1137.5 390.8 1174.1 406.4 1220.3 406.4 1271.3 406.4 1310.3 389.6 1337.3 354.8 1361.9 323.6 1374.5 279.8 1374.5 224H1142.3C1144.7 195.2 1152.5 173 1165.7 158ZM1594.7 341.6H1525.7V166.4C1525.7 159.2 1526.9 153.8 1530.5 149.6 1534.1 146 1538.9 144.2 1546.1 144.2H1586.9V87.8H1534.7C1507.7 87.8 1487.9 95 1475.3 109.4 1463.3 122.6 1457.3 141.2 1457.3 166.4V341.6H1401.5V398H1457.3V470L1525.7 498.2V398H1594.7V341.6ZM1723.1 158C1736.3 143 1755.5 135.2 1780.1 135.2 1801.1 135.2 1817.9 140 1831.1 149.6 1841.3 157.4 1850.3 170 1858.7 187.4H1927.1C1919.9 158.6 1905.5 134 1883.9 114.8 1856.3 91.4 1822.1 79.4 1780.7 79.4 1734.5 79.4 1697.9 93.8 1670.9 122 1642.1 151.4 1627.7 191.6 1627.7 243.2 1627.7 289.4 1640.9 327.8 1668.5 359 1694.9 390.8 1731.5 406.4 1777.7 406.4 1828.7 406.4 1867.7 389.6 1894.7 354.8 1919.3 323.6 1931.9 279.8 1931.9 224H1699.7C1702.1 195.2 1709.9 173 1723.1 158ZM326.3 516.2H169.7V87.8H326.3C395.9 87.8 448.1 107 484.1 145.4 518.3 182 535.7 234.2 535.7 302 535.7 370.4 518.3 422.6 484.1 458.6 448.1 497 395.9 516.2 326.3 516.2ZM430.1 185C405.5 160.4 366.5 147.8 313.1 147.8H239.9V456.2H313.1C366.5 456.2 405.5 444.2 430.1 419.6 454.1 395.6 466.1 356 466.1 302 466.1 249.2 454.1 210.2 430.1 185ZM844.7 354.8C817.7 389.6 778.7 406.4 727.7 406.4 681.5 406.4 644.9 390.8 618.5 359 590.9 327.8 577.7 289.4 577.7 243.2 577.7 191.6 592.1 151.4 620.9 122 647.9 93.8 684.5 79.4 730.7 79.4 772.1 79.4 806.3 91.4 833.9 114.8 855.5 134 869.9 158.6 877.1 187.4H808.7C800.3 170 791.3 157.4 781.1 149.6 767.9 140 751.1 135.2 730.1 135.2 705.5 135.2 686.3 143 673.1 158 659.9 173 652.1 195.2 649.7 224H881.9C881.9 279.8 869.3 323.6 844.7 354.8ZM650.9 275.6C655.1 300.2 663.5 318.8 676.1 331.4 689.3 344.6 706.7 350.6 729.5 350.6 777.5 350.6 804.5 326 810.5 275.6H650.9ZM941.9 524.6H1010.3V87.8H941.9V524.6ZM1337.3 354.8C1310.3 389.6 1271.3 406.4 1220.3 406.4 1174.1 406.4 1137.5 390.8 1111.1 359 1083.5 327.8 1070.3 289.4 1070.3 243.2 1070.3 191.6 1084.7 151.4 1113.5 122 1140.5 93.8 1177.1 79.4 1223.3 79.4 1264.7 79.4 1298.9 91.4 1326.5 114.8 1348.1 134 1362.5 158.6 1369.7 187.4H1301.3C1292.9 170 1283.9 157.4 1273.7 149.6 1260.5 140 1243.7 135.2 1222.7 135.2 1198.1 135.2 1178.9 143 1165.7 158S1144.7 195.2 1142.3 224H1374.5C1374.5 279.8 1361.9 323.6 1337.3 354.8ZM1143.5 275.6C1147.7 300.2 1156.1 318.8 1168.7 331.4 1181.9 344.6 1199.3 350.6 1222.1 350.6 1270.1 350.6 1297.1 326 1303.1 275.6H1143.5ZM1525.7 498.2L1457.3 470V398H1401.5V341.6H1457.3V166.4C1457.3 141.2 1463.3 122.6 1475.3 109.4 1487.9 95 1507.7 87.8 1534.7 87.8H1586.9V144.2H1546.1C1538.9 144.2 1534.1 146 1530.5 149.6 1526.9 153.8 1525.7 159.2 1525.7 166.4V341.6H1594.7V398H1525.7V498.2ZM1894.7 354.8C1867.7 389.6 1828.7 406.4 1777.7 406.4 1731.5 406.4 1694.9 390.8 1668.5 359 1640.9 327.8 1627.7 289.4 1627.7 243.2 1627.7 191.6 1642.1 151.4 1670.9 122 1697.9 93.8 1734.5 79.4 1780.7 79.4 1822.1 79.4 1856.3 91.4 1883.9 114.8 1905.5 134 1919.9 158.6 1927.1 187.4H1858.7C1850.3 170 1841.3 157.4 1831.1 149.6 1817.9 140 1801.1 135.2 1780.1 135.2 1755.5 135.2 1736.3 143 1723.1 158S1702.1 195.2 1699.7 224H1931.9C1931.9 279.8 1919.3 323.6 1894.7 354.8ZM1700.9 275.6C1705.1 300.2 1713.5 318.8 1726.1 331.4 1739.3 344.6 1756.7 350.6 1779.5 350.6 1827.5 350.6 1854.5 326 1860.5 275.6H1700.9Z"  horiz-adv-x="2112" vert-adv-y="1024"  />

      
      <glyph glyph-name="uniE133" unicode="&#xE133;" d="M383 440.6L315.2 252.8 452.6 252.8 385.4 440.6ZM768.2 351.2C737 351.2 714.8 341 700.4 320.6 687.8 303.2 681.8 278 681.8 244.4S687.2 185 699.2 167C713 145.4 735.2 134.6 765.8 134.6 792.2 134.6 813.2 145.4 827.6 166.4 840.2 185.6 846.8 210.8 846.8 240.8V245.6C846.8 278.6 838.4 305 822.8 324.2 808.4 342.2 789.8 351.2 768.2 351.2ZM1346.2 812H107.6C48.3 812-0.1 754.4-0.1 684V-84C-0.1-154.4 48.4-212 107.6-212H1346.2C1405.4-212 1453.9-154.4 1453.9-84V684C1453.9 754.4 1405.4 812 1346.2 812ZM512.6 87.8L473.6 195.2H294.2L255.2 87.8H180.2L344 516.2H423.8L587.6 87.8H512.6ZM912.8 87.8H849.2V120.8C827.6 93.2 796.4 79.4 755.6 79.4 709.4 79.4 673.4 95.6 647.6 128 623.6 158 611.6 197 611.6 244.4 611.6 290 623 327.8 647 357.8 672.2 390.2 707.6 406.4 752 406.4 788 406.4 818.6 389.6 844.4 355.4V524.6H912.8V87.8ZM1273.9 87.8H1210.3V120.8C1188.7 93.2 1157.5 79.4 1116.7 79.4 1070.5 79.4 1034.5 95.6 1008.7 128 984.7 158 972.7 197 972.7 244.4 972.7 290 984.1 327.8 1008.1 357.8 1033.3 390.2 1068.7 406.4 1113.1 406.4 1149.1 406.4 1179.7 389.6 1205.5 355.4V524.6H1273.9V87.8ZM1129.3 351.2C1098.1 351.2 1075.9 341 1061.5 320.6 1048.9 303.2 1042.9 278 1042.9 244.4S1048.3 185 1060.3 167C1074.1 145.4 1096.3 134.6 1126.9 134.6 1153.3 134.6 1174.3 145.4 1188.7 166.4 1201.3 185.6 1207.9 210.8 1207.9 240.8V245.6C1207.9 278.6 1199.5 305 1183.9 324.2 1169.5 342.2 1150.9 351.2 1129.3 351.2ZM344 516.2L180.2 87.8H255.2L294.2 195.2H473.6L512.6 87.8H587.6L423.8 516.2H344ZM315.2 252.8L383 440.6H385.4L452.6 252.8H315.2ZM844.4 355.4C818.6 389.6 788 406.4 752 406.4 707.6 406.4 672.2 390.2 647 357.8 623 327.8 611.6 290 611.6 244.4 611.6 197 623.6 158 647.6 128 673.4 95.6 709.4 79.4 755.6 79.4 796.4 79.4 827.6 93.2 849.2 120.8V87.8H912.8V524.6H844.4V355.4ZM846.8 240.8C846.8 210.8 840.2 185.6 827.6 166.4 813.2 145.4 792.2 134.6 765.8 134.6 735.2 134.6 713 145.4 699.2 167 687.2 185 681.8 210.8 681.8 244.4S687.8 303.2 700.4 320.6C714.8 341 737 351.2 768.2 351.2 789.8 351.2 808.4 342.2 822.8 324.2 838.4 305 846.8 278.6 846.8 245.6V240.8ZM1205.5 355.4C1179.7 389.6 1149.1 406.4 1113.1 406.4 1068.7 406.4 1033.3 390.2 1008.1 357.8 984.1 327.8 972.7 290 972.7 244.4 972.7 197 984.7 158 1008.7 128 1034.5 95.6 1070.5 79.4 1116.7 79.4 1157.5 79.4 1188.7 93.2 1210.3 120.8V87.8H1273.9V524.6H1205.5V355.4ZM1207.9 240.8C1207.9 210.8 1201.3 185.6 1188.7 166.4 1174.3 145.4 1153.3 134.6 1126.9 134.6 1096.3 134.6 1074.1 145.4 1060.3 167 1048.3 185 1042.9 210.8 1042.9 244.4S1048.9 303.2 1061.5 320.6C1075.9 341 1098.1 351.2 1129.3 351.2 1150.9 351.2 1169.5 342.2 1183.9 324.2 1199.5 305 1207.9 278.6 1207.9 245.6V240.8Z"  horiz-adv-x="1454" vert-adv-y="1024"  />

      
      <glyph glyph-name="uniE134" unicode="&#xE134;" d="M623.5 170C623.5 159.2 627.7 150.2 637.3 143 646.9 135.8 658.9 131.6 673.9 131.6 700.3 131.6 722.5 139.4 740.5 154.4 758.5 170 768.1 189.8 768.1 213.8V229.4L705.1 227.6C650.5 226.4 623.5 207.2 623.5 170ZM1231.5 812H98.5C44.3 812 0 754.4 0 684V-84C0-154.4 44.3-212 98.5-212H1231.5C1285.7-212 1330-154.4 1330-84V684C1330 754.4 1285.7 812 1231.5 812ZM514.3 456.2H292.3V337.4H501.7V277.4H292.3V87.8H222.1V516.2H514.3V456.2ZM836.5 87.8H772.9V128.6C760.9 113 745.9 101.6 728.5 93.2 708.7 84.2 685.3 79.4 658.3 79.4 625.9 79.4 600.7 87.8 582.1 104 562.9 120.8 553.3 141.8 553.3 167.6 553.3 202.4 566.5 229.4 594.1 248 619.3 266 654.7 275.6 700.3 276.8L768.1 278.6V290.6C768.1 331.4 745.9 351.2 701.5 351.2 682.3 351.2 667.3 348.2 655.9 341 642.7 333.2 633.7 321.2 630.1 305L562.3 310.4C568.9 344.6 585.7 369.8 612.7 385.4 635.5 399.8 666.7 406.4 706.3 406.4 751.9 406.4 786.1 395 807.7 372.2 826.9 352.4 836.5 323.6 836.5 285.8V87.8ZM988.9 87.8H920.5V398H988.9V87.8ZM987.7 446.6C978.7 438.2 967.9 434 954.7 434S930.7 438.2 921.7 446.6C912.7 455.6 908.5 466.4 908.5 479.6S912.7 503.6 921.7 512C930.7 520.4 941.5 524.6 954.7 524.6S979.3 520.4 988.3 512C996.7 503.6 1001.5 492.8 1001.5 479.6S996.7 455 987.7 446.6ZM1147.9 87.8H1079.5V524.6H1147.9V87.8ZM222.1 87.8L292.3 87.8 292.3 277.4 501.7 277.4 501.7 337.4 292.3 337.4 292.3 456.2 514.3 456.2 514.3 516.2 222.1 516.2ZM706.3 406.4C666.7 406.4 635.5 399.8 612.7 385.4 585.7 369.8 568.9 344.6 562.3 310.4L630.1 305C633.7 321.2 642.7 333.2 655.9 341 667.3 348.2 682.3 351.2 701.5 351.2 745.9 351.2 768.1 331.4 768.1 290.6V278.6L700.3 276.8C654.7 275.6 619.3 266 594.1 248 566.5 229.4 553.3 202.4 553.3 167.6 553.3 141.8 562.9 120.8 582.1 104 600.7 87.8 625.9 79.4 658.3 79.4 685.3 79.4 708.7 84.2 728.5 93.2 745.9 101.6 760.9 113 772.9 128.6V87.8H836.5V285.8C836.5 323.6 826.9 352.4 807.7 372.2 786.1 395 751.9 406.4 706.3 406.4ZM768.1 213.8C768.1 189.8 758.5 170 740.5 154.4 722.5 139.4 700.3 131.6 673.9 131.6 658.9 131.6 646.9 135.8 637.3 143 627.7 150.2 623.5 159.2 623.5 170 623.5 207.2 650.5 226.4 705.1 227.6L768.1 229.4V213.8ZM920.5 398H988.9V87.8H920.5V398ZM954.7 524.6C941.5 524.6 930.7 520.4 921.7 512 912.7 503.6 908.5 492.8 908.5 479.6S912.7 455.6 921.7 446.6C930.7 438.2 941.5 434 954.7 434S978.7 438.2 987.7 446.6 1001.5 466.4 1001.5 479.6 996.7 503.6 988.3 512C979.3 520.4 967.9 524.6 954.7 524.6ZM1079.5 524.6H1147.9V87.8H1079.5V524.6Z"  horiz-adv-x="1329" vert-adv-y="1024"  />

      
      <glyph glyph-name="uniE135" unicode="&#xE135;" d="M1472.6 368C1449.8 368 1432.4 362 1419.2 348.8 1406.6 336.2 1398.2 317.6 1394 293H1553.6C1547.6 343.4 1520.6 368 1472.6 368ZM771.2 368C748.4 368 731 362 717.8 348.8 705.2 336.2 696.8 317.6 692.6 293H852.2C846.2 343.4 819.2 368 771.2 368ZM1124.6 368.6C1097.6 368.6 1077.2 358.4 1062.8 336.8 1049.6 318.2 1043.6 293.6 1043.6 262.4V257.6C1043.6 225.2 1051.4 198.8 1067.6 179 1082 161 1100 152 1122.2 152 1152.2 152 1175 162.2 1189.4 181.4 1202 199.4 1208.6 225.2 1208.6 258.8S1202.6 318.2 1191.2 336.2C1176.8 357.8 1154.6 368.6 1124.6 368.6ZM469.4 458C456.2 468.8 435.2 473.6 406.4 473.6H295.4V339.8H406.4C434 339.8 455 345.8 469.4 357.2 482.6 369.2 489.2 386 489.2 407.6 489.2 431 482.6 447.8 469.4 458ZM1737.2 187.4C1737.2 176.6 1741.4 167.6 1751 160.4 1760.6 153.2 1772.6 149 1787.6 149 1814 149 1836.2 156.8 1854.2 171.8 1872.2 187.4 1881.8 207.2 1881.8 231.2V246.8L1818.8 245C1764.2 243.8 1737.2 224.6 1737.2 187.4ZM2221.6 812H185.1C83.3 812 0 754.4 0 684V-84C0-154.4 83.3-212 185.1-212H2221.6C2323.4-212 2406.7-154.4 2406.7-84V684C2406.7 754.4 2323.4 812 2221.6 812ZM507.2 105.2C497 118.4 491 137 488.6 161L483.2 213.8C480.8 237.2 473.6 254 461.6 264.2 449 275 430.4 279.8 406.4 279.8H295.4V105.2H225.2V533.6H416C459.8 533.6 494.6 524 519.8 504.2 546.2 482.6 560 451.4 560 410.6 560 388.4 554 368.6 542 351.2 528.8 332 510.2 319.4 487.4 313.4V312.2C524.6 303.8 545.6 279.2 550.4 237.2L557.6 168.2C560 141.8 569 120.8 583.4 105.2H507.2ZM714.8 175.4C728 160.4 747.2 152.6 771.8 152.6 792.8 152.6 809.6 157.4 822.8 167 833 174.8 842 187.4 850.4 204.8H918.8C911.6 176 897.2 151.4 875.6 132.2 848 108.8 813.8 96.8 772.4 96.8 726.2 96.8 689.6 111.2 662.6 139.4 633.8 168.8 619.4 209 619.4 260.6 619.4 306.8 632.6 345.2 660.2 376.4 686.6 408.2 723.2 423.8 769.4 423.8 820.4 423.8 859.4 407 886.4 372.2 911 341 923.6 297.2 923.6 241.4H691.4C693.8 212.6 701.6 190.4 714.8 175.4ZM1243.4 145.4C1218.2 113 1182.8 96.8 1138.4 96.8 1102.4 96.8 1071.2 114.2 1046 147.8V-13.6H977.6V415.4H1041.2V382.4C1062.8 410 1094 423.8 1134.8 423.8 1180.4 423.8 1216.4 407.6 1242.8 375.2 1266.8 345.2 1278.8 306.8 1278.8 258.8 1278.8 213.2 1266.8 175.4 1243.4 145.4ZM1416.2 175.4C1429.4 160.4 1448.6 152.6 1473.2 152.6 1494.2 152.6 1511 157.4 1524.2 167 1534.4 174.8 1543.4 187.4 1551.8 204.8H1620.2C1613 176 1598.6 151.4 1577 132.2 1549.4 108.8 1515.2 96.8 1473.8 96.8 1427.6 96.8 1391 111.2 1364 139.4 1335.2 168.8 1320.8 209 1320.8 260.6 1320.8 306.8 1334 345.2 1361.6 376.4 1388 408.2 1424.6 423.8 1470.8 423.8 1521.8 423.8 1560.8 407 1587.8 372.2 1612.4 341 1625 297.2 1625 241.4H1392.8C1395.2 212.6 1403 190.4 1416.2 175.4ZM1950.2 105.2H1886.6V146C1874.6 130.4 1859.6 119 1842.2 110.6 1822.4 101.6 1799 96.8 1772 96.8 1739.6 96.8 1714.4 105.2 1695.8 121.4 1676.6 138.2 1667 159.2 1667 185 1667 219.8 1680.2 246.8 1707.8 265.4 1733 283.4 1768.4 293 1814 294.2L1881.8 296V308C1881.8 348.8 1859.6 368.6 1815.2 368.6 1796 368.6 1781 365.6 1769.6 358.4 1756.4 350.6 1747.4 338.6 1743.8 322.4L1676 327.8C1682.6 362 1699.4 387.2 1726.4 402.8 1749.2 417.2 1780.4 423.8 1820 423.8 1865.6 423.8 1899.8 412.4 1921.4 389.6 1940.6 369.8 1950.2 341 1950.2 303.2V105.2ZM2188.4 359H2119.4V183.8C2119.4 176.6 2120.6 171.2 2124.2 167 2127.8 163.4 2132.6 161.6 2139.8 161.6H2180.6V105.2H2128.4C2101.4 105.2 2081.6 112.4 2069 126.8 2057 140 2051 158.6 2051 183.8V359H1995.2V415.4H2051V487.4L2119.4 515.6V415.4H2188.4V359ZM550.4 237.2C545.6 279.2 524.6 303.8 487.4 312.2V313.4C510.2 319.4 528.8 332 542 351.2 554 368.6 560 388.4 560 410.6 560 451.4 546.2 482.6 519.8 504.2 494.6 524 459.8 533.6 416 533.6H225.2V105.2H295.4V279.8H406.4C430.4 279.8 449 275 461.6 264.2 473.6 254 480.8 237.2 483.2 213.8L488.6 161C491 137 497 118.4 507.2 105.2H583.4C569 120.8 560 141.8 557.6 168.2L550.4 237.2ZM469.4 357.2C455 345.8 434 339.8 406.4 339.8H295.4V473.6H406.4C435.2 473.6 456.2 468.8 469.4 458 482.6 447.8 489.2 431 489.2 407.6 489.2 386 482.6 369.2 469.4 357.2ZM886.4 372.2C859.4 407 820.4 423.8 769.4 423.8 723.2 423.8 686.6 408.2 660.2 376.4 632.6 345.2 619.4 306.8 619.4 260.6 619.4 209 633.8 168.8 662.6 139.4 689.6 111.2 726.2 96.8 772.4 96.8 813.8 96.8 848 108.8 875.6 132.2 897.2 151.4 911.6 176 918.8 204.8H850.4C842 187.4 833 174.8 822.8 167 809.6 157.4 792.8 152.6 771.8 152.6 747.2 152.6 728 160.4 714.8 175.4 701.6 190.4 693.8 212.6 691.4 241.4H923.6C923.6 297.2 911 341 886.4 372.2ZM692.6 293C696.8 317.6 705.2 336.2 717.8 348.8 731 362 748.4 368 771.2 368 819.2 368 846.2 343.4 852.2 293H692.6ZM1134.8 423.8C1094 423.8 1062.8 410 1041.2 382.4V415.4H977.6V-13.6H1046V147.8C1071.2 114.2 1102.4 96.8 1138.4 96.8 1182.8 96.8 1218.2 113 1243.4 145.4 1266.8 175.4 1278.8 213.2 1278.8 258.8 1278.8 306.8 1266.8 345.2 1242.8 375.2 1216.4 407.6 1180.4 423.8 1134.8 423.8ZM1189.4 181.4C1175 162.2 1152.2 152 1122.2 152 1100 152 1082 161 1067.6 179 1051.4 198.8 1043.6 225.2 1043.6 257.6V262.4C1043.6 293.6 1049.6 318.2 1062.8 336.8 1077.2 358.4 1097.6 368.6 1124.6 368.6 1154.6 368.6 1176.8 357.8 1191.2 336.2 1202.6 318.2 1208.6 292.4 1208.6 258.8S1202 199.4 1189.4 181.4ZM1587.8 372.2C1560.8 407 1521.8 423.8 1470.8 423.8 1424.6 423.8 1388 408.2 1361.6 376.4 1334 345.2 1320.8 306.8 1320.8 260.6 1320.8 209 1335.2 168.8 1364 139.4 1391 111.2 1427.6 96.8 1473.8 96.8 1515.2 96.8 1549.4 108.8 1577 132.2 1598.6 151.4 1613 176 1620.2 204.8H1551.8C1543.4 187.4 1534.4 174.8 1524.2 167 1511 157.4 1494.2 152.6 1473.2 152.6 1448.6 152.6 1429.4 160.4 1416.2 175.4 1403 190.4 1395.2 212.6 1392.8 241.4H1625C1625 297.2 1612.4 341 1587.8 372.2ZM1394 293C1398.2 317.6 1406.6 336.2 1419.2 348.8 1432.4 362 1449.8 368 1472.6 368 1520.6 368 1547.6 343.4 1553.6 293H1394ZM1820 423.8C1780.4 423.8 1749.2 417.2 1726.4 402.8 1699.4 387.2 1682.6 362 1676 327.8L1743.8 322.4C1747.4 338.6 1756.4 350.6 1769.6 358.4 1781 365.6 1796 368.6 1815.2 368.6 1859.6 368.6 1881.8 348.8 1881.8 308V296L1814 294.2C1768.4 293 1733 283.4 1707.8 265.4 1680.2 246.8 1667 219.8 1667 185 1667 159.2 1676.6 138.2 1695.8 121.4 1714.4 105.2 1739.6 96.8 1772 96.8 1799 96.8 1822.4 101.6 1842.2 110.6 1859.6 119 1874.6 130.4 1886.6 146V105.2H1950.2V303.2C1950.2 341 1940.6 369.8 1921.4 389.6 1899.8 412.4 1865.6 423.8 1820 423.8ZM1881.8 231.2C1881.8 207.2 1872.2 187.4 1854.2 171.8 1836.2 156.8 1814 149 1787.6 149 1772.6 149 1760.6 153.2 1751 160.4 1741.4 167.6 1737.2 176.6 1737.2 187.4 1737.2 224.6 1764.2 243.8 1818.8 245L1881.8 246.8V231.2ZM2119.4 515.6L2051 487.4V415.4H1995.2V359H2051V183.8C2051 158.6 2057 140 2069 126.8 2081.6 112.4 2101.4 105.2 2128.4 105.2H2180.6V161.6H2139.8C2132.6 161.6 2127.8 163.4 2124.2 167 2120.6 171.2 2119.4 176.6 2119.4 183.8V359H2188.4V415.4H2119.4V515.6Z"  horiz-adv-x="2408" vert-adv-y="1024"  />

      
      <glyph glyph-name="uniE137" unicode="&#xE137;" d="M471.77 437.28C450.53 450.68 426.7 457.38 400.27 457.38 362.72 457.38 330.41 444.48 303.34 418.69 276.27 392.89 262.73 349.83 262.73 289.49 262.73 241.18 275.72 203.13 301.69 175.33 327.67 147.53 360.25 133.63 399.44 133.63S472.22 147.67 498.01 175.74C523.8 203.81 536.7 243.64 536.7 295.23 536.7 327.86 531.18 356.34 520.16 380.68 509.13 405.02 493 423.88 471.76 437.28ZM1133 748H160C108.8 748 64 703.2 64 652V-52C64-103.2 108.8-148 160-148H1133C1184.2-148 1229-103.2 1229-52V652C1229 703.2 1184.2 748 1133 748ZM566.79 185.85C550.38 153.76 527.14 129.47 497.06 112.98 466.98 96.48 434.53 88.23 399.72 88.23 361.99 88.23 328.26 97.34 298.55 115.57 268.84 133.8 246.32 158.68 231.01 190.22 215.7 221.76 208.04 255.11 208.04 290.3 208.04 356.84 225.9 408.92 261.63 446.57 297.36 484.21 343.48 503.03 399.99 503.03 436.99 503.03 470.35 494.19 500.07 476.51 529.78 458.83 552.43 434.17 568.02 402.55 583.61 370.92 591.4 335.05 591.4 294.95S583.2 217.93 566.79 185.85ZM887.81 95.07H843.79V137.73C821.18 104.92 790.47 88.51 751.64 88.51 734.5 88.51 718.51 91.79 703.65 98.35 688.79 104.91 677.76 113.16 670.56 123.1 663.36 133.03 658.3 145.2 655.38 159.6 653.37 169.26 652.37 184.57 652.37 205.54V385.46H701.59V224.41C701.59 198.71 702.59 181.39 704.6 172.46 707.7 159.51 714.26 149.35 724.29 141.97 734.31 134.59 746.71 130.9 761.48 130.9S790.1 134.68 803.04 142.25C815.98 149.81 825.14 160.11 830.52 173.15 835.9 186.18 838.59 205.1 838.59 229.89V385.48H887.81V95.09ZM1042.3 91.24C1024.43 91.24 1010.58 94.07 1000.74 99.72S983.97 112.8 979.96 122.01C975.95 131.21 973.94 150.58 973.94 180.12V347.19H937.85V385.47H973.94V457.38L1022.89 486.91V385.46H1072.38V347.18H1022.89V177.38C1022.89 163.34 1023.75 154.32 1025.49 150.31 1027.22 146.3 1030.04 143.11 1033.97 140.74 1037.89 138.37 1043.49 137.19 1050.79 137.19 1056.26 137.19 1063.46 137.83 1072.39 139.1L1079.5 95.62C1065.64 92.71 1053.25 91.24 1042.31 91.24ZM1133 812H160C70.4 812 0 741.6 0 652V-52C0-141.6 70.4-212 160-212H1133C1222.6-212 1293-141.6 1293-52V652C1293 741.6 1222.6 812 1133 812ZM1229-52C1229-103.2 1184.2-148 1133-148H160C108.8-148 64-103.2 64-52V652C64 703.2 108.8 748 160 748H1133C1184.2 748 1229 703.2 1229 652V-52ZM500.07 476.52C470.36 494.2 437 503.04 399.99 503.04 343.48 503.04 297.36 484.22 261.63 446.58 225.9 408.94 208.04 356.85 208.04 290.31 208.04 255.13 215.7 221.77 231.01 190.23 246.32 158.69 268.83 133.81 298.55 115.58 328.26 97.35 361.99 88.24 399.72 88.24 434.54 88.24 466.99 96.49 497.06 112.99 527.14 129.49 550.38 153.78 566.79 185.86 583.2 217.94 591.4 254.31 591.4 294.96S583.61 370.93 568.02 402.56C552.43 434.18 529.78 458.84 500.07 476.52ZM498.02 175.74C472.22 147.67 439.37 133.63 399.45 133.63S327.67 147.53 301.7 175.33C275.72 203.13 262.74 241.18 262.74 289.49 262.74 349.83 276.28 392.89 303.35 418.69 330.42 444.48 362.73 457.38 400.28 457.38 426.71 457.38 450.55 450.68 471.78 437.28 493.01 423.88 509.15 405.01 520.18 380.68 531.21 356.34 536.72 327.86 536.72 295.23 536.72 243.64 523.82 203.81 498.03 175.74ZM838.59 229.88C838.59 205.09 835.9 186.17 830.52 173.14 825.14 160.1 815.98 149.8 803.04 142.24 790.09 134.67 776.24 130.89 761.48 130.89S734.32 134.58 724.29 141.96C714.26 149.34 707.7 159.5 704.6 172.45 702.59 181.38 701.59 198.7 701.59 224.4V385.45H652.37V205.53C652.37 184.57 653.37 169.25 655.38 159.59 658.29 145.19 663.35 133.02 670.56 123.09 677.76 113.15 688.79 104.91 703.65 98.34 718.51 91.78 734.5 88.5 751.64 88.5 790.47 88.5 821.18 104.91 843.79 137.72V95.06H887.81V385.45H838.59V229.86ZM1050.77 137.18C1043.48 137.18 1037.87 138.36 1033.95 140.73 1030.03 143.1 1027.2 146.29 1025.47 150.3 1023.74 154.31 1022.87 163.33 1022.87 177.37V347.17H1072.36V385.45H1022.87V486.9L973.92 457.37V385.46H937.83V347.18H973.92V180.11C973.92 150.58 975.92 131.21 979.94 122 983.95 112.79 990.88 105.36 1000.72 99.71S1024.42 91.23 1042.28 91.23C1053.22 91.23 1065.61 92.69 1079.47 95.61L1072.36 139.09C1063.43 137.81 1056.23 137.18 1050.76 137.18Z"  horiz-adv-x="1293" vert-adv-y="1024"  />

      

  </font>
</defs>
</svg>
