<?xml version="1.0" standalone="no"?>
<!DOCTYPE svg PUBLIC "-//W3C//DTD SVG 1.1//EN" "http://www.w3.org/Graphics/SVG/1.1/DTD/svg11.dtd" >
<svg xmlns="http://www.w3.org/2000/svg">
<metadata>Generated by IcoMoon</metadata>
<defs>
<font id="Vericast-Icons" horiz-adv-x="1024">
<font-face units-per-em="1024" ascent="960" descent="-64" />
<missing-glyph horiz-adv-x="1024" />
<glyph unicode="&#x20;" horiz-adv-x="512" d="" />
<glyph unicode="&#xe900;" glyph-name="works" d="M141.926 747.008h730.317c19.046 0 34.816 15.565 34.816 34.816s-15.565 34.816-34.816 34.816h-730.317c-19.251 0-34.816-15.565-34.816-34.816s15.565-34.816 34.816-34.816zM211.149 905.114h609.28c15.155 0 27.443 12.288 27.443 27.443s-12.288 27.443-27.443 27.443h-609.28c-15.155 0-27.443-12.288-27.443-27.443s12.288-27.443 27.443-27.443zM970.752 652.595h-917.504c-10.035 0-18.432-8.192-18.432-18.432v-679.526c0-10.035 8.192-18.432 18.432-18.432h917.504c10.035 0 18.432 8.192 18.432 18.432v679.526c0 10.035-8.192 18.432-18.432 18.432zM636.723 293.786c-10.65-16.589-16.179-9.421-13.107 0 8.397 24.781 3.686 113.664-66.56 124.723v-268.288c0.614-32.768-27.648-67.789-70.861-83.354-50.995-18.432-103.014-3.482-116.531 33.587s16.794 82.125 67.789 100.557c28.467 10.24 57.139 10.24 79.462 1.638v327.885h40.141c0-66.97 155.443-118.989 79.667-236.749z" />
<glyph unicode="&#xe901;" glyph-name="release-list" d="M219.75 165.99c6.144 6.144 8.602 19.046 8.602 28.877 0 245.555 0 490.906 0 736.461v22.528c-5.325-2.048-7.578-3.277-9.626-4.301-66.355-67.174-133.325-132.301-199.68-200.704-7.578-7.578-10.65-21.504-10.65-32.973 0-245.555 0-490.906 0-736.461 0-7.578 1.024-13.926 1.024-24.576 72.499 72.499 142.131 140.698 210.33 211.149zM562.176 363.418c69.427 104.448-69.427 152.576-68.198 212.582h-34.202l-4.301-293.478c-20.275 7.578-45.875 8.602-71.475 0-45.875-15.974-73.728-55.501-62.054-88.678s57.549-47.104 103.629-31.949c38.502 13.926 65.331 44.646 64.102 73.728l3.277 240.026c63.078-10.65 66.355-90.726 57.549-111.821-3.277-8.806 2.048-15.36 11.674-0.41zM962.355 31.846h-316.826c-46.080-27.034-97.28-43.213-153.805-48.333-8.192-0.614-16.179-1.229-24.371-1.434h-2.048c-103.219-2.662-192.307 34.202-270.336 102.605-47.514-47.514-93.798-93.798-142.336-142.336h910.131c24.781-0.819 45.875 19.251 45.875 44.442-0.41 25.19-21.504 45.056-46.285 45.056zM417.178 747.622c83.763 8.806 162.202-10.65 227.533-48.128h316.826c24.781 0 45.875 20.275 45.875 45.056 0 25.19-21.094 45.056-45.875 45.056h-499.302c-2.867 0-5.325-0.205-7.987-0.614h-181.658v-85.606c49.152 25.19 97.69 39.322 144.589 44.237v0zM969.523 545.69h-174.49c15.565-29.082 27.238-59.392 34.611-90.726h140.083c24.781 0 45.875 20.275 45.875 45.056-0.41 25.395-21.299 45.67-46.080 45.67zM962.355 296.243h-128.819c-5.734-31.13-15.36-61.645-29.082-90.726h157.901c24.781 0 45.875 20.275 45.875 45.056-0.205 24.781-21.094 45.67-45.875 45.67z" />
<glyph unicode="&#xe902;" glyph-name="ads-report" d="M912.998 741.888l-177.971 177.971c-21.094 21.094-63.283 38.707-93.594 38.707h-511.181c-30.106 0-54.682-24.371-54.682-54.682v-912.794c0-30.106 24.371-54.682 54.682-54.682h766.771c30.106 0 54.682 24.371 54.682 54.682v657.203c0 30.31-17.613 72.499-38.707 93.594zM640.41 861.696c9.626-3.277 19.251-8.397 23.347-12.493l178.586-178.586c3.891-3.891 9.011-13.722 12.493-23.347h-214.426v214.426zM857.498 34.714h-687.923v825.549h412.877v-223.642c0-28.467 23.142-51.61 51.61-51.61h223.437v-550.298zM316.416 461.312c-24.576 0-44.646-20.070-44.646-44.646v-53.453c0-24.576 20.070-44.646 44.646-44.646h33.997c-19.456-62.874 4.506-112.435 20.685-162.202 25.6-23.757 97.485-23.142 114.893 10.854-29.491 23.142-54.477 45.875-35.021 77.824-21.914 22.323-10.445 61.235 22.733 72.294 96.666-7.987 176.742-64.717 226.304-105.882 19.456 0 35.635 16.179 35.635 35.635v107.11c19.661 0 35.635 15.77 35.635 35.635s-15.974 35.84-35.635 35.84v107.11c0 19.456-16.179 35.635-35.635 35.635-53.658-44.646-142.746-107.11-249.856-107.11h-133.734zM485.786 427.52c70.861 7.782 141.517 39.936 214.221 95.642v-265.83c-72.909 55.706-143.36 87.245-214.221 95.027v75.162z" />
<glyph unicode="&#xe903;" glyph-name="tv-report" d="M602.522 319.795h100.352v-11.059h-100.352v11.059zM602.522 275.354h100.352v-11.059h-100.352v11.059zM602.522 231.117h100.352v-11.059h-100.352v11.059zM732.979 487.526h-278.323l91.136 82.944c2.662-0.819 5.325-1.434 8.192-1.434 12.698 0 23.142 9.421 23.142 21.094s-10.24 21.094-23.142 21.094-23.142-9.421-23.142-21.094c0-4.915 2.253-9.421 5.325-12.902l-89.907-81.92-92.57 84.173c2.048 3.072 3.686 6.758 3.686 10.65 0 11.674-10.24 21.094-23.142 21.094s-22.938-9.626-22.938-21.299c0-11.674 10.24-21.094 23.142-21.094 4.096 0 7.782 1.229 11.059 2.867l92.57-84.378h-155.648c-11.059 0-20.070-9.011-20.070-19.866v-295.117c0-11.059 9.011-19.866 20.070-19.866h450.56c11.059 0 20.070 9.011 20.070 19.866v295.117c0 11.059-8.806 20.070-20.070 20.070zM723.968 178.688h-433.562l0.819 283.648 433.562-1.024-0.819-282.624zM650.854 357.069c22.528 0 40.96 16.589 40.96 37.274s-18.227 37.274-40.96 37.274c-22.528 0-40.96-16.589-40.96-37.274s18.432-37.274 40.96-37.274zM345.088 208.179h205.21c11.059 0 20.070 9.011 20.070 19.866v183.706c0 10.854-9.011 19.866-20.070 19.866h-205.21c-11.059 0-20.070-9.011-20.070-19.866v-183.706c0-11.059 9.011-19.866 20.070-19.866zM951.296 648.909v-658.842c0-30.31-24.576-54.886-54.886-54.886h-768.819c-30.31 0-54.886 24.576-54.886 54.886v915.046c0 30.31 24.576 54.886 54.886 54.886h512.41c30.31 0 72.704-17.818 93.798-38.912l178.381-178.381c21.299-21.094 39.117-63.488 39.117-93.798zM856.883 585.421h-224.256c-28.467 0-51.814 23.142-51.814 51.814v224.051h-413.696v-827.597h689.562v551.731zM638.976 647.885h215.040c-3.482 9.83-8.602 19.456-12.493 23.552l-178.995 178.995c-4.096 4.096-13.722 9.216-23.552 12.493v-215.040z" />
<glyph unicode="&#xe904;" glyph-name="channels" d="M709.222 319.386h208.896v-23.142h-208.896v23.142zM709.222 227.021h208.896v-23.142h-208.896v23.142zM709.222 134.656h208.896v-23.142h-208.896v23.142zM980.787 668.365h-579.174l189.44 172.442c5.325-1.843 11.059-3.072 17.203-3.072 26.419 0 47.923 19.661 47.923 43.622s-21.504 43.622-47.923 43.622-47.923-19.661-47.923-43.622c0-10.445 4.506-19.456 11.264-27.034l-187.187-170.394-192.512 175.309c4.301 6.554 7.578 13.926 7.578 22.118 0 24.166-21.504 43.622-47.923 43.622s-47.923-19.661-47.923-43.622 21.299-43.622 47.718-43.622c8.397 0 15.974 2.458 22.938 6.144l192.717-175.514h-323.789c-23.142 0-41.984-18.637-41.984-41.574v-614.195c0-22.938 18.637-41.574 41.984-41.574h937.574c23.142 0 41.984 18.637 41.984 41.574v614.195c0 22.938-18.637 41.574-41.984 41.574zM962.15 25.702h-902.144l1.843 590.029 901.939-2.253-1.638-587.776zM809.984 397.005c47.104 0 85.197 34.611 85.197 77.414s-38.093 77.414-85.197 77.414c-47.104 0-85.197-34.611-85.197-77.414s38.093-77.414 85.197-77.414zM173.875 86.938h427.008c23.142 0 41.779 18.842 41.779 41.165v382.566c0 22.733-18.842 41.165-41.779 41.165h-427.008c-23.142 0-41.779-18.842-41.779-41.165v-382.362c0-22.733 18.842-41.37 41.779-41.37z" />
<glyph unicode="&#xe905;" glyph-name="artists" d="M304.333 953.037c107.11-28.877 170.598-139.059 141.722-246.17s-139.059-170.598-246.17-141.722c-107.11 28.877-170.598 139.059-141.722 246.17 28.672 107.11 139.059 170.598 246.17 141.722v0zM675.43 194.662c4.301 16.179 1.024 32.563-7.578 45.466l-212.582 407.552c-33.178-60.416-91.75-102.4-157.901-115.712l273.818-350.413c10.65-13.107 20.89-21.709 36.25-26.010 29.491-8.192 60.006 9.421 67.994 39.117v0zM895.181 316.928c-25.6 58.982-72.704 23.552-61.645-9.216 13.722-41.165 127.181-221.594 51.2-299.008-11.264-11.469-25.805-12.902-41.165-10.24-53.043 9.421-113.050 84.582-137.011 120.218l-4.71 66.56c0 0-4.71-11.878-38.093-33.587-31.334-20.275-59.392-20.48-59.392-20.48l48.333-42.394c16.384-25.395 92.365-135.168 180.019-150.938 32.154-5.939 63.283 1.638 89.702 21.914 112.23 86.221-15.974 325.837-27.238 357.171z" />
<glyph unicode="&#xe906;" glyph-name="top-releases-box" horiz-adv-x="857" d="M514.221 960l-6.664-430.924c-28.876 12.217-66.638 12.217-104.399-1.111-66.638-23.323-107.731-82.187-91.072-131.054s85.518-69.97 152.156-46.646c56.642 19.991 94.403 65.527 94.403 107.731l5.553 352.069c92.182-15.549 96.625-132.165 84.408-164.373-4.443-12.217 3.332-22.213 16.659 0 102.178 154.377-99.957 225.458-98.846 313.197l-52.2 1.111zM81.076 388.026c56.642 0 113.284 0 171.037 0 21.102 0 29.987-6.664 29.987-24.434 0-12.217 0-113.284 0-126.612h295.427c0 12.217 0 114.395 0 126.612 0 16.659 8.885 24.434 28.876 24.434 57.753 0 115.505 0 173.258 0h13.328c-2.221 3.332-3.332 5.553-4.443 7.774-31.098 45.536-63.306 91.072-94.403 136.607-5.553 5.553-8.885 7.774-16.659 7.774-22.213 0-45.536 0-67.748 0-15.549 0-26.655 8.885-25.544 21.102 1.111 9.996 9.996 17.77 22.213 17.77 32.208 0 64.416 0 96.625 0 8.885 0 15.549-4.443 19.991-9.996 43.315-63.306 86.629-125.501 129.944-188.807 2.221-4.443 4.443-8.885 4.443-14.438 0-59.974 0-346.516 0-406.49 0-14.438-9.996-22.213-27.766-22.213-266.551 0-531.991 0-798.542 0-23.323 0-31.098 6.664-31.098 25.544 0 57.753 0 342.074 0 399.826 0 7.774 3.332 15.549 7.774 22.213 43.315 59.974 86.629 119.948 129.944 179.922 7.774 9.996 16.659 14.438 31.098 14.438 27.766-1.111 55.531 0 83.297 0 15.549 0 26.655-7.774 26.655-18.881s-11.106-19.991-26.655-19.991c-23.323 0-46.646 0-69.97 0-3.332 0-8.885-2.221-11.106-5.553-34.43-46.646-67.748-93.293-101.067-139.939-1.111-1.111-2.221-3.332-3.332-5.553h14.438z" />
<glyph unicode="&#xe907;" glyph-name="track-list" d="M249.446 774.042h-52.838v-430.49c-29.286 11.264-66.97 11.469-104.243-2.253-66.765-24.371-106.496-83.354-88.883-132.096 17.613-48.538 86.221-68.403 152.986-44.032 56.73 20.685 93.798 66.355 92.979 109.568v352.051c92.16-14.541 98.509-130.867 87.45-163.635-4.096-12.288 3.277-21.709 17.203 0 99.123 154.624-104.653 222.822-104.653 310.886zM990.618 720.589h-606.413c-18.637 0-33.997 15.155-33.997 33.997s15.155 33.997 33.997 33.997h606.413c18.637 0 33.997-15.155 33.997-33.997s-15.36-33.997-33.997-33.997zM990.618 516.198h-484.762c-18.637 0-33.997 15.155-33.997 33.997s15.155 33.997 33.997 33.997h484.762c18.637 0 33.997-15.155 33.997-33.997s-15.36-33.997-33.997-33.997zM990.618 311.808h-541.696c-18.637 0-33.997 15.155-33.997 33.997s15.155 33.997 33.997 33.997h541.696c18.637 0 33.997-15.155 33.997-33.997s-15.36-33.997-33.997-33.997zM990.618 107.418h-659.251c-18.637 0-33.997 15.155-33.997 33.997s15.155 33.997 33.997 33.997h659.251c18.637 0 33.997-15.155 33.997-33.997s-15.36-33.997-33.997-33.997z" />
<glyph unicode="&#xe908;" glyph-name="content" d="M54.067 653.21c-10.035 0-18.432-8.192-18.432-18.432v-679.526c0-10.035 8.192-18.432 18.432-18.432h917.299c10.035 0 18.432 8.192 18.432 18.432v679.526c0 10.035-8.192 18.432-18.432 18.432h-917.299zM872.858 747.622h-730.317c-19.251 0-34.816 15.565-34.816 34.816s15.565 34.816 34.816 34.816h730.317c19.251 0 34.816-15.565 34.816-34.816s-15.565-34.816-34.816-34.816zM821.043 905.728h-609.28c-15.155 0-27.443 12.288-27.443 27.443s12.288 27.443 27.443 27.443h609.28c15.155 0 27.443-12.288 27.443-27.443s-12.288-27.443-27.443-27.443z" />
<glyph unicode="&#xe909;" glyph-name="reports" d="M1025.024 429.773h-1026.048v219.75c0 50.381 41.165 91.546 91.546 91.546h201.523v91.75c0 30.31 24.576 54.886 54.886 54.886h329.933c30.31 0 54.886-24.576 54.886-54.886v-91.546h201.523c50.381 0 91.546-41.165 91.546-91.546v-219.955zM1025.024 99.84c0-50.381-41.165-91.546-91.546-91.546h-842.957c-50.381 0-91.546 41.165-91.546 91.546v274.842h384.819v-91.546c0-20.070 16.589-36.659 36.659-36.659h183.296c20.070 0 36.659 16.589 36.659 36.659v91.546h384.819v-274.842zM658.637 741.274v73.318h-293.274v-73.318h293.274zM585.318 301.363h-146.637v73.318h146.637v-73.318z" />
<glyph unicode="&#xe90a;" glyph-name="top-releases" d="M328.090 736.768v-80.896c194.765 98.509 382.976 16.384 472.678-113.869 99.533-143.36 82.125-336.896-41.574-460.595-61.235-61.235-135.578-98.509-223.232-106.086-108.339-9.83-201.318 25.19-281.19 95.232-44.851-44.851-88.678-88.678-134.554-134.554h834.355v800.768h-626.483zM279.962 152.678c6.554 6.554 8.806 19.661 8.806 29.491 0 251.699 0 503.194 0 754.893v22.938c-5.53-2.253-7.578-3.277-9.83-4.301-67.789-69.018-136.806-135.578-204.595-205.619-7.578-7.578-10.854-21.914-10.854-33.997 0-251.699 0-503.194 0-754.893 0-7.578 1.024-14.131 1.024-25.19 74.342 74.342 145.408 144.384 215.45 216.678zM631.194 355.021c71.066 107.315-71.066 156.467-70.042 217.702h-35.021l-4.301-300.851c-20.685 7.578-47.104 8.806-73.318 0-47.104-16.384-75.571-56.934-63.488-90.726 12.083-33.997 58.982-48.128 106.086-32.768 39.322 14.131 66.765 45.875 65.741 75.571l3.277 246.17c64.512-10.854 67.789-92.979 58.982-114.893-3.277-9.011 2.253-15.565 12.083-0.205z" />
<glyph unicode="&#xe90b;" glyph-name="artist-list" d="M180.634 798.822c74.957-20.070 119.194-97.28 98.918-172.032-20.070-74.957-97.28-119.398-172.032-99.123-74.957 20.070-119.398 97.28-98.918 172.032 20.070 75.162 97.075 119.398 172.032 99.123v0zM440.115 268.8c3.072 11.469 0.819 22.733-5.325 31.744l-148.685 284.877c-23.142-42.394-64.102-71.68-110.387-80.896l191.488-244.941c7.578-9.216 14.541-15.36 25.19-18.022 20.685-5.734 41.984 6.554 47.718 27.238v0zM593.715 354.202c-17.818 41.37-50.995 16.589-43.213-6.554 9.626-28.672 89.088-155.034 35.84-208.896-7.782-7.987-18.022-9.011-28.877-7.168-37.069 6.758-79.053 58.982-95.642 84.173l-3.277 46.694c0 0-3.277-8.397-26.624-23.347-21.914-14.336-41.574-14.336-41.574-14.336l33.792-29.696c11.674-17.818 64.512-94.413 125.747-105.472 22.528-4.096 44.237 1.229 62.669 15.36 78.643 59.802-11.059 227.328-18.842 249.242zM1020.314 764.211c0 19.456-15.974 35.226-35.226 35.226h-630.17c-19.456 0-35.226-15.974-35.226-35.226s15.974-35.226 35.226-35.226h630.17c19.661 0 35.226 15.77 35.226 35.226zM1020.314 551.834c0 19.456-15.974 35.226-35.226 35.226h-446.259c-19.456 0-35.226-15.974-35.226-35.226s15.974-35.226 35.226-35.226h446.259c19.661 0 35.226 15.77 35.226 35.226zM1020.314 339.251c0 19.456-15.974 35.226-35.226 35.226h-292.659c-19.456 0-35.226-15.974-35.226-35.226 0-19.456 15.974-35.226 35.226-35.226h292.659c19.661 0 35.226 15.77 35.226 35.226zM1020.314 126.874c0 19.456-15.974 35.226-35.226 35.226h-224.461c-19.456 0-35.226-15.974-35.226-35.226s15.974-35.226 35.226-35.226h224.461c19.661 0 35.226 15.77 35.226 35.226z" />
<glyph unicode="&#xe90c;" glyph-name="content-hollow" d="M927.744 591.155v-593.715h-831.488v593.715h831.488zM970.752 652.595h-917.504c-10.035 0-18.432-8.192-18.432-18.432v-679.731c0-10.035 8.192-18.432 18.432-18.432h917.504c10.035 0 18.432 8.192 18.432 18.432v679.731c0 10.035-8.192 18.432-18.432 18.432v0zM872.038 746.803h-730.317c-19.251 0-34.816 15.565-34.816 34.816s15.565 34.816 34.816 34.816h730.317c19.251 0 34.816-15.565 34.816-34.816s-15.565-34.816-34.816-34.816zM820.224 904.909h-609.28c-15.155 0-27.443 12.288-27.443 27.443s12.288 27.443 27.443 27.443h609.28c15.155 0 27.443-12.288 27.443-27.443s-12.288-27.443-27.443-27.443z" />
<glyph unicode="&#xe90d;" glyph-name="tv" d="M709.222 319.386h208.896v-23.142h-208.896v23.142zM709.222 227.021h208.896v-23.142h-208.896v23.142zM709.222 134.656h208.896v-23.142h-208.896v23.142zM980.787 668.365h-579.174l189.44 172.442c5.325-1.843 11.059-3.072 17.203-3.072 26.419 0 47.923 19.661 47.923 43.622s-21.504 43.622-47.923 43.622-47.923-19.661-47.923-43.622c0-10.445 4.506-19.456 11.264-27.034l-187.187-170.394-192.512 175.309c4.301 6.554 7.578 13.926 7.578 22.118 0 24.166-21.504 43.622-47.923 43.622s-47.923-19.661-47.923-43.622 21.299-43.622 47.718-43.622c8.397 0 15.974 2.458 22.938 6.144l192.717-175.514h-323.789c-23.142 0-41.984-18.637-41.984-41.574v-614.195c0-22.938 18.637-41.574 41.984-41.574h937.574c23.142 0 41.984 18.637 41.984 41.574v614.195c0 22.938-18.637 41.574-41.984 41.574zM962.15 25.702h-902.144l1.843 590.029 901.939-2.253-1.638-587.776zM809.984 397.005c47.104 0 85.197 34.611 85.197 77.414s-38.093 77.414-85.197 77.414c-47.104 0-85.197-34.611-85.197-77.414s38.093-77.414 85.197-77.414zM173.875 86.938h427.008c23.142 0 41.779 18.842 41.779 41.165v382.566c0 22.733-18.842 41.165-41.779 41.165h-427.008c-23.142 0-41.779-18.842-41.779-41.165v-382.362c0-22.733 18.842-41.37 41.779-41.37z" />
<glyph unicode="&#xe90e;" glyph-name="pointer-to-selection" d="M1040.384 25.702h-197.632v61.44h136.192v136.192h61.44v-197.632zM663.142 87.142h-302.285v-61.44h302.285v61.44zM181.453 87.142h-136.397v136.192h-61.44v-197.632h197.837v61.44zM45.056 563.712h-61.44v-231.629h61.44v231.629zM45.056 808.858h136.397v61.44h-197.837v-197.632h61.44v136.192zM663.142 870.298h-302.285v-61.44h302.285v61.44zM1040.384 870.298h-197.632v-61.44h136.192v-136.192h61.44v197.632zM1040.384 563.712h-61.44v-231.629h61.44v231.629zM723.558 556.134v-180.838l-156.672 90.522 156.672 90.317v-180.838l-156.672 90.522 156.672 90.317zM289.178 375.296v180.838l156.672-90.317-156.672-90.522v180.838l156.672-90.317-156.672-90.522zM643.277 710.758h-273.613l112.845-138.445v-387.072h47.923v387.072l112.845 138.445z" />
<glyph unicode="&#xe90f;" glyph-name="sigpools" d="M616.448 184.013c-0.614 0-1.229 0-1.843 0-10.035 0.819-18.227 8.192-20.070 18.022l-73.114 394.854-70.861-312.32c-2.253-9.83-10.65-16.794-20.685-17.408-10.035-0.205-19.046 5.734-22.118 15.36l-66.97 204.595-72.294-81.92c-4.301-4.71-10.24-7.578-16.589-7.578h-218.726c-12.288 0-22.323 10.035-22.323 22.323s10.035 22.323 22.323 22.323h208.486l91.341 103.424c5.325 5.939 13.312 8.602 21.094 6.963s14.131-7.373 16.589-14.95l54.067-165.069 77.005 339.558c2.253 10.24 10.854 18.022 22.118 17.408 10.65-0.205 19.456-7.782 21.504-18.227l77.824-419.635 77.21 217.498c2.662 7.578 9.216 13.107 16.998 14.541 7.987 1.434 15.77-1.434 20.89-7.578l62.054-73.728h190.464c12.288 0 22.323-10.035 22.323-22.323s-10.035-22.323-22.323-22.323h-200.704c-6.554 0-12.698 2.867-16.998 7.987l-43.827 52.019-91.955-258.867c-3.277-9.011-11.674-14.95-20.89-14.95zM42.598 797.184v0h938.803c23.347 0 41.984-18.637 41.984-41.574v-615.219c0-22.938-18.842-41.574-41.984-41.574h-938.803c-23.347 0-41.984 18.637-41.984 41.574v615.219c0 22.938 18.842 41.574 41.984 41.574zM67.789 756.429v0c-9.83 0-17.818-7.782-17.818-17.408v-582.042c0-9.626 7.782-17.408 17.818-17.408h888.422c9.83 0 17.818 7.782 17.818 17.408v582.042c0 9.626-7.782 17.408-17.818 17.408h-888.422z" />
<glyph unicode="&#xe910;" glyph-name="edit" d="M1009.664 567.194c-2.662 1.229-5.734 1.843-8.806 2.458-1.229 0.205-2.662 0-4.096 0-263.987 0-527.974 0-791.962 0h-3.686c0 0.205 0 0.41-0.205 0.614 4.915 1.638 10.035 3.072 14.95 4.71 249.037 76.39 498.278 152.781 747.315 229.376 10.65 3.277 16.384 10.854 15.974 20.89-0.205 2.458-0.819 5.12-1.434 7.373-9.421 30.72-19.046 61.44-28.262 92.365-5.325 17.613-16.794 28.262-35.226 31.13-0.41 0-0.819 0.205-1.229 0.41h-6.963c-286.72-87.859-573.645-175.718-860.57-263.373-11.674-3.482-21.504-9.011-27.648-19.661-6.349-10.65-7.168-21.914-3.686-33.792 1.638-5.734 3.686-11.469 5.325-17.408 0.205-1.024 0.205-2.458-0.41-3.072-9.421-12.493-14.95-26.214-16.384-41.779 0-0.41-0.205-1.024-0.41-1.434v-12.698c1.843-7.782 3.072-15.565 5.734-22.938 5.939-16.589 16.998-29.696 31.949-39.117 2.253-1.434 3.072-2.867 3.072-5.53 0-171.622 0-343.040 0-514.662 0-18.022 7.782-31.334 24.166-39.117 3.482-1.638 7.578-2.458 11.469-3.686h906.445c2.662 0.614 5.325 1.229 7.782 2.253 15.155 5.53 24.166 16.179 27.238 32.154 0 0.41 0.41 1.024 0.614 1.434v578.355c-1.843 6.349-4.915 11.878-11.059 14.746zM822.682 889.139c13.517 4.096 27.034 8.192 40.755 12.493 2.048 0.614 3.482 0.614 5.325-0.41 17.203-9.216 34.406-18.227 51.61-27.443 1.024-0.614 2.458-1.638 2.867-2.662 3.482-10.854 6.758-21.709 10.24-32.973-6.963-2.048-13.722-4.301-20.275-6.349-15.77-4.915-31.334-9.626-47.104-14.541-1.229-0.41-3.072-0.41-4.096 0.205-32.768 17.203-65.536 34.611-98.304 52.019-0.41 0.205-0.614 0.41-1.434 1.024 20.48 6.144 40.55 12.493 60.416 18.637zM556.442 807.014c21.914 6.554 43.827 13.107 65.741 19.661 2.458 0.819 4.301 0.41 6.554-0.614 31.13-16.589 62.464-33.178 93.798-49.766 1.024-0.614 2.048-1.024 3.482-2.048-7.782-2.458-14.95-4.506-22.118-6.758-23.757-7.373-47.514-14.746-71.27-21.914-1.434-0.41-3.277-0.41-4.506 0.205-32.563 17.203-64.922 34.406-97.485 51.61-0.614 0.41-1.229 0.819-2.253 1.434 9.626 2.662 18.842 5.53 28.058 8.192zM313.549 732.058c27.648 7.782 55.296 15.565 82.739 23.347 1.434 0.41 3.482 0.41 4.71-0.41 31.334-16.589 62.669-33.178 94.003-49.766 0.614-0.41 1.229-0.819 2.253-1.434-6.963-2.253-13.517-4.301-20.070-6.144-26.010-7.987-52.224-15.974-78.438-23.962-1.434-0.41-3.482-0.41-4.71 0.205-32.563 17.203-64.922 34.406-97.485 51.61-0.614 0.205-1.024 0.614-2.048 1.229 6.963 2.048 12.902 3.686 19.046 5.325zM91.136 664.064c23.552 7.168 47.104 14.336 70.861 21.504 1.434 0.41 3.482 0.41 4.71-0.205 32.358-16.998 64.717-34.202 97.075-51.405 0.614-0.205 1.024-0.614 2.048-1.229-8.192-2.458-16.179-4.915-23.962-7.373-25.395-7.782-50.79-15.565-76.186-23.347-3.686-1.229-7.578 0.41-9.216 3.891-15.36 30.515-47.104 48.128-81.101 44.442-5.734-0.614-9.216 2.253-14.541 4.506 10.65 3.277 20.48 6.349 30.31 9.216zM83.558 528.896c-22.323 0-40.755 18.432-40.755 40.755 0 22.528 18.432 40.96 40.96 40.755 22.323-0.205 40.55-18.432 40.55-40.96 0-22.323-18.432-40.55-40.755-40.55zM932.25 47.616c-0.205-0.819-0.819-1.434-1.434-1.434h-795.034c-0.819 0-1.229 0.614-1.229 1.229v374.784h797.696v-374.579zM478.413 120.934c5.12-0.819 9.83 0 14.336 2.662l157.082 92.774c4.71 2.662 7.987 6.349 9.626 11.059s1.638 9.626 0 14.336c-1.638 4.71-4.915 8.397-9.626 11.059l-157.082 92.774c-4.096 2.662-8.806 3.686-13.926 2.867s-9.421-3.072-12.902-6.758c-3.482-3.686-5.325-8.602-5.325-14.541v-185.754c0-5.325 1.638-10.035 5.12-13.926 3.482-3.277 7.782-5.53 12.698-6.554z" />
<glyph unicode="&#xe911;" glyph-name="delete-selection" d="M1038.95 22.835h-197.632v61.44h136.192v136.192h61.44v-197.632zM661.709 84.275h-302.285v-61.44h302.285v61.44zM180.019 84.275h-136.192v136.192h-61.44v-197.632h197.632v61.44zM43.622 560.845h-61.44v-231.629h61.44v231.629zM43.622 805.99h136.192v61.44h-197.632v-197.632h61.44v136.192zM661.709 867.43h-302.285v-61.44h302.285v61.44zM1038.95 867.43h-197.632v-61.44h136.192v-136.192h61.44v197.632zM1038.95 560.845h-61.44v-231.629h61.44v231.629zM745.062 506.573h-468.787v-122.88h468.787v122.88z" />
<glyph unicode="&#xe912;" glyph-name="recordings" d="M788.48 683.52c-128 0-235.52-107.52-235.52-235.52 0-51.2 15.36-97.28 40.96-133.12h-163.84c25.6 35.84 40.96 81.92 40.96 133.12 0 128-107.52 235.52-235.52 235.52s-235.52-107.52-235.52-235.52 107.52-235.52 235.52-235.52h552.96c128 0 235.52 107.52 235.52 235.52s-107.52 235.52-235.52 235.52zM102.4 448c0 71.68 61.44 133.12 133.12 133.12s133.12-61.44 133.12-133.12c0-71.68-61.44-133.12-133.12-133.12s-133.12 61.44-133.12 133.12zM788.48 314.88c-71.68 0-133.12 61.44-133.12 133.12s61.44 133.12 133.12 133.12c71.68 0 133.12-61.44 133.12-133.12s-61.44-133.12-133.12-133.12zM276.48 448c0 25.6-20.48 40.96-40.96 40.96-25.6 0-40.96-20.48-40.96-40.96 0-25.6 20.48-40.96 40.96-40.96 25.6 0 40.96 15.36 40.96 40.96zM189.44 417.28c-10.24-5.12-20.48-15.36-35.84-25.6 5.12-10.24 15.36-20.48 25.6-25.6 10.24 10.24 15.36 25.6 25.6 35.84-5.12 5.12-10.24 10.24-15.36 15.36zM281.6 478.72c10.24 10.24 20.48 15.36 35.84 25.6-5.12 10.24-20.48 20.48-25.6 25.6-10.24-10.24-15.36-25.6-25.6-35.84 5.12-5.12 10.24-10.24 15.36-15.36zM235.52 437.76c5.12 0 10.24 5.12 10.24 10.24s-5.12 10.24-10.24 10.24c-5.12 0-10.24-5.12-10.24-10.24s5.12-10.24 10.24-10.24zM788.48 407.040c25.6 0 40.96 20.48 40.96 40.96 0 25.6-20.48 40.96-40.96 40.96-25.6 0-40.96-20.48-40.96-40.96 0-25.6 15.36-40.96 40.96-40.96zM757.76 494.080c-5.12 10.24-15.36 20.48-25.6 35.84-10.24-5.12-20.48-15.36-25.6-25.6 10.24-10.24 25.6-15.36 35.84-25.6 5.12 5.12 10.24 10.24 15.36 15.36zM819.2 401.92c10.24-10.24 15.36-20.48 25.6-35.84 10.24 5.12 20.48 20.48 25.6 25.6-10.24 10.24-25.6 15.36-35.84 25.6-5.12-5.12-10.24-10.24-15.36-15.36zM778.24 448c0-5.12 5.12-10.24 10.24-10.24s10.24 5.12 10.24 10.24c0 5.12-5.12 10.24-10.24 10.24s-10.24-5.12-10.24-10.24z" />
<glyph unicode="&#xe913;" glyph-name="subscriptions" d="M942.285 607.13v-570.163c0-55.706-45.466-101.376-101.376-101.376h-720.691c-55.706 0-101.376 45.466-101.376 101.376v720.691c0 55.706 45.466 101.376 101.376 101.376h570.163v-71.68h-498.893c-55.91 0-101.171-45.261-101.171-101.171v-577.741c0-55.91 45.261-101.171 101.171-101.171h577.741c55.91 0 101.171 45.261 101.171 101.171v498.688h71.885zM886.579 960.41l-593.715-593.715-71.68-190.464 190.464 71.68 593.715 593.715-118.784 118.784zM776.192 820.122l29.491 29.696 89.293-89.088-29.696-29.696-89.088 89.088z" />
<glyph unicode="&#xe914;" glyph-name="radio" d="M967.885 634.163h-726.835c0.205 0.614 493.158 288.358 493.158 288.358 7.987 4.096 11.469 13.722 7.373 21.914-3.891 7.987-13.517 11.469-21.709 7.578l-602.522-294.502c0 0-54.067-22.733-54.067-23.347h-7.373c-30.106 0-54.272-24.576-54.272-54.477v-582.861c0-29.901 24.166-54.272 54.067-54.272h911.974c30.106 0 54.272 24.371 54.272 54.272v582.861c0.205 29.901-23.962 54.477-54.067 54.477zM379.29 274.739c8.602-15.77 14.131-33.382 16.384-52.019h-287.949c2.253 18.637 7.782 36.25 16.384 52.019h255.181zM148.275 308.326c26.419 26.624 63.078 43.213 103.424 43.213 40.55 0 77.005-16.589 103.424-43.213h-206.848zM251.904 60.109c-40.55 0-77.21 16.589-103.629 43.418h207.258c-26.624-26.624-63.078-43.418-103.629-43.418zM379.494 137.114h-255.386c-8.602 15.77-14.131 33.382-16.384 52.019h287.949c-2.048-18.842-7.578-36.25-16.179-52.019zM453.018 118.477c0 12.083 9.83 21.914 21.914 21.914s21.914-9.83 21.914-21.914c0-12.083-9.83-21.914-21.914-21.914s-21.914 9.83-21.914 21.914zM523.469 227.635c0 12.083 9.83 21.914 21.914 21.914s21.914-9.83 21.914-21.914-9.83-21.914-21.914-21.914c-12.288 0.205-21.914 9.83-21.914 21.914zM535.142 174.387c0-12.083-9.83-21.914-21.914-21.914s-21.914 9.83-21.914 21.914c0 12.083 9.83 21.914 21.914 21.914 12.083-0.205 21.914-9.83 21.914-21.914zM583.68 196.096c12.083 0 21.914-9.626 21.914-21.914 0-12.083-9.83-21.914-21.914-21.914s-21.914 9.83-21.914 21.914c-0.205 12.288 9.626 21.914 21.914 21.914zM591.258 227.635c0 12.083 9.83 21.914 21.709 21.914 12.083 0 22.118-9.83 22.118-21.914s-9.83-21.914-22.118-21.914c-12.083 0.205-21.709 9.83-21.709 21.914zM651.264 196.096c12.083 0 21.914-9.626 21.914-21.914 0-12.083-9.83-21.914-21.914-21.914s-21.914 9.83-21.914 21.914c0 12.288 9.83 21.914 21.914 21.914zM665.6 227.635c0 12.083 9.626 21.914 21.914 21.914 12.083 0 22.118-9.83 22.118-21.914s-9.83-21.914-22.118-21.914c-12.288 0.205-21.914 9.83-21.914 21.914zM725.811 196.096c12.083 0 21.914-9.626 21.914-21.914 0-12.083-9.83-21.914-21.914-21.914s-21.914 9.83-21.914 21.914c-0.205 12.288 9.626 21.914 21.914 21.914zM735.846 227.635c0 12.083 9.83 21.914 21.914 21.914s21.914-9.83 21.914-21.914-9.83-21.914-21.914-21.914c-12.083 0.205-21.914 9.83-21.914 21.914zM796.262 196.096c11.878 0 21.914-9.626 21.914-21.914 0-12.083-9.83-21.914-21.914-21.914s-21.914 9.83-21.914 21.914c0 12.288 9.83 21.914 21.914 21.914zM805.888 227.635c0 12.083 9.626 21.914 21.914 21.914 12.083 0 21.914-9.83 21.914-21.914s-9.626-21.914-21.914-21.914c-12.083 0.205-21.914 9.83-21.914 21.914zM866.099 196.096c12.083 0 21.914-9.626 21.914-21.914 0-12.083-9.626-21.914-21.914-21.914-12.083 0-22.118 9.83-22.118 21.914 0 12.288 10.035 21.914 22.118 21.914zM845.619 286.413c0 12.083 9.83 21.914 21.914 21.914 11.878 0 21.914-9.626 21.914-21.914 0-12.083-9.626-21.914-21.914-21.914-12.083-0.205-21.914 9.83-21.914 21.914zM827.802 327.373c-12.083 0-21.914 9.83-21.914 22.118 0 12.083 9.626 21.914 21.914 21.914 12.083 0 21.914-9.83 21.914-21.914-0.205-12.083-9.83-22.118-21.914-22.118zM819.61 286.413c0-12.083-9.83-21.914-22.118-21.914-11.878 0-21.914 9.83-21.914 21.914s9.83 21.914 21.914 21.914c12.083 0 22.118-9.83 22.118-21.914zM757.965 327.373c-12.083 0-21.914 9.83-21.914 22.118 0 12.083 9.83 21.914 21.914 21.914s21.914-9.83 21.914-21.914c-0.205-12.083-9.83-22.118-21.914-22.118zM749.158 286.413c0-12.083-9.83-21.914-21.914-21.914s-21.914 9.83-21.914 21.914c0 12.083 9.626 21.914 21.914 21.914 12.083 0 21.914-9.83 21.914-21.914zM687.514 327.373c-12.083 0-21.914 9.83-21.914 22.118 0 12.083 9.626 21.914 21.914 21.914 12.083 0 22.118-9.83 22.118-21.914-0.205-12.083-10.035-22.118-22.118-22.118zM674.611 286.413c0-12.083-9.83-21.914-21.914-21.914s-21.914 9.83-21.914 21.914c0 12.083 9.626 21.914 21.914 21.914s21.914-9.83 21.914-21.914zM612.966 327.373c-11.878 0-21.709 9.83-21.709 22.118 0 12.083 9.83 21.914 21.709 21.914 12.083 0 22.118-9.83 22.118-21.914s-9.83-22.118-22.118-22.118zM606.822 286.413c0-12.083-9.626-21.914-21.914-21.914-12.083 0-22.118 9.83-22.118 21.914s9.83 21.914 22.118 21.914c12.288 0 21.914-9.83 21.914-21.914zM545.382 327.373c-12.083 0-21.914 9.83-21.914 22.118 0 12.083 9.83 21.914 21.914 21.914s21.914-9.83 21.914-21.914c0-12.083-9.83-22.118-21.914-22.118zM536.576 286.413c0-12.083-9.626-21.914-22.118-21.914-11.878 0-21.914 9.83-21.914 21.914s9.83 21.914 21.914 21.914c12.493 0 22.118-9.83 22.118-21.914zM474.931 327.373c-12.083 0-21.914 9.83-21.914 22.118 0 12.083 9.83 21.914 21.914 21.914s21.914-9.83 21.914-21.914c0-12.083-9.83-22.118-21.914-22.118zM474.931 249.754c12.083 0 21.914-9.83 21.914-21.914s-9.83-21.914-21.914-21.914c-12.083 0-21.914 9.626-21.914 21.914s9.83 21.914 21.914 21.914zM512 39.219c-12.083 0-21.914 9.83-21.914 21.914s9.83 21.914 21.914 21.914c12.083 0 21.914-9.626 21.914-21.914 0-12.083-9.83-21.914-21.914-21.914zM523.469 118.477c0 12.083 9.83 21.914 21.914 21.914s21.914-9.83 21.914-21.914c0-12.083-9.83-21.914-21.914-21.914-12.288 0-21.914 9.83-21.914 21.914zM582.246 39.219c-12.083 0-21.914 9.83-21.914 21.914s9.626 21.914 21.914 21.914c12.083 0 21.914-9.626 21.914-21.914 0.205-12.083-9.626-21.914-21.914-21.914zM591.258 118.477c0 12.083 9.83 21.914 21.709 21.914 12.083 0 22.118-9.83 22.118-21.914s-9.83-21.914-22.118-21.914c-12.083 0-21.709 9.83-21.709 21.914zM650.035 39.219c-11.878 0-21.914 9.83-21.914 21.914s9.83 21.914 21.914 21.914c12.083 0 21.914-9.626 21.914-21.914 0.205-12.083-9.83-21.914-21.914-21.914zM665.6 118.477c0 12.083 9.626 21.914 21.914 21.914 12.083 0 22.118-9.83 22.118-21.914s-9.83-21.914-22.118-21.914c-12.288 0-21.914 9.83-21.914 21.914zM724.378 39.219c-11.878 0-21.914 9.83-21.914 21.914s9.83 21.914 21.914 21.914c12.083 0 21.914-9.626 21.914-21.914 0.205-12.083-9.626-21.914-21.914-21.914zM735.846 118.477c0 12.083 9.83 21.914 21.914 21.914s21.914-9.83 21.914-21.914c0-12.083-9.83-21.914-21.914-21.914s-21.914 9.83-21.914 21.914zM795.034 39.219c-12.083 0-21.914 9.83-21.914 21.914s9.83 21.914 21.914 21.914c12.083 0 21.914-9.626 21.914-21.914 0-12.083-9.83-21.914-21.914-21.914zM805.888 118.477c0 12.083 9.626 21.914 21.914 21.914 12.083 0 21.914-9.83 21.914-21.914s-9.626-21.914-21.914-21.914c-12.083 0-21.914 9.83-21.914 21.914zM864.87 39.219c-12.083 0-21.914 9.83-21.914 21.914s9.626 21.914 21.914 21.914c12.083 0 22.118-9.626 22.118-21.914-0.205-12.083-10.035-21.914-22.118-21.914zM899.482 96.563c-12.083 0-21.914 9.83-21.914 21.914s9.83 21.914 21.914 21.914c12.083 0 21.914-9.83 21.914-21.914s-9.626-21.914-21.914-21.914zM899.482 205.926c-12.083 0-21.914 9.626-21.914 21.914s9.83 21.914 21.914 21.914c12.083 0 21.914-9.83 21.914-21.914s-9.626-21.914-21.914-21.914zM899.482 327.373c-12.083 0-21.914 9.83-21.914 22.118 0 12.083 9.83 21.914 21.914 21.914s21.914-9.83 21.914-21.914c0-12.083-9.626-22.118-21.914-22.118zM928.768 452.301h-816.947v95.642h816.947v-95.642z" />
<glyph unicode="&#xe915;" glyph-name="loop" d="M1009.664 512.512c0.205-135.782-85.811-241.869-222.003-274.022-19.046-4.506-47.718 0.819-49.357-28.262-3.686-70.656-36.045-36.864-63.693-18.842-36.659 23.757-72.909 48.538-109.158 73.114-21.094 14.336-22.733 28.877-0.205 43.827 46.080 30.515 91.955 61.44 138.035 91.75 20.89 13.722 32.154 6.963 32.358-17.613 0.614-45.875 25.6-42.598 57.344-30.106 78.234 30.925 125.133 114.893 106.701 192.717-20.48 87.040-92.774 142.131-178.79 136.397-85.197-5.734-154.214-72.294-156.467-160.358-2.253-90.931-19.251-173.67-87.040-239.821-84.173-82.33-205.005-103.219-311.501-53.043-100.557 47.309-169.779 159.334-161.792 261.734 9.626 123.699 89.088 224.461 203.571 255.795 34.406 9.421 73.523 7.578 71.885 61.44-0.614 21.504 19.251 20.48 33.997 11.059 47.923-31.13 95.437-62.874 142.95-94.822 20.275-13.517 17.203-27.443-1.434-39.731-47.514-31.744-95.027-63.693-142.746-95.027-18.432-12.083-33.792-11.469-35.021 14.746-2.662 55.296-33.587 44.646-66.355 29.286-70.861-33.587-106.906-108.954-92.365-191.078 12.083-67.789 74.957-124.928 146.432-133.325 75.162-8.602 147.866 36.25 175.718 109.568 12.902 34.202 16.589 69.837 17.613 106.496 4.915 152.166 126.157 265.216 280.986 263.373 150.118-1.843 270.131-123.904 270.336-275.251z" />
<glyph unicode="&#xe916;" glyph-name="tasks" d="M47.514 653.824c-53.248 26.624-53.248 69.837 0 96.461l368.026 184.115c53.248 26.624 139.469 26.624 192.922 0l368.026-184.115c53.248-26.624 53.248-69.837 0-96.461l-368.026-184.115c-53.248-26.624-139.469-26.624-192.922 0l-368.026 184.115zM511.795 278.426c-34.816 0-69.837 6.758-96.87 20.48l-395.674 197.632c-11.878 5.939-16.794 20.48-10.854 32.358s20.48 16.589 32.358 10.854l395.674-197.837c40.755-20.48 109.978-20.48 150.733 0l395.878 197.837c11.878 5.939 26.419 1.229 32.358-10.854s1.229-26.419-10.854-32.358l-395.878-197.837c-27.034-13.517-61.85-20.275-96.87-20.275zM512 110.285c-34.816 0-69.837 6.758-96.87 20.275l-396.083 197.222c-11.878 5.939-16.794 20.48-10.854 32.358s20.48 16.794 32.358 10.854l395.878-197.222c40.96-20.275 109.978-20.275 150.938 0l395.878 197.222c11.878 5.939 26.419 1.024 32.358-10.854s1.024-26.419-10.854-32.358l-395.878-197.222c-27.034-13.517-62.054-20.275-96.87-20.275zM512-58.47c-34.816 0-69.837 6.758-96.87 20.48l-396.083 197.632c-11.878 5.939-16.794 20.48-10.854 32.358s20.48 16.794 32.358 10.854l395.878-197.632c40.96-20.48 109.978-20.48 150.733 0l395.878 197.632c11.878 5.939 26.419 1.024 32.358-10.854s1.024-26.419-10.854-32.358l-395.878-197.632c-26.829-13.517-61.85-20.48-96.666-20.48z" />
<glyph unicode="&#xe917;" glyph-name="channels2" d="M206.438 920.064c-43.827-42.598-66.355-99.942-66.355-161.178 0-60.006 22.528-117.35 66.15-161.178l-37.478-38.707c-56.115 56.115-83.558 129.843-84.787 203.571 1.229 68.813 24.986 139.878 83.558 197.427l38.912-39.936zM808.55-59.494c-4.915-2.458-10.035-2.458-16.179-2.458-17.408 0-35.021 10.035-41.165 28.672l-13.722 35.021h-459.981l-13.722-35.021c-6.144-18.842-23.757-28.672-41.165-28.672-6.144 0-11.264 0-16.179 2.458-23.757 8.806-35.021 35.021-26.214 58.778l277.299 713.523 42.394 28.672h16.179l41.165-28.672 277.299-713.523c9.011-23.962-2.253-50.176-26.010-58.778zM338.739 850.022c-26.214-24.986-39.936-61.235-39.936-93.798s12.493-64.922 36.25-88.678l-35.021-35.021c-33.792 33.792-54.886 81.101-54.886 127.386 0 43.827 17.408 88.678 57.549 127.386l36.045-37.274zM464.896 46.592l-122.47 121.242-47.309-121.242h169.779zM360.038 214.118l41.165-39.936 77.414 76.186-74.957 74.957-43.622-111.206zM424.96 366.49l84.992-83.763 84.992 83.763h-169.984zM587.366 141.619l-77.414 77.414-77.414-77.414 77.414-77.414 77.414 77.414zM437.453 411.546h140.083l-70.042 181.248-70.042-181.248zM449.946 800.051c0 31.334 26.214 57.549 57.549 57.549 32.563 0 57.549-26.214 57.549-57.549 0-31.13-24.986-57.549-57.549-57.549-31.334 0-57.549 26.419-57.549 57.549zM612.352 321.434l-71.27-71.27 77.414-76.186 37.478 36.25-43.622 111.206zM719.872 46.592l-46.285 118.784-118.784-118.784h165.069zM682.394 665.088c26.214 24.986 39.936 61.235 39.936 95.027 0 30.106-12.493 63.693-36.25 88.678l35.021 35.021c32.563-36.25 55.091-81.306 55.091-128.819 0-43.622-17.408-88.678-56.32-126.157l-37.478 36.25zM814.899 595.046c43.622 42.394 66.15 99.942 64.922 161.178 1.229 60.006-21.299 118.784-64.922 162.406l37.478 36.25c56.32-54.886 83.763-128.614 84.992-202.342-1.229-68.813-24.986-139.878-83.763-196.198l-38.707 38.707z" />
<glyph unicode="&#xe918;" glyph-name="microphone" d="M512 250.982c108.339 0 197.018 88.678 197.018 197.018v314.982c0 45.056-15.974 86.221-41.779 119.603v-220.979h-37.683v258.253c-16.179 12.083-33.997 21.504-53.248 28.262v-286.72h-37.683v295.936c-8.806 1.229-17.613 2.662-26.624 2.662s-17.818-1.434-26.624-2.662v-295.731h-37.683v286.72c-19.251-6.758-37.274-16.179-53.248-28.262v-258.253h-37.683v220.774c-25.805-33.382-41.779-74.547-41.779-119.603v-314.982c0-108.339 88.678-197.018 197.018-197.018zM826.982 566.17c-21.504 0-39.322-17.818-39.322-39.322v-78.848c0-151.962-123.699-275.661-275.661-275.661s-275.661 123.699-275.661 275.661v78.848c0 21.504-17.818 39.322-39.322 39.322s-39.322-17.818-39.322-39.322v-78.848c0-182.067 137.83-332.39 314.982-352.051v-81.306h-157.491c-21.504 0-39.322-17.818-39.322-39.322s17.818-39.322 39.322-39.322h393.83c21.504 0 39.322 17.818 39.322 39.322s-17.818 39.322-39.322 39.322h-157.491v81.306c177.152 19.661 314.982 169.779 314.982 352.051v78.848c0 21.504-17.818 39.322-39.526 39.322z" />
<glyph unicode="&#xe919;" glyph-name="ads" d="M1022.362 520.909c0-40.55-32.563-72.909-72.909-72.909v-218.726c0-39.936-33.178-72.909-72.909-72.909-101.376 84.173-264.806 199.885-462.438 216.474-67.584-22.733-91.136-101.99-46.694-147.661-39.936-65.331 11.469-111.616 71.68-158.925-35.43-69.427-182.272-70.451-234.701-22.323-32.973 101.581-81.92 202.957-42.189 331.162h-69.427c-50.176 0-91.136 41.165-91.136 91.136v109.363c0 50.176 40.96 91.136 91.136 91.136h273.408c218.726 0 400.998 127.59 510.362 218.726 39.936 0 72.909-33.178 72.909-72.909v-218.726c40.346 0 72.909-32.563 72.909-72.909zM876.544 793.088c-148.685-113.869-292.864-179.61-437.453-195.379v-153.805c144.794-15.974 288.973-80.282 437.453-194.15v543.334z" />
<glyph unicode="&#xe91a;" glyph-name="it" d="M950.067 812.339v-71.475c0-81.51-193.536-147.661-438.067-147.661s-438.067 66.15-438.067 147.661v71.475c0 81.51 193.536 147.661 438.067 147.661s438.067-66.15 438.067-147.661zM950.067 618.598v-96.87c0-81.51-193.536-147.661-438.067-147.661s-438.067 66.355-438.067 147.866v96.87c91.546-66.355 264.806-96.87 438.067-96.87s346.522 30.515 438.067 96.666zM950.067 399.667v-96.87c0-81.51-193.536-147.661-438.067-147.661s-438.067 66.15-438.067 147.661v96.87c91.546-66.355 264.806-96.87 438.067-96.87s346.522 30.515 438.067 96.87zM950.067 180.531v-96.87c0-81.51-193.536-147.661-438.067-147.661s-438.067 66.15-438.067 147.661v96.87c91.75-66.15 265.011-96.87 438.067-96.87s346.522 30.72 438.067 96.87z" />
<glyph unicode="&#xe91b;" glyph-name="search" d="M933.888 142.643l-211.968 211.968c31.949 52.429 50.381 114.074 50.381 180.224 0 191.488-166.093 357.581-357.786 357.581s-346.931-155.443-346.931-346.931 166.093-357.581 357.581-357.581c63.693 0 123.494 17.203 174.694 47.309l212.992-213.197c20.89-20.89 54.682-20.89 75.571 0l52.838 52.838c20.89 20.685 13.312 46.899-7.373 67.789zM174.285 545.485c0 132.71 107.52 240.23 240.23 240.23s250.88-118.17 250.88-250.88c0-132.71-107.52-240.23-240.23-240.23s-250.88 118.17-250.88 250.88z" />
<glyph unicode="&#xe91c;" glyph-name="megaphone" d="M1023.181 520.909c0-40.55-32.563-73.114-73.114-73.114v-219.136c0-39.936-33.178-73.114-73.114-73.114-101.581 84.378-265.216 200.294-463.258 216.883-67.789-22.733-91.341-102.195-46.694-147.866-39.936-65.536 11.469-111.821 71.885-159.13-35.43-69.632-182.682-70.656-235.11-22.323-32.973 101.786-82.125 203.366-42.189 331.776h-69.427c-50.176 0-91.341 41.165-91.341 91.341v109.568c0 50.176 40.96 91.341 91.341 91.341h273.818c219.136 0 401.613 127.795 511.181 219.136 39.936 0 73.114-33.178 73.114-73.114v-219.136c40.346 0 72.909-32.563 72.909-73.114zM877.158 793.702c-148.89-114.074-293.274-179.814-438.272-195.789v-154.010c144.998-15.974 289.382-80.486 438.272-194.56v544.358z" />
<glyph unicode="&#xe91d;" glyph-name="content-channel" d="M872.243 747.008h-730.317c-19.251 0-34.816 15.565-34.816 34.816s15.565 34.816 34.816 34.816h730.317c19.251 0 34.816-15.565 34.816-34.816s-15.77-34.816-34.816-34.816zM820.429 905.114h-609.28c-15.155 0-27.443 12.288-27.443 27.443s12.288 27.443 27.443 27.443h609.28c15.155 0 27.443-12.288 27.443-27.443s-12.288-27.443-27.443-27.443zM53.453 652.595c-10.035 0-18.432-8.192-18.432-18.432v-679.526c0-10.035 8.192-18.432 18.432-18.432h917.299c10.035 0 18.432 8.192 18.432 18.432v679.526c0 10.035-8.192 18.432-18.432 18.432h-917.299zM353.69 542.822c-22.733-22.118-34.406-52.019-34.406-83.968 0-31.13 11.674-61.030 34.406-83.968l-19.456-20.070c-29.286 29.286-43.622 67.584-44.237 106.086 0.614 35.84 13.107 72.909 43.622 102.81l20.070-20.89zM667.238 33.28c-2.662-1.229-5.12-1.229-8.397-1.229-9.011 0-18.227 5.12-21.504 14.95l-7.168 18.227h-239.411l-7.168-18.227c-3.277-9.83-12.288-14.95-21.504-14.95-3.277 0-5.939 0-8.397 1.229-12.288 4.506-18.227 18.227-13.722 30.515l144.384 371.302 22.118 14.95h8.397l21.504-14.95 144.384-371.302c4.71-12.493-1.229-26.214-13.517-30.515zM422.707 506.573c-13.722-13.107-20.89-31.949-20.89-48.742 0-16.998 6.554-33.792 18.842-46.080l-18.227-18.227c-17.613 17.613-28.672 42.189-28.672 66.355 0 22.733 9.011 46.080 29.901 66.355l19.046-19.661zM488.243 88.576l-63.693 63.078-24.781-63.078h88.474zM433.766 175.616l21.504-20.89 40.346 39.731-38.912 38.912-22.938-57.754zM467.354 254.874l44.237-43.622 44.237 43.622h-88.474zM552.141 137.728l-40.346 40.346-40.346-40.346 40.346-40.346 40.346 40.346zM474.112 278.221h72.909l-36.454 94.208-36.454-94.208zM480.461 480.563c0 16.179 13.722 29.901 29.901 29.901 16.998 0 29.901-13.722 29.901-29.901s-13.107-29.901-29.901-29.901c-16.384-0.205-29.901 13.517-29.901 29.901zM565.043 231.322l-37.069-37.069 40.346-39.731 19.456 18.842-22.733 57.958zM620.954 88.576l-23.962 61.85-61.85-61.85h85.811zM601.498 410.317c13.722 13.107 20.89 31.949 20.89 49.357 0 15.565-6.554 33.178-18.842 46.080l18.227 18.227c16.998-18.842 28.672-42.189 28.672-66.97 0-22.733-9.011-46.080-29.286-65.741l-19.661 19.046zM670.106 374.067c22.733 22.118 34.406 52.019 33.792 83.968 0.614 31.13-11.059 61.85-33.792 84.582l19.456 18.842c29.286-28.672 43.622-66.97 44.237-105.267-0.614-35.84-13.107-72.909-43.622-102.195l-20.070 20.070z" />
<glyph unicode="&#xe91e;" glyph-name="dashboard" d="M867.738 397.005c-38.912 0-70.246-30.72-70.246-69.018s31.334-69.018 70.246-69.018c38.912 0 70.246 30.72 70.246 69.018-0.205 38.298-31.334 69.018-70.246 69.018zM774.963 655.667c-38.912 0-70.246-30.72-70.246-69.018s31.334-69.018 70.246-69.018c38.912 0 70.246 30.72 70.246 69.018 0 38.093-31.334 69.018-70.246 69.018zM521.626 741.683c-38.912 0-70.246-30.72-70.246-69.018s31.334-69.018 70.246-69.018c38.912 0 70.246 30.72 70.246 69.018-0.205 38.298-31.334 69.018-70.246 69.018zM175.514 397.005c38.912 0 70.246-30.72 70.246-69.018s-31.334-69.018-70.246-69.018c-38.912 0-70.246 30.72-70.246 69.018s31.334 69.018 70.246 69.018zM268.083 655.667c38.912 0 70.246-30.72 70.246-69.018s-31.334-69.018-70.246-69.018c-38.912 0-70.246 30.72-70.246 69.018 0 38.093 31.334 69.018 70.246 69.018zM629.76 526.234l-55.296-206.234c35.635-24.166 54.272-68.608 42.803-112.23-14.746-55.091-72.294-88.474-128.819-73.933-55.91 14.541-89.907 71.27-75.162 126.771 12.083 43.622 49.971 73.318 93.184 76.595l55.296 206.234c4.915 18.432 24.166 29.696 42.803 24.781 18.637-4.71 29.491-23.757 25.19-41.984zM897.638 46.592h-768.819c-19.046 0-36.659 9.421-47.309 24.986-53.248 81.715-81.101 175.923-81.101 272.794-0.205 278.528 229.99 505.037 512.819 505.037s512.819-226.509 512.819-505.037c0-96.256-27.853-190.464-80.691-272.384l-0.41-0.41c-10.65-15.77-28.262-24.986-47.309-24.986zM513.229 806.4c-259.072 0-469.811-207.258-469.811-462.029 0-88.474 25.6-174.49 73.933-249.037 2.458-3.482 6.758-5.939 11.469-5.939h768.819c4.71 0 9.011 2.253 11.674 6.144 48.128 74.957 73.728 160.973 73.728 248.627 0 254.976-210.739 462.234-469.811 462.234z" />
<glyph unicode="&#xe91f;" glyph-name="labels" d="M478.208 960v-1023.59l148.89 74.957v202.547l132.301 36.25v-172.032l69.837 35.226v659.046l-351.027 187.597zM592.077 262.246l-72.909-15.155v116.531l72.909 6.144v-107.52zM592.077 425.267l-72.909-1.434v116.326l72.909-7.578v-107.315zM592.077 588.083l-72.909 12.083v116.531l72.909-21.094v-107.52zM592.077 750.899l-72.909 25.805v116.531l72.909-34.816v-107.52zM684.442 279.040l-57.549-12.083v102.81l57.549 4.915v-95.642zM684.442 429.158l-57.549-1.024v102.81l57.549-6.144v-95.642zM684.442 573.542l-57.549 9.626v102.81l57.549-16.794v-95.642zM684.442 717.926l-57.549 20.275v102.81l57.549-27.443v-95.642zM759.398 296.038l-47.514-9.83v94.003l47.514 3.891v-88.064zM759.398 428.749l-47.514-1.024v94.003l47.514-4.915v-88.064zM759.398 560.435l-47.514 7.987v94.003l47.514-13.926v-88.064zM759.398 691.302l-47.514 16.794v93.798l47.514-22.733v-87.859zM818.995 307.507l-39.117-8.192v84.787l39.117 3.277v-79.872zM818.995 429.568l-39.117-0.819v84.787l39.117-4.096v-79.872zM818.995 551.424l-39.117 6.554v84.787l39.117-11.469v-79.872zM818.995 670.413l-39.117 13.926v84.787l39.117-18.637v-80.077zM194.97 811.315l283.238 148.685v-105.267l-283.238-118.374v74.957zM194.97 693.76l283.238 97.485v-128.205l-283.238-60.416v91.136zM198.451 560.64l279.757 46.694v-124.928l-279.757-11.264v89.498zM194.97 429.158l283.238-5.53v-123.29l-283.238 40.96v87.859zM198.451 295.629l279.757-58.368v-123.29l-279.757 93.389v88.269zM198.451 163.533l279.757-107.52v-120.013l-279.757 141.722v85.811z" />
<glyph unicode="&#xe920;" glyph-name="barcode" d="M0.41 45.978c0 267.878 0 536.166 0 803.84 12.083 0 23.962 0 36.045 0 0-267.264 0-534.938 0-803.84-12.698 0-23.962 0-36.045 0zM54.067 46.592c0 267.878 0 535.552 0 803.43 6.349 0 12.083 0 18.227 0 0-267.264 0-534.938 0-803.43-6.144 0-11.264 0-18.227 0zM108.339 46.592c0 267.878 0 535.552 0 803.43 5.734 0 12.083 0 17.613 0 0-267.264 0-534.938 0-803.43-5.53 0-11.264 0-17.613 0zM198.042 46.592c0 267.878 0 535.552 0 803.43 5.734 0 12.083 0 17.613 0 0-267.264 0-534.938 0-803.43-5.734 0-10.854 0-17.613 0zM269.926 46.592c0 267.878 0 535.552 0 803.43 12.083 0 23.962 0 35.43 0 0-267.264 0-534.938 0-803.43-11.469 0-22.938 0-35.43 0zM359.629 46.592c0 267.878 0 535.552 0 803.43 5.734 0 12.083 0 17.613 0 0-267.264 0-534.938 0-803.43-5.734 0-11.469 0-17.613 0zM395.469 46.592c0 267.878 0 535.552 0 803.43 5.734 0 12.083 0 17.613 0 0-267.264 0-534.938 0-803.43-5.53 0-11.264 0-17.613 0zM431.514 46.592c0 267.878 0 535.552 0 803.43 5.734 0 12.083 0 17.613 0 0-267.264 0-534.938 0-803.43-5.53 0-11.264 0-17.613 0zM502.784 46.592c0 267.878 0 535.552 0 803.43 12.083 0 23.962 0 36.045 0 0-267.264 0-534.938 0-803.43-11.878 0-22.938 0-36.045 0zM592.486 46.592c0 267.878 0 535.552 0 803.43 12.083 0 23.962 0 36.045 0 0-267.264 0-534.938 0-803.43-11.469 0-22.938 0-36.045 0zM664.371 46.592c0 267.878 0 535.552 0 803.43 12.083 0 23.962 0 36.045 0 0-267.264 0-534.938 0-803.43-12.083 0-23.347 0-36.045 0zM736.461 46.592c0 267.878 0 535.552 0 803.43 12.083 0 23.962 0 36.045 0 0-267.264 0-534.938 0-803.43-12.083 0-23.552 0-36.045 0zM790.118 46.592c0 267.878 0 535.552 0 803.43 12.083 0 23.962 0 36.045 0 0-267.264 0-534.938 0-803.43-12.083 0-22.938 0-36.045 0zM880.23 46.592c0 267.878 0 535.552 0 803.43 17.613 0 35.43 0 53.658 0 0-267.264 0-534.938 0-803.43-17.613 0-35.43 0-53.658 0zM951.706 46.592c0 267.878 0 535.552 0 803.43 6.349 0 12.083 0 18.227 0 0-267.264 0-534.938 0-803.43-6.349 0-11.469 0-18.227 0zM987.546 45.978c0 268.288 0 536.166 0 803.84 12.083 0 23.962 0 36.045 0 0-267.878 0-536.166 0-803.84-11.469 0-22.938 0-36.045 0z" />
<glyph unicode="&#xe921;" glyph-name="music-report" d="M545.792 604.877h-40.141v-327.475c-22.323 8.602-50.995 8.602-79.462-1.638-50.79-18.432-81.101-63.488-67.584-100.557s65.536-52.019 116.326-33.587c43.213 15.77 71.475 50.586 70.656 83.354v267.878c70.042-11.059 74.957-99.738 66.56-124.518-3.277-9.421 2.458-16.384 13.107 0 75.776 117.555-79.462 169.574-79.462 236.544zM952.525 648.909v-658.842c0-30.31-24.576-54.886-54.886-54.886h-768.614c-30.31 0-54.886 24.576-54.886 54.886v915.046c0 30.31 24.576 54.886 54.886 54.886h512.41c30.31 0 72.499-17.818 93.798-38.912l178.381-178.381c21.094-21.094 38.912-63.488 38.912-93.798zM858.112 585.421h-224.256c-28.467 0-51.814 23.142-51.814 51.814v224.051h-413.696v-827.597h689.766v551.731zM640.41 647.885h215.040c-3.482 9.83-8.602 19.456-12.493 23.552l-178.995 178.995c-4.096 4.096-13.722 9.216-23.552 12.493v-215.040z" />
<glyph unicode="&#xe922;" glyph-name="costumer" d="M2.867 448.205c0-281.805 228.557-510.566 510.566-510.566s510.566 228.762 510.566 510.566c0 282.010-228.557 510.566-510.566 510.566s-510.566-228.557-510.566-510.566zM877.363 146.125c-47.104 19.661-158.72 58.368-227.533 78.438-5.939 1.843-6.758 2.253-6.758 26.624 0 20.275 8.397 40.755 16.384 57.958 8.806 18.637 19.251 50.176 22.938 78.234 10.445 12.288 24.781 36.25 33.792 81.715 7.987 40.141 4.301 54.886-1.024 68.608-0.614 1.434-1.229 3.072-1.638 4.301-2.048 9.421 0.819 58.573 7.578 96.666 4.71 26.010-1.229 81.51-37.069 127.386-22.733 29.082-66.15 64.717-145.408 69.632h-43.418c-78.029-4.915-121.446-40.755-144.179-69.632-35.84-45.875-41.984-101.376-37.069-127.386 6.963-38.093 9.626-87.245 7.782-96.461-0.41-1.434-1.024-3.072-1.638-4.506-5.325-13.722-9.011-28.467-1.024-68.608 9.216-45.67 23.347-69.427 33.792-81.715 3.686-28.262 14.131-59.597 22.938-78.234 6.554-13.722 9.421-32.358 9.421-58.778 0-24.576-0.819-24.781-6.349-26.419-71.27-21.094-184.934-62.259-227.123-80.691-69.632 82.33-111.616 188.826-111.616 304.947 0 261.12 212.378 473.293 473.498 473.293s473.498-212.173 473.498-473.293c-0.205-114.688-41.37-219.955-109.773-302.080 0 0 68.403 82.125 0 0z" />
<glyph unicode="&#xe923;" glyph-name="tracks" d="M608.051 960h-87.245v-710.861c-48.333 18.637-110.592 18.842-172.237-3.482-110.387-40.141-176.128-137.83-146.842-218.112s142.336-112.845 252.723-72.704c93.798 33.997 155.034 109.773 153.6 180.838l0.205 581.427c152.166-23.962 162.611-216.269 144.384-270.131-6.963-20.48 5.325-35.84 28.262 0 163.635 254.976-172.851 367.616-172.851 513.024z" />
<glyph unicode="&#xe924;" glyph-name="camera" d="M895.181 382.464l61.645 54.272h65.126v-290.611h-67.994l-58.982 59.802h-54.886v176.538h55.091zM105.472 96.154c0-17.203 13.926-31.334 31.334-31.334h642.048c17.203 0 31.334 13.926 31.334 31.334v405.914c0 17.203-13.926 31.334-31.334 31.334h-642.048c-17.203 0-31.334-13.926-31.334-31.334v-405.914zM168.141 434.074c0 15.565 12.698 28.262 28.262 28.262h514.662c15.565 0 28.262-12.698 28.262-28.262s-12.698-28.262-28.262-28.262h-514.867c-15.565 0.205-28.058 12.698-28.058 28.262zM198.042 716.288l-80.486-79.053 81.92-80.691h160.973zM182.682 721.818l-69.632-68.198-111.206 39.731 140.288 137.83z" />
<glyph unicode="&#xe925;" glyph-name="pause" d="M1024.614 486.912c0 0 0.614 82.944-10.24 165.888-9.216 70.861-40.55 101.786-40.55 101.786-38.912 41.165-82.944 41.165-103.014 43.418 0 0-143.155 10.24-358.81 10.24s-358.81-10.035-358.81-10.035c-20.070-2.253-64.102-2.253-103.014-43.418 0 0-31.539-30.925-40.55-101.786-10.854-82.944-10.24-165.888-10.24-165.888v-77.824c0 0-0.614-82.944 10.24-165.888 9.216-70.451 40.55-101.786 40.55-101.786 38.912-40.55 90.317-39.526 113.254-43.418 0 0 81.92-7.987 348.57-10.24 215.654 0 358.81 10.854 358.81 10.854 20.070 2.253 64.102 2.253 103.014 43.008 0 0 31.539 31.539 40.55 101.786 10.854 82.944 10.24 165.888 10.24 165.888v77.414zM488.448 318.362c0-6.349-5.325-11.878-11.878-11.878h-94.413c-6.349 0-11.878 5.325-11.878 11.878v259.277c0 6.349 5.325 11.878 11.878 11.878h94.413c6.349 0 11.878-5.325 11.878-11.878v-259.277zM653.517 318.362c0-6.349-5.325-11.878-11.878-11.878h-94.413c-6.349 0-11.878 5.325-11.878 11.878v259.277c0 6.349 5.325 11.878 11.878 11.878h94.413c6.349 0 11.878-5.325 11.878-11.878v-259.277z" />
</font>
</defs>
</svg>
