<?xml version="1.0" standalone="no"?>
<!DOCTYPE svg PUBLIC "-//W3C//DTD SVG 1.1//EN" "http://www.w3.org/Graphics/SVG/1.1/DTD/svg11.dtd" >
<svg xmlns="http://www.w3.org/2000/svg">
<metadata>Generated by IcoMoon</metadata>
<defs>
<font id="scoutIcons" horiz-adv-x="1024">
<font-face units-per-em="1024" ascent="960" descent="-64" />
<missing-glyph horiz-adv-x="1024" />
<glyph unicode="&#x20;" horiz-adv-x="512" d="" />
<glyph unicode="&#xe001;" glyph-name="uE001-exclamation-mark-circle" horiz-adv-x="1003" d="M532.651 280.521c-8.789 5.845-19.115 9.003-29.653 9.003-14.123 0-27.733-5.632-37.717-15.616-10.027-9.984-15.616-23.552-15.616-37.717 0-10.539 3.157-20.864 9.003-29.611 5.803-8.789 14.208-15.616 23.893-19.627 9.771-4.053 20.48-5.077 30.848-3.029 10.325 2.048 19.84 7.125 27.307 14.592s12.544 16.981 14.635 27.307c2.005 10.325 1.024 21.077-3.029 30.805-4.096 9.728-10.923 18.048-19.669 23.893zM502.997 385.524c17.664 0 32 14.336 32 32v277.333c0 17.664-14.336 32-32 32s-32-14.336-32-32v-277.333c0-17.664 14.336-32 32-32zM501.333 940.19c-276.437 0-501.333-224.896-501.333-501.333s224.896-501.333 501.333-501.333 501.333 224.896 501.333 501.333-224.896 501.333-501.333 501.333zM501.333 1.524c-241.152 0-437.333 196.181-437.333 437.333s196.181 437.333 437.333 437.333 437.333-196.181 437.333-437.333-196.181-437.333-437.333-437.333z" />
<glyph unicode="&#xe002;" glyph-name="uE002-info" horiz-adv-x="1003" d="M491.52 613.364c9.813-3.84 20.48-4.693 30.72-2.987 10.24 2.133 20.053 7.253 27.307 14.507s12.373 17.067 14.507 27.307c2.133 10.24 0.853 20.907-2.987 30.72s-10.667 18.347-19.2 24.32c-8.96 5.973-19.2 8.96-29.867 8.96-14.080 0-27.733-5.547-37.547-15.787-10.24-9.813-15.787-23.467-15.787-37.547 0-10.667 2.987-20.907 8.96-29.44 5.973-8.96 14.080-15.787 23.893-20.053zM501.333 940.19c-276.48 0-501.333-224.853-501.333-501.333s224.853-501.333 501.333-501.333 501.333 224.853 501.333 501.333-224.853 501.333-501.333 501.333zM501.333 1.524c-241.067 0-437.333 196.267-437.333 437.333s196.267 437.333 437.333 437.333 437.333-196.267 437.333-437.333-196.267-437.333-437.333-437.333zM640 236.19h-96v245.333c0 17.493-14.507 32-32 32h-128c-17.493 0-32-14.507-32-32s14.507-32 32-32h96v-213.333h-96c-17.493 0-32-14.507-32-32s14.507-32 32-32h256c17.493 0 32 14.507 32 32s-14.507 32-32 32z" />
<glyph unicode="&#xe003;" glyph-name="uE003-file" horiz-adv-x="847" d="M837.978 674.484l-266.603 266.56c-6.063 6.042-14.106 9.374-22.647 9.374h-440.017c-59.878-0.060-108.646-48.832-108.71-108.706v-806.144c0.064-59.878 48.832-108.668 108.71-108.71h629.978c59.831 0.043 108.625 48.832 108.71 108.71v616.29c-0.004 8.457-3.46 16.708-9.421 22.626zM474.103 548.19c6.042-6.084 14.084-9.417 22.647-9.417h286.605v-503.206c0-24.623-20.041-44.668-44.668-44.71h-629.978c-24.627 0.043-44.689 20.083-44.71 44.71v806.144c0.021 24.623 20.083 44.689 44.71 44.706h356.062v-315.644c-0.021-8.542 3.29-16.542 9.331-22.583zM535.479 886.418l247.876-247.812v-35.831h-254.605v283.644h6.729z" />
<glyph unicode="&#xe004;" glyph-name="uE004-clock" horiz-adv-x="1003" d="M501.333 940.19c-276.48 0-501.333-224.853-501.333-501.333s224.853-501.333 501.333-501.333 501.333 224.853 501.333 501.333-224.853 501.333-501.333 501.333zM501.333 1.524c-241.067 0-437.333 196.267-437.333 437.333s196.267 437.333 437.333 437.333 437.333-196.267 437.333-437.333-196.267-437.333-437.333-437.333zM334.933 646.217c-14.080 10.667-34.133 7.68-44.8-6.4-10.24-14.080-7.68-34.133 6.4-44.8l195.84-146.773v-337.92c0-17.493 14.507-32 32-32s32 14.507 32 32v353.707c0 10.24-4.693 19.627-12.8 25.6l-208.64 156.587z" />
<glyph unicode="&#xe005;" glyph-name="uE005-checked-bold" d="M897.609 781.824l-531.383-531.419-239.909 239.909c-28.453 28.489-74.606 28.489-103.022 0-28.489-28.453-28.489-74.569 0-102.985l291.438-291.438c14.19-14.226 32.841-21.358 51.493-21.358s37.303 7.131 51.493 21.358l582.912 582.875c28.489 28.453 28.489 74.569 0 103.022-28.453 28.489-74.569 28.489-103.058 0.037z" />
<glyph unicode="&#xe006;" glyph-name="uE006-group" horiz-adv-x="1017" d="M0 938.219h712.917v-63.979h-712.917v63.979zM0 626.616h712.917v-63.979h-712.917v63.979zM0 315.094h712.917v-64.043h-712.917v64.043zM0 3.512h712.917v-64.043h-712.917v64.043zM1016.623 750.447c3.708 99.085-73.707 183.292-172.791 187.772l-7.040 0.311v-63.876l6.332-0.418c63.834-4.126 112.96-59.499 109.5-124.169 3.499-63.936-45.623-119.334-109.5-123.46l-6.332-0.418v-63.876l7.040 0.311c99.127 4.489 176.542 88.721 172.791 187.823zM843.831 315.094l-7.040 0.29v-63.915l6.332-0.375c63.876-4.126 112.998-59.499 109.5-124.207 3.46-63.915-45.666-119.292-109.5-123.418l-6.332-0.375v-63.915l7.040 0.29c99.166 4.501 176.666 88.875 172.791 187.541 3.917 99.209-73.583 183.582-172.791 188.083z" />
<glyph unicode="&#xe007;" glyph-name="uE007-group-plus" horiz-adv-x="1017" d="M0 938.45h712.896v-64h-712.896v64zM0 626.885h712.896v-63.979h-712.896v63.979zM0 315.303h419.729v-64h-419.729v64zM0 3.717h419.729v-64.043h-419.729v64.043zM1016.606 750.678c3.708 99.085-73.707 183.292-172.791 187.772l-7.040 0.311v-63.898l6.332-0.418c63.876-4.105 112.998-59.477 109.5-124.147 3.499-63.915-45.623-119.292-109.5-123.418l-6.332-0.418v-63.876l7.040 0.311c99.081 4.489 176.499 88.695 172.791 187.78zM827.106 373.846h-64.043v-185.25h-185.207v-64.043h185.207v-185.293h64.043v185.293h185.289v64.043h-185.289z" />
<glyph unicode="&#xe008;" glyph-name="uE008-ellipsis-circle" horiz-adv-x="1003" d="M821.333 438.857c0-35.346-28.654-64-64-64s-64 28.654-64 64c0 35.346 28.654 64 64 64s64-28.654 64-64zM565.333 438.857c0-35.346-28.654-64-64-64s-64 28.654-64 64c0 35.346 28.654 64 64 64s64-28.654 64-64zM309.333 438.857c0-35.346-28.654-64-64-64s-64 28.654-64 64c0 35.346 28.654 64 64 64s64-28.654 64-64zM501.333 940.19c-276.437 0-501.333-224.896-501.333-501.333s224.896-501.333 501.333-501.333 501.333 224.896 501.333 501.333-224.896 501.333-501.333 501.333zM501.333 1.524c-241.152 0-437.333 196.181-437.333 437.333s196.181 437.333 437.333 437.333 437.333-196.181 437.333-437.333-196.181-437.333-437.333-437.333z" />
<glyph unicode="&#xe009;" glyph-name="uE009-group-remove" horiz-adv-x="1017" d="M0 938.219h712.917v-63.979h-712.917v63.979zM0 626.616h712.917v-63.979h-712.917v63.979zM0 315.051h419.793v-64.043h-419.793v64.043zM0 3.512h419.793v-64.043h-419.793v64.043zM1016.623 750.405c3.75 99.106-73.668 183.334-172.791 187.814l-7.040 0.311v-63.876l6.332-0.418c63.876-4.126 112.998-59.52 109.5-124.207 3.46-63.915-45.666-119.292-109.5-123.418l-6.332-0.418v-63.876l7.040 0.311c99.085 4.484 176.503 88.695 172.791 187.776zM926.208 332.532l-131.042-131.021-130.999 131.021-45.248-45.269 130.999-131.004-130.999-130.999 45.248-45.291 130.999 131.042 131.042-131.042 45.252 45.291-131.004 130.999 131.004 131.004z" />
<glyph unicode="&#xe010;" glyph-name="uE010-angle-double-left" horiz-adv-x="622" d="M622.396 709.615l-48.375 41.852-270.874-312.602 270.874-312.606 48.375 41.877-234.624 270.729zM319.228 709.615l-48.375 41.852-270.852-312.602 270.852-312.606 48.375 41.877-234.603 270.729z" />
<glyph unicode="&#xe011;" glyph-name="uE011-angle-double-right" horiz-adv-x="622" d="M48.375 753.033l-48.375-41.856 234.624-270.75-234.624-270.665 48.354-41.958 270.98 312.623zM351.501 753.033l-48.333-41.856 234.624-270.75-234.624-270.665 48.333-41.958 270.997 312.623z" />
<glyph unicode="&#xe012;" glyph-name="uE012-angle-left" horiz-adv-x="319" d="M319.356 709.615l-48.375 41.852-270.98-312.602 270.98-312.606 48.375 41.877-234.628 270.729z" />
<glyph unicode="&#xe013;" glyph-name="uE013-angle-right" horiz-adv-x="319" d="M48.397 751.467l-48.397-41.852 234.624-270.75-234.624-270.729 48.397-41.877 270.852 312.606z" />
<glyph unicode="&#xe014;" glyph-name="uE014-angle-down" horiz-adv-x="619" d="M573.999 616.282l-264.375-264.354-264.375 264.354-45.248-45.252 309.623-309.602 309.666 309.602z" />
<glyph unicode="&#xe015;" glyph-name="uE015-angle-up" horiz-adv-x="619" d="M309.585 616.282l-309.585-309.606 45.248-45.248 264.337 264.354 264.371-264.354 45.252 45.248z" />
<glyph unicode="&#xe016;" glyph-name="uE016-long-arrow-down" horiz-adv-x="619" d="M573.978 286.345l-232.375-232.375v889.498h-64v-889.498l-232.371 232.375-45.231-45.252 309.602-309.666 309.67 309.666z" />
<glyph unicode="&#xe017;" glyph-name="uE017-long-arrow-up" horiz-adv-x="619" d="M309.645 946.262l-309.645-309.649 45.248-45.248 232.418 232.354v-889.502h63.979v889.502l232.375-232.354 45.252 45.248z" />
<glyph unicode="&#xe018;" glyph-name="uE018-long-arrow-down-plus" horiz-adv-x="1016" d="M341.645 53.97v889.498h-63.979v-889.498l-232.418 232.375-45.248-45.252 309.645-309.666 309.628 309.666-45.252 45.252zM813.564 640.325v202.103h-64v-202.103h-202.125v-64h202.125v-202.108h64v202.108h202.125v64z" />
<glyph unicode="&#xe019;" glyph-name="uE019-long-arrow-up-plus" horiz-adv-x="1012" d="M619.251 636.613l-309.606 309.606-309.645-309.606 45.231-45.248 232.414 232.354v-889.502h63.979v889.502l232.375-232.354zM809.873 301.385v202.103h-64v-202.103h-202.125v-64h202.125v-202.125h64v202.125h202.129v64z" />
<glyph unicode="&#xe01a;" glyph-name="uE01A-minus" horiz-adv-x="620" d="M0 470.823h619.793v-63.979h-619.793v63.979z" />
<glyph unicode="&#xe01b;" glyph-name="uE01B-plus" horiz-adv-x="620" d="M341.897 470.844v277.897h-64v-277.897h-277.897v-63.979h277.897v-277.897h64v277.897h277.875v63.979z" />
<glyph unicode="&#xe01c;" glyph-name="uE01C-list" horiz-adv-x="973" d="M411.273 790.823h562.21v-63.979h-562.21v63.979zM0 790.823h243.644v-63.979h-243.644v63.979zM0 470.844h243.644v-63.979h-243.644v63.979zM382.396 470.844h591.083v-63.979h-591.083v63.979zM382.396 150.887h591.083v-64.043h-591.083v64.043zM0 150.887h243.644v-64.043h-243.644v64.043z" />
<glyph unicode="&#xe01d;" glyph-name="uE01D-long-arrow-down-remove" horiz-adv-x="970" d="M341.585 53.97v889.498h-63.983v-889.498l-232.371 232.375-45.231-45.252 309.585-309.666 309.687 309.666-45.333 45.252zM969.69 751.22l-45.252 45.227-142.916-142.938-142.916 142.938-45.252-45.227 142.878-142.938-142.878-142.959 45.252-45.231 142.916 142.938 142.916-142.938 45.252 45.231-142.921 142.959z" />
<glyph unicode="&#xe01e;" glyph-name="uE01E-long-arrow-up-remove" horiz-adv-x="1014" d="M314.377 941.47l-4.774 4.749-309.602-309.606 45.248-45.248 232.354 232.354v-889.502h63.983v889.502l232.393-232.354 45.295 45.248zM966.063 412.387l-45.252 45.227-142.955-142.895-142.878 142.895-45.248-45.227 142.874-142.959-142.874-142.916 45.248-45.291 142.878 142.955 142.955-142.955 45.252 45.291-142.916 142.916z" />
<glyph unicode="&#xe01f;" glyph-name="uE01F-filter-remove" horiz-adv-x="839" d="M838.729 257.635l-45.248 45.252-136.085-136.085-136.081 136.085-45.252-45.252 136.085-136.081-136.085-136 45.252-45.295 136.081 136.043 136.085-136.043 45.248 45.295-136.081 136zM63.979 878.469h443.959v64h-507.938v-990.042h63.979v422.916h392.542v63.979h-392.542z" />
<glyph unicode="&#xe020;" glyph-name="uE020-target" horiz-adv-x="1016" d="M507.917 947.26c-135.689 0-263.228-52.855-359.189-148.813-95.936-95.957-148.749-223.539-148.727-359.228 0-135.71 52.855-263.249 148.813-359.206 95.936-95.915 223.479-148.749 359.147-148.749 0.043 0 0.043 0 0.085 0 280.085 0 507.959 227.874 507.959 508.002-0.294 279.846-228.211 507.725-508.087 507.994zM951.957 439.262c-0.252-244.582-199.458-443.75-444.041-444.002-244.791 0.043-443.959 199.249-443.938 444.041 0.021 244.834 199.228 444.002 444.062 443.981 244.791-0.043 443.917-199.228 443.917-444.019zM507.917 732.28c-161.562-0.021-293.001-131.477-293.001-293.065 0.021-161.583 131.499-293.043 293.082-293.043 78.293 0 151.876 30.498 207.206 85.875 55.334 55.334 85.79 128.939 85.79 207.206-0.162 161.425-131.661 292.86-293.077 293.026zM736.998 439.262c-0.124-126.165-102.874-228.915-229.082-229.043-61.167 0-118.686 23.834-161.937 67.085-43.251 43.273-67.063 100.77-67.063 161.958s23.834 118.707 67.106 161.958c43.251 43.251 100.77 67.063 161.937 67.063h0.043c126.289-0.004 228.996-102.754 228.996-229.022zM507.959 529.135c-24 0-46.605-9.335-63.561-26.313-16.977-16.998-26.334-39.561-26.313-63.582 0-49.562 40.311-89.873 89.873-89.873 49.583 0 89.916 40.311 89.916 89.916-0.166 49.412-40.457 89.728-89.916 89.852z" />
<glyph unicode="&#xe021;" glyph-name="uE021-world" horiz-adv-x="969" d="M487.249 923.363l-2.752 0.124c-267.226-0.060-484.561-217.498-484.497-484.727 0.064-267.123 217.395-484.501 484.834-484.501l2.082 0.085c265.583 1.583 481.916 218.918 482.21 484.501-0.294 265.604-216.627 482.957-481.877 484.518zM516.54 470.844v382.417c85.542-32.397 153.25-193.041 160.252-382.417h-160.252zM903.377 406.866c-12.459-162.688-115.959-301.436-267.251-360.064 70.417 107.418 106.581 231.292 104.998 360.064h162.253zM903.377 470.844h-162.249c1.583 128.772-34.581 252.668-104.998 360.043 151.287-58.586 254.788-197.376 267.247-360.043zM676.791 406.866c-7.002-189.397-74.709-350.020-160.252-382.396v382.396h160.252zM452.501 406.866v-381.436c-84.416 34.377-151.189 194.5-158.063 381.436h158.063zM65.647 470.844c12.48 163.332 116.207 302.042 268.062 360.478-60.373-83.187-98.479-215.313-103.27-360.478h-164.791zM333.709 46.383c-151.855 58.415-255.561 197.167-268.062 360.478h164.791c4.791-145.186 42.876-277.308 103.27-360.478zM294.438 470.844c6.874 186.918 73.647 347.063 158.063 381.457v-381.457h-158.063z" />
<glyph unicode="&#xe022;" glyph-name="uE022-chart" horiz-adv-x="970" d="M567.458 917.24h-32.043v-434.398h434.458v32c-0.247 221.649-180.791 402.146-402.415 402.398zM904.333 546.825h-304.875v304.913c162.709-15.518 289.335-142.144 304.875-304.913zM434.833 752.615h-32.896c-107.499-0.124-208.499-42.082-284.416-118.187-75.917-76.083-117.645-177.169-117.521-284.646s42.082-208.478 118.187-284.395c75.959-75.793 176.875-117.542 284.186-117.542 0.145 0 0.311 0 0.457 0 221.623 0.252 402.167 180.749 402.415 402.398v31.979h-370.415v370.394zM739.708 318.238c-15.501-162.769-148.416-293.478-312.085-305.481-186.313-13.457-348.604 126.583-362.249 312.708-6.622 90.15 22.251 177.481 81.314 245.897 57.481 66.581 136.853 107.52 224.166 115.75v-368.875h368.853z" />
<glyph unicode="&#xe027;" glyph-name="uE027-max-bold" horiz-adv-x="1353" d="M0 694.857h108.471l108.471-382.464 108.471 382.464h103.497v-511.671h-83.968v341.065l-98.487-341.431h-68.937l-98.743 341.321v-341.321h-78.775v512zM660.407 694.857h83.968l162.377-511.671h-93.44l-34.487 117.431h-147.895l-34.56-117.504h-93.623l157.623 511.744zM754.176 388.864l-54.272 182.345-49.225-182.345h103.497zM1114.039 453.632l-137.984 241.225h103.497l88.649-164.681 88.759 164.681h93.623l-137.984-247.113 152.759-264.887h-103.497l-103.497 188.343-98.487-188.343h-98.487l152.649 270.775z" />
<glyph unicode="&#xe028;" glyph-name="uE028-min-bold" horiz-adv-x="1353" d="M0 694.857h134.839l134.839-384.073 140.617 384.073h128.951v-512h-105.655v339.529l-123.063-339.529h-87.881l-123.063 339.529v-339.529h-99.584v512zM679.68 694.857h111.36v-512h-111.36v512zM931.657 694.857h99.657l222.647-334.007v334.007h111.36v-512h-99.657l-222.647 334.007v-334.007h-111.36v512z" />
<glyph unicode="&#xe029;" glyph-name="uE029-calendar" d="M907.093 822.857h-148.907v93.867c0 21.333-17.067 34.133-34.133 34.133s-34.133-12.8-34.133-34.133v-93.867h-360.533v93.867c0 21.333-12.8 34.133-29.867 34.133s-34.133-12.8-34.133-34.133v-93.867h-144.213c-64 0-119.040-51.2-119.040-119.467v-661.333c0-64 55.040-115.2 119.040-115.2h785.92c63.573 0 119.040 51.2 119.040 119.467v657.067c-4.267 68.267-55.040 119.467-119.040 119.467zM121.173 758.857h144.64v-76.8c0-17.067 17.067-29.867 34.133-29.867s34.133 12.8 34.133 34.133v72.533h360.96v-76.8c0-17.067 12.8-29.867 29.867-29.867s34.133 12.8 34.133 34.133v72.533h148.907c29.867 0 55.040-25.6 55.040-51.2v-162.133h-893.013v157.867c-4.267 29.867 21.333 55.467 51.2 55.467zM907.093-9.143h-785.92c-29.867 0-55.040 25.6-55.040 55.467v435.2h892.16v-435.2c0-29.867-25.6-55.467-51.2-55.467z" />
<glyph unicode="&#xe02a;" glyph-name="uE02A-search" horiz-adv-x="981" d="M971.52 3.657l-261.547 261.973 11.947 15.787c54.613 71.253 83.2 156.16 83.2 245.333 0 222.293-180.48 402.773-402.347 402.773-222.293 0-402.773-180.48-402.773-402.773s180.48-402.773 402.347-402.773c88.747 0 173.653 28.587 244.907 83.2l15.787 11.947 261.547-261.547c5.547-5.547 14.507-9.387 22.613-9.387s17.067 3.84 22.613 9.387c6.827 6.4 10.667 14.933 10.667 23.467 0.427 8.533-2.987 16.64-8.96 22.613zM740.267 526.75c0-186.027-151.467-337.92-337.493-337.92s-337.493 151.467-337.493 337.92c0 186.453 151.467 337.92 337.493 337.92s337.493-151.893 337.493-337.92z" />
<glyph unicode="&#xe02b;" glyph-name="uE02B-folder" horiz-adv-x="1023" d="M931.042 753.844h-541.333l-85.022 103.77h-304.687v-739.772c0.064-50.581 41.293-91.831 91.895-91.917h839.147c50.624 0.085 91.874 41.335 91.917 91.917v544.128c-0.043 50.581-41.293 91.81-91.917 91.874zM64 793.635h210.398l85.001-103.791h571.686c15.334 0 27.831-12.54 27.831-27.874v-108.169h-894.916v239.834zM958.916 489.801v-371.959c0-15.334-12.501-27.874-27.874-27.874h-839.125c-15.377 0-27.895 12.54-27.917 27.874v371.959h894.916z" />
<glyph unicode="&#xe02c;" glyph-name="uE02C-sum" horiz-adv-x="576" d="M544.013 630.857c17.664 0 32 14.336 32 32v160c0 17.664-14.336 32-32 32h-512c-12.117 0-23.211-6.869-28.629-17.707s-4.267-23.808 3.029-33.493l273.579-364.8-273.579-364.8c-7.253-9.728-8.448-22.699-3.029-33.536s16.512-17.664 28.629-17.664h512c17.664 0 32 14.336 32 32v160c0 17.664-14.336 32-32 32s-32-14.336-32-32v-128h-416l249.6 332.8c8.533 11.392 8.533 27.008 0 38.4l-249.6 332.8h416v-128c0-17.664 14.336-32 32-32z" />
<glyph unicode="&#xe02d;" glyph-name="uE02D-star" horiz-adv-x="898" d="M897.489 535.177c2.001 17.502-10.667 33.417-28.207 35.418l-282.603 31.915-108.228 265.353c-3.23 7.915-9.626 14.31-17.54 17.519-16.311 6.729-35.042-1.165-41.707-17.519l-108.215-265.353-282.581-31.915c-7.834-0.917-15.044-4.625-20.271-10.5-5.709-6.417-8.563-14.626-8.085-23.168 0.499-8.542 4.271-16.375 10.667-22.084l213.709-190.293-66.688-291.541c-1.894-8.29-0.478-16.794 3.981-24 4.523-7.249 11.584-12.335 19.895-14.293 2.458-0.585 4.915-0.832 7.356-0.832 5.897 0 11.686 1.626 16.811 4.834l243.042 150.707 243.042-150.707c6.874-4.373 16.064-5.666 23.104-4.25 8.375 1.668 15.625 6.498 20.373 13.585 4.77 7.125 6.481 15.625 4.813 24l-57.792 292.54 205.124 190.75c5.585 5.21 9.126 12.254 10.001 19.836zM291.029 328.76c2.624 11.375-1.165 23.249-9.894 31.040l-174.332 155.209 230.272 26.044c11.605 1.331 21.564 8.875 26.001 19.708l85.751 210.27 85.773-210.27c4.437-10.833 14.417-18.377 26.044-19.708l232.29-26.249-167.189-155.499c-8.166-7.582-11.75-18.667-9.604-29.623l46.98-237.833-197.397 122.415c-5.043 3.166-10.876 4.834-16.896 4.834-5.999 0-11.831-1.668-16.853-4.834l-194.769-120.751 53.824 235.247z" />
<glyph unicode="&#xe02e;" glyph-name="uE02E-star-marked" horiz-adv-x="897" d="M896.422 537.302c0.875 7.834-1.331 15.543-6.251 21.709-4.915 6.208-11.959 10.082-19.793 10.999l-285.419 32.375-109.248 269.248c-4.561 11.187-15.313 18.415-27.396 18.415s-22.831-7.223-27.396-18.415l-109.269-269.248-285.414-32.375c-7.206-0.832-13.833-4.25-18.688-9.668-5.269-5.875-7.936-13.457-7.501-21.376 0.439-7.876 3.917-15.125 9.792-20.373l215.936-193.126-67.396-295.829c-1.728-7.582-0.354-15.667 3.729-22.165 4.169-6.707 10.688-11.375 18.377-13.167 2.227-0.542 4.501-0.794 6.75-0.794 5.457 0 10.833 1.54 15.582 4.501l245.5 152.917 245.457-152.917c6.417-4.002 14.729-5.248 21.248-3.959 16 3.123 26.5 18.709 23.394 34.709l-58.334 296.708 207.168 193.54c5.171 4.834 8.422 11.332 9.173 18.291zM287.296 329.302c2.377 10.5-1.105 21.457-9.105 28.625l-179.793 160.751 237.333 26.957c10.769 1.207 20.002 8.209 24.064 18.249l88.521 218.044 88.478-218.044c4.105-10.044 13.333-17.041 24.064-18.249l239.228-27.166-172.335-160.998c-7.543-7.002-10.833-17.207-8.853-27.29l48.397-246.042-203.354 126.707c-4.689 2.918-10.082 4.459-15.625 4.459s-10.935-1.54-15.625-4.459l-200.917-125.21 55.522 243.665zM546.253 412.22c12.395 10.581 13.897 29.248 3.311 41.668-10.564 12.373-29.291 13.875-41.668 3.332l-83.123-70.959-20.689 17.707-1.293 2.543h-1.847c-5.623 4.041-12.437 6.084-19.418 5.376-7.876-0.585-15.040-4.25-20.186-10.249-10.581-12.416-9.105-31.125 3.273-41.668l40.917-35.085c5.167-4.335 11.665-6.707 18.377-6.707 7.27 0.375 14.98 2.581 20.749 7.458l101.598 86.583z" />
<glyph unicode="&#xe02f;" glyph-name="uE02F-pencil" horiz-adv-x="985" d="M32-53.516c-8.533 0-16.64 3.413-22.613 9.387-8.107 8.107-11.093 19.627-8.533 30.72l75.52 294.827c0.427 0.853 0.853 2.56 1.28 3.413 0 0 0.427 0.853 0.427 1.707 1.707 3.84 3.84 6.827 6.4 9.387l580.267 580.267c34.987 35.413 81.92 55.040 132.267 55.040v0c50.347 0 97.28-19.2 132.693-54.613l1.28-1.28c34.987-35.84 53.76-83.2 53.333-133.12s-20.48-96.853-56.32-131.84l-578.987-578.987c-2.56-2.56-5.973-4.693-9.813-6.4-2.133-0.853-3.413-1.28-4.693-1.707l-294.827-75.52c-2.56-0.853-5.12-1.28-7.68-1.28zM76.373 22.857l188.16 48.213-139.947 139.52-48.213-187.733zM326.827 99.657l526.080 526.080-173.653 173.653-526.507-526.080 174.080-173.653zM898.133 670.964c43.947 47.787 33.28 112.64-12.373 159.573l-0.853 0.853c-23.040 23.040-54.187 35.84-87.040 35.84v15.787-16.213c-31.147 0-50.773-1.707-73.387-22.613l173.653-173.227z" />
<glyph unicode="&#xe031;" glyph-name="uE031-gear" horiz-adv-x="917" d="M456.461 624.175c-0.917 0-1.835 0-2.752-0.021-46.98-0.708-90.854-19.686-123.563-53.419-32.687-33.728-50.291-78.165-49.562-124.915l-0.021-3.793c0.333-96.457 78.895-174.686 175.228-174.686 0.209 0 0.418 0 0.623 0l4.625 0.043c46.793 1.084 90.377 20.292 122.709 54.106 32.333 33.835 49.54 78.229 48.499 124.668 0.043 1.668 0.043 3.354 0 4.937-1.493 96.021-80.077 173.082-175.787 173.082zM568.256 445.492c0.917-29.79-10.543-59.106-31.415-80.439-21.457-21.939-51.499-33.813-82.167-33.69-29.956 0.563-57.916 12.749-78.686 34.313-20.791 21.564-31.936 49.937-31.394 80.252l-0.043 2.291c0 61.687 50.189 111.876 111.876 111.876l2.709-0.043c61.534-1.395 110.494-52.625 109.12-114.56zM878.921 378.991l-56.832 50.227c0.043 4.373 0.085 9.271 0.085 16.499l-0.085 12.625 59.251 43.46c35.917 25.562 46.374 75.29 23.876 113.148l-85.124 146.398-3.418 5.082c-22.665 34.688-67.793 46.938-104.96 28.625l-61.79-30.771c-5.956 3.708-12.292 7.356-18.876 10.918l-5.751 68.271c-0.333 20.77-8.708 40.23-23.543 54.729-15.415 15.689-36.041 24.457-58.082 24.708h-165.564c-43.145-0.38-78.123-33.131-81.374-75.857l-8.917-74.377c-7.689-4.25-15.147-8.853-22.31-13.73l-65.003 29.252-7.351 2.436c-38.626 12.582-80.687-5.564-97.771-41.728l-81.626-140.459c-24.252-38.229-14.583-89.041 21.999-115.644l59.46-43.605c-0.043-3.418-0.043-7.394-0.043-12.625 0-4.646 0.021-8.811 0.064-12.625l-59.379-43.503c-36.395-26.061-46.562-74.731-23.667-113.148l85.082-146.377 3.29-4.877c22.31-34.752 67.145-47.415 104.021-29.333l61.333 27.665c6.481-4.083 13.188-8 20.335-11.831l5.79-68.25c0.311-20.877 8.708-40.333 23.543-54.793 15.437-15.667 36.019-24.457 58.082-24.751h165.542c44.373 0.418 80.209 35.499 81.583 79.458l5.666 67.042c7.206 4.083 14.208 8.418 20.877 12.958l65.041-29.21 7.458-2.543c38.583-12.335 80.585 5.709 97.668 41.792l81.54 140.459c23.919 37.427 14.921 87.782-20.122 114.283zM739.255 143.343l-99.375 44.207-23.876-17.165c-10.415-7.582-21.585-14.208-33.126-19.584l-17.126-7.71-8.875-105.873c-0.375-9.958-8.166-17.873-17.707-18.415h-165.291c-4.855 0.124-9.395 2.167-12.979 5.918-3.187 3.085-4.958 7.206-5.001 12.169l-8.896 106.999-16.521 7.915c-14.98 7.125-29.5 15.582-43.166 25.165l-14.938 10.543-95.104-42.918c-9.353-3.874-19.938-0.166-24.832 8.875l-85.022 146.21c-5.897 9.916-3.042 22.814 6.686 29.457l86.417 63.377-0.939 17.229c-0.333 6.938-0.439 15.168-0.439 26.833 0 10.313 0.064 15.206 0.29 21.709l1.126 22.374-86.601 63.479c-9.626 6.938-12.25 20.271-5.854 30.541l84.894 146.914c3.477 9.25 17.105 8.896 20.71 8.166l99.187-44.356 23.915 17.374c10.624 7.731 21.999 14.396 33.771 19.814l16.563 7.377 13.248 111.356c0.853 9.481 8.644 17.062 17.771 17.604h165.291c4.877-0.166 9.459-2.21 13.001-5.939 3.123-3.042 4.915-7.27 4.958-12.186l8.875-106.935 16.542-7.957c14.793-7.040 29.082-15.334 42.5-24.644l15.582-10.957 95.249 47.437c9.207 4.002 19.917 0.188 24.708-8.917l85.047-146.193c5.918-9.958 3.042-22.814-6.75-29.436l-86.374-63.394 0.96-17.207c0.29-6.938 0.418-15.104 0.418-26.876 0-10.5-0.043-15.543-0.252-21.73l-1.374-22.332 80.751-71.313 1.626-1.314c9.583-6.959 12.207-20.271 5.833-30.519l-84.834-146.918c-3.337-8.836-16.585-8.96-20.668-8.252z" />
<glyph unicode="&#xe032;" glyph-name="uE032-star-bold" d="M1021.842 559.799l-368.091 33.938-143.104 356.462-143.104-356.462-368.091-33.938 278.089-254.61-85.87-377.71 314.88 199.461 314.88-199.461-81.774 377.71 282.185 254.61zM510.647 228.827l-192.183-123.099 49.079 229.157-167.68 152.795 224.951 21.211 85.87 216.43 85.87-216.43 224.951-21.211-167.68-152.795 49.079-229.157-192.183 123.099z" />
<glyph unicode="&#xe033;" glyph-name="uE033-star-solid" horiz-adv-x="1021" d="M1021.833 559.808l-368.077 33.938-143.122 356.46-143.122-356.46-368.077-33.938 278.095-254.602-85.864-377.699 314.894 199.469 314.894-199.469-81.79 377.699z" />
<glyph unicode="&#xe034;" glyph-name="uE034-person-solid" d="M914.805 206.588c0 0-155.575 49.895-224.417 72.054-58.432-44.454-125.977-70.642-183.614-70.642s-125.182 26.187-183.614 70.642c-68.853-22.159-224.417-72.054-224.417-72.054s-62.774-25.099-62.774-56.486v-138.103c0-14.647 16.279-28.248 31.387-28.248h878.835c15.108 0 31.387 13.601 31.387 28.248v138.103c0 31.387-62.774 56.486-62.774 56.486zM506.774 809.218c-115.609 0-209.246-90.426-209.246-185.675v-126.992c0-96.201 130.633-189.525 209.246-189.525s209.246 93.324 209.246 189.525v126.029c0 96.212-93.648 186.637-209.246 186.637z" />
<glyph unicode="&#xe035;" glyph-name="uE035-remove" horiz-adv-x="747" d="M741.854 762.509l4.791 4.77-44.915 44.898-328.418-328.439-328.418 328.439-44.894-44.898 328.418-328.414-328.418-328.439 44.894-44.915 328.418 328.457 328.418-328.457 44.915 44.915-328.418 328.439z" />
<glyph unicode="&#xe036;" glyph-name="uE036-expand-all" horiz-adv-x="849" d="M419.989 93.031l4.749-4.791 176.162 176.119-45.248 45.252-130.914-130.876-130.914 130.876-45.248-45.252zM424.738 699.102l130.914-130.871 45.248 45.248-176.162 176.098-176.162-176.098 45.248-45.248zM0 950.866h849.481v-63.979h-849.481v63.979zM0-9.092h849.481v-64.038h-849.481v64.038z" />
<glyph unicode="&#xe037;" glyph-name="uE037-collapse-all" horiz-adv-x="849" d="M600.862 710.038l-45.291 45.231-130.914-130.957-130.85 130.957-45.231-45.231 176.081-176.205zM293.807 124.365l130.85 130.914 130.914-130.914 45.291 45.248-176.205 176.141-176.081-176.141zM0 950.866h849.481v-63.979h-849.481v63.979zM0-9.092h849.481v-64.038h-849.481v64.038z" />
<glyph unicode="&#xe038;" glyph-name="uE038-min" horiz-adv-x="1128" d="M591.855 656.282h64v-434.854h-64v434.854zM1064.23 656.282v-301.291l-192.252 288.060-11.959 13.542h-48.58v-435.166h64.038v301.248l192.209-288 12.002-13.581h48.58v435.187zM216.166 329.741l-121.271 326.852h-94.895v-435.166h64v334.519l124.186-334.729h56.021l124.19 334.729v-334.519h63.979v435.166h-94.874z" />
<glyph unicode="&#xe039;" glyph-name="uE039-max" horiz-adv-x="1253" d="M1108.228 447.198l135.334 210.5h-76.126l-97.293-151.249-97.289 151.249h-76.045l135.292-210.5-145.207-225.771h76.126l107.123 166.562 107.17-166.562h76.122zM696.772 657.677h-65.25l-166.481-436.25h68.501l46.272 121.271h168.666l46.293-121.271h68.501l-166.502 436.25zM724.019 406.699h-119.791l59.917 156.979 59.874-156.979zM216.521 329.677l-121.583 327.667h-94.938v-435.917h63.979v335.437l124.459-335.437h56.166l124.437 335.437v-335.437h63.979v435.917h-94.938z" />
<glyph unicode="&#xe03a;" glyph-name="uE03A-avg" horiz-adv-x="851" d="M841.374 854.857c-12.501 12.501-32.768 12.501-45.269 0l-145.237-145.237c-62.336 56.107-144.555 90.624-234.88 90.624-194.091 0-352-157.909-352-352 0-90.325 34.475-172.501 90.581-234.88l-145.195-145.237c-12.501-12.501-12.501-32.768 0-45.269 6.229-6.229 14.421-9.387 22.613-9.387s16.384 3.115 22.613 9.387l146.901 146.901c59.477-45.909 133.717-73.515 214.485-73.515 194.091 0 352 157.909 352 352 0 80.768-27.605 155.008-73.515 214.485l146.901 146.901c12.501 12.459 12.501 32.725 0 45.227zM127.991 448.244c0 158.805 129.195 288 288 288 72.661 0 138.965-27.264 189.653-71.808l-405.845-405.845c-44.544 50.688-71.808 116.949-71.808 189.653zM703.991 448.244c0-158.805-129.195-288-288-288-63.104 0-121.344 20.651-168.832 55.168l401.664 401.664c34.56-47.531 55.168-105.728 55.168-168.832z" />
<glyph unicode="&#xe041;" glyph-name="uE041-ellipsis-v" horiz-adv-x="906" d="M453.321 507.371c-38.541 0-69.897-31.377-69.897-69.918s31.356-69.918 69.897-69.918 69.875 31.377 69.875 69.918-31.334 69.918-69.875 69.918zM453.321 620.207c38.541 0 69.875 31.334 69.875 69.875s-31.334 69.918-69.875 69.918-69.897-31.377-69.897-69.918 31.356-69.875 69.897-69.875zM453.321 254.746c-38.541 0-69.897-31.377-69.897-69.918s31.356-69.918 69.897-69.918 69.875 31.377 69.875 69.918-31.334 69.918-69.875 69.918z" />
<glyph unicode="&#xe044;" glyph-name="uE044-slippery" d="M708.267 600.99c38.4 0 76.8 17.067 102.4 42.667s42.667 64 42.667 102.4-17.067 76.8-42.667 102.4c-55.467 55.467-149.333 55.467-204.8 0-25.6-25.6-42.667-64-42.667-102.4s17.067-76.8 42.667-102.4c29.867-25.6 64-42.667 102.4-42.667zM652.8 805.79c12.8 12.8 34.133 21.333 55.467 21.333s42.667-8.533 55.467-25.6c17.067-17.067 25.6-34.133 25.6-55.467s-8.533-42.667-25.6-55.467c-29.867-29.867-85.333-29.867-115.2 0-17.067 17.067-25.6 34.133-25.6 55.467 4.267 21.333 12.8 42.667 29.867 59.733zM1019.733 315.124l-12.8 21.333c-34.133 51.2-76.8 93.867-128 128s-106.667 55.467-166.4 64c-98.133 17.067-183.467 68.267-243.2 145.067l-72.533 93.867c-12.8 12.8-29.867 17.067-46.933 4.267-12.8-8.533-17.067-29.867-4.267-42.667l68.267-93.867c55.467-72.533 128-123.733 213.333-153.6l-81.067-140.8c-55.467 21.333-119.467 29.867-183.467 21.333-72.533-12.8-136.533-46.933-187.733-102.4-12.8-12.8-12.8-34.133 0-46.933 4.267-4.267 12.8-8.533 21.333-8.533s17.067 4.267 21.333 8.533c38.4 42.667 93.867 72.533 153.6 81.067 46.933 8.533 93.867 4.267 140.8-12.8l-115.2-200.533c-8.533-17.067-4.267-34.133 12.8-42.667 4.267-4.267 8.533-4.267 17.067-4.267 12.8 0 21.333 4.267 25.6 17.067l238.933 409.6h4.267c51.2-8.533 98.133-25.6 145.067-55.467 42.667-29.867 81.067-64 110.933-106.667l12.8-21.333c4.267-8.533 17.067-12.8 25.6-12.8 4.267 0 12.8 0 17.067 4.267 17.067 12.8 21.333 29.867 12.8 46.933zM200.533 46.324h-170.667c-17.067 0-29.867-12.8-29.867-29.867s12.8-29.867 29.867-29.867h170.667c17.067 0 29.867 12.8 29.867 29.867s-12.8 29.867-29.867 29.867z" />
<glyph unicode="&#xe045;" glyph-name="uE045-remove-bold" d="M264.010 760.819l-73.972-73.972 247.99-247.99-247.99-247.99 73.972-73.972 247.99 247.99 247.99-247.99 73.972 73.972-247.99 247.99 247.99 247.99-73.972 73.972-247.99-247.99-247.99 247.99z" />
<glyph unicode="&#xe050;" glyph-name="uE050-pencil-underline-solid" horiz-adv-x="969" d="M887.467 67.657h-832c-12.8 0-29.867-4.267-42.667-21.333-8.533-8.533-12.8-25.6-12.8-42.667s4.267-29.867 17.067-46.933c8.533-8.533 21.333-21.333 42.667-21.333h832c12.8 0 29.867 4.267 42.667 21.333 8.533 8.533 17.067 25.6 17.067 46.933 0 17.067-4.267 29.867-17.067 46.933-17.067 12.8-29.867 17.067-46.933 17.067zM938.667 835.657l-72.533 72.533c-21.333 17.067-46.933 29.867-72.533 29.867s-55.467-8.533-72.533-29.867l-465.067-460.8c-4.267-4.267-8.533-12.8-8.533-17.067l-38.4-209.067c0-4.267 0-8.533 0-17.067 0-4.267 4.267-8.533 4.267-12.8 4.267-4.267 8.533-8.533 12.8-8.533s8.533-4.267 12.8-4.267h4.267l209.067 38.4c8.533 0 12.8 4.267 17.067 8.533l469.333 465.067c21.333 21.333 29.867 46.933 29.867 72.533 0 29.867-8.533 55.467-29.867 72.533v0z" />
<glyph unicode="&#xe051;" glyph-name="uE051-rotate-left" horiz-adv-x="892" d="M0 391.497c-0.853-247.040 198.827-448.853 445.867-450.56 243.2 2.56 443.307 202.667 445.867 445.867 1.707 172.8-93.013 331.947-259.84 414.72-57.173 28.587-121.6 40.107-186.027 40.107v0c-120.747 0-235.52-49.493-318.72-136.107v199.253c0 17.493-14.507 32-32 32v0c-17.493 0-32-14.507-32-32v-277.76c0-24.747 20.053-44.373 44.373-44.373h281.173c17.493 0 32 14.507 32 32v0c0 17.493-14.507 32-32 32h-229.547c72.107 83.627 175.36 131.413 286.293 131.413h0.427c151.893 0 293.547-88.32 350.293-229.12 111.36-275.2-87.893-540.587-350.293-544-211.627 1.707-382.72 174.933-381.867 386.56 0 0 0 0 0 1.707 0 43.52-64 44.373-64 0 0-1.707 0-1.707 0-1.707z" />
<glyph unicode="&#xe052;" glyph-name="uE052-rotate-right" horiz-adv-x="892" d="M891.733 392.777c0 44.373-64 43.52-64 0 0-1.707 0-1.707 0-1.707 0.853-211.627-170.24-384.853-381.867-386.56-262.4 3.413-461.653 268.8-350.293 544.427 56.747 140.8 198.4 229.12 350.293 229.12h0.427c110.933 0 214.613-47.787 286.293-131.413h-229.973c-17.493 0-32-14.507-32-32v0c0-17.493 14.507-32 32-32h281.173c24.747 0 44.373 20.053 44.373 44.373v277.76c0 17.493-14.507 32-32 32v0c-17.493 0-32-14.507-32-32v-199.253c-82.773 86.613-197.973 136.107-318.72 136.107v0c-64 0-128.427-11.52-186.027-40.107-166.4-83.2-261.12-241.92-259.413-414.72 2.56-243.2 202.667-443.307 445.867-445.867 247.040 1.707 446.72 203.947 445.867 450.56 0 0 0 0 0 1.28z" />
<glyph unicode="&#xe053;" glyph-name="uE053-hourglass" horiz-adv-x="697" d="M608.768 684.148c3.627 23.637-2.133 47.275-16.299 66.56s-34.944 31.915-58.624 35.541c-4.693 0.725-9.216 0.768-13.909 1.024h-342.784c-0.171 0-0.341 0-0.555 0-23.723 0-46.037-9.173-62.933-25.856-16.981-16.811-26.453-39.211-26.581-63.104 0-4.736 0.341-9.472 1.067-14.123 0-0.213 0.043-0.427 0.085-0.64 19.328-111.573 79.787-193.28 178.773-244.736-98.944-51.499-159.445-133.248-178.859-245.333-0.725-4.651-1.067-9.387-1.024-14.080 0.128-23.936 9.557-46.336 26.581-63.147 16.981-16.811 38.357-25.344 63.36-25.856h342.656c0.213 0 0.427 0 0.597 0 4.523 0 9.003 0.341 13.483 1.024 23.637 3.584 44.459 16.213 58.624 35.499s19.968 42.923 16.213 67.157c-19.328 111.573-79.787 193.28-178.773 244.736 98.987 51.499 159.488 133.248 178.901 245.333zM545.536 183.796c1.024-6.741-0.64-13.44-4.651-18.944s-9.984-9.088-20.907-10.411h-343.040c-0.128 0-0.256 0-0.341 0-6.784 0-13.141 2.603-17.92 7.381-4.821 4.779-7.509 11.179-7.381 21.376 19.029 109.696 83.541 182.357 197.163 221.909 113.621-39.552 178.133-112.213 197.077-221.312zM348.459 472.606c-113.621 39.509-178.133 112.171-197.163 221.867l-31.531-5.461 31.317 8.875c0.043 6.827 2.731 13.227 7.595 18.005 4.864 4.821 11.819 6.613 18.261 7.424l347.179-0.299c6.741-1.024 12.672-4.651 16.725-10.155 4.011-5.504 5.675-12.245 4.736-18.389-18.987-109.696-83.499-182.357-197.12-221.867zM32 838.345h632.875c17.664 0 32 14.336 32 32s-14.336 32-32 32h-632.875c-17.664 0-32-14.336-32-32s14.336-32 32-32zM664.917 39.369h-632.917c-17.664 0-32-14.336-32-32s14.336-32 32-32h632.875c17.664 0 32 14.336 32 32s-14.293 32-31.957 32z" />
<glyph unicode="&#xe060;" glyph-name="uE060-exclamation-mark-bold" d="M511.795 356.109c-42.755 0-77.419 33.231-77.419 74.193v326.471c0 40.962 34.664 74.193 77.419 74.193s77.368-33.231 77.368-74.193v-326.471c0.051-40.962-34.664-74.142-77.368-74.142zM511.795 48.891c-20.43 0-40.246 8.192-54.838 22.581-14.388 14.388-22.581 34.357-22.581 54.787s8.192 40.399 22.581 54.787c14.388 14.388 34.357 22.632 54.838 22.632 20.43 0 40.246-8.244 54.736-22.632 14.388-14.542 22.632-34.357 22.632-54.787s-8.244-40.246-22.632-54.787c-14.49-14.388-34.511-22.581-54.736-22.581z" />
<glyph unicode="&#xe070;" glyph-name="uE070-diagram-area" d="M991.979 16.137h-928v877.457c0 17.647-14.332 32-31.979 32s-32-14.353-32-32v-909.457c0-17.668 14.353-32.043 32-32.043h959.979c17.668 0 32.043 14.374 32.043 32.043 0 17.626-14.374 32-32.043 32zM284.625 154.219h404.228c45.5 0 82.5 37.043 82.5 82.543v69.043h119.582c45.5 0 82.543 37.478 82.543 83.52v402.227c0 46.042-37.043 83.499-82.543 83.499h-303.168c-45.5 0-82.543-37.457-82.543-83.499v-270.165h-220.599c-45.5 0-82.522-37.022-82.522-82.522v-202.103c0-45.5 37.022-82.543 82.522-82.543zM569.271 457.387h119.582c10.709 0 18.5-7.791 18.5-18.522v-69.065h-119.582c-10.709 0-18.5 8.209-18.5 19.52v68.066zM688.853 521.387h-119.582v270.165c0 11.311 7.791 19.52 18.5 19.52h303.168c10.709 0 18.5-8.209 18.5-19.52v-402.227c0-11.311-7.791-19.52-18.5-19.52h-119.582v69.065c-0.004 45.495-37.005 82.517-82.505 82.517zM587.772 305.801h119.582v-69.043c0-10.752-7.791-18.543-18.5-18.543h-404.228c-10.731 0-18.543 7.791-18.543 18.543v202.103c0 10.731 7.812 18.522 18.543 18.522h220.604v-68.062c0-46.042 37.043-83.52 82.543-83.52z" />
<glyph unicode="&#xe071;" glyph-name="uE071-diagram-bar" d="M991.979 16.137h-928v877.457c0 17.647-14.332 32-31.979 32s-32-14.353-32-32v-909.457c0-17.668 14.353-32.043 32-32.043h959.979c17.668 0 32.043 14.374 32.043 32.043 0 17.626-14.374 32-32.043 32zM486.729 53.176h101.043c17.668 0 32.043 14.374 32.043 32v757.897c0 17.647-14.374 31.979-32.043 31.979h-101.043c-17.647 0-32-14.332-32-31.979v-757.897c0-17.626 14.353-32 32-32zM518.729 117.176v693.897h37.043v-693.897h-37.043zM739.354 53.176h101.043c17.668 0 32.043 14.374 32.043 32v555.793c0 17.647-14.374 31.979-32.043 31.979h-101.043c-17.626 0-32-14.332-32-31.979v-555.793c0-17.626 14.374-32 32-32zM771.354 117.176v491.793h37.043v-491.793h-37.043zM234.103 53.176h101.043c17.647 0 32 14.374 32 32v404.207c0 17.626-14.353 31.979-32 32h-101.043c-17.647-0.021-32-14.374-32-32v-404.207c0-17.626 14.353-32 32-32zM303.168 457.387v-340.207h-37.086v340.207h37.086z" />
<glyph unicode="&#xe072;" glyph-name="uE072-diagram-bars-horizontal" horiz-adv-x="925" d="M842.752 545.268h-778.752v93.056h424.021c45.568 0 82.688 37.077 82.688 82.688v50.688c0 45.568-37.077 82.688-82.688 82.688h-424.021v38.912c0 17.664-14.336 32-32 32s-32-14.336-32-32v-912.085c0-17.664 14.336-32 32-32s32 14.336 32 32v38.955h576.043c45.568 0 82.688 37.077 82.688 82.688v50.688c0 45.611-37.077 82.688-82.688 82.688h-576.043v93.099h778.752c45.568 0 82.688 37.077 82.688 82.688v50.688c-0.043 45.483-37.12 82.56-82.688 82.56zM488.021 790.345c10.283 0 18.688-8.363 18.688-18.688v-50.688c0-10.325-8.363-18.688-18.688-18.688h-424.021v88.064h424.021zM640.043 172.19c10.283 0 18.688-8.363 18.688-18.688v-50.688c0-10.283-8.363-18.688-18.688-18.688h-576.043v88.064h576.043zM861.397 411.934c0-10.283-8.363-18.688-18.688-18.688h-778.709v87.979h778.752c10.283 0 18.688-8.363 18.688-18.688v-50.603h-0.043z" />
<glyph unicode="&#xe073;" glyph-name="uE073-diagram-bars-vertical" horiz-adv-x="976" d="M944.043 38.558h-38.955v576.043c0 45.568-37.077 82.688-82.688 82.688h-50.688c-45.611 0-82.688-37.077-82.688-82.688v-576.043h-93.099v778.752c0 45.568-37.077 82.688-82.688 82.688h-50.688c-45.568 0-82.688-37.077-82.688-82.688v-778.752h-92.928v424.021c0 45.568-37.077 82.688-82.688 82.688h-50.645c-45.568 0-82.688-37.077-82.688-82.688v-424.021h-38.912c-17.664 0-32-14.336-32-32s14.336-32 32-32h912.128c17.664 0 32 14.336 32 32s-14.379 32-32.085 32zM134.912 38.558v424.021c0 10.283 8.363 18.688 18.688 18.688h50.688c10.325 0 18.688-8.363 18.688-18.688v-424.021h-88.064zM444.032 38.558v778.752c0 10.283 8.363 18.688 18.688 18.688h50.688c10.283 0 18.688-8.363 18.688-18.688v-778.752h-88.064zM753.109 38.558v576.043c0 10.283 8.363 18.688 18.688 18.688h50.688c10.283 0 18.688-8.363 18.688-18.688v-576.043h-88.064z" />
<glyph unicode="&#xe074;" glyph-name="uE074-diagram-doughnut" horiz-adv-x="917" d="M458.667 897.524c-252.928 0-458.667-205.739-458.667-458.667s205.739-458.667 458.667-458.667 458.667 205.739 458.667 458.667-205.739 458.667-458.667 458.667zM779.093 668.404l-108.117-64.853c-43.093 55.381-107.136 93.568-180.309 102.272v126.080c118.741-9.6 222.592-71.893 288.427-163.499zM458.667 643.913c113.067 0 205.056-91.989 205.056-205.056s-91.989-205.056-205.056-205.056-205.056 91.989-205.056 205.056 91.989 205.056 205.056 205.056zM458.667 44.19c-217.643 0-394.667 177.024-394.667 394.667 0 206.805 160 376.661 362.667 393.045v-126.080c-133.291-15.915-237.056-129.451-237.056-266.965 0-148.352 120.704-269.056 269.056-269.056s269.056 120.704 269.056 269.056c0 39.168-8.619 76.288-23.723 109.867l108.032 64.811c26.197-52.736 41.301-111.915 41.301-174.677 0-217.643-177.024-394.667-394.667-394.667z" />
<glyph unicode="&#xe075;" glyph-name="uE075-diagram-line" d="M991.979 16.137h-928v877.457c0 17.647-14.332 32-31.979 32s-32-14.353-32-32v-909.457c0-17.668 14.353-32.043 32-32.043h959.979c17.668 0 32.043 14.374 32.043 32.043 0 17.626-14.374 32-32.043 32zM208.794 331.136c8.751 0 17.481 3.563 23.77 10.564l207.855 230.874 178.645-134.084c14.127-10.522 34.249-7.667 44.791 6.46l228.71 355.605c9.459 14.852 5.124 34.645-9.626 44.105-5.167 3.371-11.17 5.163-17.459 5.163-0.166 0-0.333-0.021-0.542-0.021h-0.043c-10.624-0.29-20.373-5.79-26.125-14.729l-208.751-324.71-174.583 130.957c-13.376 10.001-31.876 8.166-42.999-4.25l-227.396-252.625c-11.75-13.124-10.667-33.353 2.398-45.146 6.101-5.453 13.747-8.162 21.355-8.162z" />
<glyph unicode="&#xe076;" glyph-name="uE076-diagram-line-angular" horiz-adv-x="1003" d="M985.894 808.35c-15.531 8.448-34.944 2.645-43.392-12.928l-271.957-502.613-241.835 316.715c-6.059 7.936-15.445 12.587-25.429 12.587-0.043 0-0.043 0-0.085 0-9.984 0-19.413-4.736-25.472-12.715l-371.285-492.587c-10.624-14.123-7.808-34.176 6.272-44.843 5.803-4.352 12.544-6.443 19.285-6.443 9.728 0 19.285 4.395 25.6 12.715l345.856 458.923 246.272-322.517c6.571-8.661 17.365-13.355 27.947-12.459 10.795 0.853 20.48 7.125 25.643 16.683l295.509 546.133c8.405 15.488 2.603 34.901-12.928 43.349z" />
<glyph unicode="&#xe077;" glyph-name="uE077-diagram-line-smooth" horiz-adv-x="1003" d="M32.013 88.265c-3.755 0-7.595 0.683-11.307 2.048-16.512 6.229-24.875 24.704-18.645 41.259 16.299 43.221 164.267 422.229 331.733 422.229 89.045 0 143.317-63.36 191.189-119.253 46.080-53.803 85.888-100.267 150.187-100.267 135.296 0 238.72 318.635 264.32 430.251 3.968 17.195 21.077 28.075 38.315 24.021 17.237-3.925 27.989-21.12 24.021-38.315-11.264-49.109-116.053-480-326.699-480-93.739 0-149.547 65.152-198.784 122.624-44.544 52.011-82.987 96.896-142.592 96.896-93.184 0-216.192-233.643-271.872-380.885-4.779-12.715-16.939-20.608-29.867-20.608z" />
<glyph unicode="&#xe078;" glyph-name="uE078-diagram-pie" horiz-adv-x="917" d="M458.667 897.524c-252.928 0-458.667-205.739-458.667-458.667s205.739-458.667 458.667-458.667 458.667 205.739 458.667 458.667-205.739 458.667-458.667 458.667zM779.093 668.404l-288.427-173.013v336.512c118.741-9.6 222.592-71.893 288.427-163.499zM458.667 44.19c-217.643 0-394.667 177.024-394.667 394.667 0 206.805 160 376.661 362.667 393.045v-393.045c0-11.52 6.229-22.187 16.213-27.861 4.907-2.773 10.325-4.139 15.787-4.139 5.717 0 11.392 1.536 16.469 4.565l336.896 202.155c26.197-52.779 41.301-111.957 41.301-174.72 0-217.643-177.024-394.667-394.667-394.667z" />
<glyph unicode="&#xe079;" glyph-name="uE079-diagram-radar" horiz-adv-x="896" d="M882.773 558.324l-415.147 300.8c-11.52 8.107-27.307 8.107-38.4 0l-416-300.8c-11.52-8.107-16.213-23.040-11.947-36.693l158.72-486.827c4.693-13.653 17.493-22.613 31.147-22.613h513.28c14.080 0 26.88 8.96 31.147 22.613l158.72 486.827c4.693 13.653-0.427 28.587-11.52 36.693zM680.96 77.47h-465.92l-143.787 442.027 376.747 273.067 376.747-273.067-143.787-442.027zM428.8 627.444l-193.707-140.373c-11.52-8.107-16.213-23.040-11.947-36.693l73.813-226.987c4.267-13.653 17.067-22.613 31.147-22.613h239.787c14.080 0 26.88 8.96 31.147 22.613l73.813 226.987c4.267 13.653-0.427 28.16-11.947 36.693l-193.707 140.373c-11.52 8.107-26.88 8.107-38.4 0zM603.307 447.817l-59.307-181.76h-191.573l-59.307 181.76 155.307 112.64 154.88-112.64z" />
<glyph unicode="&#xe07a;" glyph-name="uE07A-diagram-scatter" d="M991.979 16.137h-928v877.457c0 17.647-14.332 32-31.979 32s-32-14.353-32-32v-909.457c0-17.668 14.353-32.043 32-32.043h959.979c17.668 0 32.043 14.374 32.043 32.043 0 17.626-14.374 32-32.043 32zM683.23 375.971c122.125 0 221.5 99.354 221.5 221.478s-99.375 221.457-221.5 221.457-221.478-99.332-221.478-221.457 99.354-221.478 221.478-221.478zM525.773 597.449c0 86.835 70.626 157.478 157.457 157.478s157.457-70.647 157.457-157.478-70.626-157.478-157.457-157.478-157.457 70.643-157.457 157.478zM336.333 196.387c67.814 0 122.978 55.168 122.978 122.978s-55.168 122.978-122.978 122.978c-67.75 0-122.876-55.168-122.876-122.978s55.125-122.978 122.876-122.978zM336.333 378.364c33.084 0 58.999-25.916 58.999-58.999 0-33.062-25.916-58.978-58.999-58.978-33.020 0-58.897 25.916-58.897 58.978 0 33.084 25.877 58.999 58.897 58.999z" />
  <glyph unicode="&#xe07b;" glyph-name="uE07B-optimize-width"
         d="M919.040 409.417h-814.507c-40.107 0-72.533-30.72-72.533-68.267v-311.467c0-37.547 32.427-68.267 72.533-68.267h814.507c40.107 0 72.96 30.72 72.96 68.267v311.467c0 37.547-32.427 68.267-72.96 68.267zM928 29.257s-2.987-4.267-8.96-4.267h-814.507c-5.973 0-8.533 3.413-8.533 4.267v311.467s2.987 4.267 8.533 4.267h814.507c5.973 0 8.96-3.413 8.96-4.267v-311.467zM192 588.19l45.227 45.227-96 96h741.547l-96-96 45.227-45.227 150.613 150.613c12.373 12.373 12.373 32.853 0 45.227l-150.613 150.613-45.227-45.227 96-96h-741.547l96 96-45.227 45.227-150.613-150.613c-12.373-12.373-12.373-32.853 0-45.227l150.613-150.613z" />
  <glyph unicode="&#xe07c;" glyph-name="uE07C-optimize-widths"
         d="M919.040 409.417h-814.507c-40.107 0-72.533-30.72-72.533-68.267v-311.467c0-37.547 32.427-68.267 72.533-68.267h814.507c40.107 0 72.96 30.72 72.96 68.267v311.467c0 37.547-32.427 68.267-72.96 68.267zM928 341.15v-123.733h-384v128h375.040c5.973 0 8.96-3.413 8.96-4.267zM96 341.15s2.987 4.267 8.533 4.267h375.467v-128h-384v123.733zM96 29.257v123.733h384v-128h-375.467c-5.973 0-8.533 3.413-8.533 4.267zM928 29.257s-2.987-4.267-8.96-4.267h-375.040v128h384v-123.733zM192 588.19l45.227 45.227-96 96h741.547l-96-96 45.227-45.227 150.613 150.613c12.373 12.373 12.373 32.853 0 45.227l-150.613 150.613-45.227-45.227 96-96h-741.547l96 96-45.227 45.227-150.613-150.613c-12.373-12.373-12.373-32.853 0-45.227l150.613-150.613z" />
<glyph unicode="&#xf053;" glyph-name="chevron-left-bold" horiz-adv-x="731" d="M669.143 778.857l-303.429-303.429 303.429-303.429q10.857-10.857 10.857-25.714t-10.857-25.714l-94.857-94.857q-10.857-10.857-25.714-10.857t-25.714 10.857l-424 424q-10.857 10.857-10.857 25.714t10.857 25.714l424 424q10.857 10.857 25.714 10.857t25.714-10.857l94.857-94.857q10.857-10.857 10.857-25.714t-10.857-25.714z" />
<glyph unicode="&#xf054;" glyph-name="chevron-right-bold" horiz-adv-x="731" d="M632.571 449.714l-424-424q-10.857-10.857-25.714-10.857t-25.714 10.857l-94.857 94.857q-10.857 10.857-10.857 25.714t10.857 25.714l303.429 303.429-303.429 303.429q-10.857 10.857-10.857 25.714t10.857 25.714l94.857 94.857q10.857 10.857 25.714 10.857t25.714-10.857l424-424q10.857-10.857 10.857-25.714t-10.857-25.714z" />
<glyph unicode="&#xf061;" glyph-name="arrow-right-bold" d="M914.285 402.286q0-30.857-21.143-52l-372-372q-22.286-21.143-52-21.143-29.143 0-51.429 21.143l-42.857 42.857q-21.714 21.714-21.714 52t21.714 52l167.429 167.429h-402.286q-29.714 0-48.286 21.429t-18.571 51.714v73.143q0 30.286 18.571 51.714t48.286 21.429h402.286l-167.429 168q-21.714 20.571-21.714 51.429t21.714 51.429l42.857 42.857q21.714 21.714 51.429 21.714 30.286 0 52-21.714l372-372q21.143-20 21.143-51.429z" />
<glyph unicode="&#xf067;" glyph-name="plus-bold" horiz-adv-x="805" d="M804.571 530.286v-109.714q0-22.857-16-38.857t-38.857-16h-237.714v-237.714q0-22.857-16-38.857t-38.857-16h-109.714q-22.857 0-38.857 16t-16 38.857v237.714h-237.714q-22.857 0-38.857 16t-16 38.857v109.714q0 22.857 16 38.857t38.857 16h237.714v237.714q0 22.857 16 38.857t38.857 16h109.714q22.857 0 38.857-16t16-38.857v-237.714h237.714q22.857 0 38.857-16t16-38.857z" />
<glyph unicode="&#xf068;" glyph-name="minus-bold" horiz-adv-x="805" d="M804.571 530.286v-109.714q0-22.857-16-38.857t-38.857-16h-694.857q-22.857 0-38.857 16t-16 38.857v109.714q0 22.857 16 38.857t38.857 16h694.857q22.857 0 38.857-16t16-38.857z" />
<glyph unicode="&#xf077;" glyph-name="chevron-up-bold" d="M961.714 190.286l-94.857-94.286q-10.857-10.857-25.714-10.857t-25.714 10.857l-303.429 303.429-303.429-303.429q-10.857-10.857-25.714-10.857t-25.714 10.857l-94.857 94.286q-10.857 10.857-10.857 26t10.857 26l424 423.429q10.857 10.857 25.714 10.857t25.714-10.857l424-423.429q10.857-10.857 10.857-26t-10.857-26z" />
<glyph unicode="&#xf078;" glyph-name="chevron-down" d="M961.714 489.143l-424-423.429q-10.857-10.857-25.714-10.857t-25.714 10.857l-424 423.429q-10.857 10.857-10.857 26t10.857 26l94.857 94.286q10.857 10.857 25.714 10.857t25.714-10.857l303.429-303.429 303.429 303.429q10.857 10.857 25.714 10.857t25.714-10.857l94.857-94.286q10.857-10.857 10.857-26t-10.857-26z" />
<glyph unicode="&#xf0c8;" glyph-name="square-solid" horiz-adv-x="878" d="M877.715 713.143v-548.571q0-68-48.286-116.286t-116.286-48.286h-548.571q-68 0-116.286 48.286t-48.286 116.286v548.571q0 68 48.286 116.286t116.286 48.286h548.571q68 0 116.286-48.286t48.286-116.286z" />
<glyph unicode="&#xf0d7;" glyph-name="caret-down" horiz-adv-x="585" d="M585.143 548.571q0-14.857-10.857-25.714l-256-256q-10.857-10.857-25.714-10.857t-25.714 10.857l-256 256q-10.857 10.857-10.857 25.714t10.857 25.714 25.714 10.857h512q14.857 0 25.714-10.857t10.857-25.714z" />
<glyph unicode="&#xf0d8;" glyph-name="caret-up" horiz-adv-x="585" d="M585.143 256q0-14.857-10.857-25.714t-25.714-10.857h-512q-14.857 0-25.714 10.857t-10.857 25.714 10.857 25.714l256 256q10.857 10.857 25.714 10.857t25.714-10.857l256-256q10.857-10.857 10.857-25.714z" />
<glyph unicode="&#xf0d9;" glyph-name="caret-left" horiz-adv-x="329" d="M329.142 694.857v-512q0-14.857-10.857-25.714t-25.714-10.857-25.714 10.857l-256 256q-10.857 10.857-10.857 25.714t10.857 25.714l256 256q10.857 10.857 25.714 10.857t25.714-10.857 10.857-25.714z" />
<glyph unicode="&#xf0da;" glyph-name="caret-right" horiz-adv-x="329" d="M329.143 438.857q0-14.857-10.857-25.714l-256-256q-10.857-10.857-25.714-10.857t-25.714 10.857-10.857 25.714v512q0 14.857 10.857 25.714t25.714 10.857 25.714-10.857l256-256q10.857-10.857 10.857-25.714z" />
<glyph unicode="&#xf104;" glyph-name="angle-left" horiz-adv-x="366" d="M358.286 640q0-7.429-5.714-13.143l-224.571-224.571 224.571-224.571q5.714-5.714 5.714-13.143t-5.714-13.143l-28.571-28.571q-5.714-5.714-13.143-5.714t-13.143 5.714l-266.286 266.286q-5.714 5.714-5.714 13.143t5.714 13.143l266.286 266.286q5.714 5.714 13.143 5.714t13.143-5.714l28.571-28.571q5.714-5.714 5.714-13.143z" />
<glyph unicode="&#xf105;" glyph-name="angle-right-bold" horiz-adv-x="366" d="M340 402.286q0-7.429-5.714-13.143l-266.286-266.286q-5.714-5.714-13.143-5.714t-13.143 5.714l-28.571 28.571q-5.714 5.714-5.714 13.143t5.714 13.143l224.571 224.571-224.571 224.571q-5.714 5.714-5.714 13.143t5.714 13.143l28.571 28.571q5.714 5.714 13.143 5.714t13.143-5.714l266.286-266.286q5.714-5.714 5.714-13.143z" />
<glyph unicode="&#xf106;" glyph-name="angle-up-bold" horiz-adv-x="658" d="M614.286 274.286q0-7.429-5.714-13.143l-28.571-28.571q-5.714-5.714-13.143-5.714t-13.143 5.714l-224.571 224.571-224.571-224.571q-5.714-5.714-13.143-5.714t-13.143 5.714l-28.571 28.571q-5.714 5.714-5.714 13.143t5.714 13.143l266.286 266.286q5.714 5.714 13.143 5.714t13.143-5.714l266.286-266.286q5.714-5.714 5.714-13.143z" />
<glyph unicode="&#xf107;" glyph-name="angle-down-bold" horiz-adv-x="658" d="M614.286 530.286q0-7.429-5.714-13.143l-266.286-266.286q-5.714-5.714-13.143-5.714t-13.143 5.714l-266.286 266.286q-5.714 5.714-5.714 13.143t5.714 13.143l28.571 28.571q5.714 5.714 13.143 5.714t13.143-5.714l224.571-224.571 224.571 224.571q5.714 5.714 13.143 5.714t13.143-5.714l28.571-28.571q5.714-5.714 5.714-13.143z" />
<glyph unicode="&#xf111;" glyph-name="circle-solid" horiz-adv-x="878" d="M877.714 438.857q0-119.429-58.857-220.286t-159.714-159.714-220.286-58.857-220.286 58.857-159.714 159.714-58.857 220.286 58.857 220.286 159.714 159.714 220.286 58.857 220.286-58.857 159.714-159.714 58.857-220.286z" />
<glyph unicode="&#xf15d;" glyph-name="sort-alpha-asc-bold" horiz-adv-x="966" d="M680.571 717.714h101.143l-41.143 124.571-6.857 26.857c-0.571 4.571-1.143 8-1.143 11.429h-2.286l-1.714-11.429c-1.714-6.857-2.286-15.429-6.286-26.857zM420.571 128c0-5.143-2.286-9.714-5.714-13.714l-182.286-182.286c-4-3.429-8.571-5.143-13.143-5.143s-9.143 1.714-13.143 5.143l-182.857 182.857c-5.143 5.714-6.857 13.143-4 20s9.714 11.429 17.143 11.429h109.714v786.286c0 10.286 8 18.286 18.286 18.286h109.714c10.286 0 18.286-8 18.286-18.286v-786.286h109.714c10.286 0 18.286-8 18.286-18.286zM898.286 60v-133.143h-333.714v51.429l210.857 302.286c4.571 6.857 9.143 12.571 12 15.429l6.286 5.143v1.714c-2.286 0-4.571-0.571-8-0.571-4.571-1.143-10.286-1.714-17.143-1.714h-132.571v-65.714h-68.571v130.857h324v-50.857l-210.857-302.857c-3.429-5.143-8-10.286-12-14.857l-6.286-6.286v-1.143l8 1.143c5.143 1.143 10.286 1.143 17.143 1.143h141.714v68h69.143zM949.143 572.571v-60.571h-164.571v60.571h42.857l-26.857 82.286h-138.857l-26.857-82.286h42.857v-60.571h-164v60.571h40l131.429 378.286h92.571l131.429-378.286h40z" />
<glyph unicode="&#xf161;" glyph-name="sort-amount-desc-bold" horiz-adv-x="1041" d="M694.857 54.857v-109.714c0-10.286-8-18.286-18.286-18.286h-146.286c-10.286 0-18.286 8-18.286 18.286v109.714c0 10.286 8 18.286 18.286 18.286h146.286c10.286 0 18.286-8 18.286-18.286zM420.571 128c0-5.143-2.286-9.714-5.714-13.714l-182.286-182.286c-4-3.429-8.571-5.143-13.143-5.143s-9.143 1.714-13.143 5.143l-182.857 182.857c-5.143 5.714-6.857 13.143-4 20s9.714 11.429 17.143 11.429h109.714v786.286c0 10.286 8 18.286 18.286 18.286h109.714c10.286 0 18.286-8 18.286-18.286v-786.286h109.714c10.286 0 18.286-8 18.286-18.286zM804.571 347.428v-109.714c0-10.286-8-18.286-18.286-18.286h-256c-10.286 0-18.286 8-18.286 18.286v109.714c0 10.286 8 18.286 18.286 18.286h256c10.286 0 18.286-8 18.286-18.286zM914.286 640v-109.714c0-10.286-8-18.286-18.286-18.286h-365.714c-10.286 0-18.286 8-18.286 18.286v109.714c0 10.286 8 18.286 18.286 18.286h365.714c10.286 0 18.286-8 18.286-18.286zM1024 932.571v-109.714c0-10.286-8-18.286-18.286-18.286h-475.429c-10.286 0-18.286 8-18.286 18.286v109.714c0 10.286 8 18.286 18.286 18.286h475.429c10.286 0 18.286-8 18.286-18.286z" />
<glyph unicode="&#xf175;" glyph-name="long-arrow-down" horiz-adv-x="439" d="M437.143 208.571q4.571-10.857-2.857-20l-200-219.429q-5.714-5.714-13.143-5.714-8 0-13.714 5.714l-202.857 219.429q-7.429 9.143-2.857 20 5.143 10.857 16.571 10.857h128v713.143q0 8 5.143 13.143t13.143 5.143h109.714q8 0 13.143-5.143t5.143-13.143v-713.143h128q12 0 16.571-10.857z" />
<glyph unicode="&#xf176;" glyph-name="long-arrow-up-bold" horiz-adv-x="439" d="M437.143 669.143q-5.143-10.857-16.571-10.857h-128v-713.143q0-8-5.143-13.143t-13.143-5.143h-109.714q-8 0-13.143 5.143t-5.143 13.143v713.143h-128q-12 0-16.571 10.857t2.857 20l200 219.429q5.714 5.714 13.143 5.714 8 0 13.714-5.714l202.857-219.429q7.429-9.143 2.857-20z" />
<glyph unicode="&#xf177;" glyph-name="long-arrow-left-bold" d="M1024 493.714v-109.714q0-8-5.143-13.143t-13.143-5.143h-713.143v-128q0-12-10.857-16.571t-20 2.857l-219.429 200q-5.714 5.714-5.714 13.143 0 8 5.714 13.714l219.429 202.286q9.143 8 20 3.429 10.857-5.143 10.857-16.571v-128h713.143q8 0 13.143-5.143t5.143-13.143z" />
<glyph unicode="&#xf178;" glyph-name="long-arrow-right-bold" d="M987.429 440.571q0-8-5.714-13.714l-219.429-202.286q-9.143-8-20-3.429-10.857 5.143-10.857 16.571v128h-713.143q-8 0-13.143 5.143t-5.143 13.143v109.714q0 8 5.143 13.143t13.143 5.143h713.143v128q0 12 10.857 16.571t20-2.857l219.429-200q5.714-5.714 5.714-13.143z" />
</font>
</defs>
</svg>
