<?xml version="1.0" standalone="no"?>
<!DOCTYPE svg PUBLIC "-//W3C//DTD SVG 1.1//EN" "http://www.w3.org/Graphics/SVG/1.1/DTD/svg11.dtd" >
<svg xmlns="http://www.w3.org/2000/svg">
<metadata>Generated by IcoMoon</metadata>
<defs>
<font id="scoutIcons-light" horiz-adv-x="1024">
  <font-face units-per-em="1024" ascent="960" descent="-64" />
  <missing-glyph horiz-adv-x="1024" />
  <glyph unicode="&#x20;" horiz-adv-x="512" d="" />
  <glyph unicode="&#xe001;" glyph-name="uE001-exclamation-mark-circle" horiz-adv-x="981"
         d="M516.053 271.646c-7.040 4.693-15.275 7.211-23.723 7.211-11.307 0-22.187-4.48-30.165-12.501-8.021-8.021-12.501-18.859-12.501-30.165 0-8.448 2.517-16.683 7.211-23.723 4.651-6.997 11.349-12.501 19.115-15.701 7.808-3.243 16.384-4.053 24.661-2.432 8.277 1.664 15.872 5.717 21.845 11.691s10.027 13.568 11.691 21.845c1.621 8.277 0.811 16.853-2.432 24.661s-8.704 14.464-15.701 19.115zM492.331 396.19c11.776 0 21.333 9.557 21.333 21.333v277.333c0 11.776-9.557 21.333-21.333 21.333s-21.333-9.557-21.333-21.333v-277.333c0-11.776 9.515-21.333 21.333-21.333zM490.667 929.524c-270.549 0-490.667-220.117-490.667-490.667s220.117-490.667 490.667-490.667 490.667 220.117 490.667 490.667-220.117 490.667-490.667 490.667zM490.667-9.143c-247.040 0-448 200.96-448 448s200.96 448 448 448 448-200.96 448-448-200.96-448-448-448z" />
  <glyph unicode="&#xe002;" glyph-name="uE002-info" horiz-adv-x="981"
         d="M474.325 623.433c7.808-3.243 16.384-4.053 24.661-2.432 8.277 1.664 15.872 5.717 21.845 11.691s10.027 13.568 11.691 21.845c1.621 8.277 0.811 16.853-2.432 24.661s-8.704 14.464-15.701 19.157c-7.040 4.651-15.275 7.168-23.723 7.168-11.307 0-22.187-4.48-30.165-12.501-8.021-7.979-12.501-18.859-12.501-30.165 0-8.448 2.517-16.683 7.211-23.723 4.651-6.997 11.349-12.459 19.115-15.701zM490.667 929.524c-270.549 0-490.667-220.117-490.667-490.667s220.117-490.667 490.667-490.667 490.667 220.117 490.667 490.667-220.117 490.667-490.667 490.667zM490.667-9.143c-247.040 0-448 200.96-448 448s200.96 448 448 448 448-200.96 448-448-200.96-448-448-448zM618.667 225.524h-106.667v256c0 11.776-9.557 21.333-21.333 21.333h-128c-11.776 0-21.333-9.557-21.333-21.333s9.557-21.333 21.333-21.333h106.667v-234.667h-106.667c-11.776 0-21.333-9.557-21.333-21.333s9.557-21.333 21.333-21.333h256c11.776 0 21.333 9.557 21.333 21.333s-9.557 21.333-21.333 21.333z" />
  <glyph unicode="&#xe003;" glyph-name="uE003-file" horiz-adv-x="844"
         d="M99.874-73.143c-55.019 0.043-99.81 44.877-99.874 99.874v824.085c0.064 55.002 44.877 99.814 99.874 99.874h449.813c5.73 0 11.123-2.227 15.168-6.293l272.563-272.499c4.002-3.959 6.332-9.502 6.332-15.168v-629.999c-0.085-55.002-44.915-99.831-99.895-99.874v0h-643.981zM99.874 907.751c-31.377-0.021-56.917-25.562-56.939-56.939v-824.085c0.021-31.334 25.562-56.875 56.939-56.917h643.981c31.394 0.043 56.896 25.583 56.896 56.917v525.632h-304.209c-5.73 0-11.123 2.249-15.189 6.332-4.062 4.041-6.293 9.417-6.272 15.168v333.892h-375.206zM518.020 595.358h282.731v50.667l-258.667 260.459-19.708 1.271h-4.356v-312.397z" />
  <glyph unicode="&#xe004;" glyph-name="uE004-clock" horiz-adv-x="981"
         d="M490.667 929.524c-270.507 0-490.667-220.16-490.667-490.667s220.16-490.667 490.667-490.667 490.667 220.16 490.667 490.667-220.16 490.667-490.667 490.667zM490.667-9.143c-247.040 0-448 200.96-448 448s200.96 448 448 448 448-200.96 448-448-200.96-448-448-448zM311.040 632.137c-9.387 7.253-22.613 5.12-29.867-4.267s-5.12-22.613 4.267-29.867l200.107-149.76v-343.040c0-11.947 9.387-21.333 21.333-21.333s21.333 9.387 21.333 21.333v353.707c0 6.827-2.987 13.227-8.533 17.067l-208.64 156.16z" />
  <glyph unicode="&#xe006;" glyph-name="uE006-group" horiz-adv-x="1017"
         d="M0 938.074h706.27v-42.935h-706.27v42.935zM0 619.555h706.27v-42.935h-706.27v42.935zM0 301.116h706.27v-42.999h-706.27v42.999zM0-17.386h706.27v-42.999h-706.27v42.999zM855.356 619.887c69.457 6.686 122.249 67.605 118.417 137.707 3.831 69.645-48.96 130.543-118.417 137.207v43.021c93.082-6.626 165.082-86.541 161.374-180.292 3.708-94.063-68.292-174.020-161.374-180.668v43.025zM855.356-17.049c69.457 6.626 122.249 67.499 118.417 137.626 3.831 69.666-48.96 130.581-118.417 137.207v43.042c93.082-6.626 165.082-86.541 161.374-180.335 3.708-94.042-68.292-173.956-161.374-180.582v43.042z" />
  <glyph unicode="&#xe007;" glyph-name="uE007-group-plus" horiz-adv-x="1026"
         d="M0 942.661h714.965v-51.648h-714.965v51.648zM0 624.192h714.965v-51.648h-714.965v51.648zM0 305.673h415.313v-51.648h-415.313v51.648zM0-12.846h415.313v-51.652h-415.313v51.652zM1025.417 757.603c3.861 97.95-72.102 180.629-170.027 185.058v-51.648c69.372-4.48 122.185-64 118.379-133.41 3.806-69.41-49.011-128.93-118.379-133.41v-51.648c97.924 4.429 173.888 87.108 170.027 185.058zM831.714 365.513h-51.652v-189.393h-189.342v-51.648h189.342v-189.402h51.652v189.402h189.397v51.648h-189.397z" />
  <glyph unicode="&#xe008;" glyph-name="uE008-ellipsis-circle" horiz-adv-x="981"
         d="M800 438.857c0-29.455-23.878-53.333-53.333-53.333s-53.333 23.878-53.333 53.333c0 29.455 23.878 53.333 53.333 53.333s53.333-23.878 53.333-53.333zM544 438.857c0-29.455-23.878-53.333-53.333-53.333s-53.333 23.878-53.333 53.333c0 29.455 23.878 53.333 53.333 53.333s53.333-23.878 53.333-53.333zM288 438.857c0-29.455-23.878-53.333-53.333-53.333s-53.333 23.878-53.333 53.333c0 29.455 23.878 53.333 53.333 53.333s53.333-23.878 53.333-53.333zM490.667 929.524c-270.549 0-490.667-220.117-490.667-490.667s220.117-490.667 490.667-490.667 490.667 220.117 490.667 490.667-220.117 490.667-490.667 490.667zM490.667-9.143c-247.040 0-448 200.96-448 448s200.96 448 448 448 448-200.96 448-448-200.96-448-448-448z" />
  <glyph unicode="&#xe009;" glyph-name="uE009-group-remove" horiz-adv-x="1017"
         d="M0 938.074h706.27v-42.935h-706.27v42.935zM0 619.555h706.27v-42.935h-706.27v42.935zM0 301.074h406.665v-42.999h-406.665v42.999zM0-17.386h406.665v-42.999h-406.665v42.999zM855.356 619.887c69.457 6.665 122.249 67.563 118.417 137.668 3.831 69.687-48.96 130.581-118.417 137.25v43.017c93.082-6.647 165.082-86.583 161.374-180.335 3.708-94.042-68.292-173.978-161.374-180.625v43.025zM801.604 119.616l-133.918-133.918-30.332 30.374 133.918 133.918-133.918 133.918 30.332 30.374 133.918-133.961 133.918 133.961 30.374-30.374-133.918-133.918 133.918-133.918-30.374-30.374z" />
  <glyph unicode="&#xe010;" glyph-name="uE010-angle-double-left" horiz-adv-x="606"
         d="M309.897 438.866l263.168 303.689 32.457-28.062-238.835-275.627 238.835-275.627-32.457-28.083zM0 438.866l263.168 303.689 32.478-28.062-238.874-275.627 238.874-275.627-32.478-28.083z" />
  <glyph unicode="&#xe011;" glyph-name="uE011-angle-double-right" horiz-adv-x="606"
         d="M0 164.907l238.835 275.541-238.835 275.648 32.457 28.062 263.275-303.71-263.275-303.706zM309.854 164.907l238.874 275.541-238.874 275.648 32.499 28.083 263.249-303.731-263.249-303.706z" />
  <glyph unicode="&#xe012;" glyph-name="uE012-angle-left" horiz-adv-x="296" d="M0 438.866l263.27 303.689 32.461-28.062-238.857-275.627 238.857-275.627-32.461-28.083z" />
  <glyph unicode="&#xe013;" glyph-name="uE013-angle-right" horiz-adv-x="296" d="M0 163.239l238.835 275.627-238.835 275.627 32.457 28.062 263.168-303.689-263.168-303.71z" />
  <glyph unicode="&#xe014;" glyph-name="uE014-angle-down" horiz-adv-x="601" d="M0 573.97l30.374 30.374 270.229-270.229 270.251 270.229 30.374-30.374-300.625-300.561z" />
  <glyph unicode="&#xe015;" glyph-name="uE015-angle-up" horiz-adv-x="601" d="M0 303.74l300.582 300.604 300.582-300.604-30.332-30.332-270.251 270.187-270.208-270.187z" />
  <glyph unicode="&#xe016;" glyph-name="uE016-long-arrow-down" horiz-adv-x="601" d="M0 236.698l30.374 30.336 248.751-248.708v925.124h42.978v-925.124l248.794 248.708 30.332-30.336-300.625-300.625z" />
  <glyph unicode="&#xe017;" glyph-name="uE017-long-arrow-up" horiz-adv-x="601" d="M279.189-65.757v925.167l-248.815-248.772-30.374 30.374 300.646 300.646 300.582-300.646-30.332-30.374-248.751 248.772v-925.167z" />
  <glyph unicode="&#xe018;" glyph-name="uE018-long-arrow-down-plus" horiz-adv-x="1011"
         d="M0 236.698l30.374 30.336 248.794-248.708v925.124h42.957v-925.124l248.751 248.708 30.332-30.336-300.561-300.625zM761.54 384.013v206.601h-206.583v42.94h206.583v206.605h42.999v-206.605h206.583v-42.94h-206.583v-206.601z" />
  <glyph unicode="&#xe019;" glyph-name="uE019-long-arrow-up-plus" horiz-adv-x="1007"
         d="M279.189-65.757v925.167l-248.815-248.772-30.374 30.374 300.668 300.604 300.582-300.604-30.374-30.374-248.751 248.772v-925.167zM757.79 37.534v206.583h-206.583v42.999h206.583v206.583h43.004v-206.583h206.583v-42.999h-206.583v-206.583z" />
  <glyph unicode="&#xe01a;" glyph-name="uE01A-minus" horiz-adv-x="611" d="M0 460.301h611.123v-42.935h-611.123v42.935z" />
  <glyph unicode="&#xe01b;" glyph-name="uE01B-plus" horiz-adv-x="611" d="M284.062 133.283v284.105h-284.062v42.935h284.062v284.066h42.961v-284.066h284.083v-42.935h-284.083v-284.105z" />
  <glyph unicode="&#xe01c;" glyph-name="uE01C-list" horiz-adv-x="973"
         d="M420.416 787.41h552.23v-42.935h-552.23v42.935zM0 787.41h226.603v-42.935h-226.603v42.935zM0 460.323h226.603v-42.935h-226.603v42.935zM390.916 460.323h581.73v-42.935h-581.73v42.935zM390.916 133.24h581.73v-42.957h-581.73v42.957zM0 133.24h226.603v-42.957h-226.603v42.957z" />
  <glyph unicode="&#xe01d;" glyph-name="uE01D-long-arrow-down-remove" horiz-adv-x="959"
         d="M0 236.698l30.374 30.336 248.751-248.708v925.124h42.957v-925.124l248.73 248.708 30.417-30.336-300.625-300.625zM783.023 581.658l-146.086-146.103-30.332 30.374 146.039 146.103-146.039 146.125 30.332 30.353 146.086-146.103 146.082 146.103 30.374-30.353-146.125-146.125 146.125-146.103-30.374-30.374z" />
  <glyph unicode="&#xe01e;" glyph-name="uE01E-long-arrow-up-remove" horiz-adv-x="1014"
         d="M281.51-65.757v925.167l-248.751-248.772-30.374 30.374 300.582 300.604 300.625-300.604-30.332-30.374-248.815 248.772v-925.167zM781.675 235.324l-146.082-146.125-30.332 30.374 146.039 146.125-146.039 146.082 30.332 30.379 146.082-146.129 146.082 146.129 30.379-30.379-146.125-146.082 146.125-146.125-30.379-30.374z" />
  <glyph unicode="&#xe01f;" glyph-name="uE01F-filter-remove" horiz-adv-x="830"
         d="M660.77 84.156l-139.081-139.042-30.336 30.336 139.085 139.042-139.085 139.081 30.336 30.374 139.081-139.081 139.085 139.081 30.374-30.374-139.123-139.081 139.123-139.042-30.374-30.336zM0-47.176v989.606h496.73v-42.961h-453.794v-471.373h401.293v-42.94h-401.293v-432.333z" />
  <glyph unicode="&#xe020;" glyph-name="uE020-target" horiz-adv-x="1016"
         d="M507.998-68.8c-280.081 0.038-507.977 227.917-507.998 508.019-0.021 135.71 52.813 263.292 148.749 359.27 95.957 95.957 223.543 148.834 359.249 148.834 279.834-0.29 507.793-228.207 508.126-508.062 0-280.102-227.917-508.019-508.041-508.062h-0.085zM508.041 904.389c-256.439 0-465.084-208.623-465.105-465.062-0.021-124.228 48.354-241.041 136.188-328.875 87.834-87.876 204.646-136.252 328.875-136.252 256.209 0.252 464.832 208.875 465.126 465.062 0 256.439-208.623 465.084-465.041 465.126h-0.043zM508.041 150.908c-158.98 0-288.333 129.331-288.333 288.311-0.021 77.022 29.978 149.419 84.416 203.874 54.46 54.46 126.852 84.459 203.874 84.459 158.793-0.166 288.166-129.502 288.375-288.29 0-158.98-129.374-288.354-288.333-288.354zM507.998 684.617c-135.292 0-245.355-110.063-245.355-245.355 0-65.54 25.502-127.147 71.855-173.521 46.332-46.332 107.959-71.834 173.5-71.834 135.168 0.124 245.248 110.165 245.376 245.355 0 135.27-110.042 245.333-245.333 245.355h-0.043zM507.998 358.614c-44.459 0-80.623 36.169-80.623 80.623-0.021 21.542 8.375 41.813 23.603 57.041s35.477 23.625 57.020 23.625c44.335-0.124 80.542-36.292 80.666-80.666 0.004-44.454-36.207-80.623-80.666-80.623z" />
  <glyph unicode="&#xe021;" glyph-name="uE021-world" horiz-adv-x="968"
         d="M485.269-45.26c-268.062 0-485.205 217.169-485.269 484.023-0.043 129.331 50.291 250.914 141.73 342.374 91.439 91.477 213.001 141.854 342.332 141.875 267.708-1.707 483.831-218.854 484.169-484.169-0.333-265.314-216.457-482.436-481.792-484.019l-0.794-0.124-0.375 0.038zM505.519 0.030l5.5 1.502c97.207 26.79 175.040 203.627 181.001 411.375l0.124 4.48h-186.624v-417.357zM278.272 412.907c5.897-205.248 82.731-381.751 178.709-410.543l5.585-1.668v416.687h-184.422l0.128-4.476zM44.147 412.762c10.957-182.562 130.436-337.105 304.397-393.604l14.562-4.749-9.894 11.665c-69.602 82.291-113.668 226.957-117.854 387.063l-0.102 4.25h-191.381l0.273-4.625zM734.98 412.928c3.166-136.811-38.417-273.894-117.082-385.937l-7.625-10.79 12.54 4.169c172.041 57.335 290.249 211.375 301.124 392.397l0.29 4.625h-189.376l0.128-4.463zM617.894 850.761c79.791-113.707 120.29-247.189 117.082-385.98l-0.124-4.459h189.376l-0.29 4.625c-10.876 181.022-129.084 335.061-301.124 392.439l-12.501 4.186 7.582-10.812zM505.519 460.323h186.624l-0.124 4.48c-5.956 207.791-83.793 384.623-181.001 411.354l-5.5 1.519v-417.353zM456.981 875.388c-95.979-28.813-172.813-205.333-178.709-410.581l-0.124-4.48h184.418v416.747l-5.585-1.685zM348.54 858.595c-173.956-56.542-293.436-211.063-304.397-393.647l-0.269-4.625h191.377l0.102 4.25c4.186 160.085 48.252 304.794 117.854 387.063l9.894 11.686-14.562-4.727z" />
  <glyph unicode="&#xe022;" glyph-name="uE022-chart" horiz-adv-x="969"
         d="M547.332 495.053v421.585h21.5c220.373-0.252 399.876-179.729 400.124-400.102v-21.478h-421.623zM590.293 537.989h335.083l-0.375 4.689c-13.248 177.98-152.085 316.813-330.044 330.061l-4.663 0.358v-335.108zM400.102-51.844c-220.373 0.043-399.851 179.294-400.102 399.646-0.124 106.876 41.374 207.394 116.855 283.042s175.915 117.376 282.769 117.5h22.396v-378.603h378.688v-21.478c-0.252-220.356-179.75-399.855-400.145-400.102h-0.461zM374.417 704.448c-95.147-6.98-181.875-50.581-244.207-122.79-62.336-72.23-92.834-164.395-85.837-259.52 13.623-185.647 169.916-331.063 355.831-331.063 8.751 0 17.604 0.333 26.5 0.998 175.292 12.877 317.21 154.79 330.044 330.061l0.333 4.668h-377.997v378.001l-4.668-0.354z" />
  <glyph unicode="&#xe029;" glyph-name="uE029-calendar"
         d="M917.76 820.724h-107.093v107.093c0 11.947-9.387 21.333-21.333 21.333s-21.333-9.387-21.333-21.333v-107.093h-511.573v107.093c0 11.947-9.387 21.333-21.333 21.333s-21.333-9.387-21.333-21.333v-107.093h-106.667c-58.88 0-106.667-48.213-106.667-107.093v-681.813c0-58.88 47.787-107.093 106.667-107.093h810.24c58.88 0 106.667 48.213 106.667 107.093v682.24c0.427 58.88-47.787 106.667-106.24 106.667zM107.093 778.057h106.667v-85.76c0-11.947 9.387-21.333 21.333-21.333s21.333 9.387 21.333 21.333v85.76h511.573v-85.76c0-11.947 9.387-21.333 21.333-21.333s21.333 9.813 21.333 21.76v85.333h106.667c35.413 0 64-28.587 64-64v-171.093h-938.667v171.093c0.427 35.413 29.013 64 64.427 64zM917.76-31.756h-810.667c-35.413 0-64 28.587-64 64v467.627h938.667v-467.627c0-35.413-29.013-64-64-64z" />
  <glyph unicode="&#xe02a;" glyph-name="uE02A-search" horiz-adv-x="1023"
         d="M999.275-73.143c-5.645 0-12.373 2.739-16.273 6.686l-285.85 285.995-24.7-18.889c-74.125-56.542-162.116-86.434-254.421-86.434-230.511-0.004-418.031 187.644-418.031 418.3 0 230.677 187.52 418.342 418.031 418.342 230.468 0 417.967-187.665 417.988-418.342 0-92.412-29.871-180.506-86.37-254.694l-18.807-24.619 285.828-286.076c4.442-4.399 6.848-10.253 6.767-16.439-0.043-6.31-2.739-12.041-7.97-17.105-3.942-3.985-10.586-6.724-16.192-6.724zM418.031 903.902c-204.625 0-371.098-166.575-371.098-371.345 0-204.791 166.473-371.349 371.098-371.349s371.119 166.558 371.119 371.349c0 204.77-166.494 371.345-371.119 371.345z" />
  <glyph unicode="&#xe02b;" glyph-name="uE02B-folder" horiz-adv-x="1023"
         d="M82.709 27.99c-45.542 0.085-82.645 37.21-82.709 82.752v744.934h296.96l83.541-104.457 560.021-1.604c45.542-0.064 82.624-37.167 82.667-82.709v-556.169c-0.043-45.542-37.124-82.667-82.667-82.752v0h-857.813zM42.935 110.742c0.021-21.918 17.873-39.748 39.77-39.748h857.813c21.918 0 39.71 17.835 39.71 39.748v391.415h-937.293v-391.415zM42.935 545.114h937.293v121.792c0 21.875-17.792 39.71-39.71 39.748h-581.124l-83.52 104.482-232.939 1.604v-267.627z" />
  <glyph unicode="&#xe02c;" glyph-name="uE02C-sum" horiz-adv-x="555"
         d="M533.338 641.524c11.776 0 21.333 9.557 21.333 21.333v160c0 11.776-9.557 21.333-21.333 21.333h-512c-8.064 0-15.445-4.565-19.072-11.776-3.627-7.253-2.859-15.872 2.005-22.357l278.4-371.2-278.4-371.2c-4.864-6.443-5.632-15.104-2.005-22.315 3.627-7.253 11.008-11.819 19.072-11.819h512c11.776 0 21.333 9.557 21.333 21.333v160c0 11.776-9.557 21.333-21.333 21.333s-21.333-9.557-21.333-21.333v-138.667h-448l262.4 349.867c5.675 7.595 5.675 18.005 0 25.6l-262.4 349.867h448v-138.667c0-11.776 9.557-21.333 21.333-21.333z" />
  <glyph unicode="&#xe02d;" glyph-name="uE02D-star" horiz-adv-x="895"
         d="M713.289-4.8c-3.981 0-7.898 1.126-11.332 3.29l-254.396 157.751-254.353-157.751c-3.418-2.125-7.313-3.251-11.29-3.251-7.501 0-14.31 3.793-18.249 10.167-2.978 4.749-3.959 10.624-2.709 16.085l69.666 304.499-223.424 198.959c-4.292 3.831-6.835 9.084-7.168 14.793-0.333 5.751 1.604 11.251 5.419 15.501 3.541 4.002 8.375 6.498 13.602 7.083l295.522 33.417 113.105 277.397c3.311 8.124 11.123 13.376 19.917 13.376 2.769 0 5.5-0.542 8.085-1.583 5.312-2.189 9.604-6.481 11.772-11.793l113.126-277.397 295.501-33.417c5.709-0.623 10.833-3.46 14.417-7.915 3.584-4.501 5.21-10.125 4.54-15.791-0.585-5.124-2.957-9.835-6.707-13.376l-212.48-197.585 58.5-306.79c2.291-11.627-5.312-22.959-16.917-25.25l-4.147-0.418zM447.556 202.991c3.981 0 7.898-1.126 11.354-3.251l223.731-138.752-53.043 268.416c-1.438 7.377 0.977 14.793 6.46 19.917l188.813 175.582-261.773 29.585c-7.791 0.875-14.498 5.956-17.459 13.21l-98.082 240.457-98.039-240.457c-2.978-7.249-9.668-12.331-17.481-13.205l-260.373-29.419 197.001-175.458c5.854-5.21 8.397-13.167 6.647-20.834l-61.022-266.709 221.956 137.668c3.439 2.125 7.356 3.251 11.311 3.251z" />
  <glyph unicode="&#xe02e;" glyph-name="uE02E-star-marked" horiz-adv-x="894"
         d="M447.040 203.452h0.004zM713.933-5.175c-3.499 0-6.98 0.998-10.044 2.918l-256.853 160-256.875-160c-3.021-1.873-6.481-2.876-10.022-2.876-6.626 0-12.646 3.332-16.124 8.917-2.645 4.292-3.52 9.335-2.398 14.251l70.374 308.877-225.685 201.83c-7.791 7.002-8.457 19.042-1.481 26.79 3.106 3.456 7.377 5.666 12.023 6.208l298.377 33.873 114.249 281.395c2.897 7.189 9.792 11.831 17.562 11.831 7.748 0 14.669-4.646 17.604-11.831l114.189-281.395 298.377-33.873c5.043-0.585 9.54-3.085 12.71-7.040s4.582-8.917 4.002-13.956c-0.499-4.501-2.581-8.666-5.875-11.708l-214.562-200.457 59.085-311.083c2.001-10.291-4.749-20.292-15.023-22.251l-3.61-0.422zM447.036 199.117c3.563 0 7.023-0.998 10.022-2.876l229.854-143.206-54.481 276.915c-1.25 6.374 0.939 13.082 5.687 17.459l194.001 181.248-268.749 30.541c-6.916 0.794-12.834 5.248-15.437 11.665l-100.894 248.563-100.919-248.559c-2.603-6.417-8.521-10.876-15.415-11.665l-267.541-30.421 202.479-181.082c5.124-4.582 7.356-11.584 5.833-18.334l-62.729-275.332 228.25 142.165c3.021 1.916 6.477 2.918 10.039 2.918zM422.101 326.742c-4.228 0-8.354 1.502-11.584 4.207l-41.728 35.793c-7.936 6.793-8.896 18.79-2.103 26.752 3.605 4.25 8.875 6.665 14.438 6.665 4.523 0 8.896-1.626 12.314-4.54l29.542-25.335 92.271 78.793c3.418 2.918 7.77 4.501 12.271 4.501 5.564 0 10.833-2.415 14.46-6.665 3.29-3.831 4.894-8.751 4.48-13.79-0.397-5.082-2.752-9.668-6.605-12.915l-103.855-88.585c-3.729-3.123-8.499-4.877-13.376-4.877h-0.525z" />
  <glyph unicode="&#xe02f;" glyph-name="uE02F-pencil" horiz-adv-x="958"
         d="M19.2-40.716c-5.12 0-9.813 2.133-13.227 5.547-4.693 4.693-6.4 11.52-5.12 18.347l75.52 294.4 1.28 3.84c0.853 1.707 1.707 2.987 3.413 4.693l580.267 580.267c32.427 32.853 76.373 51.2 122.88 51.2 46.933 0 90.88-17.92 123.307-50.773 33.28-33.707 51.2-78.080 50.773-125.013-0.427-46.080-19.2-89.6-52.48-122.027l-578.987-578.987c-1.28-1.28-3.413-2.56-5.973-3.84l-297.387-76.373c-2.133-0.853-3.413-1.28-4.267-1.28zM45.227 4.937l231.68 59.307-172.373 171.947-59.307-231.253zM121.173 273.31l192.427-192 544.853 544.427-192 192-545.28-544.427zM771.84 879.604c-23.467-0.427-45.227-3.84-69.12-26.027l-9.813-9.387 192.427-192 9.387 9.813c46.507 50.773 41.387 122.027-12.8 177.493-26.453 26.027-60.587 40.533-97.28 40.533h-12.8v-0.427z" />
  <glyph unicode="&#xe031;" glyph-name="uE031-gear" horiz-adv-x="915"
         d="M454.366 274.782c-92.25 0.043-167.582 75.085-167.898 167.356-1.417 96.687 72.981 173.457 165.897 174.916 0 0 0 0 0.043 0 94.127 0 169.668-74.415 171.085-165.875l0.043-4.668c0.998-44.915-15.543-87.458-46.498-119.855-31.002-32.418-72.751-50.833-117.542-51.831l-5.129-0.043zM454.989 574.012c-69.248 0-125.585-56.333-125.585-125.585-0.585-36.105 11.917-67.959 35.251-92.169s54.707-37.897 88.333-38.519c0.043 0 0.043 0 0.085 0 35.874 0 68.668 13.79 92.207 37.811 23.458 23.957 36.292 56.939 35.251 90.436 1.583 68.894-53.419 126.417-122.543 128l-2.999 0.026zM370.406-44.761c-19.123 0.252-37.854 8.252-51.354 21.918-13.188 12.834-20.561 29.956-20.855 48.29l-6.272 74.295c-11.563 8.375-20.356 13.457-28.77 18.918l-70.208-29.542c-10.022-4.877-20.604-7.292-31.561-7.292-24.687 0-47.377 12.373-60.689 33.084l-3.46 5.205-86.626 149.001c-20.105 33.749-10.854 78.063 21.022 100.894l65.438 47.957-0.021 34.79-65.417 50.291c-32.666 23.774-41.289 69.086-19.644 103.151l83.665 143.957c11.917 25.126 37.231 41.148 64.67 41.148 7.479 0 14.895-1.186 22.063-3.52l7.437-2.483 71.189-32.102 2.044 1.417c8.994 6.293 18.368 12.083 28.058 17.314l11.793 82.854c2.918 38.293 33.916 67.29 72.124 67.644h169.126c19.46-0.23 37.751-8.021 51.418-21.897 13.124-12.834 20.501-29.956 20.834-48.269l6.208-74.27c11.085-8.102 19.46-12.937 27.46-18.044l2.082-1.331 68.834 34.313c10.082 4.979 20.877 7.501 32.085 7.501 24.585 0 47.334-12.292 60.791-32.875l3.499-5.269 86.665-149.082c20.126-33.792 10.79-78.084-21.248-100.855l-63.458-46.583-1.668-19.895c0-9.084-0.043-14.498-0.166-19.814l61.956-56.832c31.834-24.085 39.876-68.937 18.581-102.353l-83.627-144c-11.959-25.084-37.333-41.126-64.751-41.126v0c-7.415 0-14.793 1.165-21.918 3.46l-7.501 2.581-71.249 32.085-2.044-1.417c-8.623-6.042-17.54-11.584-26.79-16.623l-8.333-75.627c-1.25-39.543-32.998-70.583-72.29-70.959h-169.122zM341.052 27.034c0-7.125 3.106-14.374 8.478-19.584 5.333-5.623 12.749-8.96 20.71-9.25h169.335c16.166 0.917 28.71 13.666 29.376 29.623l8.457 101.21 11.499 5.167c12.625 5.918 24.666 13.001 35.793 21.124l19.123 13.79 95.71-42.581c3.166-0.832 5.956-1.126 8.832-1.126 13.419 0 23.625 5.918 27.375 15.834l85.918 148.501c9.417 15.168 5.457 35.396-9.084 45.956l-80.832 71.334 2.624 15.957c0.252 6.686 0.29 11.938 0.29 22.874 0 12.271-0.085 20.77-0.418 27.998l-0.794 13.978 83.541 58.833c14.583 9.835 18.999 29.602 9.916 44.877l-86.874 149.376c-5.21 10.001-15.667 16.333-27.166 16.333-4.25 0-8.418-0.875-12.335-2.603l-91.874-45.73-10.458 7.334c-14.127 9.873-29.291 18.688-45.043 26.189l-11.123 5.316-8.499 102.895c0 7.104-3.042 14.353-8.418 19.584-5.291 5.585-12.958 8.998-20.834 9.25h-169.289c-15.479-0.879-27.981-13.001-29.333-28.233l-12.749-107.145-11.127-4.958c-12.873-5.939-25.143-13.124-36.54-21.419l-19.209-13.935-95.458 42.688c-3.251 0.875-6.208 1.229-9.25 1.229-13.188 0-23.27-5.956-27.021-15.915l-85.978-148.48c-9.438-15.189-5.461-35.418 9.143-45.961l85.478-62.647-2.752-15.458c-0.247-6.916-0.307-11.998-0.307-22.729 0-12.169 0.102-20.749 0.457-27.981l0.751-13.956-83.563-58.854c-14.519-9.894-18.876-29.666-9.835-44.915l86.814-149.291c5.419-10.001 15.936-16.29 27.418-16.29 4.169 0 8.252 0.832 12.105 2.458l91.605 41.335 10.022-7.040c14.626-10.249 30.020-19.209 45.79-26.667l11.042-5.333 8.559-102.963z" />
  <glyph unicode="&#xe035;" glyph-name="uE035-remove" horiz-adv-x="731"
         d="M365.73 408.845l-335.731-335.689-29.999 29.961 335.731 335.748-335.731 335.71 29.999 30.020 335.731-335.731 335.706 335.731 30.003-30.020-335.71-335.71 335.71-335.748-30.003-29.961z" />
  <glyph unicode="&#xe036;" glyph-name="uE036-expand-all" horiz-adv-x="846"
         d="M258.654 260.506l30.345 30.323 133.781-133.709 133.786 133.709 30.323-30.323-164.109-164.075zM422.78 720.658l-133.781-133.73-30.345 30.366 164.126 164.096 164.109-164.096-30.323-30.366zM0 950.857h845.585v-42.923h-845.585v42.923zM0-30.156h845.585v-42.987h-845.585v42.987z" />
  <glyph unicode="&#xe037;" glyph-name="uE037-collapse-all" horiz-adv-x="846"
         d="M258.654 715.968l30.366 30.349 133.7-133.837 133.781 133.854 30.323-30.366-164.105-164.177zM422.72 267.128l-133.7-133.794-30.366 30.366 164.066 164.139 164.105-164.139-30.323-30.366zM0 950.857h845.564v-42.923h-845.564v42.923zM0-30.156h845.564v-42.987h-845.564v42.987z" />
  <glyph unicode="&#xe038;" glyph-name="uE038-min" horiz-adv-x="1131"
         d="M604.979 649.865h42.999v-422.042h-42.999v422.042zM1095.561 227.491l-6.955 10.082-216.166 324.045v-333.794h-42.961v422.353h35.332l6.921-10.018 216.124-324.147v333.875h42.999v-422.396zM188.958 227.614l-137.562 370.816-8.439-1.523v-369.084h-42.957v422.353h77.956l131.793-355.187 131.836 355.187h77.935v-422.353h-42.935v369.084l-8.439 1.523-137.562-370.816z" />
  <glyph unicode="&#xe039;" glyph-name="uE039-max" horiz-adv-x="1249"
         d="M915.772 227.576l141.376 219.81-131.085 203.938h53.457l103.168-164.169 106.876 166.17 49.997-1.732-131.29-204.207 141.21-219.563h-53.5l-113.293 179.814-116.915-181.815zM808.939 227.823l-47.334 123.981h-187.874l-47.313-123.981h-45.956l161.604 423.479h51.209l161.583-423.479h-45.918zM590.106 394.74h155.123l-77.542 203.23-77.581-203.23zM377.25 227.823v370.001l-8.439 1.519-137.83-371.52h-41.771l-137.835 371.52-8.439-1.519v-370.001h-42.935v423.147h77.999l132.105-356.019 132.083 356.019h77.999v-423.147z" />
  <glyph unicode="&#xe03a;" glyph-name="uE03A-avg" horiz-adv-x="829"
         d="M823.181 847.305c-8.32 8.32-21.845 8.32-30.165 0l-152.405-152.405c-61.269 58.496-144.043 94.677-235.264 94.677-188.203 0-341.333-153.131-341.333-341.333 0-91.221 36.181-173.952 94.635-235.264l-152.405-152.405c-8.32-8.32-8.32-21.845 0-30.165 4.181-4.181 9.643-6.229 15.104-6.229s10.923 2.091 15.104 6.229l153.429 153.429c58.795-48.043 133.803-76.928 215.509-76.928 188.203 0 341.333 153.131 341.333 341.333 0 81.664-28.885 156.672-76.928 215.509l153.429 153.429c8.32 8.32 8.32 21.803-0.043 30.123zM106.679 448.244c0 164.693 133.973 298.667 298.667 298.667 79.445 0 151.552-31.36 205.099-82.133l-421.632-421.632c-50.731 53.547-82.133 125.653-82.133 205.099zM704.013 448.244c0-164.693-133.973-298.667-298.667-298.667-69.888 0-134.144 24.32-185.045 64.683l419.029 419.029c40.358-50.944 64.683-115.157 64.683-185.045z" />
  <glyph unicode="&#xe041;" glyph-name="uE041-ellipsis-v" horiz-adv-x="904"
         d="M452.011 377.187c-33.207 0-60.207 27.042-60.207 60.25s26.999 60.207 60.207 60.207 60.207-26.999 60.207-60.207-26.999-60.25-60.207-60.25zM452.011 635.435c-33.207 0-60.207 27.042-60.207 60.25s26.999 60.207 60.207 60.207 60.207-26.999 60.207-60.207-26.999-60.25-60.207-60.25zM512.218 179.188c0-33.251-26.956-60.207-60.207-60.207s-60.207 26.956-60.207 60.207c0 33.251 26.956 60.207 60.207 60.207s60.207-26.956 60.207-60.207z" />
  <glyph unicode="&#xe044;" glyph-name="uE044-slippery"
         d="M712.533 618.057c38.4 0 72.533 12.8 98.133 38.4s38.4 59.733 38.4 98.133-12.8 72.533-38.4 98.133c-51.2 51.2-140.8 51.2-192 0-25.6-25.6-38.4-59.733-38.4-98.133s12.8-72.533 38.4-98.133c25.6-21.333 59.733-38.4 93.867-38.4zM648.533 822.857c17.067 17.067 42.667 25.6 68.267 25.6s46.933-8.533 68.267-25.6c17.067-17.067 25.6-42.667 25.6-68.267s-8.533-46.933-25.6-68.267c-34.133-34.133-98.133-34.133-132.267 0-17.067 17.067-25.6 42.667-25.6 68.267s4.267 51.2 21.333 68.267zM1019.733 306.59l-12.8 21.333c-34.133 51.2-76.8 93.867-128 128s-106.667 55.467-166.4 64c-102.4 17.067-192 72.533-256 153.6l-72.533 98.133c-4.267 8.533-21.333 8.533-29.867 4.267-8.533-8.533-12.8-21.333-4.267-29.867l72.533-93.867c55.467-76.8 136.533-132.267 226.133-157.867l-93.867-166.4c-59.733 25.6-128 34.133-192 25.6-72.533-12.8-136.533-46.933-183.467-98.133-8.533-8.533-8.533-21.333 0-29.867 4.267-4.267 8.533-4.267 12.8-4.267s12.8 4.267 17.067 8.533c42.667 46.933 98.133 76.8 162.133 85.333 55.467 8.533 110.933 0 157.867-17.067l-123.733-213.333c-4.267-8.533-4.267-21.333 8.533-29.867 4.267 0 8.533-4.267 12.8-4.267 8.533 0 12.8 4.267 17.067 12.8l247.467 426.667c4.267 0 8.533 0 12.8-4.267 55.467-8.533 106.667-29.867 149.333-59.733 46.933-29.867 85.333-68.267 115.2-115.2l12.8-21.333c4.267-4.267 12.8-8.533 17.067-8.533s8.533 0 12.8 4.267c12.8 0 17.067 12.8 8.533 21.333zM196.267 29.257h-174.933c-12.8 0-21.333-8.533-21.333-21.333s8.533-21.333 21.333-21.333h174.933c12.8 0 21.333 8.533 21.333 21.333 0 8.533-12.8 21.333-21.333 21.333z" />
  <glyph unicode="&#xe051;" glyph-name="uE051-rotate-left" horiz-adv-x="889"
         d="M0 384.67c0 0.427 0-28.587 0 1.28 0 30.293 43.093 30.293 43.093 0 0-18.773 0-0.427 0-0.853 1.707-220.16 180.907-399.787 401.493-401.067 224 2.56 404.053 187.307 401.493 411.307-2.56 218.88-182.613 398.933-401.92 401.493-121.6 0-235.093-54.613-311.040-149.76l-5.547-7.253c0 0 228.693 0 267.52 0 27.733-2.133 28.16-41.813 0-43.093h-301.653c-15.787 0-29.013 12.8-29.013 29.013v289.28c0 28.587 43.093 28.587 43.093 0 0-21.333 0-232.533 0-232.533l7.68 8.533c83.2 94.293 203.52 148.48 329.387 148.48 119.893-1.28 232.533-49.067 316.16-134.827s129.707-199.253 128.427-319.147c-2.56-242.773-201.813-442.027-444.587-444.587-244.053 1.707-442.453 200.107-444.587 443.733z" />
  <glyph unicode="&#xe052;" glyph-name="uE052-rotate-right" horiz-adv-x="889"
         d="M444.587-59.063c-242.773 2.56-442.027 202.24-444.587 444.587-1.28 119.893 44.373 233.387 128.427 319.147s196.267 133.547 316.16 134.827c125.867 0 245.76-54.187 329.387-148.48l7.68-8.533c0 0 0 211.2 0 232.533 0 28.587 43.093 28.587 43.093 0v-289.28c0-15.787-12.8-29.013-29.013-29.013h-301.227c-28.16 1.28-27.733 40.96 0 43.093 38.4 0 267.52 0 267.52 0l-5.547 7.253c-75.947 95.147-189.013 149.76-311.040 149.76-219.733-2.56-399.787-183.040-402.347-401.493-2.56-224 177.493-408.32 401.493-411.307 221.013 1.707 399.787 180.907 401.493 401.067 0 0.427 0-17.92 0 0.853 0 30.293 43.093 30.293 43.093 0s0-0.853 0-1.28c-2.133-243.627-200.533-442.027-444.587-443.733z" />
  <glyph unicode="&#xe053;" glyph-name="uE053-hourglass" horiz-adv-x="676"
         d="M587.563 685.769c3.2 20.821-1.877 41.643-14.336 58.624s-30.805 28.117-51.627 31.317c-4.096 0.64-8.235 0.939-12.288 0.896h-342.912c-21.077-0.299-40.875-7.936-55.893-22.784-14.976-14.805-23.296-34.56-23.424-55.595 0-4.181 0.299-8.32 0.896-12.459 0-0.128 0.043-0.256 0.043-0.427 19.883-114.773 84.224-197.419 191.232-246.528-107.008-49.152-171.349-131.84-191.275-246.955-0.64-4.096-0.896-8.277-0.896-12.373 0.085-21.077 8.405-40.832 23.381-55.637 14.891-14.72 34.517-22.784 55.424-22.784 0.171 0 0.299 0 0.469 0h342.741c4.224-0.171 8.277 0.299 12.416 0.896 20.821 3.157 39.125 14.251 51.627 31.232 12.459 16.981 17.579 37.803 14.336 59.051-19.883 114.773-84.224 197.419-191.232 246.571 107.008 49.152 171.349 131.84 191.317 246.955zM545.408 185.417c1.451-9.557-0.896-19.115-6.613-26.88-5.717-7.808-14.165-12.885-23.723-14.336-1.877-0.256-3.712 0-5.803-0.427h-342.997c-0.043 0-0.085 0-0.128 0-8.96-0.555-18.731 3.627-25.643 10.453-6.869 6.784-10.667 15.872-10.709 25.557 0 1.877 0.085 3.755 0.341 5.248 19.925 114.987 87.893 190.72 207.659 231.339 119.765-40.619 187.733-116.352 207.616-230.955zM337.792 461.342c-119.68 40.533-187.648 116.181-207.616 231.125-0.256 1.792-0.427 3.627-0.384 5.504 0.043 9.685 3.883 18.731 10.752 25.557 6.912 6.784 16.171 10.667 25.771 10.453h343.125c1.963 0.171 3.797-0.128 5.675-0.427 19.712-3.029 33.323-21.547 30.336-40.875-19.925-115.072-87.893-190.763-207.659-231.339zM21.333 849.012h632.875c11.776 0 21.333 9.557 21.333 21.333s-9.557 21.333-21.333 21.333h-632.875c-11.776 0-21.333-9.557-21.333-21.333s9.557-21.333 21.333-21.333zM654.251 28.702h-632.917c-11.776 0-21.333-9.557-21.333-21.333s9.557-21.333 21.333-21.333h632.875c11.776 0 21.333 9.557 21.333 21.333s-9.515 21.333-21.291 21.333z" />
  <glyph unicode="&#xe070;" glyph-name="uE070-diagram-area"
         d="M21.478-47.466c-11.853 0-21.478 9.664-21.478 21.5v929.664c0 11.853 9.626 21.478 21.478 21.478 11.831 0 21.457-9.626 21.457-21.478v-908.207h959.876c11.831 0 21.5-9.626 21.5-21.457s-9.668-21.5-21.5-21.5h-981.333zM279.71 159.117c-40.311 0-73.105 32.832-73.105 73.165v206.583c0 40.311 32.794 73.105 73.105 73.105h236.77v287.415c0 40.875 32.832 74.125 73.126 74.125h309.918c40.29 0 73.126-33.25 73.126-74.125v-411.166c0-40.875-32.832-74.125-73.126-74.125h-133.457v-81.813c0-40.333-32.832-73.165-73.165-73.165h-413.193zM279.71 469.031c-17.186 0-30.165-12.979-30.165-30.165v-206.583c0-17.207 12.979-30.165 30.165-30.165h413.188c17.207 0 30.165 12.958 30.165 30.165v81.813h-133.457c-40.29 0-73.126 33.25-73.126 74.125v80.811h-236.77zM589.602 830.575c-17.207 0-30.165-13.419-30.165-31.189v-287.415h133.457c40.333 0 73.165-32.794 73.165-73.105v-81.835h133.457c17.165 0 30.127 13.419 30.127 31.189v411.166c0 17.771-12.958 31.189-30.127 31.189h-309.914zM559.437 388.22c0-17.771 12.958-31.189 30.165-31.189h133.457v81.835c0 17.186-12.958 30.165-30.165 30.165h-133.457v-80.811z" />
  <glyph unicode="&#xe071;" glyph-name="uE071-diagram-bar"
         d="M21.478-47.466c-11.853 0-21.478 9.664-21.478 21.5v929.664c0 11.853 9.626 21.478 21.478 21.478 11.831 0 21.457-9.626 21.457-21.478v-908.207h959.876c11.831 0 21.5-9.626 21.5-21.457s-9.668-21.5-21.5-21.5h-981.333zM486.31 55.826c-11.831 0-21.478 9.668-21.478 21.5v774.729c0 11.831 9.647 21.457 21.478 21.457h103.292c11.831 0 21.5-9.626 21.5-21.457v-774.729c0-11.831-9.668-21.5-21.5-21.5h-103.292zM507.814 98.782h60.292v731.793h-60.292v-731.793zM744.563 55.826c-11.831 0-21.5 9.668-21.5 21.5v568.124c0 11.853 9.668 21.478 21.5 21.478h103.292c11.831 0 21.5-9.626 21.5-21.478v-568.124c0-11.831-9.668-21.5-21.5-21.5h-103.292zM766.063 98.782h60.292v525.21h-60.292v-525.21zM228.062 55.826c-11.831 0-21.457 9.668-21.457 21.5v413.188c0 11.831 9.626 21.457 21.457 21.457h103.292c11.853 0 21.478-9.626 21.478-21.457v-413.188c0-11.831-9.626-21.5-21.478-21.5h-103.292zM249.54 98.782h60.356v370.249h-60.356v-370.249z" />
  <glyph unicode="&#xe072;" glyph-name="uE072-diagram-bars-horizontal" horiz-adv-x="904"
         d="M832.085 534.601h-789.419v114.389h434.688c39.723 0 72.021 32.299 72.021 72.021v50.688c0 39.723-32.299 72.021-72.021 72.021h-434.688v49.579c0 11.776-9.557 21.333-21.333 21.333s-21.333-9.557-21.333-21.333v-912.085c0-11.776 9.557-21.333 21.333-21.333s21.333 9.557 21.333 21.333v49.621h586.709c39.723 0 72.021 32.299 72.021 72.021v50.688c0 39.723-32.299 72.021-72.021 72.021h-586.709v114.432h789.419c39.723 0 72.021 32.299 72.021 72.021v50.688c-0.043 39.595-32.341 71.893-72.021 71.893zM477.355 801.012c16.171 0 29.355-13.184 29.355-29.355v-50.688c0-16.171-13.184-29.355-29.355-29.355h-434.688v109.397h434.688zM629.376 182.857c16.171 0 29.355-13.184 29.355-29.355v-50.688c0-16.171-13.184-29.355-29.355-29.355h-586.709v109.397h586.709zM861.397 411.934c0-16.171-13.184-29.355-29.355-29.355h-789.376v109.312h789.419c16.171 0 29.355-13.184 29.355-29.355v-50.603h-0.043z" />
  <glyph unicode="&#xe073;" glyph-name="uE073-diagram-bars-vertical" horiz-adv-x="955"
         d="M933.376 27.892h-49.621v586.709c0 39.723-32.299 72.021-72.021 72.021h-50.688c-39.723 0-72.021-32.299-72.021-72.021v-586.709h-114.432v789.419c0 39.723-32.299 72.021-72.021 72.021h-50.688c-39.723 0-72.021-32.299-72.021-72.021v-789.419h-114.261v434.688c0 39.723-32.299 72.021-72.021 72.021h-50.645c-39.723 0-72.021-32.299-72.021-72.021v-434.688h-49.579c-11.776 0-21.333-9.557-21.333-21.333s9.557-21.333 21.333-21.333h912.128c11.776 0 21.333 9.557 21.333 21.333s-9.6 21.333-21.419 21.333zM113.579 27.892v434.688c0 16.171 13.184 29.355 29.355 29.355h50.688c16.171 0 29.355-13.184 29.355-29.355v-434.688h-109.397zM422.699 27.892v789.419c0 16.171 13.184 29.355 29.355 29.355h50.688c16.171 0 29.355-13.184 29.355-29.355v-789.419h-109.397zM731.776 27.892v586.709c0 16.171 13.184 29.355 29.355 29.355h50.688c16.171 0 29.355-13.184 29.355-29.355v-586.709h-109.397z" />
  <glyph unicode="&#xe074;" glyph-name="uE074-diagram-doughnut" horiz-adv-x="896"
         d="M448 886.857c-247.040 0-448-200.96-448-448s200.96-448 448-448 448 200.96 448 448-200.96 448-448 448zM784 665.332l-126.464-75.904c-43.051 59.733-110.763 100.352-188.203 106.709v146.987c130.816-6.869 245.504-75.52 314.667-177.792zM448 654.58c118.955 0 215.723-96.768 215.723-215.723s-96.768-215.723-215.723-215.723-215.723 96.768-215.723 215.723 96.768 215.723 215.723 215.723zM448 33.524c-223.488 0-405.333 181.845-405.333 405.333 0 216.32 170.453 393.045 384 404.267v-146.987c-132.48-10.88-237.056-122.027-237.056-257.28 0-142.464 115.925-258.389 258.389-258.389s258.389 115.925 258.389 258.389c0 40.96-9.813 79.573-26.88 114.005l126.379 75.819c30.208-56.661 47.445-121.259 47.445-189.824 0-223.488-181.845-405.333-405.333-405.333z" />
  <glyph unicode="&#xe075;" glyph-name="uE075-diagram-line"
         d="M21.478-47.466c-11.853 0-21.478 9.664-21.478 21.5v929.664c0 11.853 9.626 21.478 21.478 21.478 11.831 0 21.457-9.626 21.457-21.478v-908.207h959.876c11.831 0 21.5-9.626 21.5-21.457s-9.668-21.5-21.5-21.5h-981.333zM202.21 339.968c-5.291 0-10.377 1.937-14.31 5.478-8.772 7.898-9.481 21.478-1.583 30.293l232.397 258.21c4.079 4.54 9.911 7.147 16.017 7.147 4.668 0 9.105-1.481 12.855-4.271l188.147-141.103 219.917 342.084c3.831 5.999 10.415 9.707 17.54 9.894v0c4.54 0 8.542-1.186 12.041-3.46 9.916-6.396 12.791-19.665 6.46-29.585l-232.418-361.54c-5.001-6.771-11.251-9.916-18.082-9.916-4.668 0-9.126 1.481-12.834 4.271l-190.835 143.228-219.354-243.644c-4.062-4.501-9.899-7.087-15.957-7.087z" />
  <glyph unicode="&#xe076;" glyph-name="uE076-diagram-line-angular" horiz-adv-x="981"
         d="M970.138 798.964c-10.411 5.547-23.296 1.749-28.928-8.619l-279.808-517.12-251.819 329.813c-4.053 5.291-10.325 8.405-16.939 8.405-6.912-0.128-13.056-3.157-17.067-8.491l-371.285-492.587c-7.083-9.387-5.205-22.784 4.224-29.867 3.797-2.901 8.32-4.309 12.8-4.309 6.485 0 12.843 2.944 17.067 8.491l354.347 470.144 254.805-333.696c4.395-5.76 10.965-8.747 18.645-8.32 7.211 0.555 13.653 4.736 17.109 11.136l295.509 546.133c5.547 10.325 1.707 23.253-8.661 28.885z" />
  <glyph unicode="&#xe077;" glyph-name="uE077-diagram-line-smooth" horiz-adv-x="981"
         d="M964.8 778.228c-11.52 2.731-22.955-4.523-25.557-16-27.989-121.984-131.797-438.571-274.731-438.571-69.205 0-112.469 50.517-158.293 104.021-48.64 56.789-98.944 115.541-183.083 115.541-160.299 0-305.707-372.864-321.749-415.36-4.181-11.008 1.408-23.339 12.416-27.52 2.475-0.981 5.035-1.408 7.552-1.408 8.619 0 16.725 5.248 19.968 13.781 40.747 107.861 170.795 387.755 281.813 387.755 64.512 0 106.368-48.896 150.699-100.608 47.744-55.723 101.845-118.912 190.677-118.912 205.867 0 311.893 452.437 316.288 471.68 2.645 11.563-4.523 22.997-16 25.6z" />
  <glyph unicode="&#xe078;" glyph-name="uE078-diagram-pie" horiz-adv-x="896"
         d="M448 886.857c-247.040 0-448-200.96-448-448s200.96-448 448-448 448 200.96 448 448-200.96 448-448 448zM784 665.332l-314.667-188.8v366.592c130.816-6.869 245.504-75.52 314.667-177.792zM448 33.524c-223.488 0-405.333 181.845-405.333 405.333 0 216.32 170.453 393.045 384 404.267v-404.267c0-7.68 4.139-14.763 10.795-18.56 3.285-1.877 6.912-2.773 10.539-2.773 3.797 0 7.595 1.024 10.965 3.029l346.923 208.128c30.208-56.661 47.445-121.259 47.445-189.824 0-223.488-181.845-405.333-405.333-405.333z" />
  <glyph unicode="&#xe079;" glyph-name="uE079-diagram-radar" horiz-adv-x="896"
         d="M886.613 552.35l-425.387 308.907c-8.107 5.973-18.347 5.973-26.453 0l-425.387-308.907c-8.107-5.547-11.52-15.36-8.107-24.747l162.56-499.627c2.987-9.387 11.52-15.787 21.333-15.787h525.653c9.813 0 18.347 6.4 21.333 15.787l162.56 499.627c2.987 8.96 0 19.2-8.107 24.747zM695.040 56.99h-493.653l-152.32 468.907 398.933 289.707 398.933-289.28-151.893-469.333zM435.2 622.75l-198.4-144.213c-8.107-5.973-11.093-15.787-8.107-25.173l75.52-232.96c2.987-9.387 11.52-15.787 21.333-15.787h245.333c9.813 0 18.347 6.4 21.333 15.787l75.52 232.96c2.987 9.387-0.427 19.2-8.107 25.173l-198.4 144.213c-7.68 5.973-18.347 5.973-26.027 0zM620.373 452.51l-65.707-202.24h-213.333l-65.707 202.24 172.373 124.587 172.373-124.587z" />
  <glyph unicode="&#xe07a;" glyph-name="uE07A-diagram-scatter"
         d="M21.478-47.466c-11.853 0-21.478 9.664-21.478 21.5v929.664c0 11.853 9.626 21.478 21.478 21.478 11.831 0 21.457-9.626 21.457-21.478v-908.207h959.876c11.831 0 21.5-9.626 21.5-21.457s-9.668-21.5-21.5-21.5h-981.333zM687.189 385.805c-118.665 0-215.206 96.521-215.206 215.168 0 118.626 96.542 215.147 215.206 215.147 118.626 0 215.168-96.521 215.168-215.147-0.004-118.647-96.546-215.168-215.168-215.168zM687.189 773.18c-94.959 0-172.207-77.248-172.207-172.207s77.248-172.207 172.207-172.207 172.169 77.248 172.169 172.207-77.214 172.207-172.169 172.207zM332.561 202.198c-63.061 0-114.355 51.375-114.355 114.522 0 63.125 51.29 114.479 114.355 114.479 63.147 0 114.5-51.354 114.5-114.479 0-63.147-51.354-114.522-114.5-114.522zM332.561 388.263c-40.043 0-71.415-31.415-71.415-71.543 0-40.102 31.377-71.522 71.415-71.522 40.124 0 71.543 31.415 71.543 71.522 0 40.124-31.415 71.543-71.543 71.543z" />
  <glyph unicode="&#xe07b;" glyph-name="uE07B-optimize-width"
         d="M919.040 398.75h-814.507c-34.133 0-61.867-26.027-61.867-57.6v-311.467c0-31.573 27.733-57.6 61.867-57.6h814.507c34.133 0 62.293 26.027 62.293 57.6v311.467c0 31.573-27.733 57.6-62.293 57.6zM938.667 29.257c0-8.107-8.96-14.933-19.627-14.933h-814.507c-10.667 0-19.2 6.827-19.2 14.933v311.467c0 8.107 8.96 14.933 19.2 14.933h814.507c10.667 0 19.627-6.827 19.627-14.933v-311.467zM192 603.124l30.293 30.293-106.667 106.667h793.173l-106.667-106.667 30.293-30.293 142.933 142.933c8.533 8.533 8.533 21.76 0 30.293l-142.933 142.933-30.293-30.293 106.667-106.667h-793.173l106.667 106.667-30.293 30.293-142.933-142.933c-8.533-8.533-8.533-21.76 0-30.293l142.933-142.933z" />
  <glyph unicode="&#xe07c;" glyph-name="uE07C-optimize-widths"
         d="M919.040 398.75h-814.507c-34.133 0-61.867-26.027-61.867-57.6v-311.467c0-31.573 27.733-57.6 61.867-57.6h814.507c34.133 0 62.293 26.027 62.293 57.6v311.467c0 31.573-27.733 57.6-62.293 57.6zM938.667 341.15v-134.4h-405.333v149.333h385.707c10.667 0 19.627-6.827 19.627-14.933zM104.533 356.084h386.133v-149.333h-405.333v134.4c0 8.107 8.96 14.933 19.2 14.933zM85.333 29.257v134.4h405.333v-149.333h-386.133c-10.667 0-19.2 6.827-19.2 14.933zM919.040 14.75h-385.707v149.333h405.333v-134.4c0-8.107-8.96-14.933-19.627-14.933zM192 603.124l30.293 30.293-106.667 106.667h793.173l-106.667-106.667 30.293-30.293 142.933 142.933c8.533 8.533 8.533 21.76 0 30.293l-142.933 142.933-30.293-30.293 106.667-106.667h-793.173l106.667 106.667-30.293 30.293-142.933-142.933c-8.533-8.533-8.533-21.76 0-30.293l142.933-142.933z" />
</font>
</defs>
</svg>
