<?xml version="1.0" standalone="no"?>
<!DOCTYPE svg PUBLIC "-//W3C//DTD SVG 1.1//EN" "http://www.w3.org/Graphics/SVG/1.1/DTD/svg11.dtd">
<svg xmlns="http://www.w3.org/2000/svg">
<metadata>Iconscout</metadata>
<defs>
<font id="unicons-17" horiz-adv-x="1000" >
<font-face font-family="unicons-17" font-weight="400" font-stretch="normal" units-per-em="1000" ascent="850" descent="-150" />
<missing-glyph horiz-adv-x="1000" />
<glyph glyph-name="black-berry" unicode="&#xec02;" d="M500 767a417 417 0 1 1 417-417 417 417 0 0 1-417 417z m-200-473h-80l21 100h77c50 0 62-24 62-44 0-27-18-56-80-56z m27 151h-79l21 101h77c49 0 61-25 61-42 0-29-17-59-80-59z m156-309h-80l22 101h77c50 0 61-25 61-44 0-28-17-57-80-57z m30 158h-80l22 100h77c49 0 61-24 61-44 0-27-18-56-80-56z m29 151h-81l22 101h76c50 0 62-25 62-42 0-29-18-59-79-59z m156-233h-81l22 101h76c50 0 62-25 62-45 0-27-18-56-80-56z m30 143h-81l20 101h76c50 0 62-25 62-42 2-29-16-59-78-59z" horiz-adv-x="1000" />

<glyph glyph-name="linkedin" unicode="&#xec03;" d="M853 767h-706a60 60 0 0 1-61-60v-714a60 60 0 0 1 61-60h706a60 60 0 0 1 61 60v714a60 60 0 0 1-61 60z m-516-698h-125v375h125z m-62 428a65 65 0 1 0 0 130 65 65 0 1 0 0-130z m513-428h-125v201c0 51-18 84-63 84a69 69 0 0 1-65-46 83 83 0 0 1-4-30v-208h-125v375h125v-53a125 125 0 0 0 113 62c84 0 144-54 144-169z" horiz-adv-x="1000" />

<glyph glyph-name="snapchat-ghost" unicode="&#xec04;" d="M908 142c-119 20-173 142-175 147l0 1a45 45 0 0 0-4 37c8 19 34 27 52 33 4 1 8 3 11 4 32 12 39 25 39 34a28 28 0 0 1-21 23l-1 0a39 39 0 0 1-14 3 31 31 0 0 1-13-3 106 106 0 0 0-40-11 34 34 0 0 0-22 7l1 23 0 2a421 421 0 0 1-10 168 219 219 0 0 1-203 131l-17 0a218 218 0 0 1-202-131 420 420 0 0 1-10-168q0-12 1-25a35 35 0 0 0-24-7 102 102 0 0 0-42 11 24 24 0 0 1-11 2 35 35 0 0 1-33-22c-4-18 22-31 37-37 4-1 8-3 12-4 18-6 44-14 52-33a45 45 0 0 0-4-37l0-1a293 293 0 0 0-45-69 217 217 0 0 0-130-78 10 10 0 0 1-9-10 16 16 0 0 1 2-6c7-17 44-31 106-40 6-1 8-11 12-26 1-7 2-13 4-20a12 12 0 0 1 14-9 104 104 0 0 1 17 2 230 230 0 0 0 47 6 206 206 0 0 0 34-3 162 162 0 0 0 64-33 185 185 0 0 1 112-44c1 0 3 0 4 0 2 0 4 0 6 0a185 185 0 0 1 112 44 161 161 0 0 0 64 33 207 207 0 0 0 34 3 233 233 0 0 0 47-5 100 100 0 0 1 17-3h1a12 12 0 0 1 13 10 272 272 0 0 1 4 19c4 15 6 25 12 26 62 9 99 23 106 40a16 16 0 0 1 2 6 10 10 0 0 1-9 10z" horiz-adv-x="1000" />

<glyph glyph-name="intercom" unicode="&#xec05;" d="M813 767h-625a104 104 0 0 1-105-104v-625a104 104 0 0 1 105-105h625a104 104 0 0 1 104 105v625a104 104 0 0 1-104 104z m-202-153a28 28 0 0 0 28 28 28 28 0 0 0 28-28v-371a28 28 0 0 0-56 0z m-139 14a28 28 0 0 0 28 28 28 28 0 0 0 28-28v-403a28 28 0 0 0-56 0z m-139-14a28 28 0 0 0 56 0v-371a28 28 0 0 0-28-28 28 28 0 0 0-28 28z m-138-56a28 28 0 0 0 55 0v-250a28 28 0 0 0-28-27 28 28 0 0 0-27 27z m601-423a471 471 0 0 0-296-90 471 471 0 0 0-296 90 28 28 0 0 0 36 41 425 425 0 0 1 260-76 423 423 0 0 1 260 77 28 28 0 0 0 36-42z m9 173a28 28 0 0 0-55 0v250a28 28 0 0 0 28 28 28 28 0 0 0 27-28z" horiz-adv-x="1000" />

<glyph glyph-name="youtube" unicode="&#xec06;" d="M958 445a354 354 0 0 1-38 173 122 122 0 0 1-71 41 3265 3265 0 0 1-349 13 3269 3269 0 0 1-347-12 120 120 0 0 1-61-31c-38-35-42-94-46-144a2012 2012 0 0 1 0-270 398 398 0 0 1 12-83 131 131 0 0 1 30-57 119 119 0 0 1 62-32 1882 1882 0 0 1 271-14c146-2 274 0 425 11a120 120 0 0 1 64 33 104 104 0 0 1 25 42 441 441 0 0 1 22 141c1 24 1 164 1 189z m-552-214v258l247-129c-70-39-161-82-247-129z" horiz-adv-x="1000" />

<glyph glyph-name="snapchat-square" unicode="&#xec07;" d="M916 572a255 255 0 0 1-5 44 182 182 0 0 1-16 52 180 180 0 0 1-35 47 172 172 0 0 1-76 43 307 307 0 0 1-80 8l0 1h-408v-1a437 437 0 0 1-46-2 218 218 0 0 1-49-11 178 178 0 0 1-109-118 306 306 0 0 1-8-80l0-410a394 394 0 0 1 3-55 192 192 0 0 1 17-56 179 179 0 0 1 51-61 163 163 0 0 1 50-27 272 272 0 0 1 82-12c18 0 35-1 52-1 127 1 254 0 381 1a300 300 0 0 1 50 5 169 169 0 0 1 84 41 173 173 0 0 1 55 92 336 336 0 0 1 7 73v5c0 2 0 416 0 422z m-112-386c-5-12-32-23-78-30-4 0-6-7-8-19-1-4-2-9-4-14a8 8 0 0 0-9-6h-1a73 73 0 0 0-12 1 171 171 0 0 1-35 4 152 152 0 0 1-24-2 118 118 0 0 1-47-24 136 136 0 0 0-82-32 97 97 0 0 0-5 0 36 36 0 0 0-3 0 136 136 0 0 0-82 32 118 118 0 0 1-47 24 151 151 0 0 1-24 2 169 169 0 0 1-35-4 76 76 0 0 0-13-2 9 9 0 0 0-9 7c-2 5-3 10-4 14-2 12-4 19-8 19-46 7-73 18-78 30a12 12 0 0 0-1 4 7 7 0 0 0 6 8 159 159 0 0 1 96 57 214 214 0 0 1 32 50l0 1a33 33 0 0 1 3 27c-5 14-25 20-38 24a136 136 0 0 0-8 3c-12 5-30 14-28 27a25 25 0 0 0 25 17 18 18 0 0 0 7-2 75 75 0 0 1 31-8 26 26 0 0 1 18 5q-1 10-1 19a308 308 0 0 0 7 123 160 160 0 0 0 149 95l12 0a160 160 0 0 0 149-95 308 308 0 0 0 7-123l0-2-1-17a25 25 0 0 1 16-5 78 78 0 0 1 29 8 23 23 0 0 0 10 2 29 29 0 0 0 11-2l0 0a20 20 0 0 0 15-17c0-6-5-16-28-25-2-1-5-2-9-3-12-4-32-10-38-24a33 33 0 0 1 3-27l1-1a188 188 0 0 1 128-107 7 7 0 0 0 6-8 12 12 0 0 0-1-4z" horiz-adv-x="1000" />

<glyph glyph-name="apple" unicode="&#xec08;" d="M623 634a182 182 0 0 1 44 133 185 185 0 0 1-125-64 174 174 0 0 1-42-128 154 154 0 0 1 122 59z m105-310a188 188 0 0 0 90 159 194 194 0 0 1-153 83c-65 7-125-38-160-38s-83 37-137 36a205 205 0 0 1-173-105c-73-128-18-317 55-420 33-51 75-108 130-106s73 35 137 35 83-35 137-33 93 51 128 102a458 458 0 0 1 57 118 184 184 0 0 0-111 169z" horiz-adv-x="1000" />

<glyph glyph-name="instagram-alt" unicode="&#xec09;" d="M500 453a103 103 0 1 1 103-103 103 103 0 0 1-103 103z m414 102a272 272 0 0 1-18 95 167 167 0 0 1-96 96 272 272 0 0 1-95 18c-53 3-69 3-205 3s-152 0-205-3a272 272 0 0 1-95-18 167 167 0 0 1-96-96 272 272 0 0 1-18-95c-3-53-3-69-3-205s0-152 3-205a286 286 0 0 1 18-95 164 164 0 0 1 38-58 162 162 0 0 1 58-38 272 272 0 0 1 95-18c53-3 69-3 205-3s152 0 205 3a272 272 0 0 1 95 18 162 162 0 0 1 58 38 164 164 0 0 1 38 58 275 275 0 0 1 18 95c3 53 3 69 3 205s0 152-3 205z m-106-333a239 239 0 0 0-16-75 161 161 0 0 0-89-89 239 239 0 0 0-75-14h-256a239 239 0 0 0-75 14 146 146 0 0 0-55 36 146 146 0 0 0-34 53 229 229 0 0 0-14 76v127 128a229 229 0 0 0 14 75 146 146 0 0 0 36 55 150 150 0 0 0 53 34 239 239 0 0 0 76 14h255a239 239 0 0 0 75-14 146 146 0 0 0 55-36 146 146 0 0 0 34-53 239 239 0 0 0 14-75v-128c0-86 3-95 2-127z m-67 310a99 99 0 0 1-58 59 167 167 0 0 1-58 9h-250a167 167 0 0 1-57-11 99 99 0 0 1-59-56 178 178 0 0 1-9-58v-250a178 178 0 0 1 11-57 99 99 0 0 1 59-59 178 178 0 0 1 55-11h250a167 167 0 0 1 58 11 99 99 0 0 1 58 59 167 167 0 0 1 11 57v125 125a157 157 0 0 1-11 58z m-241-341a159 159 0 0 0-159 159 159 159 0 1 0 159-159z m167 287a38 38 0 0 0 0 75 38 38 0 0 0 0-75z" horiz-adv-x="1000" />

<glyph glyph-name="whatsapp-alt" unicode="&#xec0a;" d="M917 577a525 525 0 0 1-4 54 179 179 0 0 1-16 45 153 153 0 0 1-29 42 163 163 0 0 1-42 29 178 178 0 0 1-45 15 425 425 0 0 1-53 5h-455a525 525 0 0 1-54-4 179 179 0 0 1-45-16 153 153 0 0 1-42-29 163 163 0 0 1-29-42 178 178 0 0 1-15-45 425 425 0 0 1-5-53v-455a525 525 0 0 1 5-54 179 179 0 0 1 15-45 153 153 0 0 1 30-41 163 163 0 0 1 41-30 178 178 0 0 1 45-15 425 425 0 0 1 54-5h454a525 525 0 0 1 54 4 179 179 0 0 1 45 16 153 153 0 0 1 41 29 163 163 0 0 1 30 42 178 178 0 0 1 15 45 425 425 0 0 1 5 54v432 22z m-407-519a297 297 0 0 0-143 38l-159-42 42 155a296 296 0 0 0-42 149 299 299 0 1 0 302-300z m0 547a250 250 0 0 1-211-380l6-10-25-91 95 26 9-5a250 250 0 0 1 125-35 250 250 0 0 1 250 250 250 250 0 0 1-250 250z m145-355a76 76 0 0 0-50-35 97 97 0 0 0-47 3 371 371 0 0 0-41 16 333 333 0 0 0-128 112 145 145 0 0 0-30 77 83 83 0 0 0 26 63 27 27 0 0 0 20 9h12c4 0 10 0 16-13s22-52 24-55a14 14 0 0 0 0-13 47 47 0 0 0-8-13c-4-4-8-10-11-13s-8-8-3-15a232 232 0 0 1 41-52 208 208 0 0 1 60-37c8-4 12-3 17 0s18 22 23 29 10 7 17 4 44-20 51-24 12-5 14-9a65 65 0 0 0-3-32z" horiz-adv-x="1000" />

<glyph glyph-name="behance" unicode="&#xec0b;" d="M836 585h-211v-58h212z m-44-404a93 93 0 0 0-54-15 93 93 0 0 0-71 22 104 104 0 0 0-26 74h276a270 270 0 0 1-7 83 212 212 0 0 1-34 72 174 174 0 0 1-59 51 182 182 0 0 1-83 18 203 203 0 0 1-79-15 188 188 0 0 1-62-42 183 183 0 0 1-39-63 225 225 0 0 1-14-80 230 230 0 0 1 13-81 186 186 0 0 1 37-63 167 167 0 0 1 61-42 217 217 0 0 1 81-14 199 199 0 0 1 110 29 175 175 0 0 1 68 98h-93a64 64 0 0 0-25-32z m-143 172a78 78 0 0 0 41 47 95 95 0 0 0 42 9 72 72 0 0 0 57-21 121 121 0 0 0 26-60h-173a125 125 0 0 0 5 25z m-221 20a128 128 0 0 1 54 42 113 113 0 0 1 18 65 137 137 0 0 1-12 62 100 100 0 0 1-35 42 135 135 0 0 1-53 21 314 314 0 0 1-68 7h-249v-524h254a273 273 0 0 1 69 9 190 190 0 0 1 60 27 130 130 0 0 1 41 47 142 142 0 0 1 16 69 145 145 0 0 1-24 83 125 125 0 0 1-73 50z m-229 150h108a174 174 0 0 0 29-3 68 68 0 0 0 26-9 44 44 0 0 0 17-18 59 59 0 0 0 7-30 57 57 0 0 0-20-48 83 83 0 0 0-51-15h-116z m201-310a53 53 0 0 0-18-21 83 83 0 0 0-27-11 139 139 0 0 0-33-4h-125v144h125a100 100 0 0 0 61-17 69 69 0 0 0 22-58 74 74 0 0 0-5-34z" horiz-adv-x="1000" />

<glyph glyph-name="twitter" unicode="&#xec0c;" d="M917 608a354 354 0 0 0-99-26 172 172 0 0 1 76 94 342 342 0 0 0-109-41 171 171 0 0 1-292-156 485 485 0 0 0-352 179 173 173 0 0 1-23-87 170 170 0 0 1 76-142 169 169 0 0 0-77 21v-2a171 171 0 0 1 137-166 164 164 0 0 0-46-7 204 204 0 0 0-32 2 171 171 0 0 1 160-118 343 343 0 0 0-211-73 330 330 0 0 0-42 2 482 482 0 0 1 262-77 483 483 0 0 1 488 487v22a351 351 0 0 1 84 88z" horiz-adv-x="1000" />

<glyph glyph-name="500px" unicode="&#xec0d;" d="M292 219a59 59 0 0 1 7-18 262 262 0 0 1 58-87 278 278 0 0 1 87-58 259 259 0 0 1 106-22 262 262 0 0 1 106 22 276 276 0 0 1 86 58 266 266 0 0 1 59 87 273 273 0 0 1 19 107 282 282 0 0 1-21 107 265 265 0 0 1-59 86 269 269 0 0 1-193 80 276 276 0 0 1-107-23 295 295 0 0 1-50-28 297 297 0 0 1-48-39v224h378c9 0 14 9 14 26s-6 26-15 26h-408a15 15 0 0 1-12-6 17 17 0 0 1-5-12v-316a16 16 0 0 1 7-12 45 45 0 0 1 17-8 30 30 0 0 1 18 0 38 38 0 0 1 10 5 42 42 0 0 1 6 7 288 288 0 0 0 35 42 215 215 0 0 0 158 65 215 215 0 0 0 159-67 215 215 0 0 0 66-157 221 221 0 0 0-17-83 223 223 0 0 0-121-125 225 225 0 0 0-86-17 212 212 0 0 0-112 32v193a111 111 0 0 0 29 75 105 105 0 0 0 84 37 110 110 0 0 0 83-33 106 106 0 0 0 31-79 114 114 0 0 0-115-114h-14l-16 3h-6c-9 3-15-4-20-20s-3-25 5-28a181 181 0 0 1 53-8 160 160 0 0 1 116 49 159 159 0 0 1 49 118 155 155 0 0 1-49 116 158 158 0 0 1-116 48 161 161 0 0 1-118-48 149 149 0 0 1-47-108v-158a235 235 0 0 0-45 77c-4 9-13 11-28 6s-23-12-20-21z m260 459a340 340 0 0 1-139-27 10 10 0 0 1-10-9 53 53 0 0 1 4-18c6-15 13-20 21-17a337 337 0 0 0 122 23 314 314 0 0 0 128-27 361 361 0 0 0 97-61 10 10 0 0 1 7-4c4 0 10 5 18 12l8 8a15 15 0 0 1 2 9 12 12 0 0 1-4 8 359 359 0 0 1-109 71 375 375 0 0 1-147 32z m-67-413a19 19 0 0 1 8-14 22 22 0 0 1 15-8 10 10 0 0 1 7 3l30 30 30-28a12 12 0 0 1 8-5 24 24 0 0 1 15 8c9 9 10 16 3 23l-29 29 31 31c5 5 3 12-6 21s-16 11-22 5l-30-30-30 31a12 12 0 0 1-6 2 23 23 0 0 1-14-8c-10-9-12-16-7-21l31-31-31-30a15 15 0 0 1-5-8z m330-191a52 52 0 0 1-15 11 12 12 0 0 1-12-3l-3-3a333 333 0 0 0-104-71 331 331 0 0 0-362 71 312 312 0 0 0-73 104 389 389 0 0 0-21 74c0 9-10 12-26 10s-24-9-22-17a355 355 0 0 1 25-88 368 368 0 0 1 83-120 375 375 0 0 1 120-83 380 380 0 0 1 148-30 387 387 0 0 1 147 30 375 375 0 0 1 121 83l2 3c4 9 1 18-10 29z" horiz-adv-x="1000" />

<glyph glyph-name="tumblr" unicode="&#xec0e;" d="M700 100a194 194 0 0 0-68-15 73 73 0 0 0-80 84v259h167v125h-167v214h-122a6 6 0 0 1-5-7 255 255 0 0 0-165-224v-108h84v-272c0-93 68-226 250-223 61 0 129 27 144 49z" horiz-adv-x="1000" />

<glyph glyph-name="github-alt" unicode="&#xec0f;" d="M420-4a42 42 0 0 1-50 41c-54-10-123-12-141 40a238 238 0 0 1-77 100 50 50 0 0 0-7 5 42 42 0 0 1-39 27h0a42 42 0 0 1-41-42c-1-34 33-56 47-63a185 185 0 0 0 39-57c15-42 59-107 186-99l0-4 0-11a42 42 0 0 1 83 0l0 13c0 8 0 20 0 50z m444 630c1 5 3 11 4 17a262 262 0 0 1-17 138 42 42 0 0 1-26 24c-15 5-69 15-174-52a578 578 0 0 1-265 0c-104 66-159 57-173 52a42 42 0 0 1-27-24 263 263 0 0 1-17-140c2-5 3-10 4-15a261 261 0 0 1-53-159 351 351 0 0 1 2-39c14-192 139-249 226-269a191 191 0 0 1-5-17 42 42 0 0 1 81-20 70 70 0 0 0 20 37 42 42 0 0 1-23 73c-144 16-206 75-216 204a275 275 0 0 0-1 31 177 177 0 0 0 38 113 126 126 0 0 0 8 9 42 42 0 0 1 8 43 141 141 0 0 0-6 23 171 171 0 0 0 3 67 314 314 0 0 0 101-49 42 42 0 0 1 34-5 491 491 0 0 0 257 0 42 42 0 0 1 35 5 316 316 0 0 0 100 50 168 168 0 0 0 4-66 134 134 0 0 0-7-25 42 42 0 0 1 7-43c4-3 7-7 10-11a172 172 0 0 0 37-111 293 293 0 0 0-1-33c-9-127-72-186-217-202a42 42 0 0 1-22-73 68 68 0 0 0 19-38 128 128 0 0 0 4-34v-97c-1-27-1-48-1-57a42 42 0 1 1 84 0c0 9 0 29 0 56v98a203 203 0 0 1-6 55 177 177 0 0 1-5 17 271 271 0 0 1 227 268 362 362 0 0 1 2 40 255 255 0 0 1-53 159z" horiz-adv-x="1000" />

<glyph glyph-name="tumblr-square" unicode="&#xec10;" d="M83 767v-834h834v834z m482-661a142 142 0 0 0-156 139v170h-52v67a160 160 0 0 1 101 140 4 4 0 0 0 4 4h76v-132h104v-79h-104v-162a46 46 0 0 1 50-51 125 125 0 0 1 42 9l25-74a139 139 0 0 0-90-31z" horiz-adv-x="1000" />

<glyph glyph-name="google" unicode="&#xec11;" d="M942 433a42 42 0 0 1-41 34h-393a42 42 0 0 1-41-41v-161a42 42 0 0 1 41-42h165a152 152 0 0 0-47-50 211 211 0 0 0-118-32 206 206 0 0 0-193 143v0a204 204 0 0 0 0 132v0a206 206 0 0 0 193 143 182 182 0 0 0 131-50 42 42 0 0 1 58 0l120 120a42 42 0 0 1-1 60 443 443 0 0 1-308 119 456 456 0 0 1-409-252l0 0a455 455 0 0 1-49-206 462 462 0 0 1 49-206l0 0a456 456 0 0 1 409-252 439 439 0 0 1 304 112l0 0a449 449 0 0 1 138 336 521 521 0 0 1-8 93z m-434 292a362 362 0 0 0 217-70l-60-60a269 269 0 0 1-157 48 287 287 0 0 1-249-148l-45 34-24 19a373 373 0 0 0 318 177z m-355-496a376 376 0 0 0 0 242l75-58a286 286 0 0 1 0-126z m355-254a373 373 0 0 0-318 177l16 12 53 41a287 287 0 0 1 249-148 303 303 0 0 1 138 32l71-55a370 370 0 0 0-209-59z m272 115l-7 6-58 45a234 234 0 0 1 59 116 42 42 0 0 1-41 49h-183v78h315c1-14 2-29 2-43a377 377 0 0 0-87-251z" horiz-adv-x="1000" />

<glyph glyph-name="medium-m" unicode="&#xec12;" d="M884 583h33v97h-312l-104-382h-2l-103 382h-313v-97h32a37 37 0 0 0 31-29v-410a35 35 0 0 0-31-27h-32v-97h250v97h-62v431h4l144-528h113l146 528h3v-431h-63v-97h299v97h-33a35 35 0 0 0-30 27v410a37 37 0 0 0 30 29z" horiz-adv-x="1000" />

<glyph glyph-name="slack" unicode="&#xec13;" d="M83 239a83 83 0 1 1 167 0v83h-83a83 83 0 0 1-84-83z m527 139a83 83 0 0 1 83 83v222a83 83 0 1 1-166 0v-222a83 83 0 0 1 84-83z m305 83a83 83 0 1 1-167 0v-83h84a83 83 0 0 1 85 83z m-526-139a83 83 0 0 1-83-83v-222a83 83 0 1 1 167 0v222a83 83 0 0 1-84 83z m222-222h-84v-83a83 83 0 1 1 84 83z m222 222h-222a83 83 0 0 1 0-167h222a83 83 0 0 1 0 167z m-444 223h-222a83 83 0 1 1 0-167h222a83 83 0 0 1 0 167z m0 222a83 83 0 0 1 0-167h83v83a83 83 0 0 1-83 84z" horiz-adv-x="1000" />

<glyph glyph-name="paypal" unicode="&#xec14;" d="M852 554a159 159 0 0 1-24 22 197 197 0 0 1-49 156c-45 51-122 76-228 76h-259a79 79 0 0 1-78-66l-108-684a64 64 0 0 1 63-74h111l-3-22a61 61 0 0 1 60-70h135a73 73 0 0 1 73 61l27 168 0 2h13c168 0 272 83 303 240a215 215 0 0 1-36 191z m-525-275l-30-189-4-23h-101l104 658h255c80 0 138-17 166-48a124 124 0 0 0 25-114l-1-5c0-3 0-6-1-10a244 244 0 0 0-84-153 278 278 0 0 0-176-50h-76a78 78 0 0 1-77-66z m479 100c-23-118-93-172-221-172h-21a73 73 0 0 1-73-62l-27-170-101 0 20 126 26 161h71c7 0 13 1 19 1 15 1 30 1 44 3 8 1 16 3 24 5 12 2 23 4 34 7 8 2 15 5 23 7 10 4 19 8 29 12 7 3 13 7 20 11a282 282 0 0 1 25 16c6 4 12 9 18 13a274 274 0 0 1 22 22c5 5 10 10 14 15a295 295 0 0 1 20 29c3 5 7 10 10 15a347 347 0 0 1 21 48c1 1 1 2 2 3 0 1 0 1 0 2a179 179 0 0 0 1-92z" horiz-adv-x="1000" />

<glyph glyph-name="reddit-alien-alt" unicode="&#xec15;" d="M600 147a141 141 0 0 0-98-26 140 140 0 0 0-99 26 42 42 0 0 1-59-59 213 213 0 0 1 158-50 213 213 0 0 1 157 50 42 42 0 1 1-59 59z m-217 78a42 42 0 1 1-41 42 42 42 0 0 1 41-42z m250 83a42 42 0 1 1 42-41 42 42 0 0 1-42 41z m325 51a157 157 0 0 1-283 95 688 688 0 0 1-127 19l36 238 87-29a125 125 0 0 1 250 2v1a126 126 0 0 1-125 123 124 124 0 0 1-98-48l-135 46a42 42 0 0 1-54-33l-45-299a694 694 0 0 1-139-20 157 157 0 0 1-260-177 203 203 0 0 1-23-94c0-163 201-291 458-291s458 128 458 291a203 203 0 0 1-23 94 158 158 0 0 1 23 82z m-162 366a42 42 0 1 0-42-42 42 42 0 0 0 42 42z m-597-292a73 73 0 0 0 37-10 416 416 0 0 1-110-70c-1 2-1 4-1 6a74 74 0 0 0 74 74z m301-458c-203 0-375 95-375 208s172 209 375 209 375-96 375-209-172-208-375-208z m374 378a416 416 0 0 1-110 70 73 73 0 0 0 37 10 74 74 0 0 0 74-74c0-2 0-4-1-6z" horiz-adv-x="1000" />

<glyph glyph-name="linkedin-alt" unicode="&#xec16;" d="M729 475a226 226 0 0 1-107-27 42 42 0 0 1-39 27h-166a42 42 0 0 1-42-42v-500a42 42 0 0 1 42-41h166a42 42 0 0 1 42 41v230a42 42 0 1 0 83 0v-230a42 42 0 0 1 42-41h167a42 42 0 0 1 41 41v313a229 229 0 0 1-229 229z m146-500h-83v188a125 125 0 1 1-250 0v-188h-84v417h84v-30a42 42 0 0 1 74-26 145 145 0 0 0 259-90z m-583 500h-167a42 42 0 0 1-42-42v-500a42 42 0 0 1 42-41h167a42 42 0 0 1 41 41v500a42 42 0 0 1-41 42z m-42-500h-83v417h83z m-41 811a135 135 0 1 1-2-269h1a135 135 0 1 1 1 269z m-1-186h-1a51 51 0 0 0-58 51c0 31 24 51 60 51a51 51 0 0 0 58-51c0-31-23-51-59-51z" horiz-adv-x="1000" />

<glyph glyph-name="google-hangouts" unicode="&#xec17;" d="M852 473a354 354 0 0 1-91 180 350 350 0 0 1-67 57 354 354 0 0 1-152 54 173 173 0 0 0-20 3h-47c-1-2-2-1-3-1a368 368 0 0 1-36-5 352 352 0 0 1-216-129 348 348 0 0 1-76-196 358 358 0 0 1 7-106 339 339 0 0 1 26-74l3-6a358 358 0 0 1 75-100 355 355 0 0 1 240-98c4 0 5-1 5-5 0-36 0-73 0-109 0-2 0-3 0-5l3 1a750 750 0 0 1 187 124q17 15 32 32c4 4 9 9 13 14 7 7 13 15 19 23a379 379 0 0 1 21 28 460 460 0 0 1 38 65c6 12 11 24 15 36a4 4 0 0 1 1 0 428 428 0 0 1 25 102c1 12 2 24 3 36a339 339 0 0 1-5 79z m-383-118a104 104 0 0 0-35-78l-4-3a112 112 0 0 0-38-20 158 158 0 0 0-19-4 9 9 0 0 0-10 6l0 41c0 4-1 8 2 11a11 11 0 0 0 6 4 74 74 0 0 1 20 7 47 47 0 0 1 23 30l1 7-85 0a27 27 0 0 0-7 1 17 17 0 0 0-13 16q0 64 0 128a19 19 0 0 0 6 19 16 16 0 0 0 11 4h125a17 17 0 0 0 16-22 16 16 0 0 0 1-7c0-46 0-93 0-140z m221 0a107 107 0 0 0-65-97c-1 0-2-1-3-1l-1-1-1 0a191 191 0 0 0-25-6 9 9 0 0 0-11 9l0 14 0 24c0 2 0 3 0 5 0 6 2 9 10 11a55 55 0 0 1 26 12 53 53 0 0 1 16 31l-78 0h-9a17 17 0 0 0-18 18q0 64 0 127l0 2a18 18 0 0 0 8 18 16 16 0 0 0 9 3h125a17 17 0 0 0 16-22 16 16 0 0 0 1-7v-140z" horiz-adv-x="1000" />

<glyph glyph-name="java-script" unicode="&#xec18;" d="M603 230a169 169 0 0 0-91 16 60 60 0 0 0-22 43 9 9 0 0 1-10 9 1951 1951 0 0 1-39 0 9 9 0 0 1-10-8 97 97 0 0 1 32-77 166 166 0 0 1 92-35 336 336 0 0 1 106 5 130 130 0 0 1 70 37 97 97 0 0 1 16 93 78 78 0 0 1-51 46c-53 19-111 17-165 31-10 3-21 7-26 17a36 36 0 0 0 12 39 107 107 0 0 0 57 14 170 170 0 0 0 78-11 60 60 0 0 0 29-41 10 10 0 0 1 9-10c13 0 26 0 39 0a10 10 0 0 1 11 7 101 101 0 0 1-50 88 245 245 0 0 1-134 20 146 146 0 0 1-91-36 91 91 0 0 1-18-94 80 80 0 0 1 51-45c53-19 112-13 165-30 11-3 23-9 26-20a41 41 0 0 0-11-40 124 124 0 0 0-75-18z m243 352q-156 88-312 176a70 70 0 0 1-68 0l-311-176a64 64 0 0 1-33-55v-354a65 65 0 0 1 35-56c29-16 58-34 89-49a128 128 0 0 1 114-3 89 89 0 0 1 41 80c0 116 0 233 0 349a9 9 0 0 1-8 11 1731 1731 0 0 1-40 0 9 9 0 0 1-10-9c0-116 0-231 0-347a39 39 0 0 0-25-37 64 64 0 0 0-52 7l-82 46a10 10 0 0 0-6 10v350a11 11 0 0 0 7 11q154 87 309 174a11 11 0 0 0 12 0l310-174a11 11 0 0 0 6-11v-350a10 10 0 0 0-6-10q-152-86-304-172c-5-2-11-7-17-4-26 16-53 31-79 46a9 9 0 0 1-10 1 217 217 0 0 0-37-17c-5-2-12-3-16-8a55 55 0 0 1 18-13l93-54a68 68 0 0 1 69-2q155 87 310 175a65 65 0 0 1 35 56v354a64 64 0 0 1-32 55z" horiz-adv-x="1000" />

<glyph glyph-name="google-play" unicode="&#xec19;" d="M872 406a20969 20969 0 0 0-168 97l0 0-511 295a70 70 0 0 1-58 6 40 40 0 0 1-3-1 59 59 0 0 1-8-3 63 63 0 0 1-30-57v-791a60 60 0 0 1 28-53 55 55 0 0 1 7-2 41 41 0 0 1 3-2 57 57 0 0 1 19-3 70 70 0 0 1 35 10l518 299 167 97a64 64 0 0 1 36 55 62 62 0 0 1-35 53z m-695-383v656l331-327z m209 90l181 180 48-47-229-133z m181 297l-183 182 231-134z m123-121l-64 63 64 63c30-18 76-45 109-63z" horiz-adv-x="1000" />

<glyph glyph-name="google-drive" unicode="&#xec1a;" d="M893 271l-254 440h-278l254-440z m-556 398l-254-439 139-241 254 440z m72-439l-139-241h508l139 241z" horiz-adv-x="1000" />

<glyph glyph-name="asterisk" unicode="&#xec1b;" d="M773 240l-190 110 190 110a42 42 0 0 1-41 72l-190-110v220a42 42 0 0 1-84 0v-220l-190 110a42 42 0 0 1-41-72l190-110-190-110a42 42 0 0 1 41-72l190 110v-220a42 42 0 0 1 84 0v220l190-110a42 42 0 0 1 41 72z" horiz-adv-x="1000" />

<glyph glyph-name="android" unicode="&#xec1c;" d="M624 724l40 72a8 8 0 0 1-14 8l-41-73a273 273 0 0 1-218 0l-41 73a8 8 0 0 1-14-8l40-72a231 231 0 0 1-129-203h506a231 231 0 0 1-129 203z m-241-110a21 21 0 1 0 21 21 21 21 0 0 0-21-21z m234 0a21 21 0 1 0 21 21 21 21 0 0 0-21-21z m-370-479a61 61 0 0 1 61-62h41v-125a57 57 0 1 1 113 0v125h76v-125a57 57 0 1 1 113 0v125h41a61 61 0 0 1 61 62v366h-506z m-78 376a57 57 0 0 1-56-57v-236a57 57 0 1 1 113 0v236a57 57 0 0 1-57 57z m662 0a57 57 0 0 1-57-57v-236a57 57 0 1 1 113 0v236a57 57 0 0 1-56 57z" horiz-adv-x="1000" />

<glyph glyph-name="github" unicode="&#xec1d;" d="M500 756a417 417 0 0 1-132-812c21-3 29 9 29 20 0 10-1 43-1 78-104-19-131 25-140 49a152 152 0 0 1-42 59c-15 7-36 27-1 27a83 83 0 0 0 64-42 89 89 0 0 1 121-35 88 88 0 0 0 27 56c-93 10-190 46-190 206a162 162 0 0 0 43 112 150 150 0 0 0 4 110s35 11 115-43a393 393 0 0 0 208 0c80 54 115 43 115 43a150 150 0 0 0 4-110 161 161 0 0 0 43-112c0-160-98-196-190-206a99 99 0 0 0 28-77c0-56-1-101-1-115 0-11 8-24 29-20a417 417 0 0 1-133 812z" horiz-adv-x="1000" />

<glyph glyph-name="balance-scale" unicode="&#xec1e;" d="M957 274a39 39 0 0 1-1 7l-96 256a125 125 0 0 1 57 105 42 42 0 0 1-84 0 42 42 0 0 0-78-20 121 121 0 0 1-108 61h-105v42a42 42 0 0 1-84 0v-42h-105a121 121 0 0 1-108-61 42 42 0 0 0-78 20 42 42 0 0 1-84 0 125 125 0 0 1 57-105l-96-256a39 39 0 0 1-1-7 40 40 0 0 1-1-7c0-1 0-1 0-1 0-1 0-1 0-2a166 166 0 0 1 333 0c0 1 0 1 0 2 0 0 0 0 0 1a40 40 0 0 1-2 7 39 39 0 0 1-1 7l-96 256a125 125 0 0 1 42 46 38 38 0 0 0 35 17h105v-583h-125a42 42 0 0 1 0-84h334a42 42 0 0 1 0 84h-125v583h106a38 38 0 0 0 34-17 125 125 0 0 1 42-46l-96-256a39 39 0 0 1-1-7 40 40 0 0 1-2-7c0-1 0-1 0-1 0-1 0-1 0-2a166 166 0 0 1 333 0c0 1 0 1 0 2 0 0 0 0 0 1a40 40 0 0 1-1 7z m-749 207l65-173h-129z m72-256a84 84 0 0 0-72-42 83 83 0 0 0-72 42z m512 256l65-173h-130z m0-298a83 83 0 0 0-72 42h143a84 84 0 0 0-71-42z" horiz-adv-x="1000" />

<glyph glyph-name="amazon" unicode="&#xec1f;" d="M43 120q5 7 14 1a888 888 0 0 1 453-121 897 897 0 0 1 323 61q4 2 12 5t11 5a15 15 0 0 0 19-5q8-10-4-18-15-11-38-25a625 625 0 0 0-160-66 674 674 0 0 0-173-24 667 667 0 0 0-246 46 677 677 0 0 0-207 128 11 11 0 0 0-5 8 9 9 0 0 0 1 5z m251 238a168 168 0 0 0 28 98 175 175 0 0 0 78 62 419 419 0 0 0 111 27q22 3 73 7v14a148 148 0 0 1-11 72 63 63 0 0 1-55 25h-7a91 91 0 0 1-48-18 68 68 0 0 1-25-42 21 21 0 0 0-17-19l-96 12q-14 3-14 15a24 24 0 0 0 1 6 160 160 0 0 0 69 110 261 261 0 0 0 130 40h21a211 211 0 0 0 148-49 159 159 0 0 0 15-18 161 161 0 0 0 12-17 87 87 0 0 0 7-22q4-14 5-20a119 119 0 0 0 3-23q1-18 1-21v-202a119 119 0 0 1 6-40 103 103 0 0 1 12-25q6-8 19-26a25 25 0 0 0 5-13 14 14 0 0 0-7-12q-69-60-75-65a23 23 0 0 0-24-1q-11 10-20 19t-13 13a186 186 0 0 0-12 16q-8 12-11 17a205 205 0 0 0-92-64 252 252 0 0 0-70-8 146 146 0 0 0-106 39 148 148 0 0 0-41 113z m143 16a79 79 0 0 1 17-52 54 54 0 0 1 43-19 43 43 0 0 1 8 0 43 43 0 0 0 6 1 85 85 0 0 1 54 45 130 130 0 0 1 14 35 158 158 0 0 1 5 30q0 12 0 39v20a304 304 0 0 1-73-6 89 89 0 0 1-74-93z m351-268a26 26 0 0 0 5 7 131 131 0 0 0 40 19 272 272 0 0 0 61 9 50 50 0 0 0 16-1q38-3 45-12a27 27 0 0 0 3-15v-6a190 190 0 0 0-15-69 160 160 0 0 0-45-64 13 13 0 0 0-7-3 7 7 0 0 0-3 1q-5 2-3 9a318 318 0 0 1 31 101 21 21 0 0 1-3 13q-9 10-47 10-14 0-33-2-21-2-39-5a10 10 0 0 0-6 2 3 3 0 0 0-1 3 6 6 0 0 0 1 3z" horiz-adv-x="1000" />

<glyph glyph-name="slack-alt" unicode="&#xec20;" d="M958 454a146 146 0 0 1-145 146 144 144 0 0 1-63-15v78a146 146 0 0 1-250 101 145 145 0 0 1-235-164h-77a146 146 0 0 1-102-250 145 145 0 0 1 164-235v-77a146 146 0 0 1 250-102 145 145 0 0 1 235 164h78a146 146 0 0 1 101 250 145 145 0 0 1 44 104z m-416 209a63 63 0 0 0 125 0v-209a63 63 0 0 0-125 0z m-292-417a63 63 0 1 0-62 62h62z m208-208a63 63 0 0 0-125 0v208a63 63 0 0 0 125 0z m-62 354h-208a63 63 0 0 0 0 125h208a63 63 0 0 0 0-125z m62 208h-62a63 63 0 1 0 62 63z m42-252a155 155 0 0 1-2 2l2 2 2-2-2-2z m104-373a63 63 0 0 0-62 63v62h62a63 63 0 0 0 0-125z m209 208h-209a63 63 0 0 0 0 125h209a63 63 0 0 0 0-125z m0 209h-63v62a63 63 0 1 0 63-62z" horiz-adv-x="1000" />

<glyph glyph-name="dashboard" unicode="&#xec21;" d="M795 644c0 0 0 0 0 1s-1 0-1 0a416 416 0 0 1-588 0c0 0 0 0-1 0s0-1 0-1a417 417 0 1 1 590 0z m-295-627a333 333 0 0 0-260 125h167a123 123 0 0 1 186 0h167a333 333 0 0 0-260-125z m-42 208a42 42 0 1 0 42-42 42 42 0 0 0-42 42z m351 0l-1 0h-183a125 125 0 0 1-83 117v133a42 42 0 0 1-84 0v-133a125 125 0 0 1-83-117h-183l-1 0a330 330 0 0 0-21 83h38a42 42 0 0 1 0 84h-38a331 331 0 0 0 67 162l27-27a42 42 0 1 1 59 59l-27 27a331 331 0 0 0 162 67v-38a42 42 0 0 1 84 0v38a331 331 0 0 0 162-67l-27-27a42 42 0 1 1 59-59l27 27a331 331 0 0 0 67-162h-38a42 42 0 0 1 0-84h38a330 330 0 0 0-21-83z" horiz-adv-x="1000" />

<glyph glyph-name="vuejs-alt" unicode="&#xec22;" d="M953 709a42 42 0 0 1-36 21l-207 1h-153a42 42 0 0 1-34-18l-23-33-23 33a42 42 0 0 1-34 18h-153l-207-2a42 42 0 0 1-36-62l418-713a42 42 0 0 1 36-21 42 42 0 0 1 36 21l416 714a42 42 0 0 1 0 41z m-532-62l45-64a42 42 0 0 1 34-17h0a42 42 0 0 1 34 17l45 64 57 0-135-227-137 227z m80-589l-345 588 111 1 198-330a42 42 0 0 1 36-20h0a42 42 0 0 1 36 20l196 330 111 0z" horiz-adv-x="1000" />

<glyph glyph-name="adobe-alt" unicode="&#xec23;" d="M427 750a42 42 0 0 1-35 18h-309a42 42 0 0 1-42-41v-754a42 42 0 0 1 81-16l309 754a42 42 0 0 1-4 39z m-302-566v501h205z m791 584h-313a42 42 0 0 1-38-57l313-744a42 42 0 0 1 38-26 44 44 0 0 1 9 1 42 42 0 0 1 33 41v744a42 42 0 0 1-42 41z m-41-579l-209 496h209z m-335 264a42 42 0 0 1-39 27h0a42 42 0 0 1-39-26l-128-318a42 42 0 0 1 39-57h94l63-125a42 42 0 0 1 38-22h108a42 42 0 0 1 39 56z m53-438l-63 125a42 42 0 0 1-37 22h-58l64 162 117-309z" horiz-adv-x="1000" />

<glyph glyph-name="ankh" unicode="&#xec24;" d="M750 350h-129a301 301 0 0 1 87 208 208 208 0 0 1-416 0 301 301 0 0 1 87-208h-129a42 42 0 0 1 0-83h208v-292a42 42 0 0 1 84 0v292h208a42 42 0 0 1 0 83z m-250 7c-39 26-125 94-125 201a125 125 0 0 0 250 0c0-107-86-176-125-201z" horiz-adv-x="1000" />

<glyph glyph-name="twitter-alt" unicode="&#xec25;" d="M958 685a42 42 0 0 1-63 36 312 312 0 0 0-78-33 215 215 0 0 1-141 52 218 218 0 0 1-217-211 460 460 0 0 0-284 163 42 42 0 0 1-36 16 42 42 0 0 1-33-21 220 220 0 0 1-10-199l0 0a43 43 0 0 1-20-37 127 127 0 0 1 1-18 216 216 0 0 1 65-138 42 42 0 0 1-3-32 217 217 0 0 1 99-122 311 311 0 0 0-150-19 42 42 0 0 1-28-76 539 539 0 0 1 293-86 533 533 0 0 1 519 390 534 534 0 0 1 22 152l0 8a240 240 0 0 1 64 175z m-138-133a41 41 0 0 1-10-30c1-7 1-13 1-20a451 451 0 0 0-19-128 445 445 0 0 0-439-331 456 456 0 0 0-107 13 395 395 0 0 1 123 65 42 42 0 0 1-25 74 134 134 0 0 0-92 39q9 2 18 5a42 42 0 0 1-3 81 133 133 0 0 0-94 72 221 221 0 0 1 23-2 43 43 0 0 1 41 29 42 42 0 0 1-17 47 133 133 0 0 0-59 111c0 3 0 6 0 9a542 542 0 0 1 342-145 43 43 0 0 1 34 15 42 42 0 0 1 9 36 132 132 0 0 0-4 30 135 135 0 0 0 134 135 133 133 0 0 0 98-43 41 41 0 0 1 38-12 386 386 0 0 1 51 13 278 278 0 0 0-43-63z" horiz-adv-x="1000" />

<glyph glyph-name="opera" unicode="&#xec26;" d="M500 767c-228 0-387-165-387-413 0-220 155-421 387-421 232 0 387 201 387 421 0 248-160 413-387 413z m0-766c-142 0-157 209-157 363v3c0 166 25 343 156 343s158-182 158-349c0-154-16-360-157-360z" horiz-adv-x="1000" />

<glyph glyph-name="intercom-alt" unicode="&#xec27;" d="M416 225a42 42 0 0 1 42 42v333a42 42 0 1 1-83 0v-333a42 42 0 0 1 41-42z m167 0a42 42 0 0 1 42 42v333a42 42 0 1 1-84 0v-333a42 42 0 0 1 42-42z m-333 83a42 42 0 0 1 41 42v167a42 42 0 0 1-83 0v-167a42 42 0 0 1 42-42z m583 500h-667a125 125 0 0 1-125-125v-666a125 125 0 0 1 125-125h667a125 125 0 0 1 125 125v666a125 125 0 0 1-125 125z m42-791a42 42 0 0 0-42-42h-667a42 42 0 0 0-41 42v666a42 42 0 0 0 41 42h667a42 42 0 0 0 42-42z m-152 191a368 368 0 0 0-223-66 374 374 0 0 0-224 66 42 42 0 1 1-53-64 450 450 0 0 1 277-86 450 450 0 0 1 276 86 42 42 0 0 1-53 64z m27 350a42 42 0 0 1-42-41v-167a42 42 0 1 1 83 0v167a42 42 0 0 1-41 41z" horiz-adv-x="1000" />

<glyph glyph-name="tumblr-alt" unicode="&#xec28;" d="M726-4l-40 118a42 42 0 0 1-57 25 157 157 0 0 0-51-11 39 39 0 0 0-27 7 50 50 0 0 0-10 34v181h126a42 42 0 0 1 41 42v162a42 42 0 0 1-41 42h-125v171a42 42 0 0 1-42 41h-122a48 48 0 0 1-47-43 212 212 0 0 0-137-190 42 42 0 0 1-28-39v-149a42 42 0 0 1 42-42h43v-189a267 267 0 0 1 78-187 288 288 0 0 1 208-77h6c65 1 151 27 178 67a42 42 0 0 1 5 36z m-184-21a203 203 0 0 0-154 54 182 182 0 0 0-54 127v231a42 42 0 0 1-42 41h-42v80a290 290 0 0 1 159 217h49v-171a42 42 0 0 1 42-41h125v-80h-126a42 42 0 0 1-41-41v-224a128 128 0 0 1 35-93 115 115 0 0 1 88-30 246 246 0 0 1 39 5l18-53a246 246 0 0 0-96-22z" horiz-adv-x="1000" />

<glyph glyph-name="react" unicode="&#xec29;" d="M463 415a74 74 0 1 1 101-27 74 74 0 0 1-101 27z m333-81q-7 9-15 17 5 6 11 12c67 75 95 151 69 196-25 43-100 56-193 38q-14-3-28-6-3 9-5 18c-32 96-83 158-136 158-50 0-98-59-129-149q-5-13-9-26-9 2-18 4c-99 20-178 7-204-39-25-43 1-114 63-186q10-11 20-21c-8-8-15-16-22-24-61-70-86-140-61-184 26-44 104-59 199-40q12 2 23 5 5-15 10-29c30-88 79-145 129-145 51 0 103 61 134 153 3 7 5 15 8 22q14-3 29-6c92-18 165-4 190 39 26 45-1 120-65 193z m-626 206c16 27 81 38 166 21q8-2 16-4a853 853 0 0 1-17-111 870 870 0 0 1-88-71q-9 9-18 19c-53 62-74 119-59 146z m162-239c-22 16-42 32-59 49 17 17 37 33 58 49q-1-24-1-49 0-25 2-49z m0-164a302 302 0 0 0-110-4 74 74 0 0 0-52 27c-15 26 4 83 57 143q9 11 20 22a854 854 0 0 1 88-71 867 867 0 0 1 18-113q-11-2-22-4z m295 335q-21 13-42 25-21 12-43 24c25 10 49 19 73 26a759 759 0 0 0 12-75z m-224 135c27 77 66 124 96 124 33 0 74-51 102-133q2-8 5-16a853 853 0 0 1-105-41 836 836 0 0 1-105 41q3 13 7 25z m-16-59a763 763 0 0 0 72-27q-44-23-86-49c4 26 8 52 14 76z m-14-320q21-13 43-25 21-13 44-24a758 758 0 0 0-73-28 798 798 0 0 0-14 77z m228-131a302 302 0 0 0-52-97 74 74 0 0 0-49-31c-31 0-69 45-96 121q-4 13-8 27a838 838 0 0 1 105 42 867 867 0 0 1 106-41q-3-10-6-21z m15 55c-24 8-48 17-74 27q22 12 43 24 22 13 43 26a756 756 0 0 0-12-77z m19 198q0-38-3-76c-20-14-42-27-65-40-22-13-44-25-66-36q-35 17-68 36-33 19-64 40-3 38-3 76 0 38 3 76a1007 1007 0 0 0 131 76q34-17 67-36 33-19 65-40 3-38 3-76z m39 212c80 16 141 5 156-21 16-28-7-89-65-154q-5-6-10-11a836 836 0 0 1-89 70 835 835 0 0 1-17 111q13 3 25 5z m-5-162a757 757 0 0 0 61-49 755 755 0 0 0-61-50q1 24 1 49 0 25-1 50z m161-241c-15-26-74-37-152-22q-14 2-28 6a836 836 0 0 1 16 112 831 831 0 0 1 89 71q8-8 14-15a301 301 0 0 0 59-93 74 74 0 0 0 2-59z" horiz-adv-x="1000" />

<glyph glyph-name="camera-change" unicode="&#xec2a;" d="M512 633l63-63a42 42 0 0 1 59 0 42 42 0 0 1 5 51h153a42 42 0 0 1 0 83h-153a42 42 0 0 1-5 51 42 42 0 0 1-59 0l-63-63a42 42 0 0 1-9-14 42 42 0 0 1 0-31 42 42 0 0 1 9-14z m443-163a42 42 0 0 1-9 14l-62 62a42 42 0 0 1-59 0 42 42 0 0 1-6-50h-152a42 42 0 0 1 0-83h152a42 42 0 0 1 6-51 42 42 0 0 1 59 0l62 63a42 42 0 0 1 9 13 42 42 0 0 1 0 32z m-497-37a167 167 0 1 1 167-166 167 167 0 0 1-167 166z m0-250a83 83 0 1 0 84 84 83 83 0 0 0-84-84z m375 125a42 42 0 0 1-41-41v-209a42 42 0 0 0-42-41h-583a42 42 0 0 0-42 41v334a42 42 0 0 0 42 41h83a42 42 0 0 1 42 29l22 68a42 42 0 0 0 38 28h65a42 42 0 0 1 0 84h-65a125 125 0 0 1-119-86l-13-39h-53a125 125 0 0 1-125-125v-334a125 125 0 0 1 125-125h583a125 125 0 0 1 125 125v209a42 42 0 0 1-42 41z" horiz-adv-x="1000" />

<glyph glyph-name="master-card" unicode="&#xec2b;" d="M636 630a278 278 0 0 1-136-35 280 280 0 1 1 0-490 280 280 0 1 1 136 525z m-209-466a194 194 0 0 0-64-11 197 197 0 0 0 0 394 194 194 0 0 0 64-11 279 279 0 0 1 0-372z m73 44a196 196 0 0 0 0 284 196 196 0 0 0 0-284z m136-55a194 194 0 0 0-63 11 279 279 0 0 1 0 372 194 194 0 0 0 63 11 197 197 0 0 0 0-394z" horiz-adv-x="1000" />

<glyph glyph-name="snapchat-alt" unicode="&#xec2c;" d="M915 199a197 197 0 0 0-125 91 42 42 0 1 1-69-47 320 320 0 0 1 101-97c-6-1-12-2-19-3a57 57 0 0 1-45-50 253 253 0 0 1-84 0 193 193 0 0 1-81-40 145 145 0 0 0-88-36h-11a145 145 0 0 0-87 36 193 193 0 0 1-81 40 266 266 0 0 1-85-1 57 57 0 0 1-44 51 531 531 0 0 0-18 3 286 286 0 0 1 75 62 280 280 0 0 1 26 37 42 42 0 0 1-71 44 204 204 0 0 0-18-26 177 177 0 0 0-107-64 51 51 0 0 1-43-51 53 53 0 0 1 5-22c13-30 48-49 116-62l1-5c2-5 3-10 4-15a54 54 0 0 1 54-39 108 108 0 0 1 25 4 195 195 0 0 0 66 1 125 125 0 0 0 47-25 226 226 0 0 1 135-52h11a227 227 0 0 1 137 52 121 121 0 0 0 47 26 145 145 0 0 0 26 2 178 178 0 0 0 39-5 158 158 0 0 1 26-2 52 52 0 0 1 52 38c2 5 3 10 4 15l1 5c68 13 103 32 115 60a49 49 0 0 1 6 20 52 52 0 0 1-43 55z m-757 187a42 42 0 0 1 44 20 131 131 0 0 1 54-14 75 75 0 0 1 52 20 42 42 0 0 1 13 33l-1 25a413 413 0 0 0 6 149 177 177 0 0 0 166 106l16 0a178 178 0 0 0 165-106 413 413 0 0 0 6-149l0-6-1-19a43 43 0 0 1 13-32 75 75 0 0 1 52-21 136 136 0 0 1 52 15 42 42 0 0 1 38-25h1a42 42 0 0 1 41 42 68 68 0 0 1-50 61 80 80 0 0 1-61-1 395 395 0 0 1-15 169 260 260 0 0 1-242 155l-16 0a259 259 0 0 1-241-155 399 399 0 0 1-14-171l-5 2a80 80 0 0 1-106-50 42 42 0 0 1 33-48z" horiz-adv-x="1000" />

<glyph glyph-name="opera-alt" unicode="&#xec2d;" d="M499 642c-152 0-152-214-152-286 0-81 0-298 152-298 153 0 153 215 153 296 0 191-52 288-153 288z m0-500c-45 0-69 72-69 216 0 91 12 200 69 200 60 0 69-127 69-204 0-141-23-212-69-212z m1 666c-253 0-429-186-429-454 0-227 161-462 429-462 268 0 428 235 428 462 0 268-176 454-429 454z m0-833c-216 0-345 193-345 379 0 222 138 371 344 371 207 0 346-149 346-371 0-186-129-379-345-379z" horiz-adv-x="1000" />

<glyph glyph-name="html3-alt" unicode="&#xec2e;" d="M331 517h291l-7-84h-199a42 42 0 0 1 0-83h192l-11-124-97-22-97 22-4 44a42 42 0 1 1-83-7l6-75a42 42 0 0 1 33-37l135-30a42 42 0 0 1 19 0l136 30a42 42 0 0 1 32 37l18 203 0 1 0 0 14 163a42 42 0 0 1-41 45h-337a42 42 0 0 1 0-83z m530 236a42 42 0 0 1-31 14h-661a42 42 0 0 1-41-46l60-674a42 42 0 0 1 30-37l270-75a41 41 0 0 1 22 0l271 75a42 42 0 0 1 30 37l60 674a42 42 0 0 1-10 32z m-130-670l-232-65-230 65-54 600h569z" horiz-adv-x="1000" />

<glyph glyph-name="swiggy" unicode="&#xec2f;" d="M537 603a12 12 0 0 0 13-14l0-11c0-25 0-50 0-74 0-19 3-22 21-24a618 618 0 0 1 131 2 206 206 0 0 1 65 15 21 21 0 0 1 15 25 285 285 0 0 1-223 238 275 275 0 0 1-152-10 280 280 0 0 1-112-73 261 261 0 0 1-77-178 466 466 0 0 1 64-230 56 56 0 0 1 55-31c27 0 54 0 82 0v0h86c11 0 19-3 19-16 0-30 0-60 0-90 0-9-3-18-14-18-11 0-13 8-13 18-1 14 0 29 0 43 0 19-4 23-22 27a321 321 0 0 1-98 0 108 108 0 0 1-33-8c-9-4-13-10-8-19 4-10 8-20 13-29a1828 1828 0 0 1 143-206c7-9 12-9 18-1 15 18 30 35 44 53a1426 1426 0 0 1 149 219 590 590 0 0 1 63 162 50 50 0 0 1-43 68 289 289 0 0 1-69 6c-38 1-76 1-114 1-10 0-18 2-18 14 0 43 0 85 0 127 0 9 5 14 15 14z" horiz-adv-x="1000" />

<glyph glyph-name="html3" unicode="&#xec30;" d="M133 767l67-750 300-84 300 84 67 750z m595-172l-22-250 0-1 0-3-16-175-2-15-188-53 0 0-188 53-13 144h92l7-73 102-28h0l103 28 10 120h-214l-2 20-4 47-2 26h231l8 93h-352l-1 20-5 47-2 26h460z m0 0" horiz-adv-x="1000" />

<glyph glyph-name="google-hangouts-alt" unicode="&#xec31;" d="M375 530a83 83 0 0 1 0-167l0 0v-21a21 21 0 0 0-21-21 42 42 0 0 1 0-83 104 104 0 0 1 105 104v104a39 39 0 0 1-2 6 83 83 0 0 1-82 78z m125 278a408 408 0 0 1-42-813v-62a42 42 0 0 1 52-40 522 522 0 0 1 394 457 406 406 0 0 1-404 458z m321-449a440 440 0 0 0-280-369v44a42 42 0 0 1-41 42 324 324 0 1 0 324 324 331 331 0 0 0-3-41z m-196 171a83 83 0 1 1 0-167l0 0v-21a21 21 0 0 0-21-21 42 42 0 0 1 0-83 104 104 0 0 1 105 104v104a39 39 0 0 1-2 6 83 83 0 0 1-82 78z" horiz-adv-x="1000" />

<glyph glyph-name="adobe" unicode="&#xec32;" d="M378 130h116l73-143h106l-173 452z m-295 595v-750l310 750z m520 0l314-742v742z" horiz-adv-x="1000" />

<glyph glyph-name="facebook-messenger-alt" unicode="&#xec33;" d="M500 808a442 442 0 0 1-459-445 436 436 0 0 1 143-328l2-71a75 75 0 0 1 75-72 76 76 0 0 1 30 6l80 35a496 496 0 0 1 129-16 442 442 0 0 1 458 446 442 442 0 0 1-458 445z m0-808a411 411 0 0 0-110 15 75 75 0 0 1-50-4l-71-32-2 62a75 75 0 0 1-25 54 354 354 0 0 0-117 268 361 361 0 0 0 375 362 363 363 0 1 0 0-725z m155 492l-96-114-140 85a42 42 0 0 1-53-9l-127-151a42 42 0 1 1 63-54l104 124 140-85a42 42 0 0 1 54 8l119 143a42 42 0 1 1-64 53z" horiz-adv-x="1000" />

<glyph glyph-name="blogger-alt" unicode="&#xec34;" d="M583 308h-167a42 42 0 0 1 0-83h167a42 42 0 0 1 0 83z m-167 84h42a42 42 0 0 1 0 83h-42a42 42 0 0 1 0-83z m250 41v42a167 167 0 0 1-166 167h-84a209 209 0 0 1-208-209v-166a209 209 0 0 1 208-209h167a209 209 0 0 1 208 209v41a125 125 0 0 1-125 125z m0 0v0h-41z m42-166a125 125 0 0 0-125-125h-167a125 125 0 0 0-125 125v166a125 125 0 0 0 125 125h84a83 83 0 0 0 83-83v-42a83 83 0 0 1 83-83 42 42 0 0 0 42-42z m125 541h-667a125 125 0 0 1-125-125v-666a125 125 0 0 1 125-125h667a125 125 0 0 1 125 125v666a125 125 0 0 1-125 125z m42-791a42 42 0 0 0-42-42h-667a42 42 0 0 0-41 42v666a42 42 0 0 0 41 42h667a42 42 0 0 0 42-42z" horiz-adv-x="1000" />

<glyph glyph-name="blogger" unicode="&#xec35;" d="M405 414h93a32 32 0 1 1 0 64h-93a32 32 0 1 1 0-64z m405 353h-620a107 107 0 0 1-107-107v-620a107 107 0 0 1 107-107h619a107 107 0 0 1 107 107v620a107 107 0 0 1-107 107z m-45-404l-1-111a169 169 0 0 0-168-168h-194a169 169 0 0 0-168 168v196a169 169 0 0 0 168 168h118a186 186 0 0 0 130-92 132 132 0 0 0 15-57c3-21 4-37 14-45 13-13 63-4 73-12l7-6 5-9 1-8z m-171-77h-189a31 31 0 1 1 0-63h189a31 31 0 1 1 0 63z" horiz-adv-x="1000" />

<glyph glyph-name="behance-alt" unicode="&#xec36;" d="M921 224a42 42 0 0 1-50-30 125 125 0 0 0-246 31v42h291a42 42 0 0 1 42 41 208 208 0 1 1-417 0v-83a208 208 0 0 1 410-52 42 42 0 0 1-30 51z m-171 209a125 125 0 0 0 88-36 127 127 0 0 0 29-47h-235a125 125 0 0 0 118 83z m-84 125h167a42 42 0 0 1 0 84h-167a42 42 0 0 1 0-84z m-253-196a166 166 0 0 1-122 280h-208a42 42 0 0 1-42-42v-542a42 42 0 0 1 42-41h229a187 187 0 0 1 101 345z m-288 196h166a83 83 0 1 0 0-166h-166z m187-458h-187v208h187a104 104 0 0 0 0-208z" horiz-adv-x="1000" />

<glyph glyph-name="apple-alt" unicode="&#xec37;" d="M854 194a141 141 0 0 0-85 130 146 146 0 0 0 70 123 42 42 0 0 1 13 59 232 232 0 0 1-168 99 268 268 0 0 1 40 166 41 41 0 0 1-43 37 279 279 0 0 1-185-94 285 285 0 0 1-61-121 219 219 0 0 1-68 12 247 247 0 0 1-208-126c-79-136-30-341 55-464 34-49 85-123 163-123 1 0 3 0 4 0a198 198 0 0 1 75 19 136 136 0 0 0 60 15 127 127 0 0 0 57-14 198 198 0 0 1 81-19c80 1 127 70 162 120a502 502 0 0 1 63 130 42 42 0 0 1-25 51z m-295 466a206 206 0 0 0 80 55 202 202 0 0 0-43-90 183 183 0 0 0-53-43l0 0-3-2c-8-3-18-6-25-9a201 201 0 0 0 44 89z m188-600c-34-49-60-83-94-84a99 99 0 0 0-47 12 207 207 0 0 1-90 21 217 217 0 0 1-93-21 120 120 0 0 0-45-13h-1c-34 0-70 53-95 88-60 87-116 261-51 375a163 163 0 0 0 137 83h2a198 198 0 0 0 68-18c6-2 11-4 16-6 2-1 3-1 5-2a138 138 0 0 1 46-10 185 185 0 0 1 65 18 207 207 0 0 0 93 21 158 158 0 0 0 94-36 221 221 0 0 1-72-164v0a221 221 0 0 1 103-188 425 425 0 0 0-41-76z" horiz-adv-x="1000" />

<glyph glyph-name="bitcoin" unicode="&#xec38;" d="M464 345l-25-100c31-8 125-39 139 18 15 59-83 74-114 82z m34 138l-23-92c26-6 105-32 117 19 14 54-69 66-94 73z m2 284a417 417 0 1 1 417-417 417 417 0 0 1-417 417z m182-358a73 73 0 0 0-58-67 81 81 0 0 0 41-111c-24-70-82-76-159-61l-19-76-45 11 18 75c-11 3-23 6-36 9l-18-75-45 12 19 76c-11 2-22 5-33 8l-59 15 23 52s33-9 33-8a16 16 0 0 1 20 11l51 206a24 24 0 0 1-21 26c1 1-33 8-33 8l12 49 63-15 0-1c9-2 19-4 28-7l19 76 45-12-18-73c12-3 24-6 36-9l18 73 45-11-18-75c57-20 99-50 91-106z" horiz-adv-x="1000" />

<glyph glyph-name="megaphone" unicode="&#xec39;" d="M833 767a42 42 0 0 1-42-42v-27a376 376 0 0 0-291-140h-250a125 125 0 0 1-125-125v-83a125 125 0 0 1 125-125h20l-100-234a42 42 0 0 1 38-58h167a42 42 0 0 1 38 26l113 264a376 376 0 0 0 265-138v-27a42 42 0 0 1 84 0v667a42 42 0 0 1-42 42z m-583-459a42 42 0 0 0-42 42v83a42 42 0 0 0 42 42h41v-167z m97-291h-76l89 208h76z m444 186a460 460 0 0 1-291 105h-125v167h125a461 461 0 0 1 291 105z" horiz-adv-x="1000" />

<glyph glyph-name="bitcoin-alt" unicode="&#xec3a;" d="M679 382a167 167 0 0 1-138 260v41a42 42 0 1 1-83 0v-41h-83v41a42 42 0 1 1-84 0v-41h-41a42 42 0 0 1 0-84h41v-416h-41a42 42 0 0 1 0-84h41v-41a42 42 0 0 1 84 0v41h83v-41a42 42 0 0 1 83 0v41h84a166 166 0 0 1 54 324z m-304 176h166a83 83 0 0 0 0-166h-166z m250-416h-250v166h250a83 83 0 1 0 0-166z" horiz-adv-x="1000" />

<glyph glyph-name="bowling-ball" unicode="&#xec3b;" d="M333 517a42 42 0 1 1 42-42 42 42 0 0 1-42 42z m167 250a417 417 0 1 1 416-417 417 417 0 0 1-416 417z m0-750a333 333 0 1 0 333 333 334 334 0 0 0-333-333z m-42 416a42 42 0 1 1 42-41 42 42 0 0 1-42 41z m0 167a42 42 0 1 1 42-42 42 42 0 0 1-42 42z" horiz-adv-x="1000" />

<glyph glyph-name="percentage" unicode="&#xec3c;" d="M323 402a125 125 0 1 1-125 125 125 125 0 0 1 125-125z m0 166a42 42 0 1 0-41-41 42 42 0 0 0 41 41z m354-270a125 125 0 1 1 125-125 125 125 0 0 1-125 125z m0-166a42 42 0 1 0 41 41 42 42 0 0 0-41-41z m144 539a42 42 0 0 1-59 0l-583-583a42 42 0 1 1 59-59l583 583a42 42 0 0 1 0 59z" horiz-adv-x="1000" />

<glyph glyph-name="hourglass" unicode="&#xec3d;" d="M791-25h-41v69a208 208 0 0 1-13 70 40 40 0 0 1-1 4 207 207 0 0 1-28 51l-58 78a126 126 0 0 0-25 75v42a126 126 0 0 0 36 89l28 27a206 206 0 0 1 58 118c0 1 0 1 0 2l0 0a209 209 0 0 1 3 27v98h41a42 42 0 0 1 0 83h-583a42 42 0 0 1 0-83h42v-98a209 209 0 0 1 2-26l0-1c0-1 0-1 1-2a206 206 0 0 1 58-118l27-27a126 126 0 0 0 37-89v-42a126 126 0 0 0-25-75l-59-78a208 208 0 0 1-27-51 41 41 0 0 1-2-4 208 208 0 0 1-12-70v-69h-42a42 42 0 0 1 0-83h583a42 42 0 0 1 0 83z m-458 667v83h333v-83z m37-103a124 124 0 0 0-16 19h291a124 124 0 0 0-15-19l-28-27a207 207 0 0 1-59-120h-87a207 207 0 0 1-59 120z m46-342a210 210 0 0 1 42 111h84a210 210 0 0 1 41-111l42-55h-250z m250-222h-333v69a123 123 0 0 0 1 14h331a123 123 0 0 0 1-14z" horiz-adv-x="1000" />
</font>
</defs>
</svg>
