<?xml version="1.0" standalone="no"?>
<!DOCTYPE svg PUBLIC "-//W3C//DTD SVG 1.1//EN" "http://www.w3.org/Graphics/SVG/1.1/DTD/svg11.dtd" >
<svg xmlns="http://www.w3.org/2000/svg">
<defs>
  <font id="natds-icons" horiz-adv-x="600">
    <font-face font-family="natds-icons"
      units-per-em="600" ascent="600"
      descent="0" />
    <missing-glyph horiz-adv-x="0" />
    <glyph glyph-name="filled-action-add"
      unicode="&#xEA01;"
      horiz-adv-x="600" d="M300 125A25 25 0 0 0 275 150V275H150A25 25 0 1 0 150 325H275V450A25 25 0 1 0 325 450V325H450A25 25 0 1 0 450 275H325V150A25 25 0 0 0 300 125z" />
    <glyph glyph-name="filled-action-addproduct"
      unicode="&#xEC1E;"
      horiz-adv-x="600" d="M200 250A187.25 187.25 0 0 0 280.175 403.75A123 123 0 0 0 274.875 426.75C273.3250000000001 437.675 273.2750000000001 452.4 273.7 464.875C273.9 471 274.225 476.4 274.475 480.275L274.8 484.8L274.9000000000001 486V486.3L274.925 486.375A12.5 12.5 0 0 1 262.475 500H249.975V550H312.4500000000001A12.5 12.5 0 0 1 312.4500000000001 575H87.5A12.5 12.5 0 0 1 87.5 550H100V500H87.5A12.5 12.5 0 0 1 75.05 486.35V486.275L75.075 485.975L75.175 484.775L75.5 480.25C75.75 476.375 76.075 470.975 76.275 464.85C76.7 452.375 76.65 437.675 75.1 426.725C72.85 411.025 68.325 400.4000000000001 62.9 387.6750000000001L59.325 379.1750000000001C51.9 361.1500000000001 49.975 342.0500000000001 49.975 324.0750000000001V37.45A12.5 12.5 0 0 1 62.475 24.95H287.475A12.5 12.5 0 0 1 299.975 37.45V84.0750000000001A187.5 187.5 0 0 0 199.975 249.95zM387.5 412.5A162.5 162.5 0 1 1 387.5 87.5A162.5 162.5 0 0 1 387.5 412.5zM450 237.5H400V187.5A12.5 12.5 0 0 0 375 187.5V237.5H325A12.5 12.5 0 0 0 325 262.5H375V312.5A12.5 12.5 0 0 0 400 312.5V262.5H450A12.5 12.5 0 0 0 450 237.5z" />
    <glyph glyph-name="filled-action-cancel"
      unicode="&#xEA02;"
      horiz-adv-x="600" d="M300 525A225 225 0 1 1 525 300A225 225 0 0 1 300 525zM408.7500000000001 208.75A12 12 0 0 0 408.7500000000001 191.25A12 12 0 0 0 391.2500000000001 191.25L300 282.25L208.75 191.25A12 12 0 0 0 191.25 191.25A12 12 0 0 0 191.25 208.75L282.25 300L191.25 391.25A12.25 12.25 0 0 0 208.75 408.75L300 317.75L391.25 408.75A12.25 12.25 0 0 0 408.7500000000001 391.2500000000001L317.75 300z" />
    <glyph glyph-name="filled-action-check"
      unicode="&#xEA03;"
      horiz-adv-x="600" d="M300 525A225 225 0 1 1 525 300A225 225 0 0 1 300 525zM458.7500000000001 391.25L269.7500000000001 202A12.75 12.75 0 0 0 260.7500000000001 198.25A12.25 12.25 0 0 0 252.0000000000001 202L141.2500000000001 312.75A12.5 12.5 0 0 0 141.2500000000001 330.5A12.5 12.5 0 0 0 158.7500000000001 330.5L260.7500000000001 228.5L441.2500000000001 408.75A12.25 12.25 0 1 0 458.7500000000001 391.25z" />
    <glyph glyph-name="filled-action-clock"
      unicode="&#xEAEC;"
      horiz-adv-x="600" d="M300 575A275 275 0 1 1 575 300A275 275 0 0 1 300 575zM312.5 300A11.75 11.75 0 0 0 308.75 291.25L220.5 202.75A12.75 12.75 0 0 0 211.5 199A12.5 12.5 0 0 0 202.75 202.7500000000001A12.75 12.75 0 0 0 202.75 220.5L287.5000000000001 305.25V450A12.5 12.5 0 0 0 312.5000000000001 450z" />
    <glyph glyph-name="filled-action-delete"
      unicode="&#xEA04;"
      horiz-adv-x="600" d="M122.235 83.835L122.895 77.73A62.52 62.52 0 0 1 184.635 24.99H415.35A62.505 62.505 0 0 1 477.75 83.8200000000001L496.335 399.99H103.65L122.235 83.8200000000001zM324.99 274.995A25.005 25.005 0 0 0 375 274.995V124.995A25.005 25.005 0 1 0 324.99 124.995V274.995zM225 274.995A25.005 25.005 0 0 0 275.01 274.995V124.995A25.005 25.005 0 1 0 225 124.995V274.995zM525 475.005H424.995V500.01A75 75 0 0 1 349.995 575.01H249.99A75 75 0 0 1 174.99 500.01V475.005H74.985A25.005 25.005 0 0 1 74.985 424.995H524.985A25.005 25.005 0 1 1 524.985 475.005zM375 475.005H225V500.01C225 513.81 236.19 525.015 250.005 525.015H350.0100000000001C363.8100000000001 525.015 375.0150000000001 513.825 375.0150000000001 500.01V475.005z" />
    <glyph glyph-name="filled-action-dislike"
      unicode="&#xEB0F;"
      horiz-adv-x="600" d="M176.5 459.5H125A25 25 0 0 1 100 434.5V265A23.25 23.25 0 0 1 107.5 248A25 25 0 0 1 125.25 241H175A25 25 0 0 1 200 264.75L201.25 434.25A25 25 0 0 1 176.5 459.5zM495.5 344.25L445.5 457.75A61.75 61.75 0 0 1 386.5 497H302.25A50 50 0 0 1 278.75 490L227.5 455.75A12 12 0 0 1 222 445.5V252.25A13 13 0 0 1 235.5 239.75A26.25 26.25 0 0 0 263.25 214.75V126.75A22.75 22.75 0 0 1 270.75 109.9999999999999A26.75 26.75 0 0 1 288.75 102.9999999999999A85.5 85.5 0 0 1 375.75 184.4999999999999V239.7499999999999H414.5A90.5 90.5 0 0 1 471.7499999999999 260.4999999999999A76.75 76.75 0 0 1 495.4999999999999 344.2499999999999z" />
    <glyph glyph-name="filled-action-filepdf"
      unicode="&#xEC1F;"
      horiz-adv-x="600" d="M525 500A75 75 0 0 1 450 575H276.95C257.05 575 237.975 567.1 223.925 553.025L96.975 426.0750000000001A75 75 0 0 1 75 373.05V300H525V500zM275 375H125L275 525V375zM112.5 250H50A25 25 0 0 1 25 225V50A25 25 0 0 1 75 50V75H112.5A87.5 87.5 0 1 1 112.5 250zM112.5 125H75V200H112.5A37.5 37.5 0 0 0 112.5 125zM287.5 250H250A25 25 0 0 1 225 225V50A25 25 0 0 1 250 25H287.5A112.5 112.5 0 0 1 287.5 250zM287.5 75H275V200H287.5A62.5 62.5 0 1 0 287.5 75zM550 250H450A25 25 0 0 1 425 225V50A25 25 0 0 1 475 50V112.5H525A25 25 0 0 1 525 162.5H475V200H550A25 25 0 0 1 550 250z" />
    <glyph glyph-name="filled-action-half-rating"
      unicode="&#xEB3F;"
      horiz-adv-x="600" d="M561.9 360A12.5 12.5 0 0 1 551.825 368.5L385.575 392.65L311.225 543.25C311.125 543.425 310.925 543.5 310.825 543.675A12.375 12.375 0 0 1 302.875 549.9A12.5 12.5 0 0 1 288.8250000000001 543.25L214.475 392.65L48.225 368.5A12.5 12.5 0 0 1 41.275 347.2L161.575 229.925L133.175 64.375A12.5 12.5 0 0 1 151.3 51.1999999999999L300 129.35L448.675 51.1999999999999A12.5 12.5 0 0 1 466.8 64.375L438.4000000000001 229.925L558.7 347.2A12.45 12.45 0 0 1 561.875 360zM416.275 243.25A12.575 12.575 0 0 1 412.65 232.175L437.875 85.1L312.475 151V484.175L366.025 375.7C367.825 372.025 371.375 369.45 375.425 368.875L523.125 347.425L416.275 243.25z" />
    <glyph glyph-name="filled-action-increase"
      unicode="&#xEB27;"
      horiz-adv-x="600" d="M299.925 537.575C168.75 537.575 62.425 431.25 62.425 300.075S168.75 62.5750000000001 299.925 62.5750000000001S537.425 168.9 537.425 300.075S431.1 537.575 299.925 537.575zM416.1 196.425A12.675 12.675 0 0 0 403.6 183.925L318.7 183.25A12.45 12.45 0 0 0 306.175 195.8A12.75 12.75 0 0 0 318.675 208.2749999999999L373.65 208.6999999999999L208.475 373.7L208.05 318.875A12.725 12.725 0 0 0 195.55 306.375A12.45 12.45 0 0 0 183.05 318.875L183.75 403.7249999999999A12.675 12.675 0 0 0 196.25 416.2249999999999L281.15 416.9C288.35 416.775 293.775 411.1499999999999 293.675 404.3499999999999A12.75 12.75 0 0 0 281.175 391.875L226.2 391.4749999999999L391.375 226.4249999999999L391.8 281.2499999999999A12.725 12.725 0 0 0 404.3 293.7499999999999A12.45 12.45 0 0 0 416.8 281.2499999999999L416.1 196.4249999999999z" />
    <glyph glyph-name="filled-action-indeterminatecheckbox"
      unicode="&#xEB73;"
      horiz-adv-x="600" d="M484.75 537.5H115.25A53 53 0 0 1 62.5 484.75V115.25A53 53 0 0 1 115.25 62.5H484.75A53 53 0 0 1 537.5 115.25V484.75A53 53 0 0 1 484.75 537.5zM432 273.5H168V326.5H432V273.5z" />
    <glyph glyph-name="filled-action-like"
      unicode="&#xEB8B;"
      horiz-adv-x="600" d="M137.4 138.8250000000001A25 25 0 0 0 120.65 145.575A24.95 24.95 0 0 0 113.65 162.3250000000001V332.5750000000001A25 25 0 0 0 137.15 356.325H183.65A23.5 23.5 0 0 0 208.65 332.825L209.9 163.8250000000001A24.95 24.95 0 0 0 202.9 147.075A22.75 22.75 0 0 0 186.15 140.0749999999999L137.4 138.8249999999999zM381.4 101.3250000000001H302.4A45.95 45.95 0 0 0 280.4 108.3250000000001L232.65 142.3250000000001A13 13 0 0 0 227.4 152.5750000000001V345.0750000000001A12.5 12.5 0 0 0 239.9 357.5750000000001A25 25 0 0 1 266.15 382.5750000000001V470.075C266.25 476.425 268.75 482.5 273.15 487.075A25 25 0 0 0 289.9 493.825A82.5 82.5 0 0 0 372.3999999999999 412.575V357.5750000000001H408.6499999999999A80.2 80.2 0 0 0 461.8999999999999 336.8250000000001A79.25 79.25 0 0 0 482.8999999999999 253.5750000000001L436.3999999999999 140.325A57.75 57.75 0 0 0 381.3999999999999 101.3250000000001z" />
    <glyph glyph-name="filled-action-love"
      unicode="&#xEA05;"
      horiz-adv-x="600" d="M480.25 444.75L475 450A132.75 132.75 0 0 1 300 457.5A132.75 132.75 0 0 1 125 450A121.75 121.75 0 0 1 120.25 278L125 275L290.75 116.5A12.25 12.25 0 0 1 299.25 113A13 13 0 0 1 308 116.5L475 275A120.5 120.5 0 0 1 481.25 445.5z" />
    <glyph glyph-name="filled-action-newrequest"
      unicode="&#xEA06;"
      horiz-adv-x="600" d="M475 350A25 25 0 0 1 500 375V450A25 25 0 0 1 475 475H125A25 25 0 0 1 100 450V375A25 25 0 0 1 125 350zM425 281.25A128.5 128.5 0 0 0 475 271.25V325H125V150A25 25 0 0 1 150 125H296.25A136.75 136.75 0 0 0 293.75 150A131.5 131.5 0 0 0 425 281.25zM425 262.5A112.5 112.5 0 1 1 537.5 150A112.25 112.25 0 0 1 425 262.5zM487.5 140.0000000000001H435V87.5A10 10 0 0 0 415 87.5V140.0000000000001H362.5A10 10 0 0 0 362.5 160.0000000000001H415V212.5000000000001A10 10 0 1 0 435 212.5000000000001V160.0000000000001H487.5A10 10 0 0 0 487.5 140.0000000000001z" />
    <glyph glyph-name="filled-action-opacity"
      unicode="&#xEB8C;"
      horiz-adv-x="600" d="M237.5 550A187.5 187.5 0 0 1 154.375 194.375A212.5 212.5 0 0 0 405.6250000000001 445.625A187.5 187.5 0 0 1 237.5 550zM416.975 416.975A187.425 187.425 0 0 1 343.625 424.05L424.0750000000001 343.6A188.2 188.2 0 0 1 417 416.95zM194.375 154.375A187.5 187.5 0 1 1 445.6250000000001 405.625A212.5 212.5 0 0 0 194.3750000000001 154.375zM183.025 183.025A187.425 187.425 0 0 0 175.925 256.2000000000001L256.3 175.9250000000001A187.55 187.55 0 0 0 183.025 183.025zM314.2000000000001 418.725A11.25 11.25 0 0 1 316.1750000000001 416.1750000000001L416.1750000000001 316.1750000000001A12.7 12.7 0 0 1 418.7250000000001 314.2000000000001A186.675 186.675 0 0 0 399.5500000000001 268.1250000000001L268.1250000000001 399.5500000000001A186.675 186.675 0 0 0 314.2000000000001 418.725zM352.9500000000001 214.7500000000001A188.35 188.35 0 0 1 385.2750000000001 247.0750000000001L247.075 385.275A188.35 188.35 0 0 1 214.75 352.9500000000001L352.95 214.75zM331.8750000000001 200.4500000000001L200.4500000000001 331.8750000000001A185.275 185.275 0 0 1 181.3750000000001 286.1000000000001L286.225 181.3750000000001A186.65 186.65 0 0 1 331.8750000000001 200.4250000000001z" />
    <glyph glyph-name="filled-action-privacy"
      unicode="&#xEB19;"
      horiz-adv-x="600" d="M352.5 440H459.9999999999999L340 560V452.5C340 445 345 440 352.5 440zM430 290C442.5 290 455 287.5 467.5 280V415H352.5C332.5 415 315 432.5 315 452.5V565H107.5C85 565 70 550 70 530V105C70 85 87.5 67.5 107.5 67.5H305V150C302.5 170 312.5 187.5 330 197.5C332.5 250 377.5 292.5 430 290zM147.5 360H337.5C345 360 350 355 350 347.5S345 335 337.5 335H147.5C140 335 135 340 135 347.5S140 360 147.5 360zM287.5 182.5H147.5C140 182.5 135 187.5 135 195S140 207.5 147.5 207.5H287.5C295 207.5 300 202.5000000000001 300 195S295 182.5 287.5 182.5zM147.5 257.5C140 257.5 135 262.5 135 270S140 282.5 147.5 282.5H337.5C345 282.5 350 277.5000000000001 350 270S345 257.5 337.5 257.5H147.5zM420 260C387.5 255 362.5 230 357.5 197.5H382.5C387.5 220 407.5 235 430 235C452.4999999999999 235 472.4999999999999 220 477.4999999999999 197.5H502.4999999999999C497.4999999999999 237.5 459.9999999999999 265 420 260zM502.5000000000001 172.5H357.5C342.5 172.5 330 160 330 145V62.4999999999999C330 47.4999999999999 342.5 34.9999999999999 357.5 34.9999999999999H502.5000000000001C517.5000000000001 34.9999999999999 530.0000000000001 47.4999999999999 530.0000000000001 62.4999999999999V145C530.0000000000001 160 517.5000000000001 172.5 502.5000000000001 172.5zM445 97.4999999999999V85C445 77.5 440.0000000000001 69.9999999999999 430 69.9999999999999C422.5 69.9999999999999 415 74.9999999999999 415 85V97.4999999999999C410 102.4999999999999 407.5 107.4999999999999 407.5 115C407.5 127.5 417.4999999999999 137.4999999999999 429.9999999999999 137.4999999999999S452.4999999999999 127.5 452.4999999999999 115C452.4999999999999 107.4999999999999 449.9999999999999 102.4999999999999 444.9999999999999 97.4999999999999z" />
    <glyph glyph-name="filled-action-rating"
      unicode="&#xEA07;"
      horiz-adv-x="600" d="M145.5 49.75A12.5 12.5 0 0 0 133.175 64.375L161.575 229.925L41.275 347.2A12.5 12.5 0 0 0 48.225 368.5L214.475 392.65L288.8250000000001 543.25C293.025 551.8 307.05 551.8 311.225 543.25L385.5750000000001 392.65L551.825 368.5A12.45 12.45 0 0 0 558.725 347.2L438.425 229.925L466.8249999999999 64.375A12.5 12.5 0 0 0 448.7 51.1999999999999L300.0249999999999 129.35L151.3249999999999 51.1999999999999A12.3 12.3 0 0 0 145.5249999999999 49.75z" />
    <glyph glyph-name="filled-action-register"
      unicode="&#xEB1A;"
      horiz-adv-x="600" d="M385 422.5H492.5L372.5 542.5V435C372.5 430 377.5 422.5 385 422.5zM385 397.5C365 397.5 347.5 415 347.5 435V550H137.5C117.5 550 100 532.5 100 512.5V87.5C100 67.5 117.5 50 137.5 50H462.5C482.5 50 500 67.5 500 87.5V397.5H385zM320 167.5000000000001H180C172.5 167.5000000000001 167.5 172.5000000000001 167.5 180.0000000000001S172.5 192.5000000000001 180 192.5000000000001H320C327.5000000000001 192.5000000000001 332.5 187.5000000000001 332.5 180.0000000000001S325 167.5000000000001 320 167.5000000000001zM370 242.5000000000001H180C172.5 242.5000000000001 167.5 247.5000000000001 167.5 255.0000000000001S172.5 267.5000000000001 180 267.5000000000001H370C377.5000000000001 267.5000000000001 382.5 262.5000000000001 382.5 255.0000000000001S375 242.5000000000001 370 242.5000000000001zM370 317.5000000000001H180C172.5 317.5000000000001 167.5 322.5000000000001 167.5 330.0000000000001S172.5 342.5000000000001 180 342.5000000000001H370C377.5000000000001 342.5000000000001 382.5 337.5000000000001 382.5 330.0000000000001S375 317.5000000000001 370 317.5000000000001z" />
    <glyph glyph-name="filled-action-request"
      unicode="&#xEAED;"
      horiz-adv-x="600" d="M75 525H525A25 25 0 0 0 550 500V400A25 25 0 0 0 525 375H75A25 25 0 0 0 50 400V500A25 25 0 0 0 75 525zM475 350H100V100A11.75 11.75 0 0 1 111.5 88.5H486.5A11.75 11.75 0 0 1 500 100V350H475z" />
    <glyph glyph-name="filled-action-subtract"
      unicode="&#xEA08;"
      horiz-adv-x="600" d="M450 275H150A25 25 0 0 0 150 325H450A25 25 0 0 0 450 275z" />
    <glyph glyph-name="filled-action-transparent"
      unicode="&#xEB8D;"
      horiz-adv-x="600" d="M25 537.5A37.5 37.5 0 0 0 62.5 575H212.5A12.5 12.5 0 0 0 225 562.5V400H375V562.5A12.5 12.5 0 0 0 387.5 575H537.5A37.5 37.5 0 0 0 575 537.5V387.5A12.5 12.5 0 0 0 562.5 375H400V225H562.5A12.5 12.5 0 0 0 575 212.5V62.5A37.5 37.5 0 0 0 537.5 25H387.5A12.5 12.5 0 0 0 375 37.5V200H225V37.5A12.5 12.5 0 0 0 212.5 25H62.5A37.5 37.5 0 0 0 25 62.5V212.5A12.5 12.5 0 0 0 37.5 225H200V375H37.5A12.5 12.5 0 0 0 25 387.5V537.5z" />
    <glyph glyph-name="filled-action-zoomin"
      unicode="&#xEB5D;"
      horiz-adv-x="600" d="M326.7 374.525H276.1V425.1A25 25 0 0 1 226.1 425.1V374.525H175.525A25 25 0 0 1 175.525 324.525H226.1V273.925A25 25 0 1 1 276.1 273.925V324.5250000000001H326.7000000000001A25 25 0 1 1 326.7000000000001 374.5250000000001zM544.1 90.525L408.325 226.3A198.875 198.875 0 0 1 451.1249999999999 349.525C451.1249999999999 459.8 361.3999999999999 549.525 251.125 549.525S51.125 459.8 51.125 349.525C51.125 239.225 140.85 149.525 251.125 149.525A198.7 198.7 0 0 1 372.8 191.15L508.7499999999999 55.2A24.925 24.925 0 0 1 544.1 55.2A25 25 0 0 1 544.1 90.525zM101.1 349.525C101.1 432.25 168.375 499.525 251.1 499.525S401.1 432.25 401.1 349.525S333.8250000000001 199.525 251.1 199.525A150.15 150.15 0 0 0 101.1 349.525z" />
    <glyph glyph-name="filled-action-zoomout"
      unicode="&#xEB5E;"
      horiz-adv-x="600" d="M326.7 374.525H175.525A25 25 0 0 1 175.525 324.525H326.7A25 25 0 1 1 326.7 374.525zM544.1 90.525L408.325 226.3A198.875 198.875 0 0 1 451.1249999999999 349.525C451.1249999999999 459.8 361.3999999999999 549.525 251.125 549.525S51.125 459.8 51.125 349.525C51.125 239.225 140.85 149.525 251.125 149.525A198.7 198.7 0 0 1 372.8 191.15L508.7499999999999 55.2A24.925 24.925 0 0 1 544.1 55.2A25 25 0 0 1 544.1 90.525zM101.1 349.525C101.1 432.25 168.375 499.525 251.1 499.525S401.1 432.25 401.1 349.525S333.8250000000001 199.525 251.1 199.525A150.15 150.15 0 0 0 101.1 349.525z" />
    <glyph glyph-name="filled-alert-cancel"
      unicode="&#xEB35;"
      horiz-adv-x="600" d="M182.49 571.335A12.495 12.495 0 0 0 191.325 574.995H408.675C411.99 574.995 415.17 573.675 417.51 571.335L571.335 417.51A12.495 12.495 0 0 0 574.995 408.675V191.325A12.495 12.495 0 0 0 571.335 182.49L417.51 28.665A12.495 12.495 0 0 0 408.675 25.005H191.325A12.495 12.495 0 0 0 182.49 28.665L28.665 182.49A12.495 12.495 0 0 0 25.005 191.325V408.675C25.005 411.99 26.325 415.17 28.665 417.51L182.49 571.335zM300 150A37.5 37.5 0 1 1 300 225A37.5 37.5 0 0 1 300 150zM275.01 450A12.525 12.525 0 0 1 262.56 436.4700000000001L275.055 286.47A12.495 12.495 0 0 1 287.505 275.01H312.51A12.495 12.495 0 0 1 324.96 286.47L337.455 436.47A12.48 12.48 0 0 1 325.005 450H275.01z" />
    <glyph glyph-name="filled-alert-check"
      unicode="&#xEB36;"
      horiz-adv-x="600" d="M300 575C148.125 575 25 451.875 25 300S148.125 25 300 25S575 148.125 575 300S451.875 575 300 575zM442.8250000000001 357.475L270.9500000000001 182.475A24.925 24.925 0 0 0 235.3 182.475L157.175 262.025A25 25 0 1 0 192.85 297.05L253.1500000000001 235.675L407.2 392.525A25 25 0 1 0 442.875 357.5z" />
    <glyph glyph-name="filled-alert-empty"
      unicode="&#xEB37;"
      horiz-adv-x="600" d="M300.175 62.5C117.35 62.5 3.075 260.425 94.5 418.75C185.9 577.075 414.45 577.075 505.85 418.75A237.425 237.425 0 0 0 537.6750000000001 300A237.775 237.775 0 0 0 300.175 62.5z" />
    <glyph glyph-name="filled-alert-indeterminate"
      unicode="&#xEB38;"
      horiz-adv-x="600" d="M505.85 418.75C414.45 577.075 185.9 577.075 94.5 418.75C3.075 260.425 117.35 62.5 300.175 62.5A237.775 237.775 0 0 1 537.675 300A237.425 237.425 0 0 1 505.85 418.75zM461.0000000000001 293.75A12.475 12.475 0 0 0 450.175 287.5H150.1750000000001A12.5 12.5 0 0 0 150.1750000000001 312.5H450.175A12.5 12.5 0 0 0 461.0000000000001 293.75z" />
    <glyph glyph-name="filled-alert-info"
      unicode="&#xEB39;"
      horiz-adv-x="600" d="M300 575C148.125 575 25 451.875 25 300S148.125 25 300 25S575 148.125 575 300S451.875 575 300 575zM325 175A25 25 0 1 0 275 175V325A25 25 0 1 0 325 325V175zM300 401.5A31.25 31.25 0 1 0 300 464A31.25 31.25 0 0 0 300 401.5z" />
    <glyph glyph-name="filled-alert-notification"
      unicode="&#xEB3A;"
      horiz-adv-x="600" d="M300 60C325 60 347.5 75 357.5 97.4999999999999H242.5C252.5 75 275 60 300 60zM440.0000000000001 230C430.0000000000001 237.5 425 247.5 425 260V360C425 410 395 455 350 474.9999999999999C350 502.4999999999999 327.5 525 300 525S250 502.4999999999999 250 474.9999999999999C205 455 175 410 175 360V260C175 247.5 170 237.5 160 230L125 205V160C125 140 142.5 122.5 162.5 122.5H437.5C457.5 122.5 475 140 475 160V205L440.0000000000001 230z" />
    <glyph glyph-name="filled-alert-notificationbadge"
      unicode="&#xEB3B;"
      horiz-adv-x="600" d="M475 325A75 75 0 1 1 475 475A75 75 0 0 1 475 325zM375 400H150C107.5 400 75 367.5 75 325V175C75 132.5 107.5 100 150 100H400C442.5 100 475 132.5 475 175V300C420 300 375 345 375 400z" />
    <glyph glyph-name="filled-alert-notificationunavailable"
      unicode="&#xEB5F;"
      horiz-adv-x="600" d="M546.35 546.35A12.5 12.5 0 0 1 528.675 546.35L406.9749999999999 424.65A126.75 126.75 0 0 1 350 475C350 502.5 327.5 525 300 525S250 502.5 250 475C205 455 175 410 175 360V260C175 247.5 170 237.5 160 230L125 205V160.0000000000001C125 155.0000000000001 126.1 150.175 128.05 145.725L53.675 71.35A12.5 12.5 0 0 1 71.35 53.675L546.35 528.65A12.5 12.5 0 0 1 546.35 546.3249999999999zM300 60C325 60 347.5 75 357.5 97.4999999999999H242.5C252.5 75 275 60 300 60zM425 260V360C425 363.875 424.825 367.7000000000001 424.475 371.5L175.475 122.5H437.5C457.5 122.5 475 140 475 160V205L440.0000000000001 230C430.0000000000001 237.5 425 247.5 425 260z" />
    <glyph glyph-name="filled-alert-warning"
      unicode="&#xEB3C;"
      horiz-adv-x="600" d="M241.17 515.715C267.21 561.42 332.775 561.42 358.815 515.715L565.9499999999999 151.995C591.7649999999999 106.68 559.3349999999999 49.995 507.12 49.995H92.865C40.665 49.995 8.235 106.665 34.035 151.995L241.17 515.715zM300 124.995A37.5 37.5 0 1 1 300 199.995A37.5 37.5 0 0 1 300 124.995zM274.995 424.995A12.525 12.525 0 0 1 262.545 411.465L275.04 261.465A12.495 12.495 0 0 1 287.49 250.005H312.495A12.48 12.48 0 0 1 324.945 261.465L337.44 411.465A12.48 12.48 0 0 1 324.99 424.995H274.995z" />
    <glyph glyph-name="filled-brand-avonshorthand"
      unicode="&#xEAEE;"
      horiz-adv-x="600" d="M150.25 68.75L195.75 172.5C207.75 174.25 219 175.5 230 176.5C241 177.5 251.5 177.75 261.75 177.75C283.75 177.75 304 175.75 322.25 171.5C340.5 167.25 357.25 160.75 372.5 151.75C387.75 142.75 401.5 131.25 414.25 117.75C426.75 104 438.5 87.75 449.5 68.75H550L334.75 531.25H265.2500000000001L50 68.75H150.5zM300.25 409.75L383.5 226C371.25 234.75 355.75 241.7500000000001 337.25 246.5000000000001C318.75 251.25 296.75 253.75 271.25 253.75C259 253.75 245.5 253 231 251.75L300.5 409.75z" />
    <glyph glyph-name="filled-brand-facebook"
      unicode="&#xEA09;"
      horiz-adv-x="600" d="M550 298.5A250 250 0 1 1 261 50V225H197.5V298.5H261.0000000000001V354C261.0000000000001 417 298.2500000000001 451.75 355.5 451.75A378.5 378.5 0 0 0 411.25 447V385H379.75A36.25 36.25 0 0 1 339.25 353.75A43.5 43.5 0 0 1 339.25 345.75V298.5H407.5L396.25 225H339V50A250 250 0 0 1 550 298.5z" />
    <glyph glyph-name="filled-brand-google"
      unicode="&#xEA0A;"
      horiz-adv-x="600" d="M475 107A247.7500000000001 247.7500000000001 0 0 1 550 294.2500000000001A282 282 0 0 1 545.5 346.5H305V248.0000000000001H442.25A116.75 116.75 0 0 0 392.25 171.0000000000001A154 154 0 0 0 179.75 217.5000000000001A160 160 0 0 0 163.25 251.7500000000001A153.5 153.5 0 0 0 305 453.5000000000001A137.25 137.25 0 0 0 402.5 415.5000000000001L475 488.5A245 245 0 0 1 305 555A255 255 0 0 1 305 45A243.5000000000001 243.5000000000001 0 0 1 475 106.75z" />
    <glyph glyph-name="filled-brand-instagram"
      unicode="&#xEA0B;"
      horiz-adv-x="600" d="M202 64A180.5 180.5 0 0 0 144.5 75A112.5 112.5 0 0 0 102.5 102.5000000000001A112.5 112.5 0 0 0 75 144.5A180.5 180.5 0 0 0 64 202.0000000000001C62.75 227.0000000000001 62.5 236.0000000000001 62.5 300.0000000000001S62.5 372.5000000000001 64 398.0000000000001A166.5 166.5 0 0 0 75 455.5A115 115 0 0 0 102.25 497.5A116.75 116.75 0 0 0 144.25 525A169 169 0 0 0 202 536C227 537.25 236 537.5 300 537.5S372.5 537.5 398 536A167.75 167.75 0 0 0 455.5 525A115 115 0 0 0 497.4999999999999 497.75A116.75 116.75 0 0 0 525 455.75A169 169 0 0 0 536 398C536 373 537.5 364.25 537.5 300S537.5 227.5 536 202.25A169 169 0 0 0 525 144.5A120.5 120.5 0 0 0 455.5 75A166.5 166.5 0 0 0 398 64C373 64 364.25 62.5 300 62.5S227.5 62.75 202 64zM204 493.25A125 125 0 0 1 160 485.25A75 75 0 0 1 132.5 467.5A77.75 77.75 0 0 1 114.75 440A125 125 0 0 1 106.75 396C106.75 371 105.25 363.5 105.25 300S105.25 229 106.75 204A126.75 126.75 0 0 1 114.75 160A79 79 0 0 1 132.5 132.75A71.5 71.5 0 0 1 160 115A132 132 0 0 1 204 106.75C229 106.75 237 105.5 300 105.5S370.5 105.5 396 106.75A132 132 0 0 1 440.0000000000001 115A78.25 78.25 0 0 1 485.0000000000001 160A133.25 133.25 0 0 1 493.25 204C494.5 229 494.75 237 494.75 300S494.75 370.75 493.25 396A132 132 0 0 1 485.0000000000001 440A71.5 71.5 0 0 1 467.2500000000001 467.4999999999999A73.5 73.5 0 0 1 440.0000000000001 485.2499999999999A125 125 0 0 1 396.0000000000001 493.2499999999999C371.0000000000001 493.2499999999999 363.5 494.7499999999999 300.0000000000001 494.7499999999999S229.0000000000001 494.7499999999999 204.0000000000001 493.2499999999999zM178 300A122.25 122.25 0 1 0 300 178A122 122 0 0 0 178 300zM220.75 300A79.25 79.25 0 1 1 300 379.25A79.25 79.25 0 0 1 220.75 300zM398.25 426.75A28.75 28.75 0 1 0 427 398.25A28.75 28.75 0 0 0 398.25 426.75z" />
    <glyph glyph-name="filled-brand-linkedin"
      unicode="&#xEA0C;"
      horiz-adv-x="600" d="M502.25 537.5H97.5A35 35 0 0 1 62.5 503.25V96.7499999999999A35 35 0 0 1 97.5 62.4999999999999H502.25A34.75 34.75 0 0 1 537.5 96.7499999999999V503.25A34.75 34.75 0 0 1 502.25 537.5zM202.25 132.75H133V359.25H203.25zM168.25 390.5A40.75 40.75 0 1 0 209 431.25A40.75 40.75 0 0 0 168.25 390.5zM468.25 132.75H397V243C397 268 397 303 360.25 303S318 275 318 245V132.7500000000001H247.5V359.25H315.0000000000001V328.5A75 75 0 0 0 382.7500000000001 365C454.2500000000001 365 467.2500000000001 318 467.2500000000001 257V132z" />
    <glyph glyph-name="filled-brand-messenger"
      unicode="&#xEB28;"
      horiz-adv-x="600" d="M300 545C170 545 62.5 437.5 62.5 307.5C62.5 237.5 92.5 172.5 142.5 130.0000000000001L132.5 75C130 62.5 142.5 50 155 55L225 80C250 75 275 70 300 70C430 70 537.5 177.5000000000001 537.5 307.5S430 545 300 545zM447.5 362.5C430 335 395 280 380 255C377.5 250 372.5 245 367.5 242.5C360 237.5 352.5 235 345 235C335 235 327.5 237.5 320 242.5L260 282.5C257.5 285 252.5 285 247.5 282.5C227.5 267.5 187.5 237.5 165 222.5C162.5 220 160 220 157.5 220C155 220 150 225 150 232.5C150 235 150 237.5 152.5 240C170 267.5 205 322.5 220 347.5C222.5 352.5 227.5 357.5 232.5 360C240 365 247.5 367.5 255 367.5C265 367.5 272.5 365 280 360L340 320C342.5 317.5 347.5 317.5 352.5 320C372.5 335 412.5 365 435 380C437.5 382.5 440 382.5 442.5 382.5C445 380 450 375 450 367.5C450 365 450 362.5 447.5 362.5z" />
    <glyph glyph-name="filled-brand-naturarosacea"
      unicode="&#xEA0D;"
      horiz-adv-x="600" d="M462 375A392.75 392.75 0 0 0 443.75 319.25S443.75 317.75 443.75 319.25C449.75 322 476.4999999999999 335.25 504.7500000000001 347.25S585.5 358.75 572.0000000000001 301S490.5000000000001 209.25 483.7500000000001 205.75S469.0000000000001 199 465.7500000000001 197S463.7500000000001 195.25 465.7500000000001 194.75C473.0000000000001 192.75 497.2500000000001 194.75 497.0000000000001 184S479.0000000000001 155.25 432.2500000000001 135.5A165.25 165.25 0 0 0 328.7500000000001 126S302.2500000000001 101 235.5000000000001 112C187.2500000000001 120.25 175.25 125 164.5000000000001 137A16.25 16.25 0 0 0 164.5000000000001 155.5V159A200 200 0 0 0 31.7500000000001 248.5A27.25 27.25 0 0 0 30.2500000000001 279C36.0000000000001 287.5 55.2500000000001 288.25 75.2500000000001 283.25L114.5000000000001 273.25C116.2500000000001 273.25 116.2500000000001 273.25 114.5000000000001 274.5A541.2499999999999 541.2499999999999 0 0 0 79.0000000000001 322C62.2500000000001 347 41.2500000000001 417 96.0000000000001 445.5C156.5000000000001 477 209.2500000000001 420.5 221.0000000000001 407.25S252.0000000000001 366.7500000000001 253.7500000000001 364S257.5000000000001 364 257.5000000000001 364A551.25 551.25 0 0 0 284.5000000000001 439A101.75 101.75 0 0 0 390.5000000000001 492.5C465.5000000000001 478.75 467.7500000000001 403.75 461.7500000000002 376.5000000000001M386.7500000000002 436.0000000000001C344.5000000000002 448.7500000000001 318.2500000000002 417.7500000000001 306.0000000000001 378.2500000000001C296.2500000000001 346.5000000000001 294.2500000000001 338.0000000000001 288.5000000000002 321.5000000000001C280.5000000000002 298.2500000000001 261.0000000000002 296.5000000000001 245.7500000000002 314.5000000000001S204.25 365 191 380C175 400 132.75 416.25 112 390.75C80.5 352 122.25 308.7500000000001 144.25 282.75C159.5 264.5 177.75 251.75 171.75 241.5C169.5 237.5 164.75 236.25 158.5 236.5A738.75 738.75 0 0 0 80.75 252.5000000000001C70.5 254.2500000000001 63 253.7500000000001 60.25 246.2500000000001S69.5 211.7500000000001 102.5 194.7500000000001A386.7500000000001 386.7500000000001 0 0 1 193.5000000000001 168.5000000000001C212.75 164.5000000000001 208.75 155.25 204.5 150.5000000000001S194.7500000000001 142.5000000000001 195.7500000000001 138.0000000000001C198.5000000000001 125.7500000000001 224.7500000000001 123.2500000000001 240.2500000000001 120.7500000000001A96.75 96.75 0 0 1 288.75 122.5000000000001C302.25 127.7500000000001 303 135.0000000000001 312.25 138.75S329 138.75 355.5 134.25A162 162 0 0 1 419.25 140.5C450 150.75 462.7499999999999 160.5000000000001 462.7499999999999 165.5S457.4999999999999 170.5 451.9999999999999 171.2500000000001A121 121 0 0 0 415.5 180.75C408 185.5000000000001 413.5 194.25 429.25 200.5A363.25 363.25 0 0 1 514 244.25C532.75 261 550.7499999999999 289 534.7499999999999 305.25S491.4999999999999 305.25 476.4999999999999 297.75A625 625 0 0 0 412.9999999999999 269.25C403.2499999999999 267.25 384.9999999999999 267.75 393.5 289.75C403.9999999999999 316.75 409.25 333.25 415.5 349.75C423.7499999999999 370 435.2499999999999 419.75 385.5 434.75" />
    <glyph glyph-name="filled-brand-pinterest"
      unicode="&#xEA0E;"
      horiz-adv-x="600" d="M300 550A250 250 0 0 1 209 67.5A238.5 238.5 0 0 0 209 139.25C213.5 158.7500000000001 238.25 264.25 238.25 264.25A92.5 92.5 0 0 0 231.75 300C231.75 334.75 251.75 360.5 277 360.5A31.5 31.5 0 0 0 308.75 325A487.75 487.75 0 0 0 287.75 241.75A36.5 36.5 0 0 1 325 197.5C369.5 197.5 403.5 244.25 403.5 311.75A98.5 98.5 0 0 1 300 413.25A108.25 108.25 0 0 1 186 305A97.5 97.5 0 0 1 204.5 248A7.25 7.25 0 0 0 206 240.75C204.25 233 200 215.75 199 212.5S195.5 206.75 190.75 209.25C159.25 223.75 140.75 269.25 140.75 306C140.75 384.75 198 456 306.25 456A146.75 146.75 0 0 0 460.5000000000001 311.75C460.5000000000001 225.5 406.0000000000001 156.25 330.75 156.25A66.5 66.5 0 0 0 273.5000000000001 185S260.7500000000001 137.5 257.75 125.75A275 275 0 0 0 225 61A257.25 257.25 0 0 1 300 50A250 250 0 0 1 300 550z" />
    <glyph glyph-name="filled-brand-spotify"
      unicode="&#xEA0F;"
      horiz-adv-x="600" d="M300 50A250 250 0 1 0 550 300A250 250 0 0 0 300 50zM256.75 216.5A242.5 242.5 0 0 0 386.75 182.25A15.25 15.25 0 0 1 409.5 195.5A16 16 0 0 1 402.25 208.75A275 275 0 0 1 256.5 247.25A419.0000000000001 419.0000000000001 0 0 1 163.25 236.0000000000001A15.5 15.5 0 0 1 150.5 218.5000000000001A15.25 15.25 0 0 1 166.5 205.7500000000001H170A392.75 392.75 0 0 0 257 216.5000000000001zM254.5 293A312 312 0 0 0 413.75 252A19.25 19.25 0 0 1 434 284.5A345 345 0 0 1 254.5 331.5000000000001A337.5000000000001 337.5000000000001 0 0 1 156 317.5A18.25 18.25 0 0 1 144.75 308.2500000000001A19.25 19.25 0 0 1 152.5 283.2500000000001A18.25 18.25 0 0 1 161.25 281.0000000000001H167A297.7500000000001 297.7500000000001 0 0 0 253.5 293.2500000000001zM260.25 373.75A367.75 367.75 0 0 0 442 331.5000000000001A25 25 0 0 1 453.7499999999999 328.5000000000001A22.5 22.5 0 0 1 476.4999999999999 351.2500000000001A23 23 0 0 1 465.25 371.2500000000001A419.0000000000001 419.0000000000001 0 0 1 260.75 419.7500000000001A421 421 0 0 1 141 404.5000000000001A22.75 22.75 0 0 1 136.5 362.0000000000001A23.25 23.25 0 0 1 154.25 360.2500000000001A363.25 363.25 0 0 0 259 373.7500000000001z" />
    <glyph glyph-name="filled-brand-thebodyshop"
      unicode="&#xEB10;"
      horiz-adv-x="600" d="M391.25 525A26.5 26.5 0 0 1 375.5 516A25 25 0 0 1 369.5 498.75A25 25 0 0 1 374.5 482.75A26.75 26.75 0 0 1 388.5 473.5C495.7499999999999 433.5 560.25 323.5000000000001 523 220.7500000000001A234.5 234.5 0 0 0 436.5 107.2500000000001A237.2500000000001 237.2500000000001 0 0 0 163.9999999999999 107.2500000000001A234.5 234.5 0 0 0 77.4999999999999 220.5000000000001C40.25 323.5 104.5 433.5 212 473.25A26.75 26.75 0 0 1 225 482.5A26.5 26.5 0 0 1 225 515.5A26.5 26.5 0 0 1 209.25 525C172.75 531.25 50 445.75 50 300A250 250 0 0 1 476.75 125A248 248 0 0 1 550 300C550 445.75 427.75 531.25 391.25 525zM516.75 239.5A236.75 236.75 0 0 1 419.5 321A22 22 0 0 0 409 328.75A20.25 20.25 0 0 0 405.5 341.25A25 25 0 0 0 407 349.75A26.75 26.75 0 0 0 411.75 356.75A19.75 19.75 0 0 0 419 361.25A23 23 0 0 0 427.2499999999999 362.75C451.4999999999999 362.25 502.7499999999999 300 516.7499999999999 239.5zM411.5 444A29 29 0 0 1 402.25 442.25A25 25 0 0 1 394.25 437A26.5 26.5 0 0 1 389 429.25A25 25 0 0 1 387.25 420A22 22 0 0 1 391 406.25A22.25 22.25 0 0 1 402.25 397.75A221.25 221.25 0 0 0 521.25 263.75C532.5 362.25 443.0000000000001 443 411.5 444zM83.75 239.5A236.75 236.75 0 0 0 181 321A22 22 0 0 1 191.5 328.75A20.25 20.25 0 0 1 195 341.25A18.75 18.75 0 0 1 193.25 350A18.5 18.5 0 0 1 188.5 356.75A21 21 0 0 1 181.5 361.25A25 25 0 0 1 173.25 362.75C150 362.25 97.5 300 83.75 239.5zM189.5 444A29 29 0 0 0 200 442.25A25 25 0 0 0 208 437A21.75 21.75 0 0 0 213 429.25A25 25 0 0 0 215 420A25 25 0 0 0 211.25 406.25A22.25 22.25 0 0 0 200 397.75A221.25 221.25 0 0 1 81 263.75C68 362.25 157.75 443 189.5 444z" />
    <glyph glyph-name="filled-brand-tiktok"
      unicode="&#xEB41;"
      horiz-adv-x="600" d="M490.0000000000001 550H110C77.5 550 50 522.5 50 490V109.9999999999999C50 77.5 77.5 50 110 50H490.0000000000001C522.5 50 550 77.5 550 109.9999999999999V490C550 522.5 522.5 550 490.0000000000001 550zM442.5000000000001 332.5H435.0000000000001C405.0000000000001 332.5 377.5000000000001 347.5 360.0000000000001 372.5V235C360.0000000000001 180 315.0000000000001 132.5 257.5000000000001 132.5C202.5 132.5 155.0000000000001 177.5000000000001 155.0000000000001 235S200.0000000000001 337.5 257.5000000000001 337.5H265.0000000000001V287.5H257.5000000000001C230.0000000000001 287.5 205.0000000000001 265 205.0000000000001 235C205.0000000000001 207.5 227.5000000000001 182.5 257.5000000000001 182.5C285.0000000000001 182.5 312.5000000000001 205 312.5000000000001 232.5V465H360.0000000000001C365.0000000000001 425 400.0000000000001 390 442.5000000000001 387.5V332.5z" />
    <glyph glyph-name="filled-brand-twitter"
      unicode="&#xEA10;"
      horiz-adv-x="600" d="M508 380A302.5000000000001 302.5000000000001 0 0 0 475 260.5A289.25 289.25 0 0 0 194.75 98.75A302.75 302.75 0 0 0 36.75 154C44.75 152.75 53.25 151.75 61.75 151.25A211 211 0 0 1 194.25 189.25A105.25 105.25 0 0 0 100 266.75A101.75 101.75 0 0 1 147.5 266.75A103.25 103.25 0 0 0 69 372.5V375A106.25 106.25 0 0 1 115.75 359.25A105.25 105.25 0 0 0 90 500A301.75 301.75 0 0 1 300 379A95.75 95.75 0 0 0 298.5 404A105 105 0 0 0 483.5 465A213.5 213.5 0 0 1 551.5 486.5A104.5 104.5 0 0 0 501.4999999999999 431.75A190.5 190.5 0 0 1 562.5 445A206.5 206.5 0 0 0 507.5 393.75A125 125 0 0 0 507.5 380z" />
    <glyph glyph-name="filled-brand-whatsapp"
      unicode="&#xEA11;"
      horiz-adv-x="600" d="M459.5 459.5A225 225 0 0 1 77 302A220.5 220.5 0 0 1 106.7499999999999 190.5L75 75L193.75 105.9999999999999A227.5 227.5 0 0 1 300 78.75A225 225 0 0 1 525 301.75A220.75 220.75 0 0 1 459.5 459.4999999999999zM300 116.5A188.5 188.5 0 0 0 205.25 141.5L200 146.5L129.5 128L148.25 196.2500000000001L144 203.5A183 183 0 0 0 115.5 302A186.25 186.25 0 1 0 300 116.5zM402 255.25C396.5 258 369 271.5000000000001 363.75 273.5000000000001S355 276.25 351.25 270.7500000000001S336.75 252.5000000000001 333.5 248.75S327 244.75 321.5 248.75A150 150 0 0 0 277.25 275A165.5 165.5 0 0 0 246.25 313.75C243 319.2500000000001 246.25 322.25 248.75 325S254.25 331.5 257 334.75A51.5 51.5 0 0 1 262.75 344A11 11 0 0 1 262.75 353.75C261.25 356.75 250 384 245.5 395.25S236.2500000000001 404.75 232.75 404.75H221.5A20.75 20.75 0 0 1 206.75 397.75A61.5 61.5 0 0 1 187 351.25A108.5 108.5 0 0 1 210.0000000000001 293.75A250 250 0 0 1 305.5000000000001 209.5A306.75 306.75 0 0 1 337.5000000000001 197.75A79.5 79.5 0 0 1 372.7500000000001 195.5A57.75 57.75 0 0 1 410.5000000000001 222A44.75 44.75 0 0 1 413.75 248.5000000000001C412.5 250.0000000000001 408.7500000000001 252.5000000000001 403 255.25z" />
    <glyph glyph-name="filled-brand-x"
      unicode="&#xEB3D;"
      horiz-adv-x="600" d="M456.1 543.725H538.8499999999999L358.125 337.225L570.6999999999999 56.225H404.3L273.8750000000001 226.6250000000001L124.8000000000001 56.225H41.95L235.2000000000001 277.1250000000001L31.4 543.725H202.025L319.8 387.975L456.1 543.725zM427 105.675H472.8249999999999L177.075 496.85H127.85L427.025 105.675z" />
    <glyph glyph-name="filled-brand-youtube"
      unicode="&#xEA12;"
      horiz-adv-x="600" d="M539.5 420.25A62.75 62.75 0 0 1 495.2499999999999 464.5C456.25 475 300 475 300 475S143.75 475 104.75 464.5A62.75 62.75 0 0 1 60.5 420.25A646.7500000000001 646.7500000000001 0 0 1 50 300A646.7500000000001 646.7500000000001 0 0 1 60.5 179.7500000000001A62.75 62.75 0 0 1 104.75 135.5000000000001C143.75 125 300 125 300 125S456.25 125 495.2499999999999 135.5000000000001A62.75 62.75 0 0 1 539.5 179.7500000000001A646.7500000000001 646.7500000000001 0 0 1 550 300A646.7500000000001 646.7500000000001 0 0 1 539.5 420.25zM250 225V373.75L379.5 300z" />
    <glyph glyph-name="filled-communication-digital-service"
      unicode="&#xEB33;"
      horiz-adv-x="600" d="M495.075 177.425L494.575 177.175A81.25 81.25 0 0 0 493.075 181.425V181.925L467.575 244.175L466.6500000000001 246.425C456.7000000000001 270.725 446.4750000000002 295.6500000000001 435.0750000000002 319.175C432.5750000000001 324.6750000000001 429.3250000000002 329.925 425.0750000000002 335.1750000000001C420.0750000000002 340.4250000000001 413.8250000000002 344.425 406.8250000000002 347.4250000000001A163.75 163.75 0 0 1 369.5750000000002 356.2750000000001V487.55C369.5750000000002 503.8 356.3250000000002 517.3 339.8250000000002 517.3H172.0750000000002C155.5750000000002 517.3 142.3250000000002 504.05 142.3250000000002 487.55V361.925H129.0750000000002L125.8250000000002 361.425C111.0750000000002 357.425 100.5750000000002 343.925 100.3250000000002 328.425C100.3250000000002 314.9500000000001 104.9250000000002 304.6 111.3750000000002 298.2000000000001C107.0250000000002 292.7 104.4500000000002 285.7750000000001 104.3250000000002 278.425C104.3250000000002 265.8250000000001 108.6750000000002 256.175 114.7750000000002 250.225A30.25 30.25 0 0 1 107.8250000000002 230.925C107.8250000000002 216.25 114.0750000000002 205.825 122.0750000000002 200.975A29.5 29.5 0 0 1 111.0750000000002 178.675C111.0750000000002 167.425 115.3250000000002 159.175 120.8250000000002 153.925H121.3250000000002C125.3250000000002 150.175 130.0750000000002 147.9250000000001 134.5750000000002 147.9250000000001H142.3250000000002V132.3000000000001C142.3250000000002 116.0500000000001 155.5750000000002 102.55 172.0750000000002 102.55H340.0750000000001C347.2750000000002 102.55 353.7000000000001 105.45 358.8750000000002 109.775C377.8500000000002 95.7750000000001 399.7500000000001 86.275 423.0750000000002 82.6750000000001H425.0750000000001V82.9250000000001A13.3 13.3 0 0 1 428.0750000000001 83.2750000000001C479.1000000000001 80.7750000000001 512.3000000000001 129.6250000000001 495.0750000000001 177.425zM269.15 140.425H234.15C226.65 140.425 221.65 145.425 221.65 152.925S226.65 165.425 234.15 165.425H269.15C274.15 165.425 281.65 160.4250000000001 281.65 152.925S276.6500000000001 140.425 269.15 140.425zM167.325 204.3V208.975C167.375 209.475 167.575 209.9 167.575 210.425C167.575 210.95 167.375 211.4 167.325 211.925V248.125V248.175V255.8750000000001V297.3750000000001V303.3V303.3750000000001V349.35V349.4000000000001V437.0250000000001H344.575V360.35A635 635 0 0 0 299.325 369.4000000000001C290.075 372.6500000000001 280.575 372.9000000000001 269.075 369.4000000000001C256.325 362.9000000000001 249.325 348.6500000000001 252.325 334.1500000000001C255.075 322.6500000000001 262.325 312.4000000000001 272.575 306.1500000000001C280.825 301.1500000000001 289.575 297.4000000000001 298.325 294.9000000000001L344.825 279.475V204.2750000000001H167.3249999999999z" />
    <glyph glyph-name="filled-communication-noconnection"
      unicode="&#xEB17;"
      horiz-adv-x="600" d="M300 228.75A33.75 33.75 0 1 1 295.5 161.5A34 34 0 0 1 331.5 193.0000000000001V195.2500000000001A32.5 32.5 0 0 1 300 228.75zM460.5000000000001 334.25C464.5000000000001 330.5 468.25 326.75 471.75 322.75A11 11 0 0 1 487.2500000000001 322.75A13 13 0 0 1 487.2500000000001 339.75A257.25 257.25 0 0 1 125 354L112.5 341.5A12.25 12.25 0 0 1 112.5 324.5A10.75 10.75 0 0 1 127.75 324.5A235.2500000000001 235.2500000000001 0 0 0 460.5000000000001 334.25zM546.75 402.5A335 335 0 0 1 73.5 425C66.5 418.5 59.75 412 53.25 405A12.5 12.5 0 0 1 53.25 388A11 11 0 0 1 68.75 388A313.25 313.25 0 0 0 511.5 405.25C517.75 399.25 524 393 530 386.5A10.75 10.75 0 0 1 545.25 386.5A13 13 0 0 1 546.7499999999999 402.5zM437.7500000000001 291.5A102 102 0 0 1 412.7500000000001 288A175 175 0 0 1 180.5000000000001 282.5L175 275A12.5 12.5 0 0 1 175 258A10.75 10.75 0 0 1 190.25 258A152.5 152.5 0 0 0 387.7500000000001 277A100 100 0 1 1 437.7500000000001 291zM491.7500000000001 153.5A12.5 12.5 0 0 0 491.7500000000001 135.75A12 12 0 0 0 474.2500000000001 135.75L437.7500000000001 172.25L401.25 135.75A12.5 12.5 0 0 0 392.5 132A12.75 12.75 0 0 0 383.5000000000001 135.75A12.75 12.75 0 0 0 383.5000000000001 153.5L420 190.0000000000001L383.5 225.0000000000001A12.75 12.75 0 0 0 383.5 242.75A12.5 12.5 0 0 0 401.25 242.75L437.7500000000001 206.25L475 244A12 12 0 0 0 492.5 244A12.5 12.5 0 0 0 492.5 226.25L455.25 190.0000000000001z" />
    <glyph glyph-name="filled-content-bathtub"
      unicode="&#xEB8E;"
      horiz-adv-x="600" d="M375 575A100.025 100.025 0 0 1 275 475V462.5A12.5 12.5 0 0 1 300 462.5V475A75.1 75.1 0 0 0 375 550A74.95 74.95 0 0 0 450 475V275H37.5A12.5 12.5 0 0 1 25 262.5V187.5A112.475 112.475 0 0 1 125 75.6999999999999V37.5A12.5 12.5 0 0 1 150 37.5V75H450V37.5A12.5 12.5 0 0 1 475 37.5V75.6999999999999A112.5 112.5 0 0 1 575 187.5V262.5A12.5 12.5 0 0 1 562.5 275H475V475A100 100 0 0 1 375 575z" />
    <glyph glyph-name="filled-content-carbondioxide"
      unicode="&#xEC20;"
      horiz-adv-x="600" d="M473.8749999999999 374.425C461.8750000000001 472 391.45 550 287.5 550C182.875 550 109.675 468.575 100.65 369.625C56.925 355.1 25 312.325 25 262.5A112.825 112.825 0 0 1 127.85 150.425A103.4 103.4 0 0 0 124.925 174.875C124.925 227.35 165.05 274.875 220.45 274.875C239.975 274.875 258.05 268.725 272.975 258.425C279.05 254.2250000000001 283.5250000000001 248.5750000000001 286.2 242.2500000000001C302.05 261.725 325.175 274.875 353.5750000000001 274.875C409.25 274.875 444.6500000000001 224.275 444.6500000000001 174.875V173.2000000000001C448.925 174.1000000000001 453.3 174.65 457.775 174.85H458.7C473.05 174.85 489.3 171.55 502.5749999999999 160.925A65 65 0 0 0 505.3999999999999 158.525A112.875 112.875 0 0 1 575.05 262.5A112.85 112.85 0 0 1 473.925 374.425zM220.45 224.875C229.275 224.875 237.55 222.125 244.6 217.25A12.5 12.5 0 1 1 258.775 237.825A67.35 67.35 0 0 1 220.425 249.85C180.625 249.85 149.9 215.375 149.9 174.85S180.625 99.85 220.425 99.85C234.6 99.85 247.775 104.3 258.775 111.8750000000001A12.5 12.5 0 1 1 244.6 132.4500000000001A42.4 42.4 0 0 0 220.45 124.8250000000001C196.15 124.8250000000001 174.925 146.3250000000001 174.925 174.8250000000001S196.175 224.8250000000001 220.45 224.8250000000001zM353.5750000000001 249.875C315.35 249.875 287.5 214.425 287.5 174.875S315.35 99.8749999999999 353.5750000000001 99.8749999999999S419.6500000000001 135.3249999999999 419.6500000000001 174.875S391.8 249.875 353.5750000000001 249.875zM353.5750000000001 124.875C332.6250000000001 124.875 312.5 145.375 312.5 174.875S332.625 224.875 353.5750000000001 224.875S394.6500000000001 204.375 394.6500000000001 174.875S374.5250000000001 124.875 353.5750000000001 124.875zM493.7 117.375C493.7 128.35 489.25 137.275 481.35 143.025C474.05 148.325 465.125 150 457.225 150H456.725A49.575 49.575 0 0 1 432.8250000000001 142.725A12.5 12.5 0 0 1 445.7750000000001 121.3249999999999A24.45 24.45 0 0 0 457.5 125C462.225 124.9500000000001 465.175 123.9 466.6750000000001 122.825A4.15 4.15 0 0 0 468.05 121.225A8.875 8.875 0 0 0 468.75 117.375C468.75 115.7 467.75 112.275 464.1250000000001 107.05A100.225 100.225 0 0 0 450.775 92.075A199.75 199.75 0 0 0 432 76.525L430.75 75.625L430.45 75.4L430.375 75.35A12.475 12.475 0 0 1 425 65.0749999999999V62.4999999999999A12.5 12.5 0 0 1 437.5 49.9999999999999H481.25A12.5 12.5 0 0 1 481.25 74.9999999999999H469.1C474.55 80.2249999999999 480.225 86.3499999999999 484.6999999999999 92.8499999999999C489.275 99.4749999999999 493.7499999999999 108.0749999999998 493.7499999999999 117.3999999999999z" />
    <glyph glyph-name="filled-content-channel"
      unicode="&#xEA13;"
      horiz-adv-x="600" d="M300 37.5A262.5 262.5 0 1 0 562.5 300A262.75 262.75 0 0 0 300 37.5zM258.25 396.5A23 23 0 0 1 237.5 371.5V226.75A25 25 0 0 1 239.75 215.75A23 23 0 0 1 260.25 203A22.75 22.75 0 0 1 270.25 205.5L400.5 280.5A25 25 0 0 1 408.75 288.25A25 25 0 0 1 412 307A25 25 0 0 1 400.9999999999999 322.25L270.7499999999999 394.75A21.25 21.25 0 0 1 260.2499999999999 397.5H258.2499999999999z" />
    <glyph glyph-name="filled-content-childfriendly"
      unicode="&#xEB8F;"
      horiz-adv-x="600" d="M353.6500000000001 546.35A12.5 12.5 0 0 0 362.5 550C411.25 550 461.425 531.25 496.35 496.35C528.3 464.4 546.6999999999999 419.7000000000001 549.5999999999999 375H350V537.5C350 540.825 351.3250000000001 544 353.6500000000001 546.35zM100 350H550V312.5A112.5 112.5 0 0 0 437.5 200H212.5A112.5 112.5 0 0 0 100 312.5V350zM125 375H100V437.5A37.5 37.5 0 0 1 62.5 475A12.5 12.5 0 0 0 62.5 500A62.5 62.5 0 0 0 125 437.5V375zM275 112.5A62.5 62.5 0 1 0 150 112.5A62.5 62.5 0 0 0 275 112.5zM212.5 87.5A25 25 0 1 1 212.5 137.5A25 25 0 0 1 212.5 87.5zM500 112.5A62.5 62.5 0 1 0 375 112.5A62.5 62.5 0 0 0 500 112.5zM437.5 87.5A25 25 0 1 1 437.5 137.5A25 25 0 0 1 437.5 87.5z" />
    <glyph glyph-name="filled-content-christmasstocking"
      unicode="&#xEBE8;"
      horiz-adv-x="600" d="M137.5 575H537.5A12.5 12.5 0 0 0 550 562.5V437.5A12.5 12.5 0 0 0 537.5 425H137.5A12.5 12.5 0 0 0 125 437.5V562.5A12.5 12.5 0 0 0 137.5 575zM200 342.7750000000001L115.325 260.1L115.2 259.975A137.875 137.875 0 0 1 115.2 65.3250000000001A137.15 137.15 0 0 1 309.475 65.3250000000001H309.5L471.3749999999999 228.7A12.5 12.5 0 0 1 475 237.5V400H200V342.7750000000001z" />
    <glyph glyph-name="filled-content-christmastree"
      unicode="&#xEBE9;"
      horiz-adv-x="600" d="M310.25 569.675A12.475 12.475 0 0 1 289.75 569.675L114.75 319.675A12.5 12.5 0 0 1 124.975 300H181.225L64.975 145A12.475 12.475 0 0 1 74.975 124.9999999999999H274.975V74.9999999999999H174.975A25 25 0 0 1 174.975 24.9999999999999H424.975A25 25 0 0 1 424.975 74.9999999999999H324.975V124.9999999999999H524.975A12.5 12.5 0 0 1 534.9749999999999 145L418.7249999999999 299.9999999999999H474.9749999999999A12.5 12.5 0 0 1 485.2249999999999 319.675L310.2499999999999 569.675z" />
    <glyph glyph-name="filled-content-crueltyfreebunny"
      unicode="&#xEBEA;"
      horiz-adv-x="600" d="M469.75 220.125C456.8 230.525 444.675 241.475 432.575 252.4L430.475 254.3C424.675 259.525 418.875 264.7750000000001 412.9999999999999 269.85A1.225 1.225 0 0 1 412.4999999999999 270.3750000000001C424.9999999999999 285.375 462.4999999999999 332.5 472.4999999999999 385.0000000000001C484.9999999999999 447.5000000000001 497.4999999999999 557.5000000000001 497.4999999999999 560C497.4999999999999 565 497.4999999999999 567.5 492.4999999999999 572.5C489.9999999999999 575 484.9999999999999 575 479.9999999999999 572.5C474.9999999999999 572.5 349.9999999999999 520 322.4999999999999 452.5000000000001C307.0249999999999 413.8000000000001 300.5249999999999 372.1 298.3749999999999 343.6500000000001A483.75 483.75 0 0 1 296.7749999999999 359.2750000000001C293.5749999999999 386.3750000000001 287.1749999999999 421.9500000000001 274.0999999999999 454.65C266.8249999999999 472.8750000000001 252.6999999999999 489.2500000000001 236.7999999999999 503.325C220.7749999999999 517.5 202.0749999999999 530.075 184.4749999999999 540.475A550.825 550.825 0 0 1 122.8249999999999 571.725C121.0499999999999 572.5 119.6249999999999 573.075 118.6499999999999 573.475L117.5249999999999 573.9250000000001L117.2249999999999 574.0500000000001H117.1499999999999L117.0999999999999 574.1A12.425 12.425 0 0 1 100.0249999999999 561.125V560.95C101.0499999999999 548.625 109.7999999999999 472.8750000000001 119.6999999999999 415.475C121.4999999999999 404.625 123.3499999999999 394.3000000000001 125.1999999999999 385.05C131.9249999999999 351.4500000000001 148.5749999999999 321.725 163.1249999999999 300.7C168.8249999999999 292.45 174.2999999999999 285.425 178.8499999999999 279.925C181.2499999999999 276.9500000000001 183.3249999999999 272.3250000000001 184.9499999999999 270.35C184.3749999999999 269.7750000000001 184.5249999999999 269.05 185.2499999999999 268.175C180.3999999999999 263.925 175.5749999999999 259.5750000000001 170.6999999999999 255.175L169.0999999999999 253.725C156.6999999999999 242.5500000000001 144.0499999999999 231.1500000000001 130.2999999999999 220.1C111.1249999999999 204.7 101.6499999999999 179.7500000000001 100.1499999999999 154.2500000000001A132.75 132.75 0 0 1 119.7499999999999 77.1500000000001C134.5499999999999 53.5500000000001 157.8749999999999 34.475 189.7749999999999 27.625C220.1999999999999 21.1 257.0499999999999 25.975 299.9749999999999 46.45C342.8999999999999 26 379.7499999999999 21.1 410.1999999999999 27.625C442.0999999999999 34.475 465.4249999999998 53.55 480.2249999999999 77.1500000000001A132.925 132.925 0 0 1 499.8249999999999 154.2500000000001C498.3249999999999 179.7750000000001 488.8499999999999 204.7000000000001 469.6749999999999 220.1zM162.025 392.4C155.95 422.75 149.8 465.775 145.125 501.675L142.675 520.775C149.85 517.025 157.55 512.8 165.425 508.175C181.825 498.475 198.35 487.275 211.975 475.225C225.875 462.925 235.125 451.175 239.325 440.725C250.675 412.35 256.875 379.35 260.175 352.725C261.8 339.55 262.7 328.275 263.15 320.3L263.2 319.525C246.225 314.4 230.275 305.775 214.5 294.55L214.1999999999999 294.8999999999999A309.925 309.925 0 0 0 195.875 319.0249999999999C181.725 339.625 167.35 365.95 162.05 392.4zM225 149.9A25 25 0 1 0 225 199.9A25 25 0 0 0 225 149.9zM344.425 102.175L306.925 77.175A12.5 12.5 0 0 0 293.05 77.175L255.5500000000001 102.175A12.5 12.5 0 0 0 262.5000000000001 125.075H337.5000000000001A12.5 12.5 0 0 0 344.4500000000001 102.175zM375.3 149.9A25 25 0 1 0 375.3 199.9A25 25 0 0 0 375.3 149.9zM406.0000000000001 322.05C399.5500000000001 312.75 393.5000000000001 305.25 389.0750000000001 300.125C387.5000000000001 298.2999999999999 386.1500000000001 296.7999999999999 385.0750000000001 295.6A141.4 141.4 0 0 1 338.8000000000001 319.25L337.7250000000001 320.6499999999999L337.8750000000001 323.95C338.2500000000001 331.4999999999999 338.9750000000002 342.2499999999999 340.4750000000001 354.8749999999999C343.4750000000001 380.3749999999999 349.3750000000001 412.325 360.7250000000001 440.7C364.9000000000001 451.1499999999999 374.1500000000001 462.8999999999999 388.0500000000001 475.1999999999999C401.6750000000001 487.2499999999999 418.2000000000001 498.4499999999999 434.6000000000001 508.1499999999999C442.4500000000001 512.8 450.1750000000002 517.0249999999999 457.3500000000001 520.7499999999999L454.9000000000001 501.6499999999999C450.2250000000001 465.7499999999999 444.0500000000002 422.7249999999999 437.9750000000002 392.3749999999999C432.6500000000001 365.7999999999999 419.0750000000002 340.8999999999999 406.0000000000001 322.0249999999999z" />
    <glyph glyph-name="filled-content-daynight"
      unicode="&#xEBEB;"
      horiz-adv-x="600" d="M412.5 500H425V487.5A12.5 12.5 0 0 1 450 487.5V500H462.5A12.5 12.5 0 0 1 462.5 525H450V537.5A12.5 12.5 0 0 1 425 537.5V525H412.5A12.5 12.5 0 0 1 412.5 500zM533.1 328.0250000000001C523.8000000000001 324.55 512.85 323.2000000000001 501.0000000000001 323.2000000000001C430.7250000000001 323.2000000000001 373.2000000000001 380.75 373.2000000000001 451C373.2000000000001 462.825 374.5250000000001 473.8 378.0250000000001 483.1A12.5 12.5 0 0 1 363.225 499.6A151.025 151.025 0 0 1 250 352.8C250 268.725 318.725 200 402.8 200A151.025 151.025 0 0 1 549.5999999999999 313.225A12.525 12.525 0 0 1 533.0999999999999 328.0250000000001zM225 352.8C225 360.3 225.475 367.7000000000001 226.375 374.975H225A125 125 0 1 1 334.05 188.85C270.1 215.825 225 279.25 225 352.775zM62.5 250.175H37.5A12.5 12.5 0 0 1 37.5 225.175H62.5A12.5 12.5 0 0 1 62.5 250.175zM100 141.975L82.325 124.3A12.5 12.5 0 0 1 100 106.6249999999999L117.675 124.3A12.5 12.5 0 0 1 100 141.975zM91.175 353.75A12.5 12.5 0 0 1 108.85 371.4250000000001L91.175 389.1A12.5 12.5 0 0 1 73.5 371.4250000000001L91.175 353.75zM212.5 100A12.5 12.5 0 0 1 200 87.5V62.5A12.5 12.5 0 0 1 225 62.5V87.5A12.5 12.5 0 0 1 212.5 100zM346.225 130.375A12.5 12.5 0 0 1 328.55 112.7L346.225 95.025A12.5 12.5 0 0 1 363.9000000000001 112.7L346.225 130.375zM212.5 400A12.5 12.5 0 0 1 225 412.5V437.5A12.5 12.5 0 0 1 200 437.5V412.5A12.5 12.5 0 0 1 212.5 400zM562.5 425H550V437.5A12.5 12.5 0 0 1 525 437.5V425H512.5A12.5 12.5 0 0 1 512.5 400H525V387.5A12.5 12.5 0 0 1 550 387.5V400H562.5A12.5 12.5 0 0 1 562.5 425z" />
    <glyph glyph-name="filled-content-design"
      unicode="&#xEB90;"
      horiz-adv-x="600" d="M282.3 435.375L146.35 571.35A12.5 12.5 0 0 1 128.675 571.35L28.65 471.35A12.5 12.5 0 0 1 28.65 453.675L164.625 317.7L282.3 435.375zM553.625 439.025L463.975 528.675A37.5 37.5 0 0 1 410.9500000000001 528.675L362.4750000000001 480.2L421.3250000000001 421.35A12.5 12.5 0 0 0 403.6500000000001 403.675L344.8000000000001 462.525L287.4750000000001 405.2000000000001L321.3250000000001 371.35A12.5 12.5 0 0 0 303.6500000000001 353.675L269.8000000000001 387.525L212.4750000000001 330.2L271.3250000000001 271.35A12.5 12.5 0 0 0 253.6500000000001 253.675L194.8 312.5249999999999L137.475 255.2L171.325 221.35A12.5 12.5 0 0 0 153.65 203.675L119.8 237.5249999999999L71.3 189.0249999999999A37.5 37.5 0 0 1 71.3 136L160.95 46.35A37.5 37.5 0 0 1 213.975 46.35L553.625 386A37.5 37.5 0 0 1 553.625 439.025zM549.75 164.95A12.275 12.275 0 0 1 546.3249999999999 171.3249999999999L460.3 257.3499999999999L342.65 139.65L428.6500000000001 53.65C430.4000000000001 51.9 432.625 50.7249999999999 435.025 50.2249999999999L560.025 25.2249999999999A12.475 12.475 0 0 1 574.75 39.9499999999999L549.75 164.9499999999999z" />
    <glyph glyph-name="filled-content-divulgation"
      unicode="&#xEA14;"
      horiz-adv-x="600" d="M538.25 416.25V178.75A70 70 0 0 0 468.25 108.7499999999999H359.25L442.5000000000001 131.2499999999999A89 89 0 0 1 505.5000000000001 239.9999999999999L444.5 466.9999999999999A87 87 0 0 1 436.5 486.2499999999999H468.25A70 70 0 0 0 538.25 416.2499999999999zM225 413L231.75 390L273.5 400L267.25 425zM487.2500000000001 235L426.5000000000001 462A70.5 70.5 0 0 1 340.5000000000001 512L113.5 450A70.75 70.75 0 0 1 71 417.25A69 69 0 0 1 64.25 365L125 138A70.25 70.25 0 0 1 192.75 86A63.75 63.75 0 0 1 210.75 88.5L437.7500000000001 150A70.25 70.25 0 0 1 487.2500000000001 235zM244.2500000000001 152.5L226.2500000000001 147.7499999999999C221.5 146.25 209.5 142.9999999999999 205.75 156.5L200 175A22.25 22.25 0 0 0 194 185.5000000000001L170.5 259.25A22.75 22.75 0 0 1 167.5 267.0000000000001L155.75 288.75A33.25 33.25 0 0 0 155.75 293.5A28.25 28.25 0 0 0 152.75 298.75L147.75 316.25A16.5 16.5 0 0 0 155.75 337L190 346.25A6 6 0 0 0 197.25 342.25A6 6 0 0 0 193 335L160.5 325A3 3 0 0 1 158.25 321.25L163.75 302.25L198.25 311.75A11 11 0 0 0 212 304L252 168.5000000000001A13.5 13.5 0 0 0 244.25 152.5000000000001zM355.75 182.5L277.5000000000001 161A13.25 13.25 0 0 0 262.5000000000001 172.5L228.5000000000001 295A136.75 136.75 0 0 0 224.2500000000001 354.5A73.5 73.5 0 0 1 219 379.5A6.25 6.25 0 0 0 219 384.25A4.75 4.75 0 0 0 222.7500000000001 387L216.5000000000001 409.75L195.7500000000001 404H193.7500000000001A6 6 0 0 0 187.2500000000001 409.25A6 6 0 0 0 192.5000000000001 415.75L279.2500000000001 440.75A5.75 5.75 0 0 0 282.25 429.5H279L285.5 406.75A5.5 5.5 0 0 0 290.25 406.75A5.75 5.75 0 0 0 292.75 403A75 75 0 0 1 303 378A136.75 136.75 0 0 0 329.25 325.5L363 200A13.25 13.25 0 0 0 355.75 182.5zM411.75 198.2499999999999L379.75 189.4999999999999A5.5 5.5 0 0 0 372.5 193.4999999999999L347.5 311.4999999999999A6 6 0 0 0 351.5 318.7499999999999L372.5 324.9999999999999L366.25 347.9999999999999A5 5 0 0 1 363.25 351.7499999999999H361.5L347.5 335.2499999999999A5.5 5.5 0 0 0 339.5 335.2499999999999A6 6 0 0 0 339.5 343.4999999999999L353.75 359.9999999999999A9.75 9.75 0 0 0 360.5 363.7499999999999A12.5 12.5 0 0 0 368.5 363.7499999999999A16.5 16.5 0 0 0 378.5 352.2499999999999L385.75 327.2499999999999A17 17 0 0 0 392.5 317.4999999999999L401.5 284.9999999999998A23 23 0 0 0 406.25 276.7499999999998L421.75 220.7499999999998A15.25 15.25 0 0 0 411.7500000000001 198.2499999999998z" />
    <glyph glyph-name="filled-content-dropper"
      unicode="&#xEB91;"
      horiz-adv-x="600" d="M530.825 530.775A65.5 65.5 0 0 1 438.15 530.775L384.5 477.125L373.5250000000001 488.1A37.5 37.5 0 0 1 320.5 488.1L300.675 468.275A12.5 12.5 0 0 1 300.675 450.6L316.8250000000001 434.45L204.4 322.025L203.6750000000001 321.35L203.0000000000001 320.625L188.1500000000001 305.7750000000001A12.75 12.75 0 0 1 184.9500000000001 300.35L150.4750000000001 178.425A12.55 12.55 0 0 1 165.9250000000001 162.975L287.9000000000001 197.4A12.475 12.475 0 0 1 293.35 200.6L422.0000000000001 329.2750000000001L450.6500000000001 300.6A12.5 12.5 0 0 1 468.3250000000001 300.6L488.1500000000001 320.425A37.5 37.5 0 0 1 488.1500000000001 373.4500000000001L477.1750000000001 384.425L530.825 438.0750000000001A65.5 65.5 0 0 1 530.825 530.75zM381.05 323.675L379.6500000000001 324.7A66.025 66.025 0 0 1 370.6 330A75.575 75.575 0 0 1 337.5250000000001 337.5C329.4000000000001 337.5 320.925 335.5 313.0500000000001 333C305.1750000000001 330.525 297.0000000000001 327.25 289.35 324.2L289.1250000000001 324.1C281.225 320.9500000000001 273.85 318 266.9500000000001 315.8250000000001C259.975 313.6250000000001 254.3750000000001 312.5 250 312.5C243.0000000000001 312.5 237.3 313.675 232.9 315.175L334.475 416.75L404.3 346.925L381.05 323.65zM153.75 123.125A242.8 242.8 0 0 1 135.65 144.4500000000001L134.35 145.8L133.975 146.175L133.875 146.2750000000001L133.8250000000001 146.3250000000001A12.5 12.5 0 0 1 116.125 146.3250000000001L116.0750000000001 146.2750000000001L115.9750000000001 146.175L115.6000000000001 145.8L114.3000000000001 144.4500000000001A249.225 249.225 0 0 1 96.2000000000001 123.125A148.175 148.175 0 0 1 82.1250000000001 100.9C78.2500000000001 93.175 74.9500000000001 84.0750000000001 74.9500000000001 75C74.9500000000001 57.85 83.6750000000001 45.15 93.7250000000001 37.15C103.3250000000001 29.525 115.3250000000001 25.1750000000001 124.9000000000001 25.25C135.5000000000001 25.1250000000001 147.6750000000001 29.325 157.2750000000001 37.2750000000001C167.2750000000001 45.575 174.9250000000001 58.3250000000001 174.9250000000001 75.0000000000001C174.9250000000001 84.0750000000001 171.6250000000001 93.1750000000001 167.7500000000001 100.9000000000002A149.45 149.45 0 0 1 153.6750000000001 123.1250000000001z" />
    <glyph glyph-name="filled-content-energy"
      unicode="&#xEBEC;"
      horiz-adv-x="600" d="M263.6 573.55A12.45 12.45 0 0 0 275.95 573.025C327.8 540.55 353.475 487.4 366.275 443.75C371.9 424.6 375.125 406.9500000000001 377 393.15L425.8250000000001 447.75A12.45 12.45 0 0 0 444.7750000000001 447.4C468.675 418.6 489.15 376.025 503.4 331.575C517.6750000000001 287.025 526.1 239.275 525.025 199.6499999999999C524.025 162.6 511.025 127.525 490.8 97.3749999999999A198.8 198.8 0 0 0 408.6499999999999 27.4749999999999A12.475 12.475 0 0 0 390.95 38.8499999999999V39.0499999999998C389.4249999999999 67.9499999999998 373.1749999999999 105.7499999999998 356.5499999999999 131.8999999999998C348.7249999999999 144.1999999999998 335.55 159.1249999999998 320.625 172.9499999999998C311.175 181.6999999999998 301.325 189.6999999999998 292.0999999999999 196.1499999999998C291.275 191.7749999999998 290.325 187.1499999999999 289.275 182.5749999999998C286.575 170.6749999999999 282.85 156.9249999999999 278.425 149.1249999999998A115.55 115.55 0 0 0 248.775 115.0000000000001A113.75 113.75 0 0 1 209.225 36.65A12.5 12.5 0 0 0 191.125 26.4A211.5 211.5 0 0 0 75.075 216.7500000000001C75.45 267.8250000000001 95.775 316.7500000000001 120.625 357C145.525 397.3250000000001 175.6 430 197.025 448.85A157.6 157.6 0 0 1 256.925 563.2A12.475 12.475 0 0 0 263.675 573.55z" />
    <glyph glyph-name="filled-content-exfoliator"
      unicode="&#xEBED;"
      horiz-adv-x="600" d="M500 436.4500000000001C500 450 494.55 465.925 486.175 482.3C477.825 498.65 466.65 515.275 455.45 530.175A592.925 592.925 0 0 1 424.625 567.7L421.775 570.875A12.5 12.5 0 0 1 403.225 570.875L400.375 567.7C391.9749999999999 558.25 380.75 545.1 369.5499999999999 530.175C358.3499999999999 515.25 347.1749999999999 498.65 338.825 482.3C330.45 465.925 325 450 325 436.4500000000001C325 381.625 368.75 350 412.5 350S500 381.625 500 436.4500000000001zM400 400A25 25 0 1 0 400 450A25 25 0 0 0 400 400zM412.5 475A12.5 12.5 0 1 0 412.5 500A12.5 12.5 0 0 0 412.5 475zM297.9000000000001 305.3A957.45 957.45 0 0 1 243.6250000000001 370.9A12.5 12.5 0 0 1 225.075 370.9L220.475 365.775A943.9 943.9 0 0 1 170.825 305.3C152.75 281.25 134.9 254.65 121.6 228.625C108.175 202.4 99.975 177.85 99.975 157.675C99.975 73.6 166.825 25 234.35 25S368.725 73.6 368.725 157.6750000000001C368.725 177.85 360.5250000000001 202.4 347.1 228.6250000000001C333.8 254.6500000000001 315.925 281.2500000000001 297.875 305.3000000000001zM200 100A25 25 0 1 0 200 150A25 25 0 0 0 200 100zM237.5 225A12.5 12.5 0 1 0 237.5 250A12.5 12.5 0 0 0 237.5 225zM275 150A25 25 0 1 0 275 200A25 25 0 0 0 275 150zM112.5 337.5A25 25 0 0 0 137.5 362.5A12.5 12.5 0 0 1 137.5 387.5A25 25 0 0 0 112.5 412.5A12.5 12.5 0 0 1 87.5 412.5A25 25 0 0 0 62.5 387.5A12.5 12.5 0 0 1 62.5 362.5A25 25 0 0 0 87.5 337.5A12.5 12.5 0 0 1 112.5 337.5zM212.5 487.5A25 25 0 0 0 237.5 462.5A12.5 12.5 0 0 1 262.5 462.5A25 25 0 0 0 287.5 487.5A12.5 12.5 0 0 1 287.5 512.5A25 25 0 0 0 262.5 537.5A12.5 12.5 0 0 1 237.5 537.5A25 25 0 0 0 212.5 512.5A12.5 12.5 0 0 1 212.5 487.5zM537.5 212.5A25 25 0 0 0 512.5 237.5A12.5 12.5 0 0 1 487.5 237.5A25 25 0 0 0 462.5 212.5A12.5 12.5 0 0 1 462.5 187.5A25 25 0 0 0 487.5 162.5A12.5 12.5 0 0 1 512.5 162.5A25 25 0 0 0 537.5 187.5A12.5 12.5 0 0 1 537.5 212.5z" />
    <glyph glyph-name="filled-content-farmrows"
      unicode="&#xEBEE;"
      horiz-adv-x="600" d="M300 475A25 25 0 0 1 325 500V550A25 25 0 0 1 275 550V500A25 25 0 0 1 300 475zM148.275 429.925A24.975 24.975 0 1 1 183.625 465.275L148.275 500.625A24.975 24.975 0 1 1 112.925 465.275L148.275 429.925zM50 300H100A25 25 0 0 1 100 350H50A25 25 0 0 1 50 300zM475 325A25 25 0 0 1 500 300H550A25 25 0 0 1 550 350H500A25 25 0 0 1 475 325zM457.975 429.925L493.325 465.275A24.975 24.975 0 1 1 457.975 500.625L422.625 465.275A24.975 24.975 0 1 1 457.975 429.925zM575 200A25 25 0 0 1 550 225H50A25 25 0 0 1 50 175H121.625L30.8 66A25 25 0 1 1 69.2 34L186.7 175H215.3L176.275 57.9A25 25 0 0 1 223.7 42.075L268 174.975H331.95L376.25 42.075A25 25 0 1 1 423.7 57.9L384.675 175H413.275L530.775 34A25 25 0 1 1 569.175 66L478.35 175H549.975A25 25 0 0 1 574.975 200zM177.525 275H422.475A125 125 0 1 1 177.525 275z" />
    <glyph glyph-name="filled-content-gauge"
      unicode="&#xEB2F;"
      horiz-adv-x="600" d="M502.5000000000001 377.5C485.0000000000001 407.5 465.0000000000001 432.5 442.5000000000001 450L297.5000000000001 257.5C295.0000000000001 255 292.5000000000001 252.5000000000001 287.5000000000001 252.5000000000001C285.0000000000001 252.5000000000001 282.5000000000001 252.5000000000001 280 255C275.0000000000001 260 272.5 267.5 277.5000000000001 272.5C277.5000000000001 272.5 422.5000000000001 462.5 422.5000000000001 465C400.0000000000001 480 345.0000000000001 505 272.5000000000001 497.5C217.5000000000001 492.5 165.0000000000001 465 130.0000000000001 420C92.5 377.5 72.5000000000001 320 75 265.0000000000001C75 237.5000000000001 82.5 207.5 92.5 182.5C105 152.5000000000001 122.5000000000001 125 145.0000000000001 102.5000000000001H460.0000000000001C502.5000000000001 145 527.5 202.5000000000001 527.5 267.5C527.5 307.5 520 345 502.5000000000001 377.5zM442.5 452.5L489.9999999999999 512.5C494.9999999999999 517.5 492.5 525 487.4999999999999 527.5C482.4999999999999 532.5 474.9999999999999 530 469.9999999999999 525L425 465L442.5 452.5z" />
    <glyph glyph-name="filled-content-generativeai"
      unicode="&#xEC42;"
      horiz-adv-x="600" d="M537.5 450A87.5 87.5 0 0 0 450 537.5A12.5 12.5 0 0 1 425 537.5A87.5 87.5 0 0 0 337.5 450A12.5 12.5 0 0 1 337.5 425A87.5 87.5 0 0 0 425 337.5A12.5 12.5 0 0 1 450 337.5A87.5 87.5 0 0 0 537.5 425A12.5 12.5 0 0 1 537.5 450zM375 287.5A12.5 12.5 0 0 1 362.5 300A137.5 137.5 0 0 0 225 437.5A12.5 12.5 0 0 1 200 437.5A137.5 137.5 0 0 0 62.5 300A12.5 12.5 0 0 1 62.5 275A137.5 137.5 0 0 0 200 137.5A12.5 12.5 0 0 1 225 137.5A137.5 137.5 0 0 0 362.5 275A12.5 12.5 0 0 1 375 287.5zM487.5 150A62.5 62.5 0 0 0 425 212.5A12.5 12.5 0 0 1 400 212.5A62.5 62.5 0 0 0 337.5 150A12.5 12.5 0 0 1 337.5 125A62.5 62.5 0 0 0 400 62.5A12.5 12.5 0 0 1 425 62.5A62.5 62.5 0 0 0 487.5 125A12.5 12.5 0 0 1 487.5 150z" />
    <glyph glyph-name="filled-content-giftpricefair"
      unicode="&#xEBEF;"
      horiz-adv-x="600" d="M387.5 512.5A25 25 0 0 0 412.5 487.5A12.5 12.5 0 0 1 437.5 487.5A25 25 0 0 0 462.5 512.5A12.5 12.5 0 0 1 462.5 537.5A25 25 0 0 0 437.5 562.5A12.5 12.5 0 0 1 412.5 562.5A25 25 0 0 0 387.5 537.5A12.5 12.5 0 0 1 387.5 512.5zM272.05 410.9L267.2 381.3A5.75 5.75 0 0 1 267.525 378.4000000000001A5.1 5.1 0 0 1 271.9 375.075A4.85 4.85 0 0 1 274.65 375.7000000000001L300.025 389.625L325.375 375.6500000000001A4.95 4.95 0 0 1 329.9 375.5250000000001A5 5 0 0 1 331.65 376.925A5.65 5.65 0 0 1 332.775 381.3L327.925 410.9000000000001L348.425 431.875A5.525 5.525 0 0 1 349.7249999999999 437.4A5.5 5.5 0 0 1 348.175 439.85A4.975 4.975 0 0 1 345.625 441.0750000000001L317.2999999999999 445.375L304.625 472.25A5.675 5.675 0 0 1 302.675 474.3A5.1 5.1 0 0 1 297.325 474.3A5.675 5.675 0 0 1 295.375 472.25L282.7 445.375L254.375 441.0750000000001A5.1 5.1 0 0 1 250.2249999999999 437.425A5.625 5.625 0 0 1 251.5249999999999 431.9L272.0249999999999 410.9250000000001zM87.5 462.5A25 25 0 0 0 112.5 437.5A12.5 12.5 0 0 1 137.5 437.5A25 25 0 0 0 162.5 462.5A12.5 12.5 0 0 1 162.5 487.5A25 25 0 0 0 137.5 512.5A12.5 12.5 0 0 1 112.5 512.5A25 25 0 0 0 87.5 487.5A12.5 12.5 0 0 1 87.5 462.5zM200 550A25 25 0 0 1 250 550A25 25 0 0 1 200 550M475 425A25 25 0 0 1 525 425A25 25 0 0 1 475 425M548.675 293.1L511.325 367.8A12.475 12.475 0 0 1 503.025 374.625L384.525 404.25A87.3 87.3 0 0 0 374.475 381L453.825 361.175L300 313.1L146.175 361.175L225.5250000000001 381A86.5 86.5 0 0 0 215.4750000000001 404.25L96.975 374.625A12.55 12.55 0 0 1 88.825 368.075L51.325 293.075A12.5 12.5 0 0 1 58.125 275.7999999999999L258.125 200.7999999999999A12.55 12.55 0 0 1 274 207.5749999999999L300 268.275L326 207.5750000000001A12.5 12.5 0 0 1 341.875 200.8L541.8749999999999 275.8A12.575 12.575 0 0 1 549.1249999999999 282.925C549.3 283.325 549.425 283.75 549.5499999999998 284.175A12.375 12.375 0 0 1 548.6749999999998 293.0750000000001zM312.5 184.55V62.5A12.5 12.5 0 0 0 287.5 62.5V184.55A37.5 37.5 0 0 0 249.325 177.3999999999999L100 233.4000000000001V112.5A12.5 12.5 0 0 1 107.85 100.9L295.35 25.9000000000001A12.55 12.55 0 0 1 304.7750000000001 25.95L492.15 100.9A12.5 12.5 0 0 1 500 112.5V233.4000000000001L350.675 177.4A37.5 37.5 0 0 0 312.5000000000001 184.55z" />
    <glyph glyph-name="filled-content-giftpricegreat"
      unicode="&#xEBF0;"
      horiz-adv-x="600" d="M437.5 512.5A25 25 0 0 0 462.5 487.5A12.5 12.5 0 0 1 487.5 487.5A25 25 0 0 0 512.5 512.5A12.5 12.5 0 0 1 512.5 537.5A25 25 0 0 0 487.5 562.5A12.5 12.5 0 0 1 462.5 562.5A25 25 0 0 0 437.5 537.5A12.5 12.5 0 0 1 437.5 512.5zM548.675 293.1L511.325 367.8A12.475 12.475 0 0 1 503.025 374.625L424.6499999999999 394.225C423.65 385.525 420.3999999999999 377.5 415.525 370.725L453.8 361.1500000000001L299.975 313.0750000000001L146.15 361.1500000000001L260.425 389.725A96.875 96.875 0 0 1 253.525 413.7750000000001L96.925 374.625A12.625 12.625 0 0 1 88.775 368.075L51.275 293.075A12.5 12.5 0 0 1 58.075 275.8L258.075 200.8A12.55 12.55 0 0 1 273.95 207.575L299.9500000000001 268.275L325.95 207.5749999999999A12.5 12.5 0 0 1 341.825 200.7999999999999L541.825 275.7999999999999A12.575 12.575 0 0 1 549.075 282.9249999999999C549.2500000000001 283.325 549.375 283.7499999999999 549.5 284.175A12.375 12.375 0 0 1 548.625 293.075zM87.5 487.5A25 25 0 0 0 112.5 462.5A12.5 12.5 0 0 1 137.5 462.5A25 25 0 0 0 162.5 487.5A12.5 12.5 0 0 1 162.5 512.5A25 25 0 0 0 137.5 537.5A12.5 12.5 0 0 1 112.5 537.5A25 25 0 0 0 87.5 512.5A12.5 12.5 0 0 1 87.5 487.5zM225 550A25 25 0 0 1 275 550A25 25 0 0 1 225 550M350 400A25 25 0 0 1 400 400A25 25 0 0 1 350 400M312.5 184.55V62.5A12.5 12.5 0 0 0 287.5 62.5V184.55A37.5 37.5 0 0 0 249.325 177.3999999999999L100 233.4000000000001V112.5A12.5 12.5 0 0 1 107.85 100.9L295.35 25.9000000000001A12.55 12.55 0 0 1 304.7750000000001 25.95L492.15 100.9A12.5 12.5 0 0 1 500 112.5V233.4000000000001L350.675 177.4A37.5 37.5 0 0 0 312.5000000000001 184.55zM243.575 486.4A59.95 59.95 0 0 1 240.875 487.075L240.025 487.25L239.725 487.3H239.6L239.5 487.325A12.475 12.475 0 0 1 235.35 462.675L235.525 462.625A43.375 43.375 0 0 0 242.25 460.325C246.95 458.275 253.425 454.6 259.9749999999999 448.1500000000001C272.8 435.55 287.4749999999999 410.85 287.4749999999999 362.475A12.5 12.5 0 0 1 312.4749999999999 362.475C312.4749999999999 410.25 329.875 441.7750000000001 346.925 461.375C355.5 471.25 364.075 478.175 370.4249999999999 482.6A103.5 103.5 0 0 0 379.8999999999999 488.425L380.3249999999999 488.625H380.3749999999999A12.5 12.5 0 0 1 369.6749999999999 511.25H369.6249999999999L369.5249999999999 511.175L369.2749999999999 511.05L368.4499999999999 510.625A121.9 121.9 0 0 1 356.1499999999999 503.1A154.575 154.575 0 0 1 328.0749999999999 477.75A160.65 160.65 0 0 1 300.1999999999999 431.925A104.125 104.125 0 0 1 277.5249999999999 465.975A84.75 84.75 0 0 1 252.2749999999999 483.225A65.125 65.125 0 0 1 243.5749999999999 486.35z" />
    <glyph glyph-name="filled-content-giftpricehigh"
      unicode="&#xEBF1;"
      horiz-adv-x="600" d="M327.575 494.875L321.5 457.875A6.9 6.9 0 0 1 324.05 451.375C325 450.625 326.15 450.175 327.35 450.1A5.95 5.95 0 0 1 330.8 450.875L362.5 468.275L394.2000000000001 450.8A5.95 5.95 0 0 1 397.175 450.025A6.375 6.375 0 0 1 403.35 454.975A6.675 6.675 0 0 1 403.475 457.875L397.425 494.875L423.05 521.075C423.8999999999999 521.95 424.525 523.075 424.8 524.275S425.05 526.775 424.675 527.975C424.3 529.175 423.625 530.225 422.725 531.025S420.725 532.375 419.55 532.55L384.15 537.925L368.3 571.525A6.625 6.625 0 0 1 362.55 575.025A6.25 6.25 0 0 1 359.225 574.075A6.775 6.775 0 0 1 356.8 571.525L340.95 537.925L305.55 532.55A6.25 6.25 0 0 1 302.35 531.05A6.9 6.9 0 0 1 302 521.1L327.625 494.9zM511.325 367.8A12.55 12.55 0 0 1 503.05 374.625L336.85 416.175A87.65 87.65 0 0 0 330.2750000000001 392.05L453.825 361.15L300 313.075L146.175 361.15L183.2 370.4A87.425 87.425 0 0 0 169.425 392.725L96.95 374.6A12.575 12.575 0 0 1 88.8 368.05L51.3 293.05A12.5 12.5 0 0 1 58.1 275.775L258.1 200.775A12.55 12.55 0 0 1 273.975 207.55L299.975 268.25L325.975 207.55A12.5 12.5 0 0 1 341.85 200.775L541.85 275.775A12.575 12.575 0 0 1 549.0999999999999 282.9C549.275 283.3 549.4 283.725 549.525 284.15A12.375 12.375 0 0 1 548.65 293.05L511.3 367.775zM222.05 410.9L217.2 381.3A5.5 5.5 0 0 1 219.25 376.1A4.9 4.9 0 0 1 224.65 375.7000000000001L250.025 389.625L275.375 375.6500000000001A4.95 4.95 0 0 1 279.9 375.5250000000001A5 5 0 0 1 281.65 376.925A5.65 5.65 0 0 1 282.775 381.3L277.925 410.9000000000001L298.425 431.875A5.525 5.525 0 0 1 299.7249999999999 437.4A5.5 5.5 0 0 1 298.175 439.85A4.975 4.975 0 0 1 295.625 441.0750000000001L267.2999999999999 445.375L254.6249999999999 472.25A5.675 5.675 0 0 1 252.675 474.3A5.1 5.1 0 0 1 247.325 474.3A5.5 5.5 0 0 1 245.375 472.25L232.7 445.375L204.375 441.0750000000001A5.1 5.1 0 0 1 200.2249999999999 437.425A5.625 5.625 0 0 1 201.5249999999999 431.9L222.0249999999999 410.9250000000001zM25 425A25 25 0 0 1 75 425A25 25 0 0 1 25 425M525 550A25 25 0 0 1 575 550A25 25 0 0 1 525 550M537.5 462.5A25 25 0 0 0 512.5 487.5A12.5 12.5 0 0 1 487.5 487.5A25 25 0 0 0 462.5 462.5A12.5 12.5 0 0 1 462.5 437.5A25 25 0 0 0 487.5 412.5A12.5 12.5 0 0 1 512.5 412.5A25 25 0 0 0 537.5 437.5A12.5 12.5 0 0 1 537.5 462.5zM87.5 512.5A25 25 0 0 0 112.5 487.5A12.5 12.5 0 0 1 137.5 487.5A25 25 0 0 0 162.5 512.5A12.5 12.5 0 0 1 162.5 537.5A25 25 0 0 0 137.5 562.5A12.5 12.5 0 0 1 112.5 562.5A25 25 0 0 0 87.5 537.5A12.5 12.5 0 0 1 87.5 512.5zM312.5 184.55V62.5A12.5 12.5 0 0 0 287.5 62.5V184.55A37.5 37.5 0 0 0 249.325 177.3999999999999L100 233.4000000000001V112.5A12.5 12.5 0 0 1 107.85 100.9L295.35 25.9000000000001A12.55 12.55 0 0 1 304.7750000000001 25.95L492.15 100.9A12.5 12.5 0 0 1 500 112.5V233.4000000000001L350.675 177.4A37.5 37.5 0 0 0 312.5000000000001 184.55z" />
    <glyph glyph-name="filled-content-giftpricespecial"
      unicode="&#xEBF2;"
      horiz-adv-x="600" d="M236.65 430.65L225.875 364.525A12.45 12.45 0 0 1 244.2750000000001 351.575L300.0250000000001 382.4L355.7750000000001 351.575A12.5 12.5 0 0 1 374.1750000000001 364.525L363.4000000000001 430.65L409.0000000000001 477.375A12.475 12.475 0 0 1 401.9250000000001 498.475L339.4250000000001 508.025L311.3500000000001 567.8249999999999A12.5 12.5 0 0 1 288.7000000000001 567.8249999999999L260.6250000000001 508.025L198.1250000000001 498.475A12.525 12.525 0 0 1 191.0500000000001 477.375L236.6500000000001 430.65zM511.325 367.825A12.5 12.5 0 0 1 503.05 374.625L393.35 402.05L397.725 375.175L453.8 361.15L299.9750000000001 313.075L146.1500000000001 361.15L202.2500000000001 375.175L206.6250000000001 402.05L97 374.65L96.675 374.5750000000001A12.55 12.55 0 0 1 88.775 368.1L51.275 293.1A12.5 12.5 0 0 1 58.075 275.825L258.075 200.825A12.55 12.55 0 0 1 273.95 207.6L299.9500000000001 268.3L325.95 207.6A12.5 12.5 0 0 1 341.825 200.8249999999999L541.825 275.825A12.575 12.575 0 0 1 549.075 282.95C549.2500000000001 283.35 549.375 283.7749999999999 549.5 284.2A12.375 12.375 0 0 1 548.625 293.1L511.25 367.825zM25 425A25 25 0 0 1 75 425A25 25 0 0 1 25 425M525 550A25 25 0 0 1 575 550A25 25 0 0 1 525 550M87.5 512.5A25 25 0 0 0 112.5 487.5A12.5 12.5 0 0 1 137.5 487.5A25 25 0 0 0 162.5 512.5A12.5 12.5 0 0 1 162.5 537.5A25 25 0 0 0 137.5 562.5A12.5 12.5 0 0 1 112.5 562.5A25 25 0 0 0 87.5 537.5A12.5 12.5 0 0 1 87.5 512.5zM437.5 437.5A25 25 0 0 0 462.5 412.5A12.5 12.5 0 0 1 487.5 412.5A25 25 0 0 0 512.5 437.5A12.5 12.5 0 0 1 512.5 462.5A25 25 0 0 0 487.5 487.5A12.5 12.5 0 0 1 462.5 487.5A25 25 0 0 0 437.5 462.5A12.5 12.5 0 0 1 437.5 437.5zM312.5 184.55V62.5A12.5 12.5 0 0 0 287.5 62.5V184.55A37.5 37.5 0 0 0 249.325 177.3999999999999L100 233.4000000000001V112.5A12.5 12.5 0 0 1 107.85 100.9L295.35 25.9000000000001A12.55 12.55 0 0 1 304.7750000000001 25.95L492.15 100.9A12.5 12.5 0 0 1 500 112.5V233.4000000000001L350.675 177.4A37.5 37.5 0 0 0 312.5000000000001 184.55z" />
    <glyph glyph-name="filled-content-gymdumbbell"
      unicode="&#xEB92;"
      horiz-adv-x="600" d="M535.225 345.1L343.25 535.425A50 50 0 0 1 272.975 535.55L244.85 507.85A50.05 50.05 0 0 1 244.475 436.925L294.3 386.875L213.35 305.9250000000001L163.4 355.4250000000001A50 50 0 0 1 93.125 355.5500000000001L65 327.85A50 50 0 0 1 64.65 256.95L256.075 64.65A50.05 50.05 0 0 1 327.475 65.175L356.1500000000001 94.85A50 50 0 0 1 355.4000000000001 165.1L306.4 213.675L386.725 294L435.9 244.6A50 50 0 0 1 507.3000000000001 245.15L535.975 274.825A50 50 0 0 1 535.225 345.075zM523.475 380.8A62.525 62.525 0 0 1 523.475 469.1999999999999L469.175 523.5A62.525 62.525 0 0 1 380.775 523.5L376.925 519.625L520.225 377.575L523.475 380.8250000000001zM76.525 219.2000000000001A62.525 62.525 0 0 1 76.525 130.8L130.825 76.5A62.525 62.525 0 0 1 219.225 76.5L222.975 80.2499999999999L80.625 223.2499999999999L76.55 219.1749999999999z" />
    <glyph glyph-name="filled-content-hairbeard"
      unicode="&#xEB93;"
      horiz-adv-x="600" d="M537.55 550H526.75A12.5 12.5 0 0 1 514.25 537.75C512.8 464.05 475.175 389.675 424.975 340.2750000000001A62.5 62.5 0 0 1 362.525 400H237.525A62.55 62.55 0 0 1 175.075 340.2750000000001C124.9 389.675 87.25 464.05 85.8 537.75A12.5 12.5 0 0 1 73.3 550H62.5A12.5 12.5 0 0 1 50 537.5V325.075C50 284.15 63.825 256.8 79.175 231.85L79.575 231.2500000000001L202.275 55.35A12.525 12.525 0 0 1 212.525 50.0000000000001H385.25A12.525 12.525 0 0 1 395.45 55.2750000000001L524.3000000000001 236.7750000000001A10.55 10.55 0 0 1 524.875 237.6500000000001C536.35 257.1000000000001 550.0500000000001 284.3500000000001 550.0500000000001 325.1V537.5A12.5 12.5 0 0 1 537.5500000000001 550zM342.175 276.45C328.475 269.275 314.25 265.675 299.875 265.675S271.125 269.225 256.925 276.3250000000001A12.5 12.5 0 0 0 268.0999999999999 298.7C289.4249999999999 288.05 310.3999999999999 288.05 330.55 298.575A12.5 12.5 0 0 0 342.175 276.45z" />
    <glyph glyph-name="filled-content-handsoap"
      unicode="&#xEB42;"
      horiz-adv-x="600" d="M362.5 492.5C360 495 355 495 350 495H275V420C332.5 412.5 375 362.5 375 305V297.5C375 290 370 285 362.5 285H360C337.5 290 272.5 302.5 162.5 335H160C152.5 337.5 150 345 152.5 350C170 390 207.5 417.5 252.5000000000001 420V494.9999999999999H212.5C205 492.4999999999999 200 499.9999999999999 200 504.9999999999999S205 517.5 212.5 517.5H350C355 517.5 365 517.5 372.5 512.5C382.5 507.4999999999999 390 499.9999999999999 397.5 484.9999999999999C400 479.9999999999999 397.5 472.4999999999999 392.5 467.4999999999999C387.5000000000001 464.9999999999999 380 467.4999999999999 375.0000000000001 472.4999999999999C370.0000000000001 487.4999999999999 365.0000000000001 489.9999999999999 362.5000000000001 492.4999999999999zM452.5000000000001 452.5L462.5 462.5L472.4999999999999 452.5L475 450L480 445C484.9999999999999 440 489.9999999999999 435 495 427.5C505 412.5 515 392.5 515 370C515 357.5 510.0000000000001 345 500 335C490.0000000000001 325 477.5000000000001 320 465.0000000000001 320S440.0000000000001 325 430.0000000000001 335C420.0000000000001 345 415.0000000000001 357.5 415.0000000000001 370C415.0000000000001 392.5 425 415 435.0000000000001 427.5C440.0000000000001 435 445 442.5 450.0000000000001 445C450.0000000000001 447.5 450.0000000000001 450 452.5000000000001 452.5C452.5000000000001 450 452.5000000000001 452.5 452.5000000000001 452.5zM165 270L132.5 115.0000000000001H75C72.5 115.0000000000001 67.5 117.5000000000001 65 117.5000000000001C62.5 120.0000000000001 62.5 122.5000000000001 62.5 127.5000000000001V282.5C62.5 285 62.5 287.5 65 287.5C65 290 67.5 290 67.5 292.5S70 295 72.5 295H77.5L165 270zM527.5 185C532.5 180 535 175 535 167.5V160C532.5 157.5 532.5 155 530.0000000000001 155L372.5000000000001 89.9999999999999C357.5000000000001 85 342.5000000000001 80 325.0000000000001 80C310.0000000000001 80 295.0000000000001 82.5 282.5000000000001 87.5L162.5000000000001 132.5L187.5000000000001 260C217.5000000000001 267.5 250.0000000000001 265 280.0000000000001 252.5C297.5000000000001 245 317.5000000000001 237.5 335.0000000000001 230H337.5000000000001L372.5000000000001 220C390.0000000000001 215 395.0000000000001 195 382.5000000000001 182.5C375.0000000000001 177.5 365.0000000000001 174.9999999999999 355.0000000000001 174.9999999999999C345.0000000000001 177.5 330.0000000000001 177.5 317.5000000000001 179.9999999999999S290.0000000000001 184.9999999999999 277.5000000000001 189.9999999999999C272.5000000000001 192.4999999999999 265.0000000000001 192.4999999999999 262.5000000000001 194.9999999999998H257.5000000000001C250.0000000000001 197.4999999999999 245.0000000000001 192.4999999999998 242.5000000000001 187.4999999999998C240.0000000000001 179.9999999999998 242.5000000000001 174.9999999999998 250.0000000000002 172.4999999999998C250.0000000000002 172.4999999999998 252.5000000000001 172.4999999999998 255.0000000000001 169.9999999999998C260.0000000000001 169.9999999999998 265.0000000000001 167.4999999999997 270.0000000000001 164.9999999999998C282.5000000000001 162.4999999999997 297.5000000000001 157.4999999999998 310.0000000000001 154.9999999999998C322.5000000000001 152.4999999999998 337.5000000000001 149.9999999999998 350.0000000000001 149.9999999999998C367.5000000000001 147.4999999999998 385.0000000000001 154.9999999999998 397.5000000000001 167.4999999999998C405.0000000000001 174.9999999999998 410.0000000000001 184.9999999999998 412.5000000000001 197.4999999999998C442.5000000000001 204.9999999999998 485.0000000000001 212.4999999999998 512.5000000000001 197.4999999999998C520.0000000000001 194.9999999999998 525.0000000000001 189.9999999999998 527.5000000000001 184.9999999999998z" />
    <glyph glyph-name="filled-content-handwater"
      unicode="&#xEB43;"
      horiz-adv-x="600" d="M422.5 515C420 517.5 417.5 520 412.5 520S405 517.5 402.5000000000001 515C400 512.5 387.5000000000001 500 375.0000000000001 480C362.5000000000001 460 350.0000000000001 435 350.0000000000001 407.5C350.0000000000001 372.5 377.5000000000001 345 412.5 345S475 372.5 475 407.5C475 435 462.5 462.5 450 480C437.5 497.5 422.5 512.5 422.5 515zM527.5 187.5C532.5 182.5 535 177.5000000000001 535 170V162.5C532.5 160 532.5 157.5 530.0000000000001 157.5L372.5000000000001 92.5C357.5000000000001 87.5 342.5000000000001 82.5 325.0000000000001 82.5C310.0000000000001 82.5 295.0000000000001 85 282.5000000000001 90.0000000000001L162.5000000000001 135.0000000000001L187.5000000000001 262.5000000000001C217.5000000000001 270.0000000000001 250.0000000000001 267.5 280.0000000000001 255C297.5000000000001 247.5 317.5000000000001 240.0000000000001 335.0000000000001 232.5H337.5000000000001L372.5000000000001 222.5C390.0000000000001 217.5 395.0000000000001 197.5 382.5000000000001 185C375.0000000000001 177.5 365.0000000000001 175 355.0000000000001 175C345.0000000000001 177.5000000000001 330.0000000000001 177.5000000000001 317.5000000000001 180S290.0000000000001 185 277.5000000000001 190C272.5000000000001 192.5 265.0000000000001 192.5 262.5000000000001 195H257.5000000000001C250.0000000000001 199.9999999999999 242.5000000000001 195 242.5000000000001 187.4999999999999C240.0000000000001 182.5 242.5000000000001 174.9999999999999 250.0000000000002 172.4999999999999C250.0000000000002 172.4999999999999 252.5000000000001 172.4999999999999 255.0000000000001 169.9999999999998C260.0000000000001 169.9999999999998 265.0000000000001 167.4999999999998 270.0000000000001 164.9999999999999C282.5000000000001 162.4999999999998 297.5000000000001 157.4999999999998 310.0000000000001 154.9999999999999C322.5000000000001 152.4999999999999 337.5000000000001 149.9999999999999 350.0000000000001 149.9999999999999C367.5000000000001 147.4999999999999 385.0000000000001 154.9999999999999 397.5000000000001 167.4999999999999C405.0000000000001 174.9999999999999 410.0000000000001 184.9999999999999 412.5000000000001 197.4999999999999C442.5000000000001 204.9999999999999 485.0000000000001 212.4999999999999 512.5000000000001 197.4999999999999C520.0000000000001 194.9999999999998 525.0000000000001 192.4999999999999 527.5000000000001 187.4999999999999zM165 270L132.5 115.0000000000001H75C72.5 115.0000000000001 67.5 117.5000000000001 65 117.5000000000001S62.5 125.0000000000001 62.5 130.0000000000001V285.0000000000001C62.5 287.5000000000001 62.5 290.0000000000001 65 290.0000000000001C65 292.5 67.5 292.5 67.5 295C70 295 70 297.5 72.5 297.5H77.5L165 270zM285 452.5C282.5 455 280 457.5 275 457.5S267.5 455 265 452.5C265 450 255 440 245 425C235 412.5 225 390 225 370C225 342.5 247.5 320 275 320S325 342.5 325 370C325 392.5 315 412.5 305 427.5C295 440 285 450 285 452.5z" />
    <glyph glyph-name="filled-content-healthy"
      unicode="&#xEC21;"
      horiz-adv-x="600" d="M487.5 550H112.5A62.5 62.5 0 0 1 50 487.5V112.5A62.5 62.5 0 0 1 112.5 50H487.5A62.5 62.5 0 0 1 550 112.5V487.5A62.5 62.5 0 0 1 487.5 550zM475 262.5A12.5 12.5 0 0 0 462.5 250H350V137.5A12.5 12.5 0 0 0 337.5 125H262.5A12.5 12.5 0 0 0 250 137.5V250H137.5A12.5 12.5 0 0 0 125 262.5V337.5A12.5 12.5 0 0 0 137.5 350H250V462.5A12.5 12.5 0 0 0 262.5 475H337.5A12.5 12.5 0 0 0 350 462.5V350H462.5A12.5 12.5 0 0 0 475 337.5V262.5z" />
    <glyph glyph-name="filled-content-house"
      unicode="&#xEB94;"
      horiz-adv-x="600" d="M71.1 303.425L300 520.275L528.9 303.425A12.5 12.5 0 0 1 546.0999999999999 321.575L308.6 546.575A12.5 12.5 0 0 1 291.3999999999999 546.575L150 412.625V487.5A12.5 12.5 0 0 1 125 487.5V388.925L53.9 321.575A12.5 12.5 0 0 1 71.1 303.425zM537.5 75H500V296.375L300 485.85L100 296.375V75H62.5A12.5 12.5 0 0 1 62.5 50H250V162.5A12.5 12.5 0 0 0 262.5 175H337.5A12.5 12.5 0 0 0 350 162.5V50H537.5A12.5 12.5 0 0 1 537.5 75zM350 262.5A12.5 12.5 0 0 0 337.5 250H262.5A12.5 12.5 0 0 0 250 262.5V337.5A12.5 12.5 0 0 0 262.5 350H337.5A12.5 12.5 0 0 0 350 337.5V262.5z" />
    <glyph glyph-name="filled-content-maintenance"
      unicode="&#xEC22;"
      horiz-adv-x="600" d="M224.95 410.425C225 411.125 225 411.8 225 412.5V487.5A37.5 37.5 0 0 1 208.3 518.7L133.3 568.7A37.5 37.5 0 0 1 85.975 564.025L35.975 514.025A37.5 37.5 0 0 1 31.3 466.7L81.3 391.7C88.25 381.275 99.975 375 112.5 375H187.5C188.2 375 188.9 375 189.6 375.05L244.45 320.2L77.55 170A83.15 83.15 0 1 1 195.775 53.375L375.35 258.425A150 150 0 0 1 562.4 460.2A12.45 12.45 0 0 1 542.125 464L466.675 388.5500000000001L413.625 441.6L489.075 517.0500000000001A12.525 12.525 0 0 1 485.2749999999999 537.325A150 150 0 0 1 282.2 354.125L281.7 353.675L224.975 410.4zM362.65 131.275L327.5250000000001 165.8750000000001L383.625 229.925A175.5500000000001 175.5500000000001 0 0 1 473.475 231.8L509.025 197.05L553.0250000000001 153.05A75 75 0 1 0 446.95 46.9749999999999L362.65 131.2749999999999z" />
    <glyph glyph-name="filled-content-microscope"
      unicode="&#xEB95;"
      horiz-adv-x="600" d="M493.9 85.5749999999999A20.825 20.825 0 0 1 479.1750000000001 91.675H308.35V112.5A104.25 104.25 0 0 1 204.1750000000001 216.675C191.4250000000001 216.6 178.8000000000001 214.175 166.9500000000001 209.5L160.4250000000001 219.575A104.075 104.075 0 0 0 143.6750000000001 299.825A103.675 103.675 0 0 0 190.325 367.25L219.125 383.925L248.6500000000001 332.8A20.75 20.75 0 0 1 277.1 325.175L295.1500000000001 335.6L309.725 310.475A20.85 20.85 0 1 1 345.8250000000001 331.35L331.2500000000001 356.475L349.3 366.9A20.75 20.75 0 0 1 356.925 395.35L273.5750000000001 539.675A20.9 20.9 0 0 1 245.1250000000001 547.3L172.95 505.625A20.75 20.75 0 0 1 165.325 477.175L198.3 420.025L168.925 403.025A145.75 145.75 0 0 1 103.075 308.95A145.025 145.025 0 0 1 102.95 250.35C106.875 231.0000000000001 114.7 212.65 125.95 196.45L131.8250000000001 187.2500000000001A103.85 103.85 0 0 1 100.025 112.6250000000001V70.9500000000001A20.825 20.825 0 0 1 120.85 50.1250000000001H479.1750000000001A20.825 20.825 0 0 1 493.9 85.6750000000001zM339.45 166.55L467.175 240.275A20.75 20.75 0 0 1 469.525 274.925A20.675 20.675 0 0 1 446.325 276.35L318.725 202.625A145 145 0 0 0 339.425 166.55z" />
    <glyph glyph-name="filled-content-moonstars"
      unicode="&#xEB96;"
      horiz-adv-x="600" d="M312.5 500H350V462.5A12.5 12.5 0 0 1 375 462.5V500H412.5A12.5 12.5 0 0 1 412.5 525H375V562.5A12.5 12.5 0 0 1 350 562.5V525H312.5A12.5 12.5 0 0 1 312.5 500zM523.1 234.2C505.05 227.425 484.2 225 462.5 225C331.9 225 225 331.9 225 462.5C225 484.2 227.425 505.05 234.2 523.1A12.5 12.5 0 0 1 219.4 539.6C106.375 510.7 25 408.225 25 287.5C25 143.1 143.1 25 287.5 25C408.225 25 510.7 106.375 539.6 219.4A12.5 12.5 0 0 1 523.0749999999999 234.2zM562.5 375H525V412.5A12.5 12.5 0 0 1 500 412.5V375H462.5A12.5 12.5 0 0 1 462.5 350H500V312.5A12.5 12.5 0 0 1 525 312.5V350H562.5A12.5 12.5 0 0 1 562.5 375z" />
    <glyph glyph-name="filled-content-mortar"
      unicode="&#xEB97;"
      horiz-adv-x="600" d="M541.6750000000001 456.325A62.625 62.625 0 0 1 547.9250000000001 503.75A62.5 62.5 0 0 1 433.4250000000001 518.825L352.475 375H498.2L541.6750000000001 456.325zM546.35 346.35A12.475 12.475 0 0 1 537.55 350H62.45A12.5 12.5 0 0 1 50 337.5A287.125 287.125 0 0 1 200 85.2000000000001V62.5A12.5 12.5 0 0 1 212.5 50H387.5A12.5 12.5 0 0 1 400 62.5V85.2000000000001A287.375 287.375 0 0 1 550 337.5A12.6 12.6 0 0 1 546.35 346.35z" />
    <glyph glyph-name="filled-content-oil"
      unicode="&#xEB60;"
      horiz-adv-x="600" d="M300 550C274.6 550 112.5 381.05 112.5 224.1A187.5 187.5 0 0 1 487.5 224.1C487.5 360.175 323.275 550 300 550zM300.75 143.275C255.7 143.275 207.2 175.15 207.2 245.1750000000001A12.5 12.5 0 0 0 232.2 245.1750000000001C232.2 192.0500000000001 266.625 168.275 300.75 168.275A12.5 12.5 0 0 0 300.75 143.275z" />
    <glyph glyph-name="filled-content-oilunavailable"
      unicode="&#xEB44;"
      horiz-adv-x="600" d="M547.5 547.5C552.5 542.5 552.5 535 547.5 530L72.5 55C67.5 50 60 50 55 55C50 60 50 67.5 55 72.5L135 152.5C122.5 177.5 112.5 210 112.5 245C112.5 274.9999999999999 125 310 140 342.5C157.5 375 180 410 202.5 440C225 469.9999999999999 247.5 497.4999999999999 262.5 515C270 525 277.5 532.5 282.5 537.5L287.5 542.5L290 545S292.5 550 300 550S310 545 310 545L312.5 542.5L317.5 537.5C322.5 532.5 330 525 337.5 515C355 494.9999999999999 375 469.9999999999999 397.5 440C400 435 405 430 407.5 425L527.5 545C532.4999999999999 550 542.5 550 547.5 547.5zM300 50C250 50 200 70 162.5 109.9999999999999L435 382.5C442.5 370 450 355 457.4999999999999 342.5C474.9999999999999 310 484.9999999999999 275 484.9999999999999 245C487.5 120 390 50 300 50z" />
    <glyph glyph-name="filled-content-palette"
      unicode="&#xEB98;"
      horiz-adv-x="600" d="M572 329.9C565.3 370.25 545.75 412.675 499.1499999999999 436.925L498.75 437.125C435.25 467.275 377.025 451.15 331.575 436.85L323.625 434.325C303.85 428.05 287.5 422.85 273.275 421.55C258.325 420.175 247.8 423.275 239.2 433.675C237.325 436.1 236.4 439.5 237.15 445.625C237.875 451.5749999999999 239.9 458.1 242.4 466.2L243.25 469C248.225 485.225 255.825 510 239.5250000000001 530.35C228.7750000000001 546.075 209.775 550.625 192.975 549.95A96.25 96.25 0 0 1 143.1 533.125C70.175 482.25 25 398.35 25 304.475C25 149.6750000000001 148.025 25.025 301.425 25.025C427.2000000000001 25.025 535.15 111.4749999999999 567.8 228.325L567.875 228.575L567.95 228.8499999999999C572.9499999999999 250.3999999999999 578.675 289.7999999999999 572 329.8999999999999zM100 312.525A37.5 37.5 0 1 0 175.025 312.5A37.5 37.5 0 0 0 100 312.5zM200 150.0249999999999A37.5 37.5 0 1 0 200.025 225.05A37.5 37.5 0 0 0 200 150.025zM325 100.0249999999999A37.5 37.5 0 1 0 325.025 175.05A37.5 37.5 0 0 0 325 100.025zM425 225.0249999999999A62.5 62.5 0 1 0 425 350.025A62.5 62.5 0 0 0 425 225.0249999999999z" />
    <glyph glyph-name="filled-content-plasticfree"
      unicode="&#xEBF3;"
      horiz-adv-x="600" d="M375 562.5A12.5 12.5 0 0 1 362.5 575H262.5A12.5 12.5 0 0 1 250 562.5V525H375V562.5zM571.35 571.35A12.5 12.5 0 0 1 553.675 571.35L417.75 435.425A111.25 111.25 0 0 1 375 449.3V500H250V449.3C193.925 443.05 150 395.175 150 337.5V275H257.325L232.325 250H150V167.675L28.65 46.325A12.5 12.5 0 0 1 46.325 28.65L571.35 553.65A12.5 12.5 0 0 1 571.35 571.325zM203.025 150H475V250H303.0250000000001L203.025 150zM150 96.975V96.525A62.5 62.5 0 0 1 222.775 34.875L312.5 49.8249999999999L402.225 34.875A62.5 62.5 0 0 1 475 96.525V125H178.025L150 96.975zM328.0250000000001 275H475V337.5C475 361.325 467.5 383.475 454.7500000000001 401.725L328.0250000000001 275z" />
    <glyph glyph-name="filled-content-quote"
      unicode="&#xEA15;"
      horiz-adv-x="600" d="M256 521.5H88A12.5 12.5 0 0 1 75.5 509V327A12.5 12.5 0 0 1 88 314.5H157.25A243.7500000000001 243.7500000000001 0 0 0 133.75 218A130.5 130.5 0 0 0 69.5 163.5A12.25 12.25 0 0 1 62 155.75A13 13 0 0 1 62 145.25L100.5 84.2499999999999A12.25 12.25 0 0 1 111 78.4999999999999A13 13 0 0 1 116.25 78.4999999999999A269.75 269.75 0 0 1 189.25 125A232 232 0 0 1 239.25 189.5C258.75 226 268.5 284.75 268.5 364.5V509A12.5 12.5 0 0 1 256 521.5zM525 521.5H358A12.5 12.5 0 0 1 345.5 509V327A12.5 12.5 0 0 1 358 314.5H427.25A244.75 244.75 0 0 0 403.75 218A127.75 127.75 0 0 0 339.5 163.75A12.25 12.25 0 0 1 332.25 156.0000000000001A12.5 12.5 0 0 1 333.5 145.2500000000001L371.75 84.25A12.25 12.25 0 0 1 382.25 78.5A11.25 11.25 0 0 1 387.25 78.5A267.25 267.25 0 0 1 459.25 125A232 232 0 0 1 509.25 189.5C528.75 226.25 538.5 285 538.5 364.5V509A12.5 12.5 0 0 1 525 521.5z" />
    <glyph glyph-name="filled-content-sensitive"
      unicode="&#xEB45;"
      horiz-adv-x="600" d="M547.5 562.5C552.5 562.5 555 562.5 557.4999999999999 560C560 557.5 562.4999999999999 552.5 560 550V540C560 532.5 557.4999999999999 522.5 555 510C550 485 542.5 452.5 532.5 415C510.0000000000001 340.0000000000001 475 252.5000000000001 420 195C360 135.0000000000001 295 125 242.5000000000001 130C222.5 132.5 205 135 190 140L350 300C355 305 355 312.5 350 317.5C345 322.5 337.5 322.5 332.5 317.5L165 150L57.5 42.5C52.5 37.5 45 37.5 40 42.5C35 47.5 35 55 40 60L145 165L137.5 180C132.5 195 125 215 122.5 242.5C117.5 292.5 127.5 360 190 420C222.5 452.5 267.5 477.5 317.5 497.5C320 499.9999999999999 325 499.9999999999999 327.5 497.5C330 495 332.5 495 335 490L375 407.5L390 515C390 520 395 522.5 397.5 525C437.5 537.5 475 547.5 502.5000000000001 552.5C517.5000000000001 555 527.5 557.5 535 560C540 560 542.5000000000001 562.5 545 562.5H547.5z" />
    <glyph glyph-name="filled-content-shower"
      unicode="&#xEB99;"
      horiz-adv-x="600" d="M537.5 225H525V237.5A212.5 212.5 0 0 1 325 449.625V487.5A87.5 87.5 0 0 1 237.5 575H112.5A12.5 12.5 0 0 1 112.5 550H237.5A62.5 62.5 0 0 0 300 487.5V449.625A212.5 212.5 0 0 1 100 237.5V225H87.5A12.5 12.5 0 0 1 87.5 200H537.5A12.5 12.5 0 0 1 537.5 225zM500 225H125V237.5C125 241.675 125.15 245.85 125.425 250H499.6C499.875 245.85 500.025 241.675 500.025 237.5V225zM112.5 150A12.5 12.5 0 0 1 100 137.5V112.5A12.5 12.5 0 0 1 125 112.5V137.5A12.5 12.5 0 0 1 112.5 150zM237.5 150A12.5 12.5 0 0 1 225 137.5V112.5A12.5 12.5 0 0 1 250 112.5V137.5A12.5 12.5 0 0 1 237.5 150zM162.5 75A12.5 12.5 0 0 1 150 62.5V37.5A12.5 12.5 0 0 1 175 37.5V62.5A12.5 12.5 0 0 1 162.5 75zM312.5 75A12.5 12.5 0 0 1 300 62.5V37.5A12.5 12.5 0 0 1 325 37.5V62.5A12.5 12.5 0 0 1 312.5 75zM462.5 75A12.5 12.5 0 0 1 450 62.5V37.5A12.5 12.5 0 0 1 475 37.5V62.5A12.5 12.5 0 0 1 462.5 75zM387.5 150A12.5 12.5 0 0 1 375 137.5V112.5A12.5 12.5 0 0 1 400 112.5V137.5A12.5 12.5 0 0 1 387.5 150zM512.5 150A12.5 12.5 0 0 1 500 137.5V112.5A12.5 12.5 0 0 1 525 112.5V137.5A12.5 12.5 0 0 1 512.5 150z" />
    <glyph glyph-name="filled-content-snorkelmask"
      unicode="&#xEBF4;"
      horiz-adv-x="600" d="M571.35 571.35A12.5 12.5 0 0 1 562.5 575H537.5A12.5 12.5 0 0 1 525 562.5V162.5A87.25 87.25 0 0 0 351.275 150H375A24.925 24.925 0 0 1 400 175A24.925 24.925 0 0 1 375 200H275A24.925 24.925 0 0 1 250 175A24.925 24.925 0 0 1 275 150H300.625A137.425 137.425 0 0 1 443.75 25.725A137.5 137.5 0 0 1 574.975 162.5V562.5A12.6 12.6 0 0 1 571.3249999999999 571.35zM268.325 358.225L282.5 291.6500000000001A20.75 20.75 0 0 1 302.95 274.975H387.325A62.5 62.5 0 0 1 449.8250000000001 337.475V462.475A62.5 62.5 0 0 1 387.3250000000001 524.975H87.5A62.5 62.5 0 0 1 25 462.475V337.475A62.5 62.5 0 0 1 87.5 274.975H172.05A20.85 20.85 0 0 1 192.5 291.6500000000001L206.675 358.225A20.925 20.925 0 0 0 227.075 374.9H247.9A20.775 20.775 0 0 0 268.3 358.225z" />
    <glyph glyph-name="filled-content-soap"
      unicode="&#xEB9A;"
      horiz-adv-x="600" d="M250 525A25 25 0 0 1 300 525A25 25 0 0 1 250 525M150 437.5A62.5 62.5 0 0 1 275 437.5A62.5 62.5 0 0 1 150 437.5M212.5 300H387.5A37.5 37.5 0 0 0 425 262.5V212.5A37.5 37.5 0 0 0 387.5 175H212.5A37.5 37.5 0 0 0 175 212.5V262.5A37.5 37.5 0 0 0 212.5 300zM549.4 143.25A769.4499999999999 769.4499999999999 0 0 0 549.25 330.525A84.275 84.275 0 0 1 526.5749999999999 399.775A82.175 82.175 0 0 1 458.4499999999999 424.475H458.3749999999999A1363.4999999999998 1363.4999999999998 0 0 0 321.425 415.425L297.0249999999999 414.75A87.55 87.55 0 0 0 125.9249999999999 424.75A81.3 81.3 0 0 1 73.7249999999999 400.275A83.975 83.975 0 0 1 50.6499999999999 331.775A772.25 772.25 0 0 0 56.4499999999999 237.475A771.125 771.125 0 0 0 50.7249999999999 144.45A84.275 84.275 0 0 1 73.3999999999999 75.1999999999999C82.1499999999999 66.125 92.8249999999999 59.175 104.6249999999999 54.9C116.4249999999999 50.625 129.0499999999999 49.0999999999999 141.5249999999999 50.5H141.5749999999999A1367.1 1367.1 0 0 0 458.6749999999998 50.5H458.7249999999999A81.25 81.25 0 0 1 526.3249999999998 74.7000000000001A83.975 83.975 0 0 1 549.3999999999997 143.2000000000001zM450 212.5A62.5 62.5 0 0 0 387.5 150H212.5A62.5 62.5 0 0 0 150 212.5V262.5A62.5 62.5 0 0 0 212.5 325H387.5A62.5 62.5 0 0 0 450 262.5V212.5zM325 487.5A37.5 37.5 0 0 1 400 487.5A37.5 37.5 0 0 1 325 487.5" />
    <glyph glyph-name="filled-content-soapbubble"
      unicode="&#xEB9B;"
      horiz-adv-x="600" d="M87.5 500A75 75 0 0 1 237.5 500A75 75 0 0 1 87.5 500M475 275A100 100 0 1 1 475 475A100 100 0 0 1 475 275zM462.5 425A62.5 62.5 0 0 0 525 362.5A12.5 12.5 0 0 0 500 362.5A37.5 37.5 0 0 1 462.5 400A12.5 12.5 0 0 0 462.5 425zM200 375A175 175 0 1 1 200 25A175 175 0 0 1 200 375zM287.5 187.5A12.5 12.5 0 0 0 275 200A75 75 0 0 1 200 275A12.5 12.5 0 0 0 200 300A100 100 0 0 0 300 200A12.5 12.5 0 0 0 287.5 187.5zM325 512.5A25 25 0 0 0 350 487.5A12.5 12.5 0 0 1 375 487.5A25 25 0 0 0 400 512.5A12.5 12.5 0 0 1 400 537.5A25 25 0 0 0 375 562.5A12.5 12.5 0 0 1 350 562.5A25 25 0 0 0 325 537.5A12.5 12.5 0 0 1 325 512.5zM531.25 168.75A37.5 37.5 0 0 0 493.75 206.25A18.75 18.75 0 0 1 456.25 206.25A37.5 37.5 0 0 0 418.75 168.75A18.75 18.75 0 0 1 418.75 131.25A37.5 37.5 0 0 0 456.25 93.75A18.75 18.75 0 0 1 493.75 93.75A37.5 37.5 0 0 0 531.25 131.25A18.75 18.75 0 0 1 531.25 168.75z" />
    <glyph glyph-name="filled-content-strawberry"
      unicode="&#xEC48;"
      horiz-adv-x="600" d="M419.75 447.175A226 226 0 0 1 437.85 484.325A375.2 375.2 0 0 1 449.35 518.85L449.5250000000001 519.425V519.675A12.475 12.475 0 0 1 434.3500000000001 534.925L432.6750000000001 534.375H432.6250000000001L432.4750000000001 534.3L431.9250000000002 534.05L429.8500000000002 533.175L422.2750000000002 529.95C415.9500000000002 527.225 407.3000000000002 523.45 398.0500000000002 519.275C385.5500000000002 513.6 371.1750000000002 506.8 360.1000000000002 500.75A347.7500000000001 347.7500000000001 0 0 1 330.8500000000002 544.85A514.55 514.55 0 0 1 310.9750000000002 568.975L309.7000000000002 570.425A4.825 4.825 0 0 0 309.3250000000001 570.825L309.1750000000002 570.975A12.5 12.5 0 0 1 290.7750000000001 570.975L290.6250000000001 570.825L290.2500000000001 570.425L288.9750000000001 568.975C287.8750000000001 567.725 286.2500000000001 565.9 284.3250000000001 563.625C280.4250000000001 559.05 275.0500000000001 552.55 269.1250000000001 544.85A347.775 347.775 0 0 1 239.85 500.75A603.75 603.75 0 0 1 201.9 519.275A1471 1471 0 0 1 177.675 529.95L170.1 533.175L168.025 534.05L167.475 534.3A0.5 0.5 0 0 0 167.3249999999999 534.35H167.275A12.5 12.5 0 0 1 150.375 519.65V519.6L150.425 519.425A97.8 97.8 0 0 1 151.175 516.725C151.6999999999999 514.9 152.45 512.25 153.45 509.05C155.425 502.675 158.375 493.875 162.1 484.325A224 224 0 0 1 180.2249999999999 447.2C100.45 430.65 51.925 343.625 86.125 264.85L95.6249999999999 243.525C118.5 193.675 146.075 143.4 177.025 103.8C211.875 59.2000000000001 253.575 24.9000000000001 300.0249999999999 24.9000000000001S388.15 59.2000000000001 423 103.8C458.3749999999999 149.0750000000001 489.35 208.275 513.925 264.825L517.1999999999999 273.05C544.75 349.5750000000001 496.8 431.2000000000001 419.75 447.1500000000001zM187.5 324.95A25 25 0 1 0 237.5 324.95A25 25 0 0 0 187.5 324.95zM225 175.1A25 25 0 1 0 225 225.1A25 25 0 0 0 225 175.1zM287.5 274.9500000000001A25 25 0 1 0 337.5 274.9500000000001A25 25 0 0 0 287.5 274.9500000000001zM337.5 125A25 25 0 1 0 337.5 175A25 25 0 0 0 337.5 125zM412.5 299.9500000000001A25 25 0 1 0 412.5 349.9500000000001A25 25 0 0 0 412.5 299.9500000000001z" />
    </font>
</defs>
</svg>
