<?xml version="1.0" standalone="no"?>
<!DOCTYPE svg PUBLIC "-//W3C//DTD SVG 1.1//EN" "http://www.w3.org/Graphics/SVG/1.1/DTD/svg11.dtd" >
<svg xmlns="http://www.w3.org/2000/svg">
<metadata>
<json>
<![CDATA[
{
	"fontFamily": "core-icons",
	"majorVersion": 2,
	"minorVersion": 4,
	"license": "MIT",
	"fontURL": "https://github.com/procore/core",
	"copyright": "Procore Technologies",
	"licenseURL": "https://github.com/procore/core/blob/develop/LICENSE",
	"version": "Version 2.4",
	"fontId": "core-icons",
	"psName": "core-icons",
	"subFamily": "Regular",
	"fullName": "core-icons",
	"description": "Font generated by IcoMoon."
}
]]>
</json>
</metadata>
<defs>
<font id="core-icons" horiz-adv-x="1024">
<font-face units-per-em="1024" ascent="960" descent="-64" />
<missing-glyph horiz-adv-x="1024" />
<glyph unicode="&#x20;" horiz-adv-x="512" d="" />
<glyph unicode="&#xe900;" glyph-name="calculator" data-tags="calculator" d="M128-64v1024h768v-1024h-768zM192 0h640v896h-640v-896zM256 640h512v192.064h-512v-192.064zM640 448h128v128h-128v-128zM448 448h128v128h-128v-128zM256 448h128v128h-128v-128zM640 256h128v128h-128v-128zM448 256h128v128h-128v-128zM256 256h128v128h-128v-128zM640 64h128v128h-128v-128zM448 64h128v128h-128v-128zM256 64h128v128h-128v-128z" />
<glyph unicode="&#xe901;" glyph-name="calendar" data-tags="calendar" d="M768 960h64v-64h192.064v-960h-1024.064v960h192v64h64v-64h128.064v64h64v-64h127.936v64h64v-64h128v64zM832 767.936h-64v64.064h-128v-64.064h-64v64.064h-127.936v-64.064h-64v64.064h-128.064v-64.064h-64v64.064h-128v-256h896.064v256h-128.064v-64.064zM704 384h256.064v128h-256.064v-128zM384.064 384h256v128h-256v-128zM64 384h256.064v128h-256.064v-128zM704 191.936h256.064v128.064h-256.064v-128.064zM384.064 191.936h256v128.064h-256v-128.064zM64 191.936h256.064v128.064h-256.064v-128.064zM704-0.064h256.064v128h-256.064v-128zM384.064-0.064h256v128h-256v-128zM64-0.064h256.064v128h-256.064v-128z" />
<glyph unicode="&#xe902;" glyph-name="check-circle" data-tags="checks, check-circle" d="M433.811 256l-177.792 172.416 68.928 59.968 108.864-105.6 265.28 257.216 68.928-59.968-334.208-324.032zM512.019 960c-282.816 0-512-229.248-512-512s229.184-512 512-512c282.752 0 512 229.248 512 512s-229.248 512-512 512v0z" />
<glyph unicode="&#xe903;" glyph-name="check" data-tags="checks" d="M433.792 256l-177.792 172.416 68.928 59.968 108.864-105.6 265.28 257.216 68.928-59.968z" />
<glyph unicode="&#xe904;" glyph-name="chevron-right" data-tags="arrows, chevron-right" d="M399.36 874.667l-79.36-82.176 353.216-365.76-353.216-365.888 79.36-82.176 432.64 448.064z" />
<glyph unicode="&#xe905;" glyph-name="trash" data-tags="trash" d="M320 938.667l-42.688-128h-277.312v-64.064h68.544l59.392-831.936h768.064l59.392 831.936h68.608v64.064h-277.376l-42.688 128h-383.936zM366.080 874.667h291.776l21.312-64h-334.4l21.312 64zM132.736 746.603h758.464l-54.848-767.936h-648.768l-54.848 767.936zM672 106.603h64v512h-64v-512zM479.936 106.603h64v512h-64v-512zM288 106.603h64v512h-64v-512z" />
<glyph unicode="&#xe906;" glyph-name="error-o" data-tags="error-o" d="M724.083 938.667l299.904-299.904v-424.192l-299.904-299.904h-424.107l-299.989 299.904v424.192l299.989 299.904h424.107zM688.755 853.334h-353.451l-249.984-249.899v-353.536l249.984-249.899h353.451l249.899 249.899v353.536l-249.899 249.899zM511.987 298.667c-35.328 0-64-28.672-64-64s28.672-64 64-64c35.328 0 64 28.672 64 64s-28.672 64-64 64v0zM554.654 362.667h-85.333l-21.333 320h128l-21.333-320z" />
<glyph unicode="&#xe907;" glyph-name="info-circle-o" data-tags="info, info-circle-o" d="M572.433 248h85.333v-85.333h-256v85.333h85.333v170.667h-85.333v85.333h170.667v-256zM448.017 650.688c0 35.328 28.629 64 64 64 35.328 0 64-28.672 64-64 0-35.371-28.672-64.043-64-64.043-35.371 0-64 28.672-64 64.043v0zM512.017 0.022c-235.307 0-426.667 191.403-426.667 426.624 0 235.264 191.36 426.709 426.667 426.709 235.264 0 426.667-191.445 426.667-426.709 0-235.221-191.403-426.624-426.667-426.624v0zM512.017 938.646c-282.795 0-512-229.248-512-512 0-282.709 229.205-511.957 512-511.957 282.752 0 512 229.248 512 511.957 0 282.752-229.248 512-512 512v0z" />
<glyph unicode="&#xe908;" glyph-name="chevron-circle-left" data-tags="arrows, chevron-circle-left" d="M585.344 180.011l-246.656 246.656 246.656 246.592 45.248-45.248-201.344-201.344 201.344-201.408-45.248-45.248zM512 938.667c-282.24 0-512-229.312-512-512 0-282.24 229.184-512 512-512 282.176 0 512 229.184 512 512 0 282.176-229.312 512-512 512v0z" />
<glyph unicode="&#xe909;" glyph-name="chevron-circle-left-o" data-tags="arrows, chevron-circle-left-o" d="M0 426.699c0 282.752 229.824 512 512 512 282.752 0 512-229.888 512-512 0-282.88-229.824-512-512-512-282.752 0-512 229.76-512 512v0zM64 426.699c0-247.104 200.768-448 448-448 247.040 0 448 200.768 448 448 0 246.976-200.768 448-448 448-247.040 0-448-200.896-448-448v0zM429.248 426.699l201.344 201.344-45.248 45.248-246.592-246.592 246.592-246.656 45.248 45.248-201.344 201.408z" />
<glyph unicode="&#xe90a;" glyph-name="ellipsis-v" data-tags="ellipsis-v" d="M512 584.205c43.323 0 78.769 35.446 78.769 78.769s-35.446 78.769-78.769 78.769c-43.323 0-78.769-35.446-78.769-78.769s35.446-78.769 78.769-78.769zM512 505.436c-43.323 0-78.769-35.446-78.769-78.769s35.446-78.769 78.769-78.769c43.323 0 78.769 35.446 78.769 78.769s-35.446 78.769-78.769 78.769zM433.231 190.359c0-43.323 35.446-78.769 78.769-78.769s78.769 35.446 78.769 78.769c0 43.323-35.446 78.769-78.769 78.769s-78.769-35.446-78.769-78.769z" />
<glyph unicode="&#xe90b;" glyph-name="chevron-circle-right" data-tags="arrows, chevron-circle-right" d="M393.408 225.259l201.344 201.408-201.344 201.344 45.248 45.248 246.656-246.592-246.656-246.656-45.248 45.248zM0 426.667c0-282.816 229.824-512 512-512 282.816 0 512 229.76 512 512 0 282.688-229.76 512-512 512-282.688 0-512-229.824-512-512v0z" />
<glyph unicode="&#xe90c;" glyph-name="chevron-circle-right-o" data-tags="arrows, chevron-circle-right-o" d="M1024 426.699c0-282.24-229.248-512-512-512-282.176 0-512 229.12-512 512 0 282.112 229.248 512 512 512 282.176 0 512-229.248 512-512v0zM960 426.699c0 247.104-200.96 448-448 448-247.232 0-448-201.024-448-448 0-247.232 200.96-448 448-448 247.232 0 448 200.896 448 448v0zM393.408 225.291l45.248-45.248 246.592 246.656-246.592 246.592-45.248-45.248 201.344-201.344-201.344-201.408z" />
<glyph unicode="&#xe90d;" glyph-name="search" data-tags="search" d="M192 490.667c0 141.184 114.816 256 256 256s256-114.816 256-256c0-141.184-114.816-256-256-256s-256 114.816-256 256v0zM896 87.915l-201.28 201.28c45.12 55.168 73.28 124.672 73.28 201.472 0 176.768-143.296 320-320 320s-320-143.232-320-320c0-176.768 143.296-320 320-320 76.8 0 146.368 28.16 201.472 73.28l201.28-201.28 45.248 45.248z" />
<glyph unicode="&#xe90e;" glyph-name="star" data-tags="shapes, star" d="M512 938.672l120.861-366.692h391.136l-316.436-226.628 120.871-366.695-316.436 226.628-316.433-226.628 120.866 366.695-316.433 226.628h391.136l120.861 366.692z" />
<glyph unicode="&#xe90f;" glyph-name="success-circle-o" data-tags="checks, success-circle-o" d="M399.573 479.702l-73.771-42.837 135.893-233.984 236.459 404.523-73.685 43.051-162.517-278.187-62.379 107.435zM512 938.667c-282.795 0-512-229.248-512-512s229.205-512 512-512c282.752 0 512 229.248 512 512s-229.248 512-512 512v0zM512 853.334c235.179 0 426.667-191.403 426.667-426.667s-191.488-426.667-426.667-426.667c-235.307 0-426.667 191.403-426.667 426.667s191.36 426.667 426.667 426.667v0z" />
<glyph unicode="&#xe910;" glyph-name="question-circle" data-tags="question-circle" d="M650.323 485.822c-9.984-15.104-30.080-37.376-60.416-66.752-21.952-21.376-36.288-39.36-42.816-54.208-6.528-14.784-9.856-36.672-9.856-65.536h-61.248c0 32.832 3.968 59.328 11.712 79.296 7.872 20.096 24.896 43.072 51.264 68.992l27.52 27.2c8.32 7.808 14.912 16.064 19.904 24.448 9.152 14.912 13.76 30.464 13.76 46.528 0 22.4-6.656 41.92-20.032 58.496-13.376 16.512-35.648 24.704-66.688 24.704-38.208 0-64.768-14.144-79.424-42.624-8.192-15.808-12.992-38.656-14.144-68.48h-61.184c0 49.536 14.016 89.408 41.92 119.488 28.032 30.272 66.496 45.312 115.392 45.312 45.184 0 81.344-12.928 108.544-38.656 27.2-25.92 40.768-58.816 40.768-98.944 0-24.384-5.056-44.16-14.976-59.264v0zM474.579 170.686v71.552h68.544v-71.552h-68.544zM512.019 938.686c-282.816 0-512-229.248-512-512 0-282.816 229.184-512 512-512 282.752 0 512 229.184 512 512 0 282.752-229.248 512-512 512v0z" />
<glyph unicode="&#xe911;" glyph-name="warning-triangle-o" data-tags="warning-triangle-o" d="M502.251 804.416c4.651 8.32 14.933 8.32 19.541 0l414.848-740.693c5.419-9.685-1.109-21.077-9.813-21.077h-829.653c-8.619 0-15.189 11.435-9.813 21.077l414.891 740.693zM97.173-42.688h829.653c74.496 0 121.216 82.091 84.224 148.053l-414.805 740.779c-37.248 66.475-131.2 66.475-168.448 0l-414.891-740.779c-36.949-65.963 9.813-148.053 84.267-148.053v0zM512.021 234.646c-35.371 0-64-28.629-64-64 0-35.328 28.629-64 64-64s64 28.672 64 64c0 35.371-28.629 64-64 64v0zM554.688 298.646h-85.333l-21.333 320h128l-21.333-320z" />
<glyph unicode="&#xe912;" glyph-name="x-circle" data-tags="x-circle" d="M512 938.667c-282.752 0-512-229.248-512-512s229.248-512 512-512c282.752 0 512 229.248 512 512s-229.248 512-512 512v0zM768 228.054l-57.387-57.387-198.613 198.656-198.613-198.656-57.387 57.387 198.613 198.613-198.613 198.656 57.387 57.344 198.613-198.613 198.613 198.613 57.387-57.344-198.613-198.656 198.613-198.613z" />
<glyph unicode="&#xe913;" glyph-name="x" data-tags="x" d="M710.613 704l-198.613-198.613-198.656 198.613-57.344-57.387 198.656-198.528-198.656-198.699 57.344-57.387 198.656 198.699 198.613-198.699 57.387 57.387-198.613 198.699 198.613 198.528z" />
<glyph unicode="&#xe914;" glyph-name="cog" data-tags="cog" d="M576 314.040c-61.12-35.904-139.648-14.528-174.848 47.616-35.264 62.080-14.272 141.824 46.848 177.664s139.648 14.528 174.848-47.68c35.328-62.016 14.272-141.696-46.848-177.6v0zM951.104 566.264l-145.216 32.768 12.864 41.536 31.808 102.592 22.4 72.32-64.64 38.016-145.28 85.184-151.040-167.296-28.864 32-122.176 135.296-209.92-123.2 67.072-216.448-218.112-49.152v-246.336l218.112-49.216-12.864-41.472-31.808-102.72-22.4-72.256 209.92-123.2 151.040 167.232 28.864-32 122.176-135.232 64.64 38.016 145.28 85.184-22.4 72.256-31.808 102.72-12.864 41.472 218.112 49.216v246.336l-72.896 16.384z" />
<glyph unicode="&#xe915;" glyph-name="attachment" data-tags="attachment" d="M913.184 783.376c-62.464 64.832-163.648 64.832-226.048 0l-467.136-480.384c-37.504-38.912-37.504-102.016 0-140.928 37.44-38.912 98.176-38.912 135.616 0l421.888 433.344-45.184 47.040-421.888-433.408c-12.48-12.992-32.768-12.992-45.248 0s-12.48 34.048 0 46.976l467.136 480.384c37.44 38.912 98.176 38.912 135.616 0 37.504-38.976 37.504-102.016 0-140.992l-467.072-480.32c-62.4-64.832-163.648-64.832-226.112 0-62.4 64.832-62.4 170.048 0 234.944l421.952 433.344-45.248 46.912-421.888-433.344c-87.424-90.816-87.424-238.016 0-328.832s229.12-90.816 316.48 0l467.136 480.32c62.464 64.896 62.464 170.048 0 234.944z" />
<glyph unicode="&#xe916;" glyph-name="edit" data-tags="edit" d="M887.544 938.648l136.456-136.569-3.667-94.781-41.754-41.853-45.55-45.459-545.889-546.342-387.108-158.977 159.617 386.592 634.351 634.877 93.544 2.511zM933.029 711.032l23.997 23.953 1.608 41.531-97.018 97.034-40.274-1.159-70.255-70.313 136.456-136.634 45.485 45.588zM337.795 122.966l-41.69 41.724 500.468 500.754-91.035 91.111-491.268-491.74-95.86-231.93 219.385 90.080z" />
<glyph unicode="&#xe917;" glyph-name="lock" data-tags="lock" d="M448 106.667h128v256h-128v-256zM832 12.587l-32.896-33.92h-574.208l-32.896 33.92v444.16l32.896 33.92h574.208l32.896-33.92v-444.16zM341.76 701.867c0 95.424 77.376 172.8 172.8 172.8s172.8-77.376 172.8-172.8v-147.2h-345.6v147.2zM826.176 554.667h-74.816v147.2c0 130.816-106.048 236.8-236.8 236.8-130.816 0-236.8-105.984-236.8-236.8v-147.2h-79.936l-69.824-72v-496l69.824-72h628.352l69.824 72v496l-69.824 72z" />
<glyph unicode="&#xe918;" glyph-name="pdf" data-tags="pdf" d="M128 938.667v-1024h768v640l-354.432 384h-413.568zM192 874.667h320v-320h320v-576h-640v896z" />
<glyph unicode="&#xe919;" glyph-name="tool-admin" data-tags="tool-admin, tools" d="M748.308 741.744c-54.311 0-130.718 23.788-236.308 70.971-105.59-47.183-181.996-70.971-236.308-70.971-41.708 0-78.927 3.663-118.154 12.209v-366.671c0-185.068 111.577-300.898 354.462-352.807 242.885 51.909 354.462 167.739 354.462 352.807v366.671c-39.227-8.546-76.446-12.209-118.154-12.209v0zM275.692 820.513c44.662 0 123.431 26.27 236.308 78.769 112.876-52.5 191.646-78.769 236.308-78.769 66.993 0 119.532 10.752 196.923 39.385v-472.615c0-229.14-144.423-375.926-433.231-433.231-288.807 57.305-433.231 204.091-433.231 433.231v472.615c77.391-28.633 129.93-39.385 196.923-39.385v0zM512 318.95l138.91-83.456-36.47 157.893 122.329 106.299-161.477 14.1-63.291 149.189-63.291-149.189-161.477-14.1 122.329-106.299-36.47-157.893 138.91 83.456z" />
<glyph unicode="&#xe91a;" glyph-name="sort-ascend" data-tags="arrows, angles, sort-ascend" d="M512 832l-256-256h512.064z" />
<glyph unicode="&#xe91b;" glyph-name="sort-descend" data-tags="arrows, angles, sort-descend" d="M256 320l256-256 256 256z" />
<glyph unicode="&#xe91c;" glyph-name="angle-double-left" data-tags="arrows, angles, angle-double-left" d="M512.026 767.994l-320-319.936 320-320.064v640zM831.994 767.994v-640l-319.936 320.064 319.936 319.936z" />
<glyph unicode="&#xe91d;" glyph-name="close" data-tags="close" d="M512 106.667c-65.216 0-125.696 19.776-176.256 53.248l443.008 443.008c33.472-50.56 53.248-111.040 53.248-176.256 0-176.768-143.296-320-320-320zM192 426.667c0 176.768 143.296 320 320 320 65.216 0 125.696-19.776 176.256-53.248l-443.008-443.008c-33.472 50.56-53.248 111.040-53.248 176.256zM512 874.667c-247.424 0-448-200.576-448-448s200.576-448 448-448c247.424 0 448 200.576 448 448s-200.576 448-448 448z" />
<glyph unicode="&#xe91e;" glyph-name="create" data-tags="shapes, create" d="M448 810.667v-319.936h-320v-128h320v-320.064h128v320.064h319.936v128h-319.936v319.936z" />
<glyph unicode="&#xe91f;" glyph-name="delete" data-tags="delete" d="M384 938.667l-64-128h-320v-128.064h73.152l54.784-767.936h768.064l54.848 767.936h73.152v128.064h-320.064l-63.936 128h-256zM201.472 682.603h621.056l-45.76-639.936h-529.6l-45.696 639.936zM576 170.603h128v384h-128v-384zM320 170.603h128v384h-128v-384z" />
<glyph unicode="&#xe920;" glyph-name="download" data-tags="download" d="M448 896v-397.76l-146.944 145.92-90.176-90.88 299.392-297.344 302.784 300.864-90.176 90.688-146.88-145.856v394.368h-128zM831.936 320v-192.064h-640v192.064h-127.936v-320h896v320h-128.064z" />
<glyph unicode="&#xe921;" glyph-name="email" data-tags="email" d="M0 64h1024v768h-1024v-768zM162.304 704h699.392l-349.696-299.712-349.696 299.712zM778.432 464.064l117.568 100.8v-218.304l-117.568 117.504zM128 564.864l117.568-100.8-117.568-117.504v218.304zM342.976 380.544l169.024-144.832 168.96 144.768 188.48-188.48h-714.944l188.48 188.544z" />
<glyph unicode="&#xe922;" glyph-name="launch" data-tags="launch" d="M512 874.667v-128.064h229.504l-338.752-338.752 90.496-90.432 338.688 338.688v-229.44h128.064v448h-448zM64 746.603v-767.936h767.936v320h-127.936v-192.064h-512v512h192v128h-320z" />
<glyph unicode="&#xe923;" glyph-name="private" data-tags="private" d="M357.44 938.667l-101.504-101.504v-218.496h-128l-63.936-64v-576l63.936-64h768l64.064 64v576l-64.064 64h-128v218.496l-101.44 101.504h-309.056zM384 784.107l26.496 26.56h203.008l26.496-26.56v-165.44h-256v165.44zM191.936 490.667h640v-448h-640v448zM448 170.603h128v192.064h-128v-192.064z" />
<glyph unicode="&#xe924;" glyph-name="reopen" data-tags="reopen" d="M557.44 810.667l-90.816-90.176 145.792-146.88h-318.976l-165.44-165.504v-410.496h127.936v357.44l90.496 90.496h269.44l-145.792-146.88 90.752-90.24 297.408 299.456z" />
<glyph unicode="&#xe925;" glyph-name="reply-all" data-tags="reply-all" d="M620.8 810.661l-300.8-302.848 297.344-299.392 90.816 90.24-145.856 146.88h205.376l90.56-90.496v-357.504h128v410.496l-165.504 165.504h-254.976l145.856 146.88-90.816 90.24zM300.8 810.661l-300.8-302.848 297.408-299.392 90.752 90.24-207.68 209.152 211.136 212.608-90.816 90.24z" />
<glyph unicode="&#xe926;" glyph-name="upload" data-tags="upload" d="M510.272 874.667l-299.392-297.344 90.176-90.88 146.944 145.984v-397.824h128v394.368l146.88-145.856 90.176 90.688-302.784 300.864zM831.936 298.667v-192.064h-639.936v192.064h-128v-320h896v320h-128.064z" />
<glyph unicode="&#xe927;" glyph-name="key" data-tags="key" d="M704 554.667c-35.392 0-64 28.608-64 64s28.608 64 64 64c35.392 0 64-28.608 64-64s-28.608-64-64-64zM547.2 386.859l-344.192-344.192h-75.008v75.008l344.192 344.192-17.536 70.272c-4.416 17.664-6.656 35.904-6.656 54.528 0 123.776 100.288 224 224 224s224-100.224 224-224c0-123.712-100.288-224-224-224-18.624 0-36.864 2.24-54.528 6.656l-70.272 17.536zM1024 586.667c0 194.368-157.632 352-352 352s-352-157.632-352-352c0-29.504 3.648-58.112 10.432-85.504l-330.432-330.496v-256h256l90.752 90.752 90.24-90.24 90.496 90.496-90.24 90.24 61.504 61.504 122.496-122.496 90.496 90.496-117.952 118.016c25.152-5.76 51.328-8.768 78.208-8.768 194.368 0 352 157.632 352 352z" />
<glyph unicode="&#xe928;" glyph-name="chevron-down" data-tags="arrows, chevron-down" d="M877.824 704l-365.76-353.216-365.888 353.216-82.176-79.36 448.064-432.64 447.936 432.64z" />
<glyph unicode="&#xe929;" glyph-name="copy" data-tags="copy" d="M256 938.667v-192.064h-192v-831.936h704v191.936h192.064v512.064l-320.064 320h-384zM320 874.667h320v-256h256v-448.064h-576v704.064zM128 682.603h128v-576h448v-127.936h-576v703.936z" />
<glyph unicode="&#xe92a;" glyph-name="draw" data-tags="draw" d="M653.778 455.447c-51.826 2.617-92.274 18.887-121.685 48.242-93.241 93.241-111.218 215.438-64.284 238.876 80.498 40.22 186.425-44.828 186.425-259.015 0-9.557-0.171-18.887-0.455-28.103zM899.652 509.947c-72.363-28.956-135.282-46.251-188.928-52.395 0.284 8.533 0.398 17.237 0.398 25.998 0 253.042-146.716 370.916-268.743 309.874-91.648-45.796-67.072-213.447 49.493-329.956 40.050-40.050 92.786-61.44 157.867-64.796-25.998-230.229-164.409-341.788-422.172-341.788v-56.889c289.963 0 452.267 135.794 479.46 400.1 62.123 5.803 133.461 24.917 213.732 57.060l-21.106 52.793zM56.889 881.767v-682.667l85.333-170.61 85.333 170.61v682.667h-170.667zM113.778 767.989v56.889h56.889v-56.889h-56.889zM113.778 212.526v498.574h56.889v-498.574l-28.444-56.889-28.444 56.889z" />
<glyph unicode="&#xe92b;" glyph-name="grab" data-tags="grab" d="M320 618.667v128h128v-128h-128zM320 362.667v128.064h128v-128.064h-128zM320 106.667v128h128v-128h-128zM576 618.667v128h128.064v-128h-128.064zM576 362.667v128.064h128.064v-128.064h-128.064zM576 106.667v128h128.064v-128h-128.064z" />
<glyph unicode="&#xe92c;" glyph-name="angle-double-right" data-tags="angle double right" d="M511.974 746.661v-640l320 320.064-320 319.936zM192.006 746.661v-640l319.936 320.064-319.936 319.936z" />
<glyph unicode="&#xe92d;" glyph-name="offline" data-tags="offline" d="M970.094 541.708l53.918 57.305c-139.303 130.718-319.921 203.067-512 203.067-98.658 0-194.166-19.338-282.703-55.611l-95.508 95.39-56.241-55.178 76.642-76.485c-55.217-30.247-107.205-67.111-154.191-111.183l53.878-57.305c47.774 44.859 101.1 81.841 158.287 110.671l89.206-89.049c-60.889-25.285-117.366-61.322-166.676-107.599l53.918-57.305c50.53 47.458 109.883 82.235 174.041 103.66l97.753-97.516c-71.404-10.437-137.61-42.023-190.937-92.081l53.839-57.265c51.397 48.089 117.918 74.791 188.692 74.791 8.153 0 16.187-0.473 24.222-1.142l275.22-274.708 55.414 55.926-156.121 155.845 43.717 46.513c-50.924 47.892-113.388 79.006-181.248 90.742l-119.69 119.493c19.298 2.363 38.715 4.017 58.486 4.017 121.305 0 235.402-45.686 323.387-128.276l53.839 57.305c-102.636 96.374-235.678 149.662-377.226 149.662-43.126 0-85.268-5.514-126.188-15.124l-95.114 94.956c70.223 24.655 144.62 38.203 221.302 38.203 171.835 0 333.47-64.748 458.082-181.721zM512.012 211.98c41.748 0 79.439-16.502 107.638-42.929l-107.638-114.452-107.638 114.452c28.199 26.427 65.89 42.929 107.638 42.929z" />
<glyph unicode="&#xe92e;" glyph-name="view-list" data-tags="interfaces, view-list" d="M0 874.667h1024v64h-1024v-64zM0 554.667h1024v64h-1024v-64zM0 234.667h1024v64h-1024v-64zM0-85.333h1024v64h-1024v-64z" />
<glyph unicode="&#xe92f;" glyph-name="view-grid" data-tags="interfaces, view-grid" d="M832 768h128.064v128.064h-128.064v-128.064zM448 768h128v128.064h-128v-128.064zM64 768h128v128.064h-128v-128.064zM832 384h128.064v128h-128.064v-128zM448 384h128v128h-128v-128zM64 384h128v128h-128v-128zM832 0h128.064v128h-128.064v-128zM448 0h128v128h-128v-128zM64 0h128v128h-128v-128z" />
<glyph unicode="&#xe930;" glyph-name="view-card" data-tags="interfaces, view-card" d="M0 960h1024v-1024h-1024v1024zM64 320h896v576h-896v-576zM64-0.064h896v256.064h-896v-256.064z" />
<glyph unicode="&#xe931;" glyph-name="view-location" data-tags="interfaces, view-location" d="M512 32.749c213.952 246.72 320 430.976 320 543.232 0 176.768-143.296 320-320 320s-320-143.232-320-320c0-112.256 106.048-296.512 320-543.232zM896 575.981c0-141.376-128-354.752-384-640-256 285.248-384 498.624-384 640 0 212.096 171.968 384 384 384s384-171.904 384-384zM640 575.981c0-70.656-57.344-128-128-128s-128 57.344-128 128c0 70.72 57.344 128 128 128s128-57.28 128-128z" />
<glyph unicode="&#xe932;" glyph-name="view-kanban" data-tags="interfaces, view-kanban" d="M0 960h1024v-1024h-1024v1024zM704 0h256.064v896h-256.064v-896zM384 0h256v896h-256v-896zM64 0h256.064v896h-256.064v-896z" />
<glyph unicode="&#xe933;" glyph-name="warning-triangle" data-tags="warning-triangle" d="M551.381 329.836h-78.769l-19.692 295.385h118.154l-19.692-295.385zM452.92 211.682c0 32.61 26.466 59.077 59.077 59.077s59.077-26.466 59.077-59.077c0-32.61-26.466-59.077-59.077-59.077s-59.077 26.466-59.077 59.077zM972.639 151.424l-382.858 683.756c-34.383 61.401-121.147 61.401-155.53 0l-382.937-683.756c-34.107-60.889 8.98-136.665 77.745-136.665h765.873c68.766 0 111.852 75.776 77.706 136.665z" />
<glyph unicode="&#xe934;" glyph-name="duplicate" data-tags="duplicate" d="M192 960v-192.064h-192v-831.936h832v191.936h192.064v832.064h-832.064zM256 703.936v192.064h704.064v-704.064h-704.064v512zM64 703.936h128v-576h576v-127.936h-704v703.936zM576 767.936v-191.936h-191.936v-64h191.936v-192h64v192h192v64h-192v191.936h-64z" />
<glyph unicode="&#xe935;" glyph-name="arrow-up" data-tags="arrow-up" d="M896 511.936l-383.872 384.064-90.688-90.496-293.44-293.568 90.496-90.496 229.568 229.504v-650.88h128v650.88l229.44-229.504z" />
<glyph unicode="&#xe936;" glyph-name="arrow-down" data-tags="arrow-down" d="M128 384.096l383.872-384.064 90.688 90.496 293.44 293.568-90.496 90.496-229.568-229.504v650.88h-128v-650.88l-229.44 229.504z" />
<glyph unicode="&#xe937;" glyph-name="arrow-left" data-tags="arrow-left" d="M448.064 832l-384.064-383.872 90.496-90.688 293.568-293.44 90.496 90.496-229.504 229.568h650.88v128h-650.88l229.504 229.44z" />
<glyph unicode="&#xe938;" glyph-name="arrow-right" data-tags="arrow-right" d="M575.936 64l384.064 383.872-90.496 90.688-293.568 293.44-90.496-90.496 229.504-229.568h-650.88v-128h650.88l-229.504-229.44z" />
<glyph unicode="&#xe939;" glyph-name="distribution-group" data-tags="distribution-group" d="M857.61 396.805c-27.136 0-38.4 17.382-38.4 51.2s11.264 51.2 38.4 51.2c27.11 0 38.4-17.382 38.4-51.2s-11.29-51.2-38.4-51.2zM435.21 473.605c0 67.661 22.554 102.4 76.8 102.4 54.221 0 76.8-34.739 76.8-102.4s-22.579-102.4-76.8-102.4c-54.246 0-76.8 34.739-76.8 102.4zM166.41 396.805c-27.136 0-38.4 17.382-38.4 51.2s11.264 51.2 38.4 51.2c27.11 0 38.4-17.382 38.4-51.2s-11.29-51.2-38.4-51.2zM640.010 473.605c0-70.707-25.549-153.6-128-153.6-102.477 0-128 82.893-128 153.6 0 70.682 25.523 153.6 128 153.6 102.451 0 128-82.918 128-153.6zM947.21 448.005c0-58.65-28.39-102.4-89.6-102.4s-89.6 43.75-89.6 102.4c0 58.65 28.39 102.4 89.6 102.4s89.6-43.75 89.6-102.4zM166.41 550.405c61.21 0 89.6-43.75 89.6-102.4s-28.39-102.4-89.6-102.4c-61.21 0-89.6 43.75-89.6 102.4s28.39 102.4 89.6 102.4zM128.010 193.49c-18.97 28.544-34.483 59.469-46.771 92.006 6.016 25.011 21.99 34.509 62.771 34.509h44.8c67.2 0 67.2-25.677 67.2-102.4v-152.704c-18.125 12.134-35.021 25.83-51.2 40.32v163.584h-76.8v-75.315zM614.41 217.605h-204.8c-34.995 0-51.2-13.517-51.2-51.2v-152.422c-17.613 6.221-34.662 13.44-51.2 21.683v130.739c0 76.749 51.2 102.4 102.4 102.4h204.8c51.251 0 102.4-25.549 102.4-102.4v-130.739c-16.538-8.243-33.613-15.462-51.2-21.683v152.422c0 37.76-16.154 51.2-51.2 51.2zM819.21 105.221c-15.949-14.285-33.367-27.827-51.21-39.808 0 78.717 0.077 146.432 0 150.118-1.229 78.976 0.010 104.474 67.21 104.474h44.8c40.627 0 56.627-9.498 62.976-33.894-12.314-32.768-27.904-63.898-46.976-92.621v75.315h-76.8v-163.584zM512.010 960.005c-282.778 0-512-229.222-512-512s229.222-512 512-512c282.752 0 512 229.222 512 512s-229.248 512-512 512z" />
<glyph unicode="&#xe93a;" glyph-name="import" data-tags="import" horiz-adv-x="788" d="M392.767 566.15l-184.241 182.981 55.532 55.887 90.388-89.797v244.775h78.769v-242.649l90.388 89.797 55.532-55.887-186.368-185.108zM708.829 204.796l-275.614-160.847v322.363l275.692 160.807-0.079-322.324zM78.753 204.757v322.363l275.614-160.847 0.079-322.324-275.692 160.807zM786.337 605.968c-0.118 0.354-0.354 0.63-0.433 1.024-0.866 2.914-1.969 5.79-3.505 8.389-0.118 0.276-0.354 0.473-0.512 0.709-1.615 2.639-3.466 5.159-5.711 7.404-0.315 0.354-0.827 0.591-1.182 0.906-2.127 1.969-4.293 3.86-6.853 5.317l-113.152 66.009-57.62-57.62 72.743-42.417-21.268-12.367-255.015-148.756-276.244 161.122 72.704 42.417-57.62 57.62-113.152-66.009c-2.324-1.378-4.372-3.151-6.341-4.923-0.512-0.433-1.182-0.788-1.694-1.3-1.812-1.851-3.269-3.978-4.647-6.065-0.512-0.748-1.142-1.3-1.575-2.048-1.26-2.206-2.087-4.608-2.914-7.050-0.276-0.788-0.748-1.536-0.985-2.363-0.906-3.308-1.378-6.774-1.378-10.279v-413.538c0-13.982 7.444-26.978 19.535-34.028l354.462-206.769c0.079-0.039 0.118-0.039 0.197-0.079l0.039-0.039c2.009-1.142 4.135-1.812 6.262-2.599 1.063-0.354 2.087-0.985 3.23-1.3 3.308-0.866 6.695-1.339 10.122-1.339s6.853 0.473 10.201 1.339c0.276 0.079 0.551 0.276 0.827 0.354 2.954 0.827 5.868 1.969 8.586 3.545 0.079 0.039 0.118 0.079 0.158 0.118s0.079 0.039 0.079 0.039l354.383 206.809c12.13 7.010 19.535 20.007 19.535 33.989l0.079 413.499c0 3.505-0.433 6.971-1.339 10.279z" />
<glyph unicode="&#xe93b;" glyph-name="chevron-up" data-tags="arrows, chevron-up" d="M877.824 192l-365.76 353.216-365.888-353.216-82.176 79.36 448.064 432.64 447.936-432.64z" />
<glyph unicode="&#xe93c;" glyph-name="chevron-left" data-tags="arrows, chevron-left" d="M624.64 0l79.36 82.176-353.216 365.76 353.216 365.888-79.36 82.176-432.64-448.064z" />
<glyph unicode="&#xe93d;" glyph-name="overflow" data-tags="overflow" d="M512 704c70.4 0 128 57.6 128 128s-57.6 128-128 128c-70.4 0-128-57.6-128-128s57.6-128 128-128v0zM512 576c-70.4 0-128-57.6-128-128s57.6-128 128-128c70.4 0 128 57.6 128 128s-57.6 128-128 128v0zM384 64c0-70.4 57.6-128 128-128s128 57.6 128 128c0 70.4-57.6 128-128 128s-128-57.6-128-128z" />
<glyph unicode="&#xe93e;" glyph-name="tool-bidding" data-tags="tool-bidding, tools" d="M275.692 699.597v120.916h-78.769v-121.067c-81.565-13.428-137.192-72.142-137.192-152.546v-1.532c0-98.79 61.039-132.485 169.31-160.055 94.465-22.974 114.811-43.651 114.811-81.942v-1.532c0-40.588-34.879-67.391-90.105-67.391-63.219 0-111.905 25.272-160.59 69.689l-53.772-67.391c46.518-43.772 100.21-70.642 157.538-80.95v-122.975h78.769v119.211c93.793 8.398 157.538 66.413 157.538 158.998v1.532c0 88.834-55.952 129.422-163.497 156.991-97.372 24.506-120.624 42.885-120.624 84.239v1.532c0 35.227 30.519 63.562 82.838 63.562 46.506 0 92.285-19.145 138.064-55.138l47.959 71.221c-41.378 35.009-87.429 57.21-142.279 64.629zM512 702.359h315.077v-78.769h-315.077v78.769zM512 387.282h315.077v-78.769h-315.077v78.769zM512 544.821h472.615v-78.769h-472.615v78.769zM512 229.744h393.846v-78.769h-393.846v78.769z" />
<glyph unicode="&#xe93f;" glyph-name="tool-budget" data-tags="tool-budget, tools" d="M157.538-85.333h-39.385v1024h512v-78.769h-433.231v-603.489l138.518-55.407 168.86 337.72 161.285-201.606 161.491 258.386v67.474h78.769v-748.308h-748.308zM196.923-6.564h630.154v453.443l-153.586-245.738-153.792 192.24-146.217-292.434-176.559 70.623v-178.135zM905.846 662.975h-275.692v275.692l275.692-275.692z" />
<glyph unicode="&#xe940;" glyph-name="tool-change-events" data-tags="tool-change-events, tools" d="M984.615 899.282l-277.15-55.454-410.191-410.151-0.512 0.551-139.264-139.225v-111.419l111.419-111.419h111.419l139.225 139.264-0.551 0.512 410.151 410.191 55.454 277.15zM352.768 378.263l393.334 393.334 91.648 18.353 37.534-37.534-18.353-91.648-393.334-393.334-110.828 110.828zM236.308 216.235v46.119l60.455 60.495 111.419-111.419-60.495-60.455h-46.119l-65.26 65.26zM432.246 403.194l55.454-55.414 332.603 332.564-55.454 55.414-332.603-332.564zM393.846-45.948h472.615v78.769h-472.615v-78.769zM39.385-45.948h196.923v78.769h-196.923v-78.769z" />
<glyph unicode="&#xe941;" glyph-name="tool-change-orders" data-tags="tool-change-orders, tools" d="M118.154 938.667v-1024h787.692v748.032l-0.236 0.276h0.236l-275.653 275.692h-512.039zM196.923 859.898h433.231v-196.923h196.923v-669.538h-630.154v866.462zM315.077 544.821v-275.692h300.268l-89.758-90.388 55.887-55.532 182.942 184.241-185.068 186.329-55.926-55.454 89.797-90.427h-219.372v196.923h-78.769z" />
<glyph unicode="&#xe942;" glyph-name="tool-commitments" data-tags="tool-commitments, tools" d="M734.46 671.033l-25.521 82.668 315.077 106.181v-787.692h-104.527l-21.268 68.923c-23.079-21.11-57.698-30.247-103.424-25.049l-6.735 1.339c-19.614 5.75-38.597 13.47-56.911 23.001-14.73-46.001-48.798-73.413-101.612-75.225-24.852 0-49.94 5.238-74.988 15.636-17.211-26.112-42.535-47.143-75.185-62.74-2.639-1.26-5.435-2.206-8.389-2.875-64.158-14.297-140.249 15.202-230.479 83.929-4.214 3.19-7.641 7.129-10.279 11.658l-36.076 62.503-51.318-172.347-142.809 68.49v751.065l348.042-130.757-29.223-98.068 161.674 30.799 29.46 58.25c7.759 15.399 24.655 23.946 41.59 21.11l182.902-30.799zM760.493 586.75l-193.378 32.571-99.092-196.096 68.923-31.429 84.834 82.038c12.8 12.446 32.374 14.69 47.695 5.435l152.734-92.199-61.716 199.68zM293.51 506.681l-68.923-231.266 1.182 0.709 68.687-119.020c67.82-50.57 120.162-71.207 155.294-65.772 26.742 13.706 42.063 31.311 48.482 53.878 7.168 25.127 36.352 36.47 58.604 22.764 26.466-16.345 50.53-24.025 71.365-24.064 24.222 0.827 33.95 15.006 32.414 62.503-1.024 33.556 37.691 52.972 63.961 32.020 25.915-20.677 53.327-35.407 82.432-44.465 45.489-4.214 57.777 14.415 41.708 85.071l-193.969 117.13-82.235-79.636c-11.658-11.264-29.066-14.218-43.796-7.522l-130.678 59.589c-20.362 9.295-28.83 33.634-18.826 53.602l56.438 111.537-142.139-27.057zM78.785 118.979l14.848-7.129 157.972 529.999-172.82 64.906v-587.776zM947.61 752.677l-143.399-48.325 143.399-463.99v512.315z" />
<glyph unicode="&#xe943;" glyph-name="tool-crews" data-tags="tool-crews, tools" d="M945.176 32.809h-85.622c0.158 13.312-0.709 26.466-2.757 39.385h54.666c18.59 0 33.713-15.163 33.713-33.713v-5.671zM242.909 32.809c-1.103 67.348 41.314 129.851 107.717 152.025l16.581 5.514h289.556l16.581-5.514c66.402-22.174 108.82-84.677 107.678-152.025h-538.112zM78.753 32.809v5.671c0 18.55 15.163 33.713 33.753 33.713h54.666c-2.048-12.918-2.954-26.073-2.757-39.385h-85.662zM911.462 150.963h-81.999c-27.845 49.625-73.452 89.364-131.269 108.583l-28.711 9.57h-315.077l-28.711-9.57c-57.777-19.22-103.385-58.959-131.269-108.583h-81.92c-62.149 0-112.522-50.373-112.522-112.482v-84.441h1023.961v84.441c0 62.11-50.334 112.482-112.482 112.482v0zM827.061 347.886c0 21.74 17.605 39.385 39.385 39.385 21.74 0 39.385-17.644 39.385-39.385v-39.385c0-21.74-17.644-39.385-39.385-39.385-21.78 0-39.385 17.644-39.385 39.385v39.385zM748.292 347.886v-39.385c0-65.26 52.894-118.154 118.154-118.154 65.221 0 118.154 52.894 118.154 118.154v39.385c0 65.26-52.933 118.154-118.154 118.154-65.26 0-118.154-52.894-118.154-118.154v0zM118.138 347.886c0 21.74 17.605 39.385 39.385 39.385 21.74 0 39.385-17.644 39.385-39.385v-39.385c0-21.74-17.644-39.385-39.385-39.385-21.78 0-39.385 17.644-39.385 39.385v39.385zM157.523 190.347c65.221 0 118.154 52.894 118.154 118.154v39.385c0 65.26-52.933 118.154-118.154 118.154-65.26 0-118.154-52.894-118.154-118.154v-39.385c0-65.26 52.894-118.154 118.154-118.154v0zM472.6 773.87v-110.907h-78.769c0 51.397 32.965 94.641 78.769 110.907v0zM630.138 662.963h-78.769v110.907c45.804-16.266 78.769-59.51 78.769-110.907v0zM630.138 505.424c0-65.221-52.933-118.154-118.154-118.154-65.26 0-118.154 52.933-118.154 118.154v78.769h236.308v-78.769zM315.061 505.424c0-108.78 88.143-196.923 196.923-196.923 108.741 0 196.923 88.143 196.923 196.923v78.769h78.769v78.769h-78.769c0 108.78-88.182 196.923-196.923 196.923-108.78 0-196.923-88.143-196.923-196.923h-78.769v-78.769h78.769v-78.769z" />
<glyph unicode="&#xe944;" glyph-name="tool-custom" data-tags="tool-custom, tools" d="M787.692 229.728h78.769v-39.385h39.385v-78.769h-39.385v-39.385h-78.769v39.385h-39.385v78.769h39.385v39.385zM472.025 347.882l-146.196 145.132c-150.686 183.532-169.275 332.091-55.769 445.637l334.336-278.607c67.663-67.702 171.678-166.912 307.712-312.32 62.346-3.269 111.892-54.823 111.892-117.996v-157.538c0-65.26-52.894-118.154-118.154-118.154h-787.692c-65.26 0-118.154 52.894-118.154 118.154v157.538c0 65.26 52.894 118.154 118.154 118.154h353.871zM118.154 269.113c-21.78 0-39.385-17.644-39.385-39.385v-157.538c0-21.74 17.605-39.385 39.385-39.385h787.692c21.78 0 39.385 17.644 39.385 39.385v157.538c0 21.74-17.605 39.385-39.385 39.385h-787.692zM384.354 545.868l203.5-203.461 57.344-0.906-207.636 207.636-0.394 110.986 320.473-320.433 42.181-0.67c-107.52 116.815-190.858 204.958-248.635 262.814l-266.476 222.050c-19.614-52.066-14.533-137.807 99.643-278.016v0z" />
<glyph unicode="&#xe945;" glyph-name="tool-daily-log" data-tags="tool-daily-log, tools" d="M630.154 938.667v-78.769h-78.769v78.769h-78.769v-78.769h-78.73v78.769h-78.809v-78.769h-157.538v-945.231h708.923v945.231h-157.499v78.769h-78.809zM708.962 702.359v78.73h78.769v-787.653h-551.424v787.653h78.769v-78.73h78.809v78.73h78.73v-78.73h78.769v78.73h78.769v-78.73h78.809zM472.615 544.821h236.308v78.769h-236.308v-78.769zM315.077 544.821h78.809v78.769h-78.809v-78.769zM472.615 387.282h236.308v78.809h-236.308v-78.809zM315.077 387.282h78.809v78.809h-78.809v-78.809zM472.615 229.744h236.308v78.769h-236.308v-78.769zM315.077 229.744h78.809v78.769h-78.809v-78.769zM472.615 72.166h236.308v78.809h-236.308v-78.809zM315.077 72.166h78.809v78.809h-78.809v-78.809z" />
<glyph unicode="&#xe946;" glyph-name="tool-direct-costs" data-tags="tool-direct-costs, tools" d="M630.193 938.667l32.926-33.044 242.727-242.925v-748.032h-787.692v1024h512.039zM196.923-6.564h630.154v669.538h-196.923v196.923h-433.231v-866.462zM472.615 195.204c-42.772 8.192-83.85 26.939-118.154 56.438l51.751 59.589c35.84-28.436 73.374-46.474 118.863-46.474 35.84 0 57.462 13.666 57.462 36.116v1.063c0 21.346-13.666 32.295-80.187 48.679-80.187 19.692-131.978 41.039-131.978 117.090v1.063c0 58.368 40.921 100.116 102.242 112.010v82.196h78.769v-81.959c40.369-6.341 75.855-22.055 106.181-45.489l-45.45-63.449c-35.249 23.513-69.947 37.73-103.542 37.73-33.516 0-51.2-14.769-51.2-33.359v-1.103c0-25.167 17.093-33.359 85.898-50.334 80.778-20.244 126.267-48.128 126.267-114.846v-1.103c0-67.466-47.458-108.662-118.154-117.090v-80.384h-78.769v83.614z" />
<glyph unicode="&#xe947;" glyph-name="tool-directory" data-tags="tool-directory, tools" d="M472.615 584.205v0c43.481 0 78.769-35.289 78.769-78.769v-39.385c0-43.481-35.289-78.769-78.769-78.769s-78.769 35.289-78.769 78.769v39.385c0 43.481 35.289 78.769 78.769 78.769v0zM540.042 347.898c24.537-7.404 46.159-19.298 62.897-34.658 22.331-20.48 27.215-46.356 27.215-72.822 0-2.796-1.221-5.514-3.426-7.562-2.206-2.009-5.159-3.111-8.271-3.111h-291.682c-6.459 0-11.697 4.805-11.697 10.673 0 47.34 31.193 89.718 89.994 107.481h134.971zM748.308 702.359v-708.923h-551.385v866.462h630.154v-157.538h-78.769zM905.846 623.59v315.077h-787.692v-1024h708.923v78.769h78.769v236.308h-78.769v78.769h78.769v236.308h-78.769v78.769h78.769z" />
<glyph unicode="&#xe948;" glyph-name="tool-documents" data-tags="tool-documents, tools" d="M39.385 859.898v-866.462h945.231v590.809h-78.769v157.499h-433.231l-78.769 118.154h-354.462zM118.154 781.129h233.551l78.769-118.114h396.603v-78.769h-708.923v196.884zM118.154 72.205v433.231h787.692v-433.231h-787.692z" />
<glyph unicode="&#xe949;" glyph-name="tool-drawings" data-tags="tool-drawings, tools" d="M0 859.898v-866.462h1024v551.424h-236.308v315.038h-787.692zM393.846 623.629v157.499h315.077v-315.077h236.308v-393.846h-551.385v315.077h-78.769v-315.077h-236.308v393.846h315.077v78.809h-315.077v236.268h236.308v-157.499h78.769z" />
<glyph unicode="&#xe94a;" glyph-name="tool-emails" data-tags="tool-emails, tools" d="M0 781.129v-708.923h1024v708.923h-1024zM111.813 702.359h800.374l-400.187-321.851-400.187 321.851zM693.602 425.485l251.628 202.319v-409.167l-251.628 206.848zM78.769 627.804l252.258-202.831-252.258-207.36v410.191zM630.902 375.073l272.62-224.098h-781.785l271.99 223.586 118.272-95.114 118.902 95.626z" />
<glyph unicode="&#xe94b;" glyph-name="tool-forms" data-tags="tool-forms, tools" d="M118.154 938.667v-1024h787.692v748.308l-275.692 275.692h-512zM196.923 859.898h433.231v-196.923h196.923v-669.538h-630.154v866.462zM433.231 466.052h315.077v78.769h-315.077v-78.769zM275.692 466.052h78.809v78.769h-78.809v-78.769zM433.231 308.513h315.077v78.769h-315.077v-78.769zM275.692 308.513h78.809v78.769h-78.809v-78.769zM433.231 150.975h315.077v78.769h-315.077v-78.769zM275.692 150.975h78.809v78.769h-78.809v-78.769z" />
<glyph unicode="&#xe94c;" glyph-name="tool-incidents" data-tags="tool-incidents, tools" d="M736.177 111.602l-51.633 359.463-0.158 1.497-0.197 1.536c-6.302 60.692-83.574 110.119-172.19 110.119-88.537 0-165.77-49.349-172.19-110.001l-0.158-1.457-0.236-1.418-51.633-359.739h448.394zM815.774 111.602h90.073v-157.538h-787.692v157.538h90.073l53.209 370.924c10.713 100.982 118.705 180.46 250.565 180.46 131.938 0 239.97-79.596 250.526-180.736l53.248-370.649zM866.462 347.91h157.538v78.769h-157.538v-78.769zM0 347.91h157.538v78.769h-157.538v-78.769zM915.377 725.451l-55.69 55.69-111.38-111.419 55.69-55.69 111.38 111.419zM285.223 669.721l-111.38 111.419-55.69-55.69 111.38-111.419 55.69 55.69zM472.615 741.756h78.769v157.538h-78.769v-157.538z" />
<glyph unicode="&#xe94d;" glyph-name="tool-pay" data-tags="tool-pay, tools" d="M945.231 674.554c-88.891 26.466-158.878 96.453-185.344 185.344h-495.774c-26.466-88.891-96.453-158.878-185.344-185.344v-101.927c88.891-26.466 158.878-96.453 185.344-185.344h495.774c26.466 88.891 96.453 158.878 185.344 185.344v101.927zM945.231 489.013c-45.371-19.889-81.841-56.359-101.73-101.73h101.73v101.73zM180.5 387.282c-19.889 45.371-56.359 81.841-101.73 101.73v-101.73h101.73zM78.769 758.167c45.371 19.889 81.841 56.359 101.73 101.73h-101.73v-101.73zM843.5 859.898c19.889-45.371 56.359-81.841 101.73-101.73v101.73h-101.73zM1024 938.667v-630.154h-1024v630.154h1024zM669.538 623.59c0 87.001-70.538 157.538-157.538 157.538s-157.538-70.538-157.538-157.538c0-87.001 70.538-157.538 157.538-157.538s157.538 70.538 157.538 157.538v0zM512 387.282c-130.481 0-236.308 105.826-236.308 236.308 0 130.521 105.826 236.308 236.308 236.308s236.308-105.787 236.308-236.308c0-130.481-105.826-236.308-236.308-236.308v0zM472.615 229.744h78.769v-160.926l70.617 70.617 55.69-55.69-166.991-167.030-167.148 167.030 55.65 55.729 73.413-73.374v163.643z" />
<glyph unicode="&#xe94e;" glyph-name="tool-photos" data-tags="tool-photos, tools" d="M0 32.821h1024v787.692h-1024v-787.692zM78.769 741.744h866.462v-260.411l-157.026 156.869-393.216-392.704-118.193 117.681-198.026-198.105v576.67zM788.204 526.861l157.026-156.908v-258.363h-808.566l140.249 140.249 118.154-117.602 393.137 392.625zM275.692 505.436c21.74 0 39.385 17.644 39.385 39.385s-17.644 39.385-39.385 39.385c-21.74 0-39.385-17.644-39.385-39.385s17.644-39.385 39.385-39.385v0zM275.692 426.667c-65.26 0-118.154 52.894-118.154 118.154s52.894 118.154 118.154 118.154c65.26 0 118.154-52.894 118.154-118.154s-52.894-118.154-118.154-118.154v0z" />
<glyph unicode="&#xe94f;" glyph-name="tool-prime-contract" data-tags="tool-prime-contract, tools" d="M827.077-6.564h-630.154v866.462h433.231v-196.923h196.923v-669.538zM905.846 662.975l-275.653 275.692h-512.039v-1024h787.692v748.071l-0.236 0.236h0.236zM275.692 702.359h196.923v78.769h-196.923v-78.769zM275.692 505.436h472.615v78.769h-472.615v-78.769zM275.692 347.898h472.615v78.769h-472.615v-78.769zM510.858 148.533l2.993-18.865c68.923 73.886 152.615 105.314 236.268 101.455l39.345-1.812-3.623-78.69-39.345 1.812c-64.945 3.033-129.812-22.922-184.438-87.079-37.1-43.52-85.937-44.268-110.75 2.836-11.579 22.095-17.447 52.775-21.74 98.383l-0.315 2.914c-29.893-42.102-55.454-65.851-88.93-71.877-66.521-12.052-104.015 33.162-104.015 108.229v39.385h78.769v-39.385c0-31.468 0.945-32.61 11.264-30.72 7.247 1.3 24.222 18.511 45.332 49.506 3.938 5.829 29.223 44.898 35.682 53.721 8.074 10.949 14.651 18.117 23.67 23.513 24.3 14.533 53.524 4.45 64.276-21.701 4.687-11.461 6.223-23.946 8.586-54.863 0.354-4.332 1.575-21.228 1.89-25.088 0.748-10.161 1.457-18.393 2.166-26.23 0.906-9.255 1.851-17.802 2.914-25.442v0z" />
<glyph unicode="&#xe950;" glyph-name="tool-project-home" data-tags="tool-project-home, tools" d="M157.538 899.282v-315.077h-157.538v-630.154h1024.039v630.154h-157.578v315.077h-708.923zM236.347 584.205v236.268h551.345v-236.268h-551.345zM78.769 505.436h866.501v-472.655h-866.501v472.655zM630.193 662.975h78.769v78.769h-78.769v-78.769zM472.615 662.975h78.809v78.769h-78.809v-78.769zM315.116 662.975h78.769v78.769h-78.769v-78.769zM787.692 347.898h78.769v78.769h-78.769v-78.769zM630.193 111.551h78.769v315.077h-78.769v-315.077zM472.615 111.551h78.809v315.077h-78.809v-315.077zM315.116 111.551h78.769v315.077h-78.769v-315.077zM157.538 347.898h78.809v78.769h-78.809v-78.769zM787.692 190.359h78.769v78.769h-78.769v-78.769zM157.538 190.359h78.809v78.769h-78.809v-78.769z" />
<glyph unicode="&#xe951;" glyph-name="tool-punch-list" data-tags="tool-punch-list, tools" d="M779.086 492.391c-44.668 36.266-68.408 12.875-135.206-15.939l-49.092-21.176-260.598 260.598-110.988-110.988 259.678-260.653-21.129-48.981c-28.744-66.637-51.943-90.788-15.477-135.672l332.811 332.811zM389.888 771.572l222.793-222.793c104.159 44.93 165.946 56.847 236.603-13.81 23.324-23.324 21.448-62.328-3.258-87.035l-149.797-149.797 278.491-278.491-55.698-55.698-278.491 278.491-149.797-149.797c-24.706-24.706-63.711-26.583-87.035-3.258-70.657 70.657-59.204 132.909-14.274 237.067l-221.909 222.749-83.967-83.967-55.698 55.698 389.888 389.888 55.698-55.698-83.547-83.547z" />
<glyph unicode="&#xe952;" glyph-name="tool-reports" data-tags="tool-reports, tools" d="M118.154 938.667v-1024h787.692v748.032l-0.236 0.276h0.236l-275.653 275.692h-512.039zM196.923 859.898h433.231v-196.923h196.923v-669.538h-630.154v866.462zM472.615 72.166h78.769v472.655h-78.769v-472.655zM315.077 72.166h78.769v393.886h-78.769v-393.886zM630.154 72.166h78.809v315.077h-78.809v-315.077z" />
<glyph unicode="&#xe953;" glyph-name="tool-rfis" data-tags="tool-rfis, tools" d="M827.077-6.564h-630.154v866.462h433.231v-196.923h196.923v-669.538zM905.846 662.975l-275.653 275.692h-512.039v-1024h787.692v748.071l-0.236 0.236h0.236zM512 111.59c21.78 0 39.385 17.644 39.385 39.385s-17.605 39.385-39.385 39.385c-21.78 0-39.385-17.644-39.385-39.385s17.605-39.385 39.385-39.385v0zM551.385 229.744h-78.769v23.552c-0.866 50.255 17.093 90.112 53.366 119.966 7.956 6.538 15.714 12.288 23.079 17.762 30.444 22.567 41.826 31.035 41.63 74.476-0.276 58.486-40.802 79.321-78.69 79.321-43.441 0-78.769-40.645-78.769-90.585h-78.769c0 93.381 70.656 169.354 157.538 169.354 92.278 0 157.026-64.866 157.46-157.735 0.394-83.298-38.833-112.404-73.452-138.082-6.38-4.726-13.115-9.728-20.007-15.36-25.285-20.795-24.852-45.568-24.655-56.162l0.039-26.506z" />
<glyph unicode="&#xe954;" glyph-name="tool-rfqs" data-tags="tool-rfqs, tools" d="M531.692 192h-78.769v19.614c0 0.315 0 0.315 0 1.615-0.473 26.782 4.057 50.215 21.504 75.815 6.853 10.043 15.281 19.338 25.364 27.609 7.365 6.026 30.523 23.316 27.963 21.386 19.377 14.848 23.67 22.607 23.552 50.412-0.158 38.203-22.804 59.55-58.998 59.55-31.744 0-59.077-30.050-59.077-68.923h-78.769c0 80.778 60.81 147.692 137.846 147.692 78.69 0 137.413-55.454 137.767-137.964 0.236-54.075-16.542-84.204-54.311-113.231 1.221 0.945-20.283-15.124-25.954-19.771-4.293-3.545-7.641-7.207-10.279-11.106-6.38-9.334-8.074-18.117-7.877-30.129 0.039-1.26 0.039-1.26 0.039-2.954v-19.614zM492.308 93.538c-18.117 0-32.807 14.69-32.807 32.807s14.69 32.847 32.807 32.847c18.117 0 32.807-14.73 32.807-32.847s-14.69-32.807-32.807-32.807v0zM945.231 684.308h78.769v-748.308h-1024v1024h354.462l78.769-118.154h512v-157.538zM78.769 881.231v-196.923h787.692v78.769h-475.372l-78.769 118.154h-233.551zM78.769 14.769h866.462v590.769h-866.462v-590.769z" />
<glyph unicode="&#xe955;" glyph-name="tool-safety" data-tags="tool-safety, tools" d="M420.116 899.282l-167.109-787.771h-95.468v-157.46h708.923v157.46h-95.468l-167.109 787.771h-183.769zM483.919 820.434h56.162l41.748-196.844h-139.658l41.748 196.844zM425.433 544.821h173.135l16.66-78.848h-206.494l16.699 78.848zM391.995 387.243h239.931l58.526-275.732h-356.982l58.526 275.732z" />
<glyph unicode="&#xe956;" glyph-name="tool-schedule" data-tags="tool-schedule, tools" d="M39.385 899.282v-945.231h945.231v945.231h-945.231zM118.154 623.59v196.884h787.692v-196.884h-787.692zM118.154 32.781v512.039h787.692v-512.039h-787.692zM216.615 662.975c-32.627 0-59.077 26.45-59.077 59.077s26.45 59.077 59.077 59.077c32.627 0 59.077-26.45 59.077-59.077s-26.45-59.077-59.077-59.077zM807.385 662.975c-32.627 0-59.077 26.45-59.077 59.077s26.45 59.077 59.077 59.077c32.627 0 59.077-26.45 59.077-59.077s-26.45-59.077-59.077-59.077zM343.787 111.59h82.45v345.198h-75.579l-114.35-83.374 42.697-58.021 64.782 49.732v-253.535zM497.031 111.59h251.276v71.185h-141.834l80.487 71.185c7.852 7.151 15.459 14.383 22.821 21.697s13.905 15.196 19.631 23.647c5.726 8.451 10.224 17.634 13.496 27.548s4.908 21.047 4.908 33.398c0 17.878-3.517 33.48-10.552 46.806s-16.441 24.378-28.22 33.155c-11.779 8.776-25.193 15.277-40.243 19.503s-30.591 6.338-46.624 6.338c-17.014 0-33.127-2.519-48.341-7.557s-28.71-12.352-40.489-21.941c-11.779-9.589-21.512-21.209-29.201-34.861s-12.515-29.254-14.478-46.806l79.015-10.726c1.636 15.602 6.789 28.198 15.459 37.786s19.876 14.383 33.618 14.383c13.087 0 23.557-3.819 31.41-11.458s11.779-17.634 11.779-29.985c0-10.401-2.617-19.828-7.852-28.279s-12.106-16.74-20.613-24.866l-135.454-121.892v-68.259z" />
<glyph unicode="&#xe957;" glyph-name="tool-site-instructions" data-tags="tool-site-instructions, tools" d="M433.231 300.315v410.242l-137.222 70.571h-99.086v-551.385h99.086l137.222 70.571zM905.846 623.59h78.769v-236.308h-78.769v-118.154h-118.154v-275.692h-236.308v275.692h-39.385v-16.879l-196.923-101.275h-196.923v196.923h-78.769v315.077h78.769v196.923h196.923l196.923-101.275v-16.879h393.846v-118.154zM630.154 269.129v-196.923h78.769v196.923h-78.769zM512 662.975v-315.077h315.077v315.077h-315.077z" />
<glyph unicode="&#xe958;" glyph-name="tool-specifications" data-tags="tool-specifications, tools" d="M945.231 72.205h-393.846v34.58c54.981 62.11 159.665 95.823 315.077 100.51l-0.079 416.295h78.848v-551.385zM78.769 72.205v551.385h78.848l-0.079-416.295c155.412-4.687 260.096-38.4 315.077-100.51v-34.58h-393.846zM236.386 623.59l0.039 78.769v76.13c90.545-6.498 179.554-26.782 219.451-76.13 7.050-8.743 13.076-18.038 16.738-28.711v-463.281c-58.289 37.455-136.704 60.928-236.268 70.853l0.039 342.37zM551.385 623.59v50.058c3.663 10.673 9.689 19.968 16.738 28.711 39.857 49.349 128.906 69.632 219.451 76.13v-76.13l0.039-78.769 0.039-342.37c-99.564-9.925-177.979-33.398-236.268-70.853v413.223zM866.343 702.359l-0.039 157.538c-176.679 0-294.676-33.556-354.304-100.47-59.589 66.914-177.625 100.47-354.304 100.47l-0.039-157.538h-157.657v-708.923h1024v708.923h-157.657z" />
<glyph unicode="&#xe959;" glyph-name="tool-submittals" data-tags="tool-submittals, tools" d="M196.923-6.564h630.154v78.769h-630.154v-78.769zM390.264 544.821l-35.802 196.901v118.175l78.769 78.769h157.538l78.769-78.769v-118.175l-35.802-196.901h272.11v-630.154h-787.692v630.154h272.11zM404.586 466.052h-207.663v-315.077h630.154v315.077h-207.663l-28.645-157.538h-157.538l-28.645 157.538zM905.846 111.59v-39.385h-787.692v78.769h787.692v-39.385z" />
<glyph unicode="&#xe95a;" glyph-name="tool-superuser" data-tags="tool-superuser, tools" d="M354.462 358.591c0 47.34 31.232 89.679 89.954 107.481h135.010c24.537-7.444 46.159-19.338 62.897-34.658 22.331-20.48 27.215-46.356 27.215-72.822 0-2.796-1.221-5.553-3.426-7.562s-5.199-3.111-8.271-3.111h-291.682c-6.42 0-11.697 4.766-11.697 10.673v0zM433.231 584.225v39.385c0 43.481 35.289 78.769 78.769 78.769s78.769-35.289 78.769-78.769v-39.385c0-43.52-35.289-78.769-78.769-78.769s-78.769 35.249-78.769 78.769v0zM827.077 42.135l-315.077 157.538-315.077-157.538v817.782h630.154v-817.782zM118.154 938.687v-1024l393.846 196.923 393.846-196.923v1024h-787.692z" />
<glyph unicode="&#xe95b;" glyph-name="tool-tasks" data-tags="tool-tasks, tools" d="M800.926 820.513l-307.436-460.446-98.658 163.525-67.466-40.684 162.777-269.706 376.32 563.554-65.536 43.756zM118.154 820.513v-787.692h787.692v512h-78.769v-433.231h-630.154v630.154h393.846v78.769h-472.615z" />
<glyph unicode="&#xe95c;" glyph-name="tool-timesheet" data-tags="tool-timesheet, tools" d="M551.385 364.554v140.879h-78.769v-183.69l1.378-0.236-1.378-2.442 136.428-78.769 39.385 68.214-97.044 56.044zM512 150.971c108.78 0 196.923 88.182 196.923 196.923s-88.143 196.923-196.923 196.923c-108.78 0-196.923-88.182-196.923-196.923s88.143-196.923 196.923-196.923v0zM512 72.202c-152.261 0-275.692 123.431-275.692 275.692s123.431 275.692 275.692 275.692c152.261 0 275.692-123.431 275.692-275.692s-123.431-275.692-275.692-275.692v0zM827.077-6.568h-630.154v866.462h433.231v-196.923h196.923v-669.538zM630.154 938.663h-512v-1024h787.692v748.308l-275.692 275.692z" />
<glyph unicode="&#xe95d;" glyph-name="tool-transmittals" data-tags="tool-transmittals, tools" d="M938.654 859.898l-938.654-590.73 444.101-85.425 67.899-228.391 99.131 196.254 412.869-79.399-85.346 787.692zM589.706 235.927l290.186 435.239 54.311-501.484-344.497 66.245zM784.148 669.591l-278.331-417.516-294.951 56.714 573.282 360.802z" />
<glyph unicode="&#xe95e;" glyph-name="tool-meetings" data-tags="tool-meetings, tools" d="M787.692 72.205c-23.198 0-43.835 10.24-58.25 26.191-12.642 13.982-20.519 32.256-20.519 52.578 0 14.375 4.096 27.648 10.831 39.227 6.932 11.934 16.778 21.78 28.711 28.711 11.579 6.695 24.852 10.831 39.227 10.831 20.322 0 38.597-7.877 52.578-20.519 15.951-14.415 26.191-35.052 26.191-58.25 0-43.481-35.289-78.769-78.769-78.769zM512 111.59c-42.417 0-82.826 8.507-119.729 23.71 0.551 5.199 1.575 10.279 1.575 15.675 0 87.001-70.538 157.538-157.538 157.538-5.396 0-10.476-1.024-15.675-1.575-15.202 36.903-23.71 77.312-23.71 119.729s8.507 82.826 23.71 119.729c5.199-0.551 10.279-1.575 15.675-1.575 87.001 0 157.538 70.538 157.538 157.538 0 5.396-1.024 10.476-1.575 15.675 36.903 15.202 77.312 23.71 119.729 23.71s82.826-8.507 119.729-23.71c-0.551-5.199-1.575-10.279-1.575-15.675 0-87.001 70.538-157.538 157.538-157.538 5.396 0 10.476 1.024 15.675 1.575 15.202-36.903 23.71-77.312 23.71-119.729s-8.507-82.826-23.71-119.729c-5.199 0.551-10.279 1.575-15.675 1.575-87.001 0-157.538-70.538-157.538-157.538 0-5.396 1.024-10.476 1.575-15.675-36.903-15.202-77.312-23.71-119.729-23.71zM236.308 72.205c-43.481 0-78.769 35.289-78.769 78.769 0 23.198 10.24 43.835 26.191 58.25 13.982 12.642 32.256 20.519 52.578 20.519 14.375 0 27.648-4.135 39.227-10.831 11.934-6.932 21.78-16.778 28.711-28.711 6.735-11.579 10.831-24.852 10.831-39.227 0-20.322-7.877-38.597-20.519-52.578-14.415-15.951-35.052-26.191-58.25-26.191zM236.308 781.129c23.198 0 43.835-10.24 58.25-26.191 12.642-13.982 20.519-32.256 20.519-52.578 0-14.375-4.096-27.648-10.831-39.227-6.932-11.934-16.778-21.78-28.711-28.711-11.579-6.735-24.852-10.831-39.227-10.831-20.322 0-38.597 7.877-52.578 20.519-15.951 14.415-26.191 35.052-26.191 58.25 0 43.481 35.289 78.769 78.769 78.769zM787.692 781.129c43.481 0 78.769-35.289 78.769-78.769 0-23.198-10.24-43.835-26.191-58.25-13.982-12.642-32.256-20.519-52.578-20.519-14.375 0-27.648 4.096-39.227 10.831-11.934 6.932-21.78 16.778-28.711 28.711-6.735 11.579-10.831 24.852-10.831 39.227 0 20.322 7.877 38.597 20.519 52.578 14.415 15.951 35.052 26.191 58.25 26.191zM877.41 280.235c18.156 45.332 28.436 94.641 28.436 146.432s-10.279 101.1-28.436 146.432c40.921 28.436 67.82 75.658 67.82 129.26 0 87.001-70.538 157.538-157.538 157.538-53.602 0-100.825-26.9-129.26-67.82-45.332 18.156-94.641 28.436-146.432 28.436s-101.1-10.279-146.432-28.436c-28.436 40.921-75.658 67.82-129.26 67.82-87.001 0-157.538-70.538-157.538-157.538 0-53.602 26.9-100.825 67.82-129.26-18.156-45.332-28.436-94.641-28.436-146.432s10.279-101.1 28.436-146.432c-40.921-28.436-67.82-75.658-67.82-129.26 0-87.001 70.538-157.538 157.538-157.538 53.602 0 100.825 26.9 129.26 67.82 45.332-18.156 94.641-28.436 146.432-28.436s101.1 10.279 146.432 28.436c28.436-40.921 75.658-67.82 129.26-67.82 87.001 0 157.538 70.538 157.538 157.538 0 53.602-26.9 100.825-67.82 129.26z" />
<glyph unicode="&#xe95f;" glyph-name="tool-observations" data-tags="tool-observations, tools" d="M945.231 308.513c0 14.651-2.639 28.554-6.42 41.984-7.68 27.648-22.292 52.303-42.457 71.562-28.318 27.097-66.481 43.993-108.662 43.993-65.536 0-121.777-40.29-145.447-97.359-7.759-18.55-12.091-38.833-12.091-60.18 0-7.641 1.182-15.006 2.284-22.37 10.949-76.209 76.052-135.168 155.254-135.168 86.882 0 157.538 70.656 157.538 157.538v0zM630.154 484.287c41.826 37.534 96.926 60.534 157.538 60.534 39.542 0 76.721-9.846 109.45-26.978l-23.394 94.72c-13.076 52.894-60.258 89.797-114.727 89.797h-26.703c-56.359 0-102.164-45.844-102.164-102.164v-115.909zM472.615 387.282h78.769v78.769h-78.769v-78.769zM393.846 600.196c0 56.32-45.804 102.164-102.164 102.164h-26.703c-54.469 0-101.652-36.903-114.727-89.797l-23.394-94.72c32.729 17.132 69.908 26.978 109.45 26.978 60.613 0 115.673-23.001 157.538-60.534v115.909zM393.846 308.513c0 21.346-4.332 41.63-12.091 60.18-23.67 57.068-79.911 97.359-145.447 97.359-42.181 0-80.345-16.896-108.662-43.993-20.165-19.259-34.777-43.914-42.457-71.562-3.781-13.43-6.42-27.333-6.42-41.984 0-86.882 70.656-157.538 157.538-157.538 79.202 0 144.305 58.959 155.254 135.168 1.103 7.365 2.284 14.73 2.284 22.37v0zM787.692 72.205c-117.051 0-213.898 85.228-232.684 196.923h-86.016c-18.786-111.695-115.633-196.923-232.684-196.923-130.481 0-236.308 105.826-236.308 236.308 0 26.742 4.647 52.382 12.839 76.327l60.967 246.626c21.74 87.906 100.588 149.662 191.173 149.662h26.703c99.919 0 180.933-81.014 180.933-180.933v-15.99h78.769v15.99c0 99.919 81.014 180.933 180.933 180.933h26.703c90.585 0 169.433-61.755 191.173-149.662l60.967-246.626c8.192-23.946 12.839-49.585 12.839-76.327 0-130.481-105.826-236.308-236.308-236.308z" />
<glyph unicode="&#xe960;" glyph-name="tool-inspections" data-tags="tool-inspections, tools" d="M485.463 347.358l150.095 256.748 67.978-39.778-218.27-373.445-125.44 216.025 68.057 39.542 57.58-99.092zM275.7 859.91l78.769 78.769h315.077l78.769-78.769h157.538v-945.231h-787.692v945.231h157.538zM275.7 781.14h-78.769v-787.692h630.154v787.692h-78.769v-78.769h-472.615v78.769zM472.623 859.91c-21.78 0-39.385-17.644-39.385-39.385 0-21.78 17.605-39.385 39.385-39.385h78.769c21.78 0 39.385 17.605 39.385 39.385 0 21.74-17.605 39.385-39.385 39.385h-78.769z" />
<glyph unicode="&#xe961;" glyph-name="question-circle-o" data-tags="question-circle-o" d="M469.376 288v27.733c-0.256 13.013 0.341 23.509 2.901 36.949 3.84 19.669 11.392 38.784 23.595 56.704 8.405 12.373 18.859 23.765 31.36 34.091 9.387 7.68 39.296 30.037 36.096 27.563 27.179 20.864 34.133 33.408 33.963 72.363-0.256 54.485-33.536 85.931-85.248 85.931-46.165 0-85.333-43.093-85.333-98.133h-85.333c0 100.48 75.477 183.467 170.667 183.467 97.707 0 170.112-68.437 170.581-170.88 0.299-67.413-20.181-104.149-67.285-140.416 1.792 1.365-26.368-19.627-33.92-25.813-6.229-5.12-11.179-10.539-15.061-16.213-9.472-13.909-11.989-26.923-11.691-44.117 0.043-1.664 0.043-1.664 0.043-3.712v-25.515h-85.333zM512.043 245.334c-35.328 0-64-28.672-64-64s28.672-64 64-64c35.328 0 64 28.672 64 64s-28.672 64-64 64v0zM512 938.667c-282.752 0-512-229.248-512-512s229.248-512 512-512c282.795 0 512 229.248 512 512s-229.205 512-512 512v0zM512 853.334c235.307 0 426.667-191.403 426.667-426.667s-191.36-426.667-426.667-426.667c-235.264 0-426.667 191.403-426.667 426.667s191.403 426.667 426.667 426.667v0z" />
<glyph unicode="&#xe962;" glyph-name="announcements" data-tags="announcements" d="M511.968-25.147c-39.232 0-72.256 25.216-84.736 60.096h169.536c-12.48-34.88-45.568-60.096-84.8-60.096v0zM832 275.717v214.95c0 147.008-124.576 295.002-263.968 321.242 12.224 13.568 19.904 31.168 19.904 50.816 0 41.856-34.048 75.968-75.968 75.968s-75.904-34.112-75.904-75.968c0-19.648 7.616-37.248 19.84-50.816-139.392-26.24-263.904-174.234-263.904-321.242v-214.95l-128.032-233.050h300.608c13.952-68.672 74.624-127.974 147.392-127.974 72.832 0 133.44 59.302 147.392 127.974h300.608l-127.968 233.050z" />
<glyph unicode="&#xe963;" glyph-name="app-marketplace" data-tags="app-marketplace" d="M640 960v-320h-256.064v320h-63.936v-320h-192v-64h768v64h-192v320h-64zM192 512l31.232-224.064 160.768-158.976v-192.96h256v192.96l160.832 158.976 31.168 224.064h-640z" />
<glyph unicode="&#xe964;" glyph-name="assembly-integration" data-tags="assembly-integration" d="M513.95 771.779c137.098-0.315 188.77-126.031 247.532-251.116 68.057-145.054-111.892 98.225-248.95 98.619h0.118c-137.058 0.394-320.945-241.979-252.101-97.319 59.431 124.849 111.813 250.25 248.911 249.817h4.49zM512.572 903.638c34.658-0.079 62.7-28.357 62.622-63.212-0.118-34.816-28.278-62.937-62.937-62.858s-62.7 28.396-62.582 63.212c0.079 34.855 28.199 63.015 62.897 62.858zM900.825 89.204c-69.514-118.666-203.658-99.998-340.834-87.828-159.074 14.218 140.918 47.458 210.432 166.046l-0.079-0.118c69.514 118.626-46.001 400.305 43.599 267.618 77.351-114.491 158.681-223.153 89.167-341.78l-2.284-3.938zM9.158 23.865c17.566-30.011 55.966-40.054 85.898-22.41 29.893 17.684 39.818 56.32 22.252 86.292-17.566 30.011-56.044 40.015-85.898 22.331-29.893-17.644-39.897-56.241-22.252-86.213zM1014.844 23.865c-17.566-30.011-56.044-40.054-85.898-22.41-29.893 17.684-39.897 56.32-22.292 86.292 17.566 30.011 56.044 40.015 85.898 22.331 29.932-17.644 39.936-56.241 22.292-86.213zM120.892 93.142c-69.553 118.626 11.776 227.289 89.127 341.78 89.639 132.687-25.915-148.992 43.599-267.618l-0.079 0.118c69.514-118.587 369.506-151.828 210.471-166.046-137.216-12.17-271.36-30.838-340.834 87.828l-2.284 3.938z" />
<glyph unicode="&#xe965;" glyph-name="pendo-training" data-tags="pendo" d="M39.385 938.667v-708.923h266.358l-108.82-196.214 66.678-40.094 131.033 236.308h77.982v-315.077h78.769v315.077h77.982l131.033-236.308 66.678 40.094-108.78 196.214h266.319v708.923h-945.231zM118.154 859.898h787.692v-551.385h-787.692v551.385zM512 702.359v78.769h157.578v-78.769h-157.578zM196.923 781.089h236.308v-236.268h-236.308v236.268zM275.692 623.59h78.769v78.769h-78.769v-78.769zM524.091 623.59h-12.091v-78.769h315.077v78.769h-302.986zM587.225 466.052h-75.225v-78.769h236.308v78.769h-161.083z" />
<glyph unicode="&#xe966;" glyph-name="pendo-maintenance" data-tags="pendo" d="M549.423 593.34l-46.891-46.891 120.661-120.704 46.891 46.933 214.656 53.675 33.536 134.144-53.675-53.717c-50.005-49.963-131.072-49.963-181.035 0-50.005 50.005-50.005 131.072 0 181.035l53.675 53.675-134.144-33.536-53.675-214.613zM502.532 365.415l-301.696-301.653c-16.683-16.683-43.648-16.683-60.331 0-16.683 16.64-16.683 43.648 0 60.331l301.696 301.653 60.331-60.331zM562.863 365.415l-120.661 120.704-331.861-331.861c-33.323-33.323-33.323-87.381 0-120.704 33.28-33.28 87.339-33.28 120.661 0l331.861 331.861zM1015.428 697.319l-60.288-241.365-241.408-60.373-422.4-422.357c-66.603-66.645-174.72-66.645-241.323 0-66.688 66.645-66.688 174.72 0 241.365l422.357 422.357 60.331 241.408 241.365 60.331 90.539-90.496-120.704-120.704c-16.683-16.683-16.683-43.691 0-60.373 16.64-16.64 43.691-16.64 60.331 0l120.704 120.704 90.496-90.496z" />
<glyph unicode="&#xe967;" glyph-name="pendo-feedback" data-tags="pendo" d="M640 512c0 23.595 19.072 42.667 42.667 42.667s42.667-19.072 42.667-42.667c0-23.595-19.072-42.667-42.667-42.667s-42.667 19.072-42.667 42.667zM469.333 512c0 23.595 19.072 42.667 42.667 42.667s42.667-19.072 42.667-42.667c0-23.595-19.072-42.667-42.667-42.667s-42.667 19.072-42.667 42.667zM298.667 512c0 23.595 19.072 42.667 42.667 42.667s42.667-19.072 42.667-42.667c0-23.595-19.072-42.667-42.667-42.667s-42.667 19.072-42.667 42.667zM896 256h-768v512h768v-512zM896 853.334h-768c-47.104 0-85.333-38.229-85.333-85.333v-512c0-47.104 38.229-85.333 85.333-85.333h170.667v-170.667l170.667 170.667h426.667c47.104 0 85.333 38.229 85.333 85.333v512c0 47.104-38.229 85.333-85.333 85.333z" />
<glyph unicode="&#xe968;" glyph-name="pendo-announcement" data-tags="pendo" d="M344.363 787.84l-73.259-228.395 12.885-12.928-241.323-241.365 60.331-60.331-60.331-60.331 150.827-150.869 60.331 60.331 60.416-60.331 60.288 60.331 180.992-181.035 181.077 181.035-168.149 168.064 228.437 73.301 150.869 150.869-120.661 120.661 60.331 60.331-211.2 211.157-60.331-60.331-120.704 120.661-150.827-150.827zM368.256 582.955l51.029 159.189 75.904 75.861 331.904-331.819-75.904-75.904-159.189-51.115-223.744 223.787zM283.989 184.491l-120.661 120.661 181.035 181.035 150.827-150.869-180.949-181.035-30.251 30.208zM434.859 154.283l60.331 60.373 120.704-120.704-60.373-60.331-120.661 120.661z" />
<glyph unicode="&#xe969;" glyph-name="rotate-right" data-tags="rotate-right" horiz-adv-x="887" d="M409.6 413.867h409.6v-409.6h-409.6v409.6zM409.6 482.133c-37.703 0-68.267-30.564-68.267-68.267v-409.6c0-37.703 30.564-68.267 68.267-68.267h409.6c37.703 0 68.267 30.564 68.267 68.267v409.6c0 37.703-30.564 68.267-68.267 68.267h-409.6zM477.867 823.467h-307.2c-94.257 0-170.667-76.41-170.667-170.667v-512h68.267v512c0 56.554 45.846 102.4 102.4 102.4h307.2v-103.575l273.067 136.533-273.067 136.533v-101.225z" />
<glyph unicode="&#xe96a;" glyph-name="rotate-left" data-tags="rotate-left" horiz-adv-x="887" d="M477.867 413.867h-409.6v-409.6h409.6v409.6zM477.867 482.133c37.703 0 68.267-30.564 68.267-68.267v-409.6c0-37.703-30.564-68.267-68.267-68.267h-409.6c-37.703 0-68.267 30.564-68.267 68.267v409.6c0 37.703 30.564 68.267 68.267 68.267h409.6zM409.6 823.467h307.2c94.257 0 170.667-76.41 170.667-170.667v-512h-68.267v512c0 56.554-45.846 102.4-102.4 102.4h-307.2v-103.575l-273.067 136.533 273.067 136.533v-101.225z" />
<glyph unicode="&#xe96b;" glyph-name="home" data-tags="home" d="M640-64v298.667c0 70.692-57.308 128-128 128s-128-57.308-128-128v-298.667h-384v512l512 512 512-512v-512h-384z" />
<glyph unicode="&#xe96c;" glyph-name="procore-connect" data-tags="procore-connect" d="M192 768h384c35.346 0 64-28.654 64-64v-256c0-35.346-28.654-64-64-64h-128v-128h128c106.042 0 192 85.962 192 192v256c0 106.038-85.958 192-192 192h-384c-106.038 0-192-85.962-192-192v-256c0-106.038 85.962-192 192-192v128c-35.346 0-64 28.654-64 64v256c0 35.346 28.654 64 64 64zM256 384v-192c0-106.042 85.962-192 192-192h384c106.042 0 192 85.958 192 192v256c0 106.038-85.958 192-192 192v-128c35.347 0 64-28.654 64-64v-256c0-35.347-28.653-64-64-64h-384c-35.346 0-64 28.653-64 64v256c0 35.346 28.654 64 64 64h128v128h-128c-106.038 0-192-85.962-192-192v-64z" />
<glyph unicode="&#xe96d;" glyph-name="distribute" data-tags="distribute" d="M1024 960l-1024-576 384-128.064 64-319.936 192 255.936 384-64v832.064zM896 663.744v-384.64l-297.728 49.664 297.728 334.976zM314.56 414.080l376.576 211.776-231.36-260.224-145.216 48.448z" />
<glyph unicode="&#xe96e;" glyph-name="export" data-tags="export" d="M960 896v-64h-896v64h896zM64 832h64v-448h-64v448zM896 832h64v-448h-64v448zM384 448v-64h-320v64h320zM960 448v-64h-320v64h320zM480 64v576h64v-576h-64zM758.63 233.37l-246.63-246.624-246.627 246.624 45.254 45.254 201.373-201.37 201.37 201.37 45.261-45.254z" />
<glyph unicode="&#xe96f;" glyph-name="tool-itp" data-tags="tool-itp, tools" d="M866.465-6.556c-43.481 0-78.769 35.249-78.769 78.769 0 43.481 35.289 78.769 78.769 78.769s78.769-35.289 78.769-78.769c0-43.52-35.289-78.769-78.769-78.769v0zM492.312 311.908l-106.614 106.614 55.69 55.729 50.924-50.924 110.001 110.001 55.69-55.729-165.691-165.691zM157.542-6.556c-43.481 0-78.769 35.249-78.769 78.769 0 43.481 35.289 78.769 78.769 78.769s78.769-35.289 78.769-78.769c0-43.52-35.289-78.769-78.769-78.769v0zM157.542 702.367c-43.481 0-78.769 35.289-78.769 78.769s35.289 78.769 78.769 78.769c43.481 0 78.769-35.289 78.769-78.769s-35.289-78.769-78.769-78.769v0zM866.465 859.906c43.481 0 78.769-35.289 78.769-78.769s-35.289-78.769-78.769-78.769c-43.481 0-78.769 35.289-78.769 78.769s35.289 78.769 78.769 78.769v0zM866.465 229.752c-29.223 0-56.596-7.956-80.030-21.819l-77.509 77.548v282.427l77.509 77.509c23.434-13.863 50.806-21.819 80.030-21.819 87.001 0 157.538 70.538 157.538 157.538s-70.538 157.538-157.538 157.538c-87.001 0-157.538-70.538-157.538-157.538 0-29.223 7.956-56.596 21.819-80.030l-77.509-77.509h-282.466l-77.509 77.509c13.863 23.434 21.819 50.806 21.819 80.030 0 87.001-70.538 157.538-157.538 157.538s-157.538-70.538-157.538-157.538c0-87.001 70.538-157.538 157.538-157.538 29.223 0 56.596 7.956 80.030 21.819l77.509-77.509v-282.427l-77.509-77.548c-23.434 13.863-50.806 21.819-80.030 21.819-87.001 0-157.538-70.538-157.538-157.538s70.538-157.538 157.538-157.538c87.001 0 157.538 70.538 157.538 157.538 0 29.223-7.956 56.596-21.819 80.030l77.509 77.509h282.466l77.509-77.509c-13.863-23.434-21.819-50.806-21.819-80.030 0-87.001 70.538-157.538 157.538-157.538s157.538 70.538 157.538 157.538c0 87.001-70.538 157.538-157.538 157.538v0z" />
<glyph unicode="&#xe970;" glyph-name="contact-company" data-tags="contact-company" d="M512 960v-1024h512v1024h-512zM576 895.936h384v-895.936h-64.064v64h-64v-64h-127.936v64h-64v-64h-64v895.936zM831.936 703.936h64v128h-64v-128zM640 703.936h64v128h-64v-128zM192 831.936v-64h-64v-64h-128v-767.936h448v767.936h-128.064v64h-64v64h-63.936zM64 640h320v-640h-128.064v64h-63.936v-64h-128v640zM831.936 448h64v128h-64v-128zM640 448h64v128h-64v-128zM128 512h192v64h-192v-64zM128 319.936h192v64.064h-192v-64.064zM831.936 191.936h64v128h-64v-128zM640 191.936h64v128h-64v-128zM128 127.936h192v64h-192v-64z" />
<glyph unicode="&#xe971;" glyph-name="error" data-tags="error" d="M1024 660.096l-299.904 299.904h-424.149l-299.947-299.904v-424.192l299.947-299.904h424.149l299.904 299.904v424.192zM426.667 746.667h170.667l-42.667-341.333h-85.333l-42.667 341.333zM512 155.972c-44.314 0-80.239 35.925-80.239 80.239 0 44.318 35.925 80.239 80.239 80.239s80.239-35.921 80.239-80.239c0-44.314-35.925-80.239-80.239-80.239z" />
</font>
</defs>
</svg>
