<?xml version="1.0" standalone="no"?>
<!DOCTYPE svg PUBLIC "-//W3C//DTD SVG 1.1//EN" "http://www.w3.org/Graphics/SVG/1.1/DTD/svg11.dtd" >
<svg xmlns="http://www.w3.org/2000/svg">
<metadata>
<json>
<![CDATA[
{
	"fontFamily": "Default-Icon-Set",
	"majorVersion": 1,
	"minorVersion": 0,
	"version": "Version 1.0",
	"fontId": "Default-Icon-Set",
	"psName": "Default-Icon-Set",
	"subFamily": "Regular",
	"fullName": "Default-Icon-Set",
	"description": "Font generated by IcoMoon."
}
]]>
</json>
</metadata>
<defs>
<font id="Default-Icon-Set" horiz-adv-x="1024">
<font-face units-per-em="1024" ascent="960" descent="-64" />
<missing-glyph horiz-adv-x="1024" />
<glyph unicode="&#x20;" horiz-adv-x="512" d="" />
<glyph unicode="&#xe900;" glyph-name="ticket" data-tags="Ticket" d="M597.333 725.334v-85.333c0-23.467 18.773-42.667 42.667-42.667 23.467 0 42.667 19.2 42.667 42.667v85.333c0 23.893-19.2 42.667-42.667 42.667-23.893 0-42.667-18.773-42.667-42.667zM597.333 469.334v-85.333c0-23.467 18.773-42.667 42.667-42.667 23.467 0 42.667 19.2 42.667 42.667v85.333c0 23.893-19.2 42.667-42.667 42.667-23.893 0-42.667-18.773-42.667-42.667zM597.333 213.334v-85.333c0-23.467 18.773-42.667 42.667-42.667 23.467 0 42.667 19.2 42.667 42.667v85.333c0 23.893-19.2 42.667-42.667 42.667-23.893 0-42.667-18.773-42.667-42.667zM213.333 682.667h597.333c23.467 0 42.667-18.773 42.667-42.667v-128l42.667 42.667c-70.827 0-128-57.173-128-128 0-70.4 57.173-128 128-128l-42.667 42.667v-128c0-23.467-19.2-42.667-42.667-42.667h-597.333c-23.893 0-42.667 19.2-42.667 42.667v128l-42.667-42.667c70.4 0 128 57.6 128 128 0 70.827-57.6 128-128 128l42.667-42.667v128c0 23.893 18.773 42.667 42.667 42.667 23.467 0 42.667 19.2 42.667 42.667 0 23.893-19.2 42.667-42.667 42.667-70.827 0-128-57.173-128-128v-128c0-23.467 18.773-42.667 42.667-42.667 23.467 0 42.667-18.773 42.667-42.667 0-23.467-19.2-42.667-42.667-42.667-23.893 0-42.667-18.773-42.667-42.667v-128c0-70.4 57.173-128 128-128h597.333c70.4 0 128 57.6 128 128v128c0 23.893-19.2 42.667-42.667 42.667-23.893 0-42.667 19.2-42.667 42.667 0 23.893 18.773 42.667 42.667 42.667 23.467 0 42.667 19.2 42.667 42.667v128c0 70.827-57.6 128-128 128h-597.333c-23.893 0-42.667-18.773-42.667-42.667 0-23.467 18.773-42.667 42.667-42.667z" />
<glyph unicode="&#xe901;" glyph-name="card_giftcard" data-tags="card_giftcard" d="M981.333 610.134c0 51.2-42.667 93.867-93.867 93.867h-102.4c4.267 12.8 8.533 34.133 8.533 46.933 0 81.067-59.733 140.8-140.8 140.8-51.2 0-93.867-25.6-119.467-59.733l-21.333-29.867-25.6 34.133c-21.333 34.133-68.267 59.733-115.2 59.733-81.067 0-140.8-64-140.8-140.8 0-12.8 4.267-34.133 8.533-46.933h-102.4c-51.2 0-93.867-42.667-93.867-98.133v-516.267c0-51.2 42.667-93.867 93.867-93.867h750.933c51.2 0 93.867 42.667 93.867 93.867 0 0 0 516.267 0 516.267zM652.8 810.667c34.133 0 59.733-25.6 59.733-59.733s-25.6-59.733-59.733-59.733c-34.133 0-59.733 25.6-59.733 59.733s25.6 59.733 59.733 59.733zM371.2 810.667c34.133 0 59.733-25.6 59.733-59.733s-25.6-55.467-59.733-55.467-59.733 21.333-59.733 59.733 25.6 55.467 59.733 55.467zM896 85.334h-768v85.333h768v-85.333zM896 213.334h-768v396.8h247.467l-98.133-132.267 76.8-55.467 110.933 149.333 46.933 68.267 46.933-64 110.933-149.333 76.8 55.467-98.133 132.267h247.467v-401.067z" />
<glyph unicode="&#xe902;" glyph-name="add_circle_outline" data-tags="add_circle_outline" d="M913.067 426.667c0-221.867-179.2-401.067-401.067-401.067s-401.067 179.2-401.067 401.067 179.2 401.067 401.067 401.067 401.067-179.2 401.067-401.067zM981.333 426.667c0 260.267-209.067 469.333-469.333 469.333s-469.333-209.067-469.333-469.333 209.067-469.333 469.333-469.333 469.333 209.067 469.333 469.333zM712.533 460.8h-166.4v166.4c0 21.333-12.8 34.133-34.133 34.133s-34.133-12.8-34.133-34.133v-166.4h-166.4c-21.333 0-34.133-12.8-34.133-34.133s12.8-34.133 34.133-34.133h166.4v-166.4c0-21.333 12.8-34.133 34.133-34.133s34.133 12.8 34.133 34.133v166.4h166.4c21.333 0 34.133 12.8 34.133 34.133s-12.8 34.133-34.133 34.133z" />
<glyph unicode="&#xe903;" glyph-name="add_location_alt" data-tags="add_location_alt" d="M512 896c-217.6 0-392.533-174.933-392.533-392.533 0-132.267 72.533-260.267 187.733-384 38.4-42.667 81.067-81.067 123.733-115.2 17.067-12.8 29.867-21.333 42.667-29.867 8.533-8.533 12.8-8.533 17.067-12.8 12.8-8.533 29.867-8.533 42.667 0 4.267 4.267 8.533 4.267 17.067 12.8 12.8 8.533 25.6 21.333 42.667 29.867 42.667 34.133 85.333 72.533 123.733 115.2 115.2 123.733 187.733 251.733 187.733 384v0c0 217.6-174.933 392.533-392.533 392.533zM661.333 174.934c-38.4-38.4-76.8-76.8-119.467-106.667-12.8-8.533-21.333-17.067-29.867-21.333-8.533 8.533-21.333 17.067-29.867 25.6-38.4 34.133-81.067 68.267-119.467 106.667-102.4 110.933-166.4 221.867-166.4 328.533 0 174.933 140.8 311.467 311.467 311.467s311.467-140.8 311.467-311.467v0c4.267-110.933-55.467-221.867-157.867-332.8zM512 661.334c-85.333 0-157.867-68.267-157.867-157.867 0-85.333 68.267-157.867 157.867-157.867 85.333 0 157.867 72.533 157.867 157.867 0 89.6-72.533 157.867-157.867 157.867zM512 426.667c-42.667 0-76.8 34.133-76.8 76.8s34.133 76.8 76.8 76.8 76.8-34.133 76.8-76.8-34.133-76.8-76.8-76.8z" />
<glyph unicode="&#xe904;" glyph-name="add" data-tags="add" d="M913.408 475.819v0h-356.352v352.256c4.096 24.576-24.576 49.152-45.056 49.152-24.576 0-49.152-16.384-49.152-49.152v-352.256h-356.352c-24.576 0-45.056-16.384-45.056-49.152 0-20.48 16.384-45.056 49.152-45.056v0h352.256v-356.352c0-24.576 16.384-49.152 49.152-49.152s49.152 16.384 49.152 49.152v356.352h356.352c24.576 0 45.056 16.384 45.056 49.152-4.096 28.672-20.48 45.056-49.152 45.056v0z" />
<glyph unicode="&#xe905;" glyph-name="arrow_back" data-tags="arrow_back" d="M861.867 460.8h-610.133l217.6 230.4c12.8 12.8 12.8 38.4 0 51.2s-38.4 12.8-51.2 0l-277.333-290.133c-8.533-4.267-12.8-12.8-12.8-21.333s4.267-17.067 8.533-29.867l277.333-294.4c4.267-4.267 12.8-8.533 25.6-8.533s17.067 4.267 25.6 8.533c12.8 12.8 12.8 38.4 0 51.2l-221.867 230.4h618.667c17.067 0 34.133 4.267 34.133 34.133 0 34.133-12.8 38.4-34.133 38.4v0z" />
<glyph unicode="&#xe906;" glyph-name="attach_file" data-tags="attach_file" d="M290.133-42.666c-64 0-123.733 25.6-174.933 72.533-98.133 98.133-98.133 251.733 0 345.6l448 448c46.933 46.933 110.933 72.533 170.667 72.533 68.267 0 128-25.6 174.933-72.533 98.133-98.133 98.133-251.733 0-345.6l-209.067-209.067c-64-64-157.867-59.733-221.867 0-64 64-64 162.133 0 221.867l153.6 153.6c12.8 12.8 38.4 12.8 51.2 0s12.8-38.4 0-51.2l-153.6-153.6c-34.133-34.133-34.133-85.333 0-119.467s85.333-34.133 119.467 0l209.067 209.067c68.267 68.267 68.267 179.2 0 247.467-34.133 34.133-76.8 51.2-123.733 51.2s-89.6-21.333-123.733-51.2l-448-452.267c-68.267-68.267-68.267-179.2 0-247.467s179.2-68.267 247.467 0l76.8 76.8c12.8 12.8 38.4 12.8 51.2 0s12.8-38.4 0-51.2l-72.533-72.533c-46.933-46.933-115.2-72.533-174.933-72.533z" />
<glyph unicode="&#xe907;" glyph-name="bar_chart" data-tags="bar_chart" d="M836.267 576h-93.867c0 4.267 0 8.533 0 12.8v153.6c4.267 34.133-21.333 68.267-59.733 72.533h-503.467v51.2c0 17.067-8.533 29.867-25.6 29.867s-29.867-12.8-29.867-29.867v-874.667c0-21.333 12.8-34.133 29.867-34.133s29.867 12.8 29.867 29.867v46.933h358.4c12.8 0 25.6 4.267 34.133 12.8 12.8 12.8 21.333 34.133 21.333 55.467v157.867c0 4.267 0 12.8 0 17.067h238.933c17.067 0 34.133 8.533 46.933 21.333s21.333 29.867 21.333 46.933v162.133c-4.267 38.4-34.133 68.267-68.267 68.267zM678.4 750.934c4.267 0 4.267-4.267 4.267-8.533v-162.133c0-4.267 0-4.267-4.267-4.267h-499.2v174.933h499.2zM533.333 98.134v-8.533h-354.133v174.933h349.867v-8.533c4.267 0 4.267-157.867 4.267-157.867zM827.733 332.8c-8.533 0-652.8 0-652.8 0v183.467h652.8c4.267 0 8.533-4.267 8.533-8.533 0 0 0-157.867 0-162.133 4.267-8.533 0-12.8-8.533-12.8z" />
<glyph unicode="&#xe908;" glyph-name="bookmark_added" data-tags="bookmark_added" d="M925.867 119.467l-512 507.733-196.267 187.733c-12.8 17.067-34.133 17.067-46.933 0-17.067-8.533-17.067-34.133 0-46.933l145.067-145.067-157.867-42.667c-46.933-12.8-72.533-55.467-59.733-102.4 4.267-12.8 8.533-29.867 25.6-38.4l174.933-174.933-200.533-200.533c-12.8-12.8-12.8-38.4 0-55.467 12.8-12.8 38.4-12.8 55.467 0l200.533 200.533 174.933-174.933c34.133-34.133 89.6-34.133 123.733 0 8.533 8.533 21.333 25.6 25.6 38.4l38.4 153.6 170.667-170.667c12.8-12.8 38.4-12.8 55.467 0-4.267 21.333-4.267 46.933-17.067 64zM593.067 98.134c0 0 0-4.267-4.267-4.267-4.267-4.267-12.8-4.267-21.333 0l-401.067 401.067c0 4.267 0 12.8 8.533 12.8l196.267 46.933 268.8-268.8-46.933-187.733zM576 768c25.6 25.6 64 21.333 85.333 0l179.2-179.2c0 0 4.267-4.267 8.533-8.533 21.333-29.867 12.8-55.467-21.333-81.067l-76.8-59.733c-21.333-8.533-21.333-34.133-8.533-46.933 8.533-12.8 29.867-25.6 46.933-17.067l4.267 4.267 76.8 55.467c64 42.667 76.8 128 38.4 183.467-4.267 8.533-12.8 12.8-21.333 25.6l-179.2 179.2c-55.467 46.933-136.533 51.2-192 0-4.267-4.267-8.533-4.267-21.333-21.333l-55.467-76.8c-8.533-12.8-12.8-34.133 4.267-46.933 21.333-17.067 34.133-12.8 51.2 8.533z" />
<glyph unicode="&#xe909;" glyph-name="bookmark_border" data-tags="bookmark_border" d="M712.533 814.934v0c4.267 0 4.267 0 0 0v0zM900.267 631.467l-183.467 183.467c-4.267 4.267-12.8 8.533-17.067 12.8-64 42.667-145.067 25.6-187.733-38.4l-89.6-128c-8.533-12.8-21.333-21.333-38.4-25.6l-234.667-59.733c-12.8-4.267-25.6-8.533-38.4-21.333-34.133-34.133-34.133-85.333 0-119.467l179.2-179.2-192-192c-12.8-12.8-12.8-38.4 0-51.2s38.4-12.8 51.2 0l192 192 174.933-174.933c12.8-12.8 25.6-17.067 38.4-21.333 46.933-12.8 93.867 17.067 102.4 64l59.733 234.667c0 4.267 4.267 8.533 8.533 12.8 0 0 4.267 0 4.267 4.267 4.267 4.267 4.267 8.533 8.533 12.8 0 0 4.267 4.267 4.267 4.267l136.533 89.6c8.533 4.267 12.8 12.8 21.333 17.067 51.2 46.933 51.2 132.267 0 183.467zM588.8 85.334c0-4.267-8.533-8.533-17.067-8.533-4.267 0-4.267 0-4.267 4.267l-200.533 200.533c0 0 0 0 0 4.267 0 0 0 0-4.267 0l-204.8 204.8c-4.267 4.267-4.267 12.8 0 17.067 0 0 4.267 4.267 4.267 4.267l234.667 59.733c8.533 0 17.067 4.267 25.6 8.533l234.667-234.667c-4.267-8.533-4.267-17.067-8.533-25.6l-59.733-234.667zM849.067 490.667c-4.267-4.267-4.267-4.267-8.533-8.533l-132.267-89.6-226.133 226.133 89.6 132.267c17.067 29.867 55.467 34.133 85.333 17.067 4.267 0 4.267-4.267 8.533-8.533l187.733-187.733c21.333-17.067 21.333-55.467-4.267-81.067z" />
<glyph unicode="&#xe90a;" glyph-name="image" data-tags="image" d="M797.867 896h-571.733c-102.4 0-183.467-76.8-183.467-179.2v-576c0-102.4 81.067-183.467 183.467-183.467h576c102.4 0 183.467 81.067 183.467 183.467v576c-4.267 102.4-85.333 179.2-187.733 179.2zM226.133 823.467h576c55.467 0 106.667-46.933 106.667-106.667v-311.467l-157.867 157.867c-12.8 12.8-38.4 25.6-55.467 25.6-25.6 0-42.667-8.533-55.467-25.6l-192-192-42.667 42.667c-34.133 34.133-85.333 34.133-119.467 0l-166.4-157.867v460.8c0 59.733 46.933 106.667 106.667 106.667zM797.867 29.867h-571.733c-55.467 0-106.667 46.933-106.667 106.667v8.533l209.067 213.333c4.267 4.267 8.533 4.267 12.8 0l68.267-68.267c12.8-12.8 38.4-12.8 51.2 0l221.867 221.867c4.267 4.267 4.267 4.267 8.533 4.267 0 0 4.267 0 8.533-4.267v0l209.067-213.333v-157.867c-4.267-59.733-51.2-110.933-110.933-110.933zM392.533 640c0-28.277-22.923-51.2-51.2-51.2s-51.2 22.923-51.2 51.2c0 28.277 22.923 51.2 51.2 51.2s51.2-22.923 51.2-51.2z" />
<glyph unicode="&#xe90b;" glyph-name="photo_camera" data-tags="photo_camera" d="M853.333 554.667c0-23.564-19.103-42.667-42.667-42.667s-42.667 19.103-42.667 42.667c0 23.564 19.103 42.667 42.667 42.667s42.667-19.103 42.667-42.667zM512 132.267c-140.8 0-251.733 110.933-251.733 251.733s110.933 251.733 251.733 251.733 251.733-110.933 251.733-251.733-110.933-251.733-251.733-251.733zM661.333 384c0 85.333-64 149.333-149.333 149.333s-149.333-64-149.333-149.333 64-149.333 149.333-149.333 149.333 64 149.333 149.333zM896 725.334h-149.333l-72.533 106.667c-8.533 12.8-21.333 21.333-34.133 21.333h-256c-12.8 0-25.6-8.533-34.133-21.333l-72.533-106.667h-149.333c-72.533 0-128-55.467-128-128v-469.333c0-72.533 55.467-128 128-128h768c68.267 0 128 59.733 128 128v0 469.333c0 72.533-55.467 128-128 128zM896 85.334h-768c-25.6 0-42.667 17.067-42.667 42.667v469.333c0 25.6 17.067 42.667 42.667 42.667h170.667c12.8 0 29.867 8.533 34.133 21.333l72.533 106.667h209.067l72.533-110.933c8.533-8.533 21.333-17.067 38.4-17.067h170.667c25.6 0 42.667-17.067 42.667-42.667v-469.333c0-25.6-17.067-42.667-42.667-42.667z" />
<glyph unicode="&#xe90c;" glyph-name="CalendarIcon" data-tags="CalendarIcon" d="M810.667 699.734h-85.333v81.067c0 17.067-8.533 29.867-25.6 29.867s-29.867-8.533-29.867-29.867v-213.333c0-17.067 8.533-29.867 29.867-29.867 17.067 0 29.867 8.533 29.867 29.867v76.8h85.333c17.067 0 29.867-8.533 29.867-29.867v-136.533h-661.333v140.8c0 17.067 8.533 29.867 29.867 29.867 12.8 0 29.867 8.533 29.867 29.867 0 12.8-8.533 29.867-29.867 29.867-46.933 0-85.333-38.4-85.333-85.333v-494.933c0-46.933 38.4-85.333 85.333-85.333h597.333c46.933 0 85.333 38.4 85.333 85.333v490.667c-4.267 42.667-42.667 81.067-85.333 81.067zM810.667 98.134h-597.333c-17.067 0-29.867 8.533-29.867 29.867v298.667h657.067v-298.667c-4.267-17.067-12.8-29.867-29.867-29.867zM320 533.334c17.067 0 29.867 8.533 29.867 29.867v85.333h247.467c17.067 0 29.867 8.533 29.867 29.867 0 12.8-8.533 29.867-29.867 29.867h-251.733v72.533c0 17.067-8.533 29.867-25.6 29.867s-29.867-12.8-29.867-29.867v-213.333c0-17.067 12.8-34.133 29.867-34.133z" />
<glyph unicode="&#xe90d;" glyph-name="card_membership" data-tags="card_membership" d="M972.8 213.334l-132.267 132.267c76.8 140.8 55.467 320-64 439.467v0 0 0 0c-145.067 145.067-379.733 145.067-524.8 0-119.467-119.467-140.8-298.667-64-443.733l-132.267-132.267c-17.067-17.067-12.8-42.667 8.533-55.467l110.933-68.267 68.267-110.933c12.8-21.333 38.4-25.6 55.467-4.267l174.933 183.467c25.6-4.267 51.2-4.267 81.067 0l174.933-183.467c17.067-17.067 42.667-12.8 55.467 8.533l68.267 115.2 110.933 68.267c17.067 4.267 21.333 34.133 8.533 51.2zM277.333 55.467l-46.933 81.067c-4.267 4.267-8.533 8.533-12.8 12.8l-81.067 46.933 89.6 89.6c8.533-8.533 17.067-17.067 25.6-25.6 42.667-42.667 89.6-68.267 140.8-89.6l-115.2-115.2zM473.6 226.134c-4.267 0-8.533 4.267-17.067 4.267-55.467 12.8-110.933 38.4-153.6 81.067-119.467 119.467-119.467 307.2 0 426.667s307.2 119.467 426.667 0v0c98.133-98.133 115.2-251.733 42.667-366.933v0c-4.267-4.267-8.533-8.533-8.533-17.067-8.533-12.8-21.333-29.867-34.133-42.667-42.667-42.667-98.133-72.533-153.6-81.067-8.533 0-17.067 0-25.6-4.267-29.867-4.267-55.467-4.267-76.8 0zM793.6 132.267l-46.933-81.067-115.2 119.467c51.2 17.067 102.4 46.933 140.8 89.6 8.533 8.533 17.067 17.067 21.333 25.6l89.6-89.6-81.067-46.933c-4.267-8.533-8.533-12.8-8.533-17.067zM584.533 320c42.667-21.333 93.867 12.8 85.333 64l-12.8 76.8 55.467 55.467c34.133 34.133 17.067 93.867-34.133 102.4l-81.067 12.8-34.133 72.533c-21.333 42.667-85.333 42.667-106.667 0l-34.133-68.267-76.8-12.8c-46.933-8.533-68.267-68.267-34.133-102.4l55.467-55.467-12.8-76.8c-8.533-46.933 42.667-85.333 85.333-64l68.267 34.133 76.8-38.4zM435.2 396.8l12.8 72.533c0 12.8 0 25.6-8.533 34.133l-51.2 46.933 68.267 8.533c12.8 0 21.333 8.533 25.6 21.333l29.867 64 29.867-64c4.267-8.533 17.067-17.067 25.6-21.333l68.267-8.533-51.2-51.2c-8.533-8.533-12.8-21.333-8.533-29.867l12.8-68.267-59.733 29.867c-4.267 4.267-12.8 4.267-17.067 4.267v0-4.267c-4.267 0-8.533 0-12.8-4.267v0l-64-29.867z" />
<glyph unicode="&#xe90e;" glyph-name="chat_bubble_outline" data-tags="chat_bubble_outline" d="M712.533 827.734c-59.733 34.133-132.267 42.667-200.533 42.667v0c-260.267 0-469.333-196.267-469.333-443.733 0-81.067 25.6-157.867 68.267-226.133l-68.267-170.667c-8.533-25.6 12.8-42.667 38.4-42.667l238.933 38.4c226.133-102.4 503.467-8.533 614.4 209.067 115.2 221.867 12.8 482.133-221.867 593.067zM874.667 264.534c-102.4-187.733-332.8-264.533-537.6-179.2-8.533 0-12.8 8.533-21.333 0l-187.733-29.867 46.933 136.533c0 12.8 0 21.333-8.533 34.133-46.933 64-68.267 132.267-68.267 209.067 0 209.067 179.2 379.733 401.067 379.733v0c59.733 0 128-21.333 179.2-42.667 209.067-89.6 290.133-315.733 196.267-507.733zM712.533 554.667h-401.067c-21.333 0-34.133-12.8-34.133-34.133s12.8-34.133 34.133-34.133h401.067c21.333 0 34.133 12.8 34.133 34.133s-12.8 34.133-34.133 34.133zM584.533 362.667h-268.8c-21.333 0-34.133-12.8-34.133-34.133s12.8-34.133 34.133-34.133h268.8c21.333 0 34.133 12.8 34.133 34.133s-12.8 34.133-34.133 34.133z" />
<glyph unicode="&#xe90f;" glyph-name="chevron_left" data-tags="chevron_left" d="M746.667 34.134l-396.8 405.333c4.267-4.267 4.267-12.8 0-17.067v0l401.067 401.067c17.067 17.067 17.067 46.933 0 64s-46.933 17.067-64 0l-401.067-401.067c-29.867-29.867-29.867-81.067 0-110.933l401.067-401.067c17.067-17.067 46.933-17.067 64 0 12.8 12.8 12.8 42.667-4.267 59.733v0z" />
<glyph unicode="&#xe910;" glyph-name="chevron_right" data-tags="chevron_right" d="M277.333 34.134l396.8 405.333c-4.267-4.267-4.267-12.8 0-17.067v0l-401.067 401.067c-17.067 17.067-17.067 46.933 0 64s46.933 17.067 64 0l401.067-401.067c29.867-29.867 29.867-81.067 0-110.933l-401.067-401.067c-17.067-17.067-46.933-17.067-64 0-12.8 12.8-12.8 42.667 4.267 59.733v0z" />
<glyph unicode="&#xe911;" glyph-name="close" data-tags="close" d="M844.8 128l-294.4 294.4 298.667 298.667c8.533 8.533 8.533 29.867 0 38.4s-29.867 8.533-38.4 0v0l-298.667-298.667-298.667 290.133c-8.533 8.533-29.867 8.533-38.4 0s-8.533-25.6 4.267-38.4v0l294.4-294.4-294.4-290.133c-8.533-8.533-8.533-29.867 0-38.4s29.867-8.533 38.4 0l294.4 294.4 298.667-298.667c8.533-8.533 29.867-8.533 38.4 0 8.533 12.8 8.533 29.867-4.267 42.667z" />
<glyph unicode="&#xe912;" glyph-name="code" data-tags="code" d="M430.933 42.667c-4.267 0-4.267 0-8.533 0-17.067 4.267-29.867 21.333-25.6 38.4l157.867 695.467c4.267 17.067 21.333 29.867 38.4 25.6s29.867-21.333 25.6-38.4l-157.867-699.733c0-8.533-12.8-21.333-29.867-21.333zM772.267 217.6c-8.533 0-17.067 4.267-21.333 8.533-12.8 12.8-12.8 34.133 0 46.933l153.6 153.6-153.6 153.6c-12.8 12.8-12.8 34.133 0 46.933s34.133 12.8 46.933 0l174.933-174.933c12.8-12.8 12.8-34.133 0-46.933l-174.933-174.933c-8.533-8.533-17.067-12.8-25.6-12.8zM247.467 217.6c-8.533 0-17.067 4.267-21.333 8.533l-174.933 174.933c-12.8 12.8-12.8 34.133 0 46.933l174.933 174.933c12.8 12.8 34.133 12.8 46.933 0s12.8-34.133 0-46.933l-153.6-149.333 153.6-153.6c12.8-12.8 12.8-34.133 0-46.933-8.533-4.267-17.067-8.533-25.6-8.533z" />
<glyph unicode="&#xe913;" glyph-name="create" data-tags="create" d="M891.733 576v0c34.133 38.4 34.133 93.867 0 128l-102.4 102.4c-34.133 34.133-89.6 34.133-119.467 0l-490.667-486.4c0-8.533 0 8.533 0 0l-68.267-260.267c-4.267-25.6 12.8-38.4 38.4-38.4l260.267 72.533 482.133 482.133zM849.067 622.934v0l-473.6-477.867-196.267-59.733 59.733 200.533 469.333 469.333c12.8 12.8 29.867 12.8 38.4 0l102.4-102.4c12.8-4.267 12.8-21.333 0-29.867z" />
<glyph unicode="&#xe914;" glyph-name="delete" data-tags="delete" d="M814.933 558.934c-21.333 0-34.133-12.8-38.4-25.6v0l-55.467-507.733h-418.133l-59.733 507.733c-4.267 21.333-21.333 25.6-38.4 25.6-21.333 0-25.6-21.333-25.6-34.133l68.267-537.6c-4.267-17.067 8.533-29.867 29.867-29.867h469.333c12.8 0 34.133 12.8 34.133 25.6l68.267 537.6c0 25.6-17.067 38.4-34.133 38.4zM913.067 695.467h-200.533v98.133c0 55.467-46.933 102.4-102.4 102.4h-200.533c-59.733 0-98.133-46.933-98.133-102.4v-102.4h-200.533c-21.333 4.267-34.133-8.533-34.133-29.867s12.8-34.133 34.133-34.133h806.4c21.333 0 34.133 12.8 34.133 34.133s-17.067 34.133-38.4 34.133zM379.733 793.6c0 21.333 12.8 34.133 34.133 34.133h200.533c12.8 0 34.133-12.8 34.133-34.133v-102.4h-268.8c0 0 0 102.4 0 102.4z" />
<glyph unicode="&#xe915;" glyph-name="download" data-tags="download" d="M947.2 226.134c-21.333 0-34.133-12.8-34.133-34.133v-68.267c0-55.467-46.933-102.4-102.4-102.4h-601.6c-55.467 0-102.4 46.933-102.4 102.4v68.267c0 21.333-12.8 34.133-34.133 34.133s-29.867-12.8-29.867-34.133v-68.267c0-93.867 72.533-166.4 166.4-166.4h601.6c93.867 0 166.4 72.533 166.4 166.4v68.267c4.267 21.333-8.533 34.133-29.867 34.133zM285.867 473.6l200.533-234.667c8.533-8.533 12.8-12.8 25.6-12.8s21.333 8.533 25.6 12.8l200.533 234.667c12.8 12.8 12.8 34.133-8.533 46.933s-34.133 12.8-46.933 0l-140.8-166.4v507.733c4.267 21.333-8.533 34.133-29.867 34.133s-34.133-12.8-34.133-34.133v-516.267l-145.067 166.4c-8.533 17.067-34.133 21.333-46.933 8.533-17.067-12.8-17.067-34.133 0-46.933v0z" />
<glyph unicode="&#xe916;" glyph-name="edit" data-tags="edit" d="M776.533 76.8h-644.267c-17.067 0-29.867-12.8-29.867-29.867s12.8-29.867 29.867-29.867h644.267c17.067 0 29.867 12.8 29.867 29.867s-12.8 29.867-29.867 29.867zM896 746.667l-64 64c-34.133 34.133-89.6 34.133-123.733 0l-392.533-392.533c-8.533-8.533-8.533-12.8-8.533-17.067l-29.867-174.933c-4.267-21.333 12.8-34.133 29.867-34.133l174.933 29.867c8.533 0 12.8 8.533 17.067 8.533l396.8 388.267c34.133 38.4 34.133 89.6 0 128zM469.333 277.334v0zM853.333 665.6v0l-384-388.267-123.733-21.333 21.333 128 388.267 384c12.8 12.8 29.867 12.8 42.667 0l64-64c4.267-8.533 4.267-29.867-8.533-38.4z" />
<glyph unicode="&#xe917;" glyph-name="label" data-tags="label" d="M938.667 810.667h-708.267c-17.067 4.267-38.4 0-46.933-17.067l-174.933-349.867c-4.267-4.267-4.267-12.8-4.267-17.067s0-12.8 4.267-17.067l174.933-349.867c8.533-17.067 29.867-21.333 46.933-17.067h793.6v768h-85.333zM938.667 128h-691.2l-149.333 298.667 149.333 298.667h691.2v-597.333zM469.333 426.667c0-47.128-38.205-85.333-85.333-85.333s-85.333 38.205-85.333 85.333c0 47.128 38.205 85.333 85.333 85.333s85.333-38.205 85.333-85.333z" />
<glyph unicode="&#xe918;" glyph-name="email" data-tags="email" d="M887.467 814.934h-746.667c-55.467 0-98.133-42.667-98.133-98.133v-576c0-59.733 42.667-106.667 98.133-106.667h742.4c59.733 0 98.133 46.933 98.133 106.667v576c8.533 55.467-42.667 98.133-93.867 98.133zM140.8 746.667h742.4c12.8 0 25.6-8.533 29.867-21.333v0l-384-337.067c-12.8-8.533-29.867-8.533-42.667 0l-375.467 332.8c0 17.067 17.067 25.6 29.867 25.6zM917.333 140.8c0-17.067-12.8-34.133-34.133-34.133h-742.4c-17.067 0-34.133 17.067-34.133 34.133v494.933l341.333-298.667c38.4-29.867 89.6-29.867 128 0l345.6 298.667v-209.067l-4.267-285.867z" />
<glyph unicode="&#xe919;" glyph-name="expand_less" data-tags="expand_less" d="M802.133 256l-294.4 290.133c4.267-4.267 8.533-4.267 12.8 0v0l-294.4-290.133c-12.8-12.8-34.133-12.8-46.933 0s-12.8 34.133 0 46.933l290.133 290.133c21.333 21.333 59.733 21.333 81.067 0l290.133-290.133c12.8-12.8 12.8-34.133 0-46.933-4.267-12.8-25.6-12.8-38.4 0v0z" />
<glyph unicode="&#xe91a;" glyph-name="expand_more" data-tags="expand_more" d="M221.867 597.334l294.4-290.133c-4.267 4.267-8.533 4.267-12.8 0v0l294.4 290.133c12.8 12.8 34.133 12.8 46.933 0s12.8-34.133 0-46.933l-290.133-290.133c-21.333-21.333-59.733-21.333-81.067 0l-294.4 294.4c-12.8 8.533-12.8 34.133 0 42.667 8.533 12.8 29.867 12.8 42.667 0v0z" />
<glyph unicode="&#xe91b;" glyph-name="explore" data-tags="explore" d="M512 896c-256 0-469.333-209.067-469.333-469.333s209.067-469.333 469.333-469.333 469.333 209.067 469.333 469.333-209.067 469.333-469.333 469.333zM550.4 34.134v34.133c0 17.067-12.8 38.4-38.4 38.4-17.067 0-38.4-12.8-38.4-38.4v-34.133c-187.733 17.067-341.333 166.4-358.4 358.4h34.133c17.067 0 38.4 12.8 38.4 38.4 0 17.067-12.8 38.4-38.4 38.4h-25.6c17.067 187.733 166.4 341.333 358.4 358.4v-34.133c0-17.067 12.8-38.4 38.4-38.4 17.067 0 38.4 12.8 38.4 38.4v25.6c187.733-17.067 341.333-166.4 358.4-358.4h-34.133c-17.067 0-38.4-12.8-38.4-38.4 0-17.067 12.8-38.4 38.4-38.4h34.133c-25.6-179.2-179.2-337.067-366.933-349.867zM652.8 644.267l-234.667-59.733c-29.867-12.8-46.933-34.133-59.733-59.733l-59.733-243.2c-12.8-42.667 29.867-85.333 72.533-72.533l234.667 59.733c29.867 12.8 55.467 29.867 59.733 59.733l64 243.2c8.533 42.667-34.133 85.333-76.8 72.533zM593.067 354.134c0-4.267-4.267-4.267-12.8-12.8l-217.6-59.733 59.733 217.6c0 4.267 4.267 12.8 12.8 12.8l217.6 59.733-59.733-217.6zM554.667 426.667c0-23.564-19.103-42.667-42.667-42.667s-42.667 19.103-42.667 42.667c0 23.564 19.103 42.667 42.667 42.667s42.667-19.103 42.667-42.667z" />
<glyph unicode="&#xe91c;" glyph-name="face" data-tags="face" d="M512 729.6c-115.2 0-200.533-85.333-200.533-200.533s85.333-200.533 200.533-200.533 200.533 85.333 200.533 200.533-85.333 200.533-200.533 200.533zM512 392.534c-72.533 0-132.267 59.733-132.267 132.267s59.733 136.533 132.267 136.533 132.267-59.733 132.267-132.267-59.733-136.533-132.267-136.533zM512 896c-260.267 0-469.333-209.067-469.333-469.333s209.067-469.333 469.333-469.333 469.333 209.067 469.333 469.333-209.067 469.333-469.333 469.333zM268.8 106.667c93.867 119.467 260.267 162.133 396.8 81.067 34.133-21.333 59.733-46.933 81.067-81.067-59.733-55.467-149.333-81.067-234.667-81.067s-174.933 25.6-243.2 81.067zM802.133 153.6c-25.6 34.133-59.733 68.267-102.4 93.867-162.133 102.4-366.933 55.467-482.133-85.333-68.267 68.267-106.667 162.133-106.667 268.8 0 221.867 179.2 401.067 401.067 401.067s401.067-179.2 401.067-401.067c0-110.933-38.4-213.333-110.933-277.333z" />
<glyph unicode="&#xe91d;" glyph-name="facebook" data-tags="facebook" d="M640 516.267h-115.2v34.133c0 38.4 29.867 68.267 64 68.267h38.4c29.867 0 51.2 21.333 51.2 51.2s-21.333 55.467-51.2 55.467h-38.4c-93.867 0-166.4-76.8-166.4-179.2v-29.867h-29.867c-29.867 0-51.2-21.333-51.2-51.2s21.333-51.2 51.2-51.2h29.867v-230.4c0-29.867 21.333-51.2 51.2-51.2s51.2 21.333 51.2 51.2v230.4h115.2c29.867 0 51.2 21.333 51.2 51.2-8.533 29.867-29.867 51.2-51.2 51.2zM516.267-42.666c-128 0-243.2 46.933-332.8 136.533-93.867 85.333-140.8 204.8-140.8 332.8s46.933 238.933 136.533 332.8c183.467 183.467 486.4 183.467 665.6 0 89.6-89.6 136.533-209.067 136.533-332.8s-46.933-238.933-136.533-332.8c-85.333-89.6-204.8-136.533-328.533-136.533zM516.267 827.734c-106.667 0-209.067-38.4-285.867-119.467-76.8-72.533-123.733-174.933-123.733-281.6s42.667-209.067 119.467-285.867 179.2-119.467 285.867-119.467c110.933 0 213.333 42.667 285.867 119.467 76.8 72.533 119.467 179.2 119.467 285.867s-42.667 209.067-119.467 285.867c-76.8 76.8-179.2 115.2-281.6 115.2z" />
<glyph unicode="&#xe91e;" glyph-name="fiber_manual_record" data-tags="fiber_manual_record" d="M981.333 426.667c0 260.267-209.067 469.333-469.333 469.333s-469.333-209.067-469.333-469.333 209.067-469.333 469.333-469.333 469.333 209.067 469.333 469.333z" />
<glyph unicode="&#xe91f;" glyph-name="access_time" data-tags="access_time" d="M913.067 426.667c0-221.867-179.2-401.067-401.067-401.067s-401.067 179.2-401.067 401.067 179.2 401.067 401.067 401.067 401.067-179.2 401.067-401.067zM981.333 426.667c0 260.267-209.067 469.333-469.333 469.333s-469.333-209.067-469.333-469.333 209.067-469.333 469.333-469.333 469.333 209.067 469.333 469.333zM469.333 593.067v-166.4c8.533-8.533 8.533-12.8 17.067-21.333l166.4-200.533c12.8-12.8 34.133-12.8 46.933-8.533 12.8 12.8 12.8 34.133 8.533 46.933l-153.6 192v157.867c-8.533 21.333-21.333 34.133-42.667 34.133s-34.133-12.8-42.667-34.133z" />
<glyph unicode="&#xe920;" glyph-name="help_outline" data-tags="help_outline" d="M106.667 426.667c0 221.867 179.2 401.067 401.067 401.067 226.133 0 405.333-179.2 405.333-401.067s-179.2-401.067-401.067-401.067-405.333 179.2-405.333 401.067zM42.667 426.667c0-260.267 209.067-469.333 469.333-469.333s469.333 209.067 469.333 469.333-209.067 469.333-469.333 469.333-469.333-209.067-469.333-469.333zM597.333 170.667c0-47.128-38.205-85.333-85.333-85.333s-85.333 38.205-85.333 85.333c0 47.128 38.205 85.333 85.333 85.333s85.333-38.205 85.333-85.333zM507.733 759.467c-123.733 0-226.133-89.6-226.133-204.8h115.2c0 55.467 51.2 102.4 115.2 102.4s115.2-46.933 115.2-102.4c0-102.4-170.667-89.6-170.667-256h115.2c0 115.2 170.667 128 170.667 256-4.267 115.2-106.667 204.8-234.667 204.8z" />
<glyph unicode="&#xe921;" glyph-name="info" data-tags="info" d="M106.667 426.667c0 221.867 179.2 401.067 401.067 401.067 226.133 0 405.333-179.2 405.333-401.067s-179.2-401.067-401.067-401.067-405.333 179.2-405.333 401.067zM42.667 426.667c0-260.267 209.067-469.333 469.333-469.333s469.333 209.067 469.333 469.333-209.067 469.333-469.333 469.333-469.333-209.067-469.333-469.333zM597.333 682.667c0-47.128-38.205-85.333-85.333-85.333s-85.333 38.205-85.333 85.333c0 47.128 38.205 85.333 85.333 85.333s85.333-38.205 85.333-85.333zM512 512v0c46.933 0 85.333-38.4 85.333-85.333v-256c0-46.933-38.4-85.333-85.333-85.333v0c-46.933 0-85.333 38.4-85.333 85.333v256c0 46.933 38.4 85.333 85.333 85.333z" />
<glyph unicode="&#xe922;" glyph-name="error" data-tags="error" d="M917.333 426.667c0-221.867-179.2-401.067-401.067-401.067-226.133 0-405.333 179.2-405.333 401.067s179.2 401.067 401.067 401.067c221.867 0 405.333-179.2 405.333-401.067zM981.333 426.667c0 260.267-209.067 469.333-469.333 469.333s-469.333-209.067-469.333-469.333 209.067-469.333 469.333-469.333 469.333 209.067 469.333 469.333zM597.333 170.667c0-47.128-38.205-85.333-85.333-85.333s-85.333 38.205-85.333 85.333c0 47.128 38.205 85.333 85.333 85.333s85.333-38.205 85.333-85.333zM512 341.334v0c-46.933 0-85.333 38.4-85.333 85.333v256c0 46.933 38.4 85.333 85.333 85.333v0c46.933 0 85.333-38.4 85.333-85.333v-256c0-46.933-38.4-85.333-85.333-85.333z" />
<glyph unicode="&#xe923;" glyph-name="folder_open" data-tags="folder_open" d="M913.067 460.8h-405.333l-25.6 85.333c-8.533 25.6-34.133 46.933-59.733 55.467h-307.2c-8.533 0-8.533 0-8.533 0-38.4-8.533-64-42.667-64-72.533l25.6-469.333 8.533-8.533c4.267-55.467 46.933-93.867 98.133-93.867h678.4c51.2 0 93.867 38.4 98.133 93.867l25.6 337.067c0 0 0 0 0 8.533 4.267 38.4-29.867 64-64 64zM853.333 29.867h-678.4c-21.333 0-34.133 12.8-34.133 25.6l8.533-8.533-34.133 482.133h307.2l25.6-106.667c0-12.8 12.8-25.6 34.133-25.6h430.933l-25.6-337.067c-4.267-17.067-21.333-29.867-34.133-29.867zM281.6 661.334c21.333 0 34.133 12.8 34.133 34.133v132.267h567.467v-268.8c0-21.333 12.8-34.133 34.133-34.133s34.133 12.8 34.133 34.133v268.8c0 38.4-34.133 68.267-68.267 68.267h-567.467c-38.4 0-68.267-25.6-68.267-68.267v-132.267c0-21.333 12.8-34.133 34.133-34.133zM550.4 729.6c-21.333 0-34.133-12.8-34.133-34.133s12.8-34.133 34.133-34.133h200.533c21.333 0 34.133 12.8 34.133 34.133s-12.8 34.133-34.133 34.133c0 0-200.533 0-200.533 0z" />
<glyph unicode="&#xe924;" glyph-name="format_align_center" data-tags="format_align_center" d="M298.667 469.334h426.667c25.6 0 42.667-17.067 42.667-42.667v0c0-25.6-17.067-42.667-42.667-42.667h-426.667c-25.6 0-42.667 17.067-42.667 42.667v0c0 25.6 17.067 42.667 42.667 42.667zM213.333 256h597.333c25.6 0 42.667-17.067 42.667-42.667v0c0-25.6-17.067-42.667-42.667-42.667h-597.333c-25.6 0-42.667 17.067-42.667 42.667v0c0 25.6 17.067 42.667 42.667 42.667zM170.667 682.667h682.667c25.6 0 42.667-17.067 42.667-42.667v0c0-25.6-17.067-42.667-42.667-42.667h-682.667c-25.6 0-42.667 17.067-42.667 42.667v0c0 25.6 17.067 42.667 42.667 42.667zM128 896h768c25.6 0 42.667-17.067 42.667-42.667v0c0-25.6-17.067-42.667-42.667-42.667h-768c-25.6 0-42.667 17.067-42.667 42.667v0c0 25.6 17.067 42.667 42.667 42.667zM128 42.667h768c25.6 0 42.667-17.067 42.667-42.667v0c0-25.6-17.067-42.667-42.667-42.667h-768c-25.6 0-42.667 17.067-42.667 42.667v0c0 25.6 17.067 42.667 42.667 42.667z" />
<glyph unicode="&#xe925;" glyph-name="format_align_right" data-tags="format_align_right" d="M426.667 469.334h469.333c25.6 0 42.667-17.067 42.667-42.667v0c0-25.6-17.067-42.667-42.667-42.667h-469.333c-25.6 0-42.667 17.067-42.667 42.667v0c0 25.6 17.067 42.667 42.667 42.667zM341.333 256h554.667c25.6 0 42.667-17.067 42.667-42.667v0c0-25.6-17.067-42.667-42.667-42.667h-554.667c-25.6 0-42.667 17.067-42.667 42.667v0c0 25.6 17.067 42.667 42.667 42.667zM256 682.667h640c25.6 0 42.667-17.067 42.667-42.667v0c0-25.6-17.067-42.667-42.667-42.667h-640c-25.6 0-42.667 17.067-42.667 42.667v0c0 25.6 17.067 42.667 42.667 42.667zM128 896h768c25.6 0 42.667-17.067 42.667-42.667v0c0-25.6-17.067-42.667-42.667-42.667h-768c-25.6 0-42.667 17.067-42.667 42.667v0c0 25.6 17.067 42.667 42.667 42.667zM128 42.667h768c25.6 0 42.667-17.067 42.667-42.667v0c0-25.6-17.067-42.667-42.667-42.667h-768c-25.6 0-42.667 17.067-42.667 42.667v0c0 25.6 17.067 42.667 42.667 42.667z" />
<glyph unicode="&#xe926;" glyph-name="format_align_left" data-tags="format_align_left" d="M128 469.334h469.333c25.6 0 42.667-17.067 42.667-42.667v0c0-25.6-17.067-42.667-42.667-42.667h-469.333c-25.6 0-42.667 17.067-42.667 42.667v0c0 25.6 17.067 42.667 42.667 42.667zM128 256h554.667c25.6 0 42.667-17.067 42.667-42.667v0c0-25.6-17.067-42.667-42.667-42.667h-554.667c-25.6 0-42.667 17.067-42.667 42.667v0c0 25.6 17.067 42.667 42.667 42.667zM128 682.667h640c25.6 0 42.667-17.067 42.667-42.667v0c0-25.6-17.067-42.667-42.667-42.667h-640c-25.6 0-42.667 17.067-42.667 42.667v0c0 25.6 17.067 42.667 42.667 42.667zM128 896h768c25.6 0 42.667-17.067 42.667-42.667v0c0-25.6-17.067-42.667-42.667-42.667h-768c-25.6 0-42.667 17.067-42.667 42.667v0c0 25.6 17.067 42.667 42.667 42.667zM128 42.667h768c25.6 0 42.667-17.067 42.667-42.667v0c0-25.6-17.067-42.667-42.667-42.667h-768c-25.6 0-42.667 17.067-42.667 42.667v0c0 25.6 17.067 42.667 42.667 42.667z" />
<glyph unicode="&#xe927;" glyph-name="format_align_justify" data-tags="format_align_justify" d="M128 469.334h768c25.6 0 42.667-17.067 42.667-42.667v0c0-25.6-17.067-42.667-42.667-42.667h-768c-25.6 0-42.667 17.067-42.667 42.667v0c0 25.6 17.067 42.667 42.667 42.667zM128 256h768c25.6 0 42.667-17.067 42.667-42.667v0c0-25.6-17.067-42.667-42.667-42.667h-768c-25.6 0-42.667 17.067-42.667 42.667v0c0 25.6 17.067 42.667 42.667 42.667zM128 682.667h768c25.6 0 42.667-17.067 42.667-42.667v0c0-25.6-17.067-42.667-42.667-42.667h-768c-25.6 0-42.667 17.067-42.667 42.667v0c0 25.6 17.067 42.667 42.667 42.667zM128 896h768c25.6 0 42.667-17.067 42.667-42.667v0c0-25.6-17.067-42.667-42.667-42.667h-768c-25.6 0-42.667 17.067-42.667 42.667v0c0 25.6 17.067 42.667 42.667 42.667zM128 42.667h768c25.6 0 42.667-17.067 42.667-42.667v0c0-25.6-17.067-42.667-42.667-42.667h-768c-25.6 0-42.667 17.067-42.667 42.667v0c0 25.6 17.067 42.667 42.667 42.667z" />
<glyph unicode="&#xe928;" glyph-name="format_horizontal_rule" data-tags="format_horizontal_rule" d="M170.667 469.334h682.667v-85.333h-682.667v85.333zM42.667 896h938.667v-42.667h-938.667v42.667zM42.667 725.334h938.667v-42.667h-938.667v42.667zM42.667 170.667h938.667v-42.667h-938.667v42.667zM42.667-0h938.667v-42.667h-938.667v42.667z" />
<glyph unicode="&#xe929;" glyph-name="format_bold" data-tags="format_bold" d="M686.933 473.6c59.733 38.4 93.867 115.2 93.867 187.733 0 128-106.667 234.667-234.667 234.667h-268.8c-55.467 0-102.4-46.933-102.4-102.4v-738.133c0-51.2 46.933-98.133 102.4-98.133h302.933c149.333 0 268.8 119.467 268.8 268.8 0 115.2-68.267 209.067-162.133 247.467zM277.333 827.734h268.8c93.867 0 166.4-72.533 166.4-166.4s-72.533-166.4-166.4-166.4h-302.933v298.667c0 21.333 12.8 34.133 34.133 34.133zM580.267 25.6h-302.933c-21.333 0-34.133 12.8-34.133 34.133v366.933h337.067c115.2 0 200.533-85.333 200.533-200.533s-89.6-200.533-200.533-200.533z" />
<glyph unicode="&#xe92a;" glyph-name="drag" data-tags="drag" d="M426.667 725.334c0-47.128-38.205-85.333-85.333-85.333s-85.333 38.205-85.333 85.333c0 47.128 38.205 85.333 85.333 85.333s85.333-38.205 85.333-85.333zM426.667 426.667c0-47.128-38.205-85.333-85.333-85.333s-85.333 38.205-85.333 85.333c0 47.128 38.205 85.333 85.333 85.333s85.333-38.205 85.333-85.333zM426.667 128c0-47.128-38.205-85.333-85.333-85.333s-85.333 38.205-85.333 85.333c0 47.128 38.205 85.333 85.333 85.333s85.333-38.205 85.333-85.333zM768 725.334c0-47.128-38.205-85.333-85.333-85.333s-85.333 38.205-85.333 85.333c0 47.128 38.205 85.333 85.333 85.333s85.333-38.205 85.333-85.333zM768 426.667c0-47.128-38.205-85.333-85.333-85.333s-85.333 38.205-85.333 85.333c0 47.128 38.205 85.333 85.333 85.333s85.333-38.205 85.333-85.333zM768 128c0-47.128-38.205-85.333-85.333-85.333s-85.333 38.205-85.333 85.333c0 47.128 38.205 85.333 85.333 85.333s85.333-38.205 85.333-85.333z" />
<glyph unicode="&#xe92b;" glyph-name="format_heading_3" data-tags="format_heading_3" d="M891.733 290.134c64 51.2-4.267 145.067-76.8 110.933-34.133-12.8-34.133-59.733-59.733-76.8-21.333-12.8-59.733 0-55.467 34.133 4.267 46.933 46.933 76.8 89.6 98.133 149.333 55.467 302.933-98.133 157.867-217.6 89.6-38.4 110.933-162.133 38.4-230.4-85.333-85.333-285.867-55.467-298.667 81.067 0 34.133 34.133 46.933 64 34.133 17.067-25.6 29.867-68.267 46.933-81.067 55.467-55.467 136.533-8.533 136.533 64 4.267 72.533-59.733 115.2-123.733 102.4-55.467 0-51.2 72.533 4.267 68.267 25.6 0 46.933-8.533 76.8 12.8zM512 896c-21.333 0-42.667-21.333-42.667-46.933v-379.733h-384v379.733c0 21.333-17.067 46.933-42.667 46.933s-42.667-25.6-42.667-46.933v-840.533c0-25.6 17.067-51.2 42.667-51.2s42.667 21.333 42.667 46.933v379.733h384v-379.733c0-25.6 17.067-46.933 42.667-46.933s42.667 21.333 42.667 46.933v844.8c-4.267 21.333-25.6 46.933-42.667 46.933z" />
<glyph unicode="&#xe92c;" glyph-name="format_heading_1" data-tags="format_heading_1" d="M512 896c-21.333 0-42.667-21.333-42.667-46.933v-379.733h-384v379.733c0 21.333-17.067 46.933-42.667 46.933s-42.667-25.6-42.667-46.933v-840.533c0-25.6 17.067-51.2 42.667-51.2s42.667 21.333 42.667 46.933v379.733h384v-379.733c0-25.6 17.067-46.933 42.667-46.933s42.667 21.333 42.667 46.933v844.8c-4.267 21.333-25.6 46.933-42.667 46.933zM896 4.267v307.2c-59.733-46.933-89.6-64-106.667-64-8.533 0-17.067 4.267-21.333 8.533-4.267 8.533-8.533 12.8-8.533 21.333s4.267 17.067 8.533 21.333c4.267 4.267 17.067 12.8 34.133 17.067 25.6 12.8 51.2 21.333 64 38.4s25.6 29.867 38.4 51.2c12.8 17.067 17.067 29.867 21.333 34.133s8.533 4.267 17.067 4.267c8.533 0 17.067-4.267 25.6-12.8 4.267-8.533 8.533-17.067 8.533-38.4v-379.733c0-46.933-12.8-68.267-38.4-68.267-12.8 0-21.333 4.267-29.867 12.8-8.533 17.067-12.8 34.133-12.8 46.933z" />
<glyph unicode="&#xe92d;" glyph-name="format_heading_2" data-tags="format_heading_2" d="M810.667 42.667h166.4c17.067 4.267 25.6 0 38.4-4.267 8.533-4.267 12.8-12.8 12.8-29.867 0-8.533-4.267-21.333-8.533-29.867s-17.067-8.533-34.133-21.333h-230.4c-17.067 8.533-25.6 17.067-38.4 29.867s-12.8 21.333-12.8 34.133c0 8.533 4.267 21.333 8.533 34.133s12.8 25.6 17.067 29.867c25.6 29.867 55.467 59.733 72.533 76.8 21.333 21.333 38.4 34.133 46.933 42.667 17.067 12.8 34.133 25.6 42.667 38.4s17.067 25.6 25.6 38.4c8.533 12.8 8.533 29.867 8.533 38.4 0 12.8-4.267 29.867-8.533 38.4s-12.8 21.333-25.6 25.6c-12.8 4.267-17.067 8.533-34.133 8.533-25.6 0-51.2-12.8-64-38.4 0-4.267-4.267-12.8-8.533-29.867-4.267-12.8-8.533-25.6-17.067-34.133-4.267-8.533-12.8-8.533-25.6-8.533-8.533 0-17.067 4.267-25.6 8.533s-8.533 21.333-8.533 29.867c0 12.8 4.267 29.867 8.533 46.933 4.267 12.8 17.067 34.133 25.6 42.667s25.6 25.6 51.2 34.133c21.333 8.533 42.667 12.8 68.267 12.8 34.133 0 59.733-4.267 81.067-12.8 12.8-4.267 25.6-12.8 38.4-29.867 8.533-12.8 17.067-29.867 25.6-42.667 4.267-12.8 8.533-34.133 8.533-46.933 0-29.867-4.267-55.467-17.067-72.533-12.8-25.6-25.6-38.4-42.667-55.467-12.8-12.8-38.4-34.133-68.267-59.733-34.133-29.867-55.467-46.933-64-64-12.8-4.267-12.8-12.8-12.8-29.867zM512 896c-21.333 0-42.667-21.333-42.667-46.933v-379.733h-384v379.733c0 21.333-17.067 46.933-42.667 46.933s-42.667-25.6-42.667-46.933v-840.533c0-25.6 17.067-51.2 42.667-51.2s42.667 21.333 42.667 46.933v379.733h384v-379.733c0-25.6 17.067-46.933 42.667-46.933s42.667 21.333 42.667 46.933v844.8c-4.267 21.333-25.6 46.933-42.667 46.933z" />
<glyph unicode="&#xe92e;" glyph-name="format_paragraph" data-tags="format_paragraph" d="M682.667 51.2l93.867 140.8-81.067 123.733c-8.533 12.8-12.8 21.333-17.067 29.867s-4.267 17.067-4.267 25.6c0 8.533 4.267 17.067 12.8 21.333s17.067 8.533 25.6 8.533c12.8 0 21.333-4.267 29.867-8.533s17.067-21.333 29.867-38.4l64-102.4 68.267 102.4c4.267 8.533 8.533 17.067 12.8 21.333s8.533 12.8 12.8 17.067c4.267 4.267 8.533 8.533 12.8 8.533s8.533 4.267 17.067 4.267c12.8 0 21.333-4.267 25.6-8.533 8.533-8.533 8.533-12.8 8.533-21.333 0-12.8-8.533-29.867-21.333-51.2l-85.333-128 89.6-140.8c8.533-12.8 12.8-21.333 17.067-29.867s4.267-17.067 4.267-21.333c0-8.533 0-12.8-4.267-17.067s-8.533-8.533-12.8-12.8c-8.533-12.8-12.8-12.8-21.333-12.8s-17.067 0-21.333 4.267-8.533 8.533-12.8 12.8-8.533 12.8-21.333 29.867l-76.8 119.467-76.8-123.733c-4.267-8.533-8.533-17.067-12.8-21.333s-4.267-8.533-8.533-12.8c-4.267-4.267-8.533-8.533-12.8-8.533s-12.8-4.267-17.067-4.267c-8.533 0-21.333 4.267-25.6 8.533-8.533 8.533-8.533 17.067-8.533 29.867-4.267 17.067 0 34.133 17.067 55.467zM512 896c-21.333 0-42.667-21.333-42.667-46.933v-379.733h-384v379.733c0 21.333-17.067 46.933-42.667 46.933s-42.667-25.6-42.667-46.933v-840.533c0-25.6 17.067-51.2 42.667-51.2s42.667 21.333 42.667 46.933v379.733h384v-379.733c0-25.6 17.067-46.933 42.667-46.933s42.667 21.333 42.667 46.933v844.8c-4.267 21.333-25.6 46.933-42.667 46.933z" />
<glyph unicode="&#xe92f;" glyph-name="more_vert" data-tags="more_vert" d="M597.333 810.667c0-47.128-38.205-85.333-85.333-85.333s-85.333 38.205-85.333 85.333c0 47.128 38.205 85.333 85.333 85.333s85.333-38.205 85.333-85.333zM597.333 426.667c0-47.128-38.205-85.333-85.333-85.333s-85.333 38.205-85.333 85.333c0 47.128 38.205 85.333 85.333 85.333s85.333-38.205 85.333-85.333zM597.333 42.667c0-47.128-38.205-85.333-85.333-85.333s-85.333 38.205-85.333 85.333c0 47.128 38.205 85.333 85.333 85.333s85.333-38.205 85.333-85.333z" />
<glyph unicode="&#xe930;" glyph-name="list" data-tags="list" d="M934.4 384h-597.333c-25.6 0-42.667 17.067-42.667 42.667v0c0 25.6 17.067 42.667 42.667 42.667h597.333c25.6 0 42.667-17.067 42.667-42.667v0c0-25.6-17.067-42.667-42.667-42.667zM170.667 384h-85.333c-25.6 0-42.667 17.067-42.667 42.667v0c0 25.6 17.067 42.667 42.667 42.667h85.333c25.6 0 42.667-17.067 42.667-42.667v0c0-25.6-17.067-42.667-42.667-42.667zM934.4 682.667h-597.333c-25.6 0-42.667 17.067-42.667 42.667v0c0 25.6 17.067 42.667 42.667 42.667h597.333c25.6 0 42.667-17.067 42.667-42.667v0c0-25.6-17.067-42.667-42.667-42.667zM170.667 682.667h-85.333c-25.6 0-42.667 17.067-42.667 42.667v0c0 25.6 17.067 42.667 42.667 42.667h85.333c25.6 0 42.667-17.067 42.667-42.667v0c0-25.6-17.067-42.667-42.667-42.667zM934.4 85.334h-597.333c-25.6 0-42.667 17.067-42.667 42.667v0c0 25.6 17.067 42.667 42.667 42.667h597.333c25.6 0 42.667-17.067 42.667-42.667v0c0-25.6-17.067-42.667-42.667-42.667zM170.667 85.334h-85.333c-25.6 0-42.667 17.067-42.667 42.667v0c0 25.6 17.067 42.667 42.667 42.667h85.333c25.6 0 42.667-17.067 42.667-42.667v0c0-25.6-17.067-42.667-42.667-42.667z" />
<glyph unicode="&#xe931;" glyph-name="format_italic" data-tags="format_italic" d="M913.067 896h-226.133c-8.533 0-8.533 0-12.8 0h-264.533c-17.067 0-29.867-12.8-29.867-34.133s12.8-34.133 34.133-34.133h221.867l-320-802.133h-204.8c-21.333 0-34.133-12.8-34.133-34.133s12.8-34.133 34.133-34.133h503.467c21.333 0 34.133 12.8 34.133 34.133s-12.8 34.133-34.133 34.133h-221.867l307.2 806.4h213.333c21.333 0 34.133 12.8 34.133 34.133s-12.8 29.867-34.133 29.867z" />
<glyph unicode="&#xe932;" glyph-name="format_underline" data-tags="format_underline" d="M499.2 89.6c174.933 0 320 140.8 320 320v452.267c-4.267 21.333-17.067 34.133-42.667 34.133s-34.133-12.8-34.133-34.133v-456.533c0-140.8-115.2-256-256-256-132.267 8.533-247.467 119.467-247.467 260.267v452.267c4.267 21.333-8.533 34.133-29.867 34.133s-34.133-12.8-34.133-34.133v-456.533c0-174.933 140.8-315.733 324.267-315.733zM878.933 25.6h-733.867c-21.333 0-34.133-12.8-34.133-34.133s12.8-34.133 34.133-34.133h738.133c21.333 0 34.133 12.8 34.133 34.133-4.267 21.333-17.067 34.133-38.4 34.133z" />
<glyph unicode="&#xe933;" glyph-name="format_list_bulleted" data-tags="format_list_bulleted" d="M273.067 725.334c0-51.841-42.026-93.867-93.867-93.867s-93.867 42.026-93.867 93.867c0 51.841 42.026 93.867 93.867 93.867s93.867-42.026 93.867-93.867zM273.067 426.667c0-51.841-42.026-93.867-93.867-93.867s-93.867 42.026-93.867 93.867c0 51.841 42.026 93.867 93.867 93.867s93.867-42.026 93.867-93.867zM273.067 128c0-51.841-42.026-93.867-93.867-93.867s-93.867 42.026-93.867 93.867c0 51.841 42.026 93.867 93.867 93.867s93.867-42.026 93.867-93.867zM896 682.667h-469.333c-25.6 0-42.667 17.067-42.667 42.667v0c0 25.6 17.067 42.667 42.667 42.667h469.333c25.6 0 42.667-17.067 42.667-42.667v0c0-21.333-17.067-42.667-42.667-42.667zM896 384h-469.333c-25.6 0-42.667 17.067-42.667 42.667v0c0 25.6 17.067 42.667 42.667 42.667h469.333c25.6 0 42.667-17.067 42.667-42.667v0c0-25.6-17.067-42.667-42.667-42.667zM896 85.334h-469.333c-25.6 0-42.667 17.067-42.667 42.667v0c0 25.6 17.067 42.667 42.667 42.667h469.333c25.6 0 42.667-17.067 42.667-42.667v0c0-25.6-17.067-42.667-42.667-42.667z" />
<glyph unicode="&#xe934;" glyph-name="google" data-tags="google" d="M763.733 465.067h-243.2v-98.133h140.8c-12.8-59.733-68.267-98.133-140.8-98.133-85.333 0-153.6 68.267-153.6 153.6s68.267 153.6 153.6 153.6c38.4 0 68.267-12.8 93.867-29.867l72.533 72.533c-42.667 42.667-106.667 68.267-174.933 68.267-136.533-4.267-256-119.467-256-260.267s119.467-256 260.267-256c132.267 0 247.467 89.6 247.467 256 8.533 12.8 0 25.6 0 38.4v0zM507.733 896c-256 0-465.067-213.333-465.067-469.333s209.067-469.333 465.067-469.333c260.267 0 473.6 213.333 473.6 469.333s-213.333 469.333-473.6 469.333zM507.733 21.334c-221.867 0-405.333 183.467-405.333 405.333s183.467 405.333 405.333 405.333 405.333-183.467 405.333-405.333-179.2-405.333-405.333-405.333z" />
<glyph unicode="&#xe935;" glyph-name="hide_image" data-tags="hide_image" d="M806.4 29.696h-580.267c-64 0-106.667 46.933-106.667 106.667v8.533l213.333 213.333c4.267 4.267 8.533 4.267 12.8 0l68.267-68.267c12.8-12.8 38.4-12.8 51.2 0l64 64-51.2 51.2-38.4-38.4-42.667 42.667c-34.133 34.133-85.333 34.133-119.467 0l-157.867-157.867v465.067c0 21.333-12.8 38.4-38.4 38.4s-38.4-17.067-38.4-38.4v-576c0-102.4 76.8-183.467 183.467-183.467h580.267c21.333 0 38.4 12.8 38.4 38.4s-17.067 34.133-38.4 34.133zM806.4 895.83h-635.733c-21.333 0-38.4-12.8-38.4-34.133v-4.267c0-8.533 0-21.333 8.533-29.867l772.267-836.267c4.267-8.533 21.333-12.8 29.867-12.8 21.333 0 38.4 12.8 38.4 38.4v699.733c8.533 102.4-72.533 179.2-174.933 179.2zM913.067 716.63v-311.467l-157.867 157.867c-34.133 34.133-85.333 34.133-119.467 0l-81.067-76.8-311.467 337.067h563.2c64 0 106.667-42.667 106.667-106.667zM610.133 435.030l76.8 76.8c4.267 4.267 8.533 4.267 12.8 0l213.333-213.333v-200.533l-302.933 337.067z" />
<glyph unicode="&#xe936;" glyph-name="highlight_off" data-tags="highlight_off" d="M230.4-42.88c-38.4 0-76.8 12.8-102.4 42.667l-42.667 38.4c-59.733 59.733-59.733 149.333 0 209.067 0 0 0 0 4.267 4.267l217.6 217.6 51.2-51.2-217.6-217.6c0 0 0 0-4.267-4.267-25.6-29.867-25.6-72.533 4.267-102.4l34.133-42.667c29.867-29.867 76.8-29.867 106.667 0l221.867 221.867 51.2-51.2-221.867-221.867c-25.6-29.867-64-42.667-102.4-42.667zM938.667 699.52l-153.6 153.6c-59.733 59.733-149.333 59.733-204.8 0l-85.333-85.333c0 0 0 0-4.267-4.267-25.6-25.6-38.4-51.2-42.667-81.067l-17.067-64c0-12.8-8.533-25.6-12.8-34.133l-247.467 264.533c-12.8 12.8-38.4 12.8-51.2 0s-12.8-38.4 0-55.467l738.133-802.133c4.267-8.533 21.333-8.533 29.867-8.533s21.333 4.267 25.6 8.533c12.8 12.8 12.8 38.4 0 51.2l-251.733 273.067 4.267 4.267c8.533 8.533 25.6 12.8 38.4 21.333l64 8.533c29.867 4.267 51.2 21.333 76.8 38.4l4.267 4.267c4.267 0 8.533 4.267 8.533 8.533 4.267 4.267 4.267 8.533 8.533 8.533l76.8 76.8c46.933 64 46.933 153.6-4.267 213.333zM755.2 430.72v0l-64-8.533c-29.867-4.267-64-21.333-81.067-42.667v0l-46.933 46.933c12.8 12.8 12.8 38.4 0 51.2s-34.133 12.8-46.933 0l-51.2 46.933c4.267 4.267 4.267 8.533 4.267 17.067 12.8 21.333 25.6 38.4 29.867 64 0 0 0 0 0 4.267l12.8 59.733c0 8.533 4.267 21.333 8.533 29.867l260.267-260.267c-8.533-4.267-17.067-8.533-25.6-8.533zM887.467 541.654c-4.267 0-4.267 0 0 0l-51.2-51.2-264.533 264.533 51.2 51.2c29.867 29.867 76.8 29.867 106.667 0l157.867-157.867c29.867-29.867 29.867-81.067 0-106.667z" />
<glyph unicode="&#xe937;" glyph-name="highlight" data-tags="highlight" d="M938.667 699.734l-157.867 153.6c-59.733 59.733-149.333 59.733-209.067 0l-85.333-85.333c0 0 0 0-4.267-4.267-25.6-25.6-38.4-51.2-42.667-81.067l-8.533-64c-4.267-12.8-8.533-29.867-21.333-42.667-4.267-8.533-8.533-12.8-8.533-17.067l-307.2-307.2c0 0-4.267 0-4.267-4.267-59.733-59.733-59.733-149.333 0-209.067l34.133-38.4c29.867-29.867 68.267-42.667 102.4-42.667 38.4 0 76.8 12.8 106.667 42.667l328.533 328.533c0 0 0 0 4.267 4.267 8.533 8.533 25.6 12.8 38.4 21.333l64 8.533h4.267c29.867 4.267 51.2 21.333 76.8 38.4l4.267 4.267c4.267 0 8.533 4.267 8.533 8.533 4.267 4.267 4.267 8.533 8.533 8.533l72.533 72.533c46.933 55.467 46.933 145.067-4.267 204.8zM750.933 430.934v0l-64-8.533c-29.867-4.267-64-21.333-81.067-42.667 0 0 0 0-4.267-4.267l-324.267-324.267c-29.867-29.867-76.8-29.867-106.667 0l-34.133 34.133c-29.867 29.867-29.867 72.533-4.267 102.4 0 0 0 0 4.267 4.267l328.533 328.533c4.267 4.267 8.533 8.533 8.533 21.333 12.8 21.333 25.6 38.4 29.867 64 0 0 0 0 0 4.267l8.533 59.733c0 8.533 4.267 21.333 8.533 29.867l260.267-260.267c-8.533-4.267-17.067-8.533-29.867-8.533zM887.467 541.867c-4.267 0-4.267 0 0 0l-51.2-51.2-264.533 264.533 51.2 51.2c29.867 29.867 76.8 29.867 106.667 0l157.867-157.867c29.867-29.867 29.867-81.067 0-106.667zM512 473.6l-72.533-72.533c-12.8-12.8-12.8-38.4 0-51.2 4.267-4.267 12.8-8.533 25.6-8.533s21.333 4.267 25.6 8.533l72.533 76.8c12.8 12.8 12.8 38.4 0 51.2s-38.4 8.533-51.2-4.267z" />
<glyph unicode="&#xe938;" glyph-name="category" data-tags="category" d="M115.2 576v170.667c0 29.867 21.333 51.2 51.2 51.2h179.2c29.867 0 51.2-21.333 51.2-51.2v-170.667c0-29.867-25.6-51.2-51.2-51.2h-179.2c-25.6-4.267-51.2 21.333-51.2 51.2zM42.667 576c0-64 51.2-119.467 123.733-119.467h179.2c68.267 0 123.733 51.2 123.733 119.467v170.667c0 64-51.2 119.467-123.733 119.467h-179.2c-72.533-4.267-123.733-55.467-123.733-119.467v-170.667zM115.2 106.667v170.667c0 29.867 21.333 51.2 51.2 51.2h179.2c29.867 0 51.2-21.333 51.2-51.2v-170.667c0-29.867-25.6-51.2-51.2-51.2h-179.2c-25.6-4.267-51.2 21.333-51.2 51.2zM42.667 106.667c0-64 51.2-119.467 123.733-119.467h179.2c68.267 0 123.733 51.2 123.733 119.467v170.667c0 64-51.2 119.467-123.733 119.467h-179.2c-72.533-4.267-123.733-55.467-123.733-119.467v-170.667zM627.2 576v170.667c0 29.867 21.333 51.2 51.2 51.2h179.2c29.867 0 51.2-21.333 51.2-51.2v-170.667c0-29.867-25.6-51.2-51.2-51.2h-179.2c-25.6-4.267-51.2 21.333-51.2 51.2zM554.667 576c0-64 51.2-119.467 123.733-119.467h179.2c68.267 0 123.733 51.2 123.733 119.467v170.667c0 64-51.2 119.467-123.733 119.467h-179.2c-72.533-4.267-123.733-55.467-123.733-119.467v-170.667zM964.267 392.534l-238.933-324.267-64 85.333c-17.067 21.333-51.2 25.6-68.267 4.267v0 0l115.2-157.867c8.533-12.8 21.333-12.8 34.133 0l226.133 311.467c21.333 25.6 17.067 59.733-4.267 81.067v0z" />
<glyph unicode="&#xe939;" glyph-name="format_superscript" data-tags="format_superscript" d="M384 896h-384v-174.933c0-21.333 12.8-38.4 29.867-38.4h21.333c21.333 0 34.133 17.067 34.133 38.4v89.6h213.333v-768h-89.6c-21.333 0-38.4-17.067-38.4-42.667v-4.267c0-21.333 17.067-38.4 38.4-38.4h268.8c21.333 0 38.4 17.067 34.133 42.667v4.267c0 21.333-17.067 38.4-38.4 38.4h-89.6v768h213.333v-89.6c0-21.333 12.8-38.4 29.867-38.4h21.333c21.333 0 34.133 17.067 34.133 38.4v174.933h-298.667zM1011.2 896c-8.533 8.533-17.067 12.8-25.6 12.8s-12.8 0-17.067-4.267l-149.333-132.267c-4.267-4.267-8.533-12.8-8.533-21.333s4.267-12.8 8.533-21.333c4.267-4.267 12.8-8.533 21.333-8.533 17.067 0 46.933 21.333 102.4 59.733v-281.6c0-12.8 4.267-25.6 12.8-38.4 8.533-8.533 17.067-12.8 29.867-12.8 25.6 0 38.4 25.6 38.4 64v349.867c0 17.067-4.267 25.6-12.8 34.133z" />
<glyph unicode="&#xe93a;" glyph-name="home" data-tags="home" d="M968.533 379.734l-128 132.267c0 0 0 0-4.267 4.267l-302.933 302.933c-12.8 12.8-34.133 12.8-46.933 0l-435.2-443.733c-12.8-12.8-12.8-34.133 0-46.933s34.133-12.8 46.933 0v0l76.8 76.8v-354.133c0-17.067 12.8-34.133 34.133-34.133h593.067c17.067 0 34.133 17.067 34.133 34.133v354.133l76.8-76.8c12.8-12.8 34.133-12.8 46.933 0 25.6 17.067 25.6 38.4 8.533 51.2zM780.8 89.6h-234.667v234.667c0 17.067-17.067 34.133-34.133 34.133s-34.133-12.8-34.133-34.133v-234.667h-230.4v384l268.8 273.067 268.8-268.8-4.267-388.267z" />
<glyph unicode="&#xe93b;" glyph-name="insert_link" data-tags="insert_link" d="M204.8 328.534c-55.467 0-98.133 42.667-98.133 98.133v174.933c0 55.467 42.667 98.133 98.133 98.133h349.867c55.467 0 98.133-42.667 98.133-98.133v-174.933c0-55.467-42.667-98.133-98.133-98.133h-85.333c-17.067 0-34.133-12.8-34.133-34.133 0-17.067 12.8-34.133 34.133-34.133h85.333c89.6 0 162.133 72.533 162.133 162.133v174.933c0 89.6-72.533 162.133-162.133 162.133h-349.867c-89.6 4.267-162.133-68.267-162.133-157.867v-174.933c0-89.6 72.533-162.133 162.133-162.133 17.067 0 34.133 12.8 34.133 34.133 0 17.067-12.8 29.867-34.133 29.867zM819.2 588.8c-17.067 0-34.133-12.8-34.133-34.133 0-17.067 12.8-34.133 34.133-34.133 55.467 0 98.133-42.667 98.133-98.133v-174.933c0-55.467-42.667-98.133-98.133-98.133h-349.867c-55.467 0-98.133 42.667-98.133 98.133v179.2c0 55.467 42.667 98.133 98.133 98.133h85.333c17.067 0 34.133 12.8 34.133 34.133 0 17.067-12.8 34.133-34.133 34.133h-85.333c-89.6 0-162.133-72.533-162.133-162.133v-174.933c0-89.6 72.533-162.133 162.133-162.133h349.867c89.6 0 162.133 72.533 162.133 162.133v170.667c0 89.6-72.533 162.133-162.133 162.133z" />
<glyph unicode="&#xe93c;" glyph-name="format_subscript" data-tags="format_subscript" d="M558.933 42.667h-89.6v768h298.667v-89.6c0-21.333 17.067-38.4 38.4-38.4h8.533c21.333 0 38.4 17.067 38.4 38.4v174.933h-853.333v-174.933c0-21.333 17.067-38.4 38.4-38.4h8.533c21.333 0 38.4 17.067 38.4 38.4v89.6h298.667v-768h-89.6c-21.333 0-38.4-17.067-38.4-42.667v-4.267c0-21.333 17.067-38.4 38.4-38.4h268.8c21.333 0 38.4 17.067 34.133 42.667v4.267c0 21.333-17.067 38.4-38.4 38.4zM994.133 29.867c-8.533 4.267-17.067 8.533-34.133 12.8h-153.6c0 4.267 0 12.8 12.8 21.333 8.533 12.8 29.867 29.867 59.733 55.467 29.867 21.333 51.2 38.4 64 51.2s25.6 25.6 38.4 46.933c12.8 17.067 17.067 38.4 17.067 64 0 12.8-4.267 29.867-8.533 42.667-8.533 12.8-17.067 25.6-25.6 38.4s-21.333 21.333-34.133 25.6c-21.333 8.533-46.933 12.8-76.8 12.8-25.6 0-42.667-4.267-64-12.8s-38.4-21.333-46.933-29.867-21.333-25.6-25.6-38.4c-4.267-17.067-8.533-29.867-8.533-42.667 0-8.533 0-21.333 8.533-25.6s17.067-8.533 25.6-8.533c12.8 0 21.333 0 25.6 8.533 8.533 8.533 12.8 17.067 17.067 29.867s8.533 21.333 8.533 25.6c12.8 21.333 34.133 34.133 59.733 34.133 12.8 0 17.067-4.267 29.867-8.533s21.333-12.8 25.6-21.333 8.533-21.333 8.533-34.133c0-8.533 0-21.333-8.533-34.133s-17.067-21.333-25.6-34.133-21.333-21.333-38.4-34.133c-8.533-8.533-21.333-21.333-42.667-38.4-17.067-17.067-42.667-42.667-68.267-68.267-4.267-4.267-12.8-12.8-17.067-25.6s-8.533-21.333-8.533-29.867c0-12.8 4.267-21.333 12.8-29.867s17.067-17.067 34.133-25.6h213.333c12.8 12.8 25.6 12.8 29.867 21.333s8.533 17.067 8.533 25.6c0 12.8-4.267 21.333-12.8 25.6z" />
<glyph unicode="&#xe93d;" glyph-name="instagram" data-tags="instagram" d="M507.733 896c-256 0-465.067-213.333-465.067-469.333s209.067-469.333 465.067-469.333c260.267 0 473.6 213.333 473.6 469.333s-213.333 469.333-473.6 469.333zM507.733 21.334c-221.867 0-405.333 183.467-405.333 405.333s183.467 405.333 405.333 405.333 405.333-183.467 405.333-405.333-179.2-405.333-405.333-405.333zM635.733 695.467h-243.2c-81.067 0-153.6-68.267-153.6-153.6v-234.667c0-81.067 68.267-153.6 153.6-153.6h243.2c81.067 0 149.333 64 157.867 149.333v243.2c-4.267 81.067-72.533 149.333-157.867 149.333zM716.8 302.934c0-46.933-38.4-85.333-85.333-85.333h-243.2c-46.933 0-85.333 38.4-85.333 85.333v243.2c-4.267 46.933 38.4 81.067 81.067 85.333h243.2c46.933 0 85.333-38.4 85.333-85.333l4.267-243.2zM516.267 537.6c-64 0-119.467-51.2-119.467-119.467s51.2-119.467 119.467-119.467c64 0 119.467 51.2 119.467 119.467s-55.467 119.467-119.467 119.467zM516.267 375.467c-29.867 0-51.2 25.6-51.2 51.2 0 29.867 25.6 51.2 51.2 51.2 29.867 0 51.2-21.333 51.2-51.2s-25.6-51.2-51.2-51.2zM674.133 558.934c0-18.851-15.282-34.133-34.133-34.133s-34.133 15.282-34.133 34.133c0 18.851 15.282 34.133 34.133 34.133s34.133-15.282 34.133-34.133z" />
<glyph unicode="&#xe93e;" glyph-name="link" data-tags="link" d="M729.6 678.4h-119.467c-128 0-230.4-102.4-230.4-230.4 0-21.333 17.067-34.133 34.133-34.133 21.333 0 34.133 17.067 34.133 34.133 0 85.333 68.267 157.867 157.867 157.867h119.467c98.133 0 179.2-81.067 179.2-179.2s-81.067-179.2-179.2-179.2h-25.6c-21.333 0-34.133-17.067-34.133-34.133 0-21.333 17.067-34.133 34.133-34.133h25.6c140.8 0 251.733 115.2 251.733 251.733 4.267 136.533-110.933 247.467-247.467 247.467zM610.133 439.467c-21.333 0-34.133-17.067-34.133-34.133 0-85.333-68.267-157.867-157.867-157.867h-119.467c-98.133 0-179.2 81.067-179.2 179.2s81.067 179.2 179.2 179.2h25.6c21.333 0 34.133 17.067 34.133 34.133 0 21.333-17.067 34.133-34.133 34.133h-25.6c-140.8 4.267-256-106.667-256-247.467s115.2-251.733 251.733-251.733h119.467c128 0 230.4 102.4 230.4 230.4 0 17.067-17.067 34.133-34.133 34.133z" />
<glyph unicode="&#xe93f;" glyph-name="format_clear" data-tags="format_clear" d="M900.267 896h-601.6v-85.333h170.667v-162.133c0-25.6 17.067-42.667 42.667-42.667s42.667 17.067 42.667 42.667v162.133h298.667v-89.6c0-21.333 17.067-38.4 38.4-38.4h8.533c21.333 0 38.4 17.067 38.4 38.4v174.933h-38.4zM110.933 878.934c-12.8 17.067-38.4 17.067-55.467 0l-4.267-4.267c-17.067-17.067-17.067-38.4 0-55.467l418.133-430.933v-345.6h-89.6c-21.333 0-38.4-17.067-38.4-42.667v-4.267c0-21.333 17.067-38.4 38.4-38.4h268.8c21.333 0 38.4 17.067 34.133 42.667v4.267c0 21.333-17.067 38.4-38.4 38.4h-89.6v256l315.733-324.267c12.8-17.067 38.4-17.067 51.2 0l4.267 4.267c17.067 17.067 17.067 38.4 0 55.467l-814.933 844.8z" />
<glyph unicode="&#xe940;" glyph-name="linkedin" data-tags="linkedin" d="M366.72 230.998c-25.6 0-42.667 17.067-42.667 42.667v213.333c0 25.6 17.067 42.667 42.667 42.667s42.667-17.067 42.667-42.667v-213.333c4.267-17.067-17.067-42.667-42.667-42.667zM507.52 230.998c-25.6 0-42.667 17.067-42.667 42.667v128c0 72.533 59.733 132.267 132.267 132.267v0c72.533 0 132.267-59.733 132.267-132.267v-128c0-25.6-17.067-42.667-42.667-42.667s-42.667 17.067-42.667 42.667v128c0 25.6-21.333 42.667-42.667 42.667v0c-25.6 0-42.667-21.333-42.667-42.667v-128c-4.267-17.067-25.6-42.667-51.2-42.667zM366.72 559.531c-29.867 0-55.467 21.333-55.467 51.2 0 17.067 8.533 29.867 17.067 38.4 4.267 8.533 8.533 8.533 12.8 12.8 8.533 4.267 12.8 4.267 21.333 4.267 25.6 0 51.2-21.333 51.2-51.2s-17.067-55.467-46.933-55.467v0zM511.787-42.069c-123.733 0-238.933 42.667-332.8 136.533-183.467 183.467-183.467 482.133 0 665.6s482.133 183.467 665.6 0v0 0c89.6-89.6 136.533-209.067 136.533-332.8s-46.933-243.2-140.8-332.8c-85.333-89.6-209.067-136.533-328.533-136.533zM511.787 832.598c-106.667 0-204.8-38.4-285.867-119.467-153.6-157.867-153.6-413.867 4.267-571.733s413.867-157.867 571.733 0c76.8 72.533 119.467 179.2 119.467 285.867 0 110.933-42.667 209.067-119.467 285.867v0 0c-81.067 81.067-183.467 119.467-290.133 119.467z" />
<glyph unicode="&#xe941;" glyph-name="format_strikethrough" data-tags="format_strikethrough" d="M900.267 896h-814.933v-174.933c0-21.333 17.067-38.4 38.4-38.4h8.533c21.333 0 38.4 17.067 38.4 38.4v89.6h298.667v-290.133c0-25.6 17.067-42.667 42.667-42.667s42.667 17.067 42.667 42.667v290.133h298.667v-89.6c0-21.333 17.067-38.4 38.4-38.4h8.533c21.333 0 38.4 17.067 38.4 38.4v174.933h-38.4zM900.267 384h-776.533c-21.333 0-38.4-17.067-38.4-42.667v-4.267c0-21.333 17.067-38.4 38.4-38.4h345.6v-256h-89.6c-21.333 0-38.4-17.067-38.4-42.667v-4.267c0-21.333 17.067-38.4 38.4-38.4h268.8c21.333 0 38.4 17.067 34.133 42.667v4.267c0 21.333-17.067 38.4-38.4 38.4h-89.6v256h349.867c21.333 0 38.4 17.067 34.133 42.667v4.267c0 21.333-17.067 38.4-38.4 38.4z" />
<glyph unicode="&#xe942;" glyph-name="more_circle" data-tags="more_circle" d="M512-42.666c-119.467 0-243.2 42.667-332.8 136.533-183.467 183.467-183.467 482.133 0 665.6 89.6 89.6 209.067 136.533 332.8 136.533v0c123.733 0 243.2-46.933 332.8-136.533v0c89.6-89.6 136.533-209.067 136.533-328.533s-46.933-243.2-136.533-328.533c-89.6-102.4-213.333-145.067-332.8-145.067zM512 832v0c-106.667 0-209.067-42.667-290.133-119.467-153.6-157.867-153.6-413.867 0-571.733 157.867-157.867 418.133-157.867 571.733 0 76.8 76.8 119.467 174.933 119.467 285.867 0 106.667-38.4 209.067-119.467 285.867v0 0c-72.533 72.533-174.933 119.467-281.6 119.467zM563.2 456.534c17.067-17.067 17.067-46.933 0-64s-46.933-17.067-68.267 0c-17.067 17.067-17.067 46.933 0 64 21.333 17.067 46.933 17.067 68.267 0v0zM738.133 456.534c17.067-17.067 17.067-46.933 0-64s-46.933-17.067-68.267 0-17.067 46.933 0 64c25.6 17.067 51.2 17.067 68.267 0v0zM384 456.534c17.067-17.067 17.067-46.933 0-64s-46.933-17.067-68.267 0c-17.067 17.067-17.067 46.933 0 64 25.6 17.067 51.2 17.067 68.267 0v0z" />
<glyph unicode="&#xe943;" glyph-name="movie" data-tags="movie" d="M878.933 896h-733.867c-55.467 0-102.4-46.933-102.4-102.4v-738.133c0-51.2 46.933-98.133 102.4-98.133h738.133c55.467 0 102.4 46.933 102.4 102.4v733.867c-4.267 55.467-51.2 102.4-106.667 102.4zM913.067 793.6v-132.267h-256l72.533 166.4h149.333c21.333 0 34.133-12.8 34.133-34.133zM661.333 827.734l-72.533-166.4h-230.4l72.533 166.4c0 0 230.4 0 230.4 0zM145.067 827.734h213.333l-72.533-166.4h-174.933v132.267c0 21.333 12.8 34.133 34.133 34.133zM913.067 59.734c0-21.333-12.8-34.133-34.133-34.133h-733.867c-21.333 0-34.133 12.8-34.133 34.133v533.333h806.4v-533.333h-4.267zM686.933 366.934l-226.133 128c-8.533 4.267-17.067 4.267-21.333 4.267-34.133 8.533-59.733-21.333-59.733-55.467v-268.8c0-8.533 0-12.8 8.533-21.333 12.8-25.6 46.933-46.933 72.533-34.133l226.133 132.267c8.533 8.533 12.8 12.8 21.333 21.333 12.8 38.4 4.267 81.067-21.333 93.867zM443.733 204.8v221.867l187.733-106.667-187.733-115.2z" />
<glyph unicode="&#xe944;" glyph-name="notifications_active" data-tags="notifications_active" d="M878.933 226.134c-38.4 0-68.267 34.133-68.267 68.267v226.133c0 166.4-132.267 302.933-302.933 302.933s-298.667-136.533-298.667-302.933v-234.667c0-34.133-34.133-68.267-68.267-68.267-46.933 0-46.933-68.267 0-68.267h738.133c46.933 8.533 46.933 76.8 0 76.8zM277.333 290.134v230.4c0 128 106.667 234.667 234.667 234.667s234.667-106.667 234.667-234.667v-234.667c0-25.6 8.533-46.933 21.333-68.267h-512c12.8 21.333 21.333 46.933 21.333 72.533zM264.533 827.734c12.8 12.8 12.8 34.133 8.533 46.933-17.067 21.333-34.133 21.333-51.2 12.8-110.933-81.067-179.2-213.333-179.2-354.133 0-21.333 12.8-34.133 34.133-34.133 12.8 0 34.133 12.8 34.133 34.133v0c0 119.467 51.2 226.133 153.6 294.4zM802.133 887.467c-17.067 12.8-34.133 8.533-46.933-4.267s-8.533-34.133 8.533-46.933c89.6-68.267 149.333-183.467 149.333-302.933 0-21.333 12.8-34.133 34.133-34.133s34.133 12.8 34.133 34.133v0c0 140.8-68.267 273.067-179.2 354.133zM580.267 25.6h-136.533c-21.333 0-34.133-12.8-34.133-34.133 0-17.067 17.067-34.133 34.133-34.133h132.267c21.333 0 34.133 12.8 34.133 34.133 4.267 21.333-12.8 34.133-29.867 34.133z" />
<glyph unicode="&#xe945;" glyph-name="notifications_off" data-tags="notifications_off" d="M576 25.6h-136.533c-21.333 0-34.133-12.8-34.133-34.133s12.8-34.133 34.133-34.133h132.267c21.333 0 34.133 12.8 34.133 34.133 4.267 21.333-8.533 34.133-29.867 34.133zM209.067 354.134c21.333 0 34.133 12.8 34.133 34.133v170.667c0 34.133 8.533 68.267 21.333 102.4 55.467 140.8 213.333 200.533 345.6 149.333 21.333-8.533 34.133 0 46.933 21.333 8.533 21.333 0 34.133-21.333 46.933v0c-162.133 55.467-362.667-21.333-430.933-196.267-21.333-38.4-25.6-81.067-25.6-128v-166.4c0-17.067 12.8-34.133 29.867-34.133zM55.467 17.067c-12.8-12.8-12.8-34.133 0-46.933s34.133-12.8 46.933 0v0l153.6 153.6h686.933c38.4 8.533 38.4 68.267 0 68.267h-21.333c-46.933 12.8-81.067 55.467-81.067 102.4v268.8c0 46.933-12.8 85.333-25.6 128l153.6 153.6c12.8 8.533 12.8 25.6 0 38.4s-34.133 12.8-46.933 0l-691.2-691.2zM763.733 631.467c8.533-25.6 12.8-46.933 12.8-72.533v-268.8c0-38.4 12.8-72.533 34.133-102.4h-486.4l439.467 443.733z" />
<glyph unicode="&#xe946;" glyph-name="outlined_flag" data-tags="outlined_flag" d="M891.733 810.667c0 8.533 0 17.067-8.533 25.6-4.267 17.067-25.6 17.067-42.667 8.533h-4.267c0 0-38.4-29.867-149.333-29.867-59.733 0-106.667 21.333-162.133 38.4-59.733 17.067-110.933 42.667-187.733 42.667-136.533 0-187.733-42.667-192-46.933v0c-8.533-8.533-12.8-21.333-12.8-29.867v-823.467c0-25.6 17.067-38.4 38.4-38.4s38.4 21.333 38.4 38.4v315.733c21.333 4.267 59.733 21.333 128 21.333 59.733 0 106.667-21.333 153.6-38.4 59.733-21.333 110.933-42.667 183.467-42.667 119.467 0 166.4 25.6 192 42.667 4.267 0 4.267 4.267 8.533 4.267 0 0 4.267 0 4.267 4.267v0c8.533 8.533 12.8 17.067 12.8 25.6v482.133zM524.8 358.4c-59.733 21.333-110.933 42.667-183.467 42.667-64 0-106.667-8.533-136.533-21.333v418.133c17.067 8.533 59.733 25.6 136.533 25.6 55.467 0 102.4-21.333 157.867-38.4 59.733-21.333 115.2-42.667 187.733-42.667 55.467 0 98.133 8.533 128 17.067v-409.6c-12.8-8.533-51.2-29.867-136.533-29.867-51.2 0-98.133 17.067-153.6 38.4z" />
<glyph unicode="&#xe947;" glyph-name="people_alt" data-tags="people_alt" d="M665.6 537.6c-17.067 0-34.133-17.067-34.133-38.4 0-17.067 17.067-34.133 38.4-34.133v0c106.667 4.267 187.733 89.6 187.733 196.267s-85.333 187.733-192 187.733c-17.067 0-38.4-12.8-34.133-38.4 0-17.067 12.8-34.133 38.4-34.133 64 0 115.2-46.933 115.2-115.2s-55.467-123.733-119.467-123.733zM388.267 460.8v0c110.933 4.267 192 89.6 192 192 0 106.667-85.333 187.733-192 187.733-102.4 0-187.733-81.067-192-187.733 4.267-98.133 85.333-183.467 192-192zM388.267 772.267c64 0 119.467-46.933 119.467-115.2s-51.2-119.467-119.467-123.733h4.267c-72.533 4.267-119.467 59.733-123.733 123.733 4.267 64 51.2 115.2 119.467 115.2zM512 366.934h-238.933c-123.733 0-230.4-102.4-230.4-230.4v-93.867c0-17.067 12.8-38.4 38.4-38.4 17.067 0 38.4 12.8 38.4 38.4v93.867c0 85.333 72.533 153.6 153.6 153.6h238.933c85.333 0 153.6-72.533 153.6-153.6v-93.867c0-17.067 12.8-38.4 38.4-38.4 17.067 0 38.4 12.8 38.4 38.4v93.867c0 123.733-106.667 230.4-230.4 230.4zM797.867 366.934c-17.067 0-38.4-12.8-38.4-38.4 0-17.067 12.8-38.4 38.4-38.4 55.467 0 106.667-46.933 106.667-106.667v-140.8c0-17.067 12.8-38.4 38.4-38.4 17.067 0 38.4 12.8 38.4 38.4v145.067c0 98.133-81.067 179.2-183.467 179.2z" />
<glyph unicode="&#xe948;" glyph-name="title" data-tags="title" d="M900.267 896h-814.933v-174.933c0-21.333 17.067-38.4 38.4-38.4h8.533c21.333 0 38.4 17.067 38.4 38.4v89.6h298.667v-768h-89.6c-21.333 0-38.4-17.067-38.4-42.667v-4.267c0-21.333 17.067-38.4 38.4-38.4h264.533c21.333 0 38.4 17.067 34.133 42.667v4.267c0 21.333-17.067 38.4-38.4 38.4h-85.333v768h298.667v-89.6c0-21.333 17.067-38.4 38.4-38.4h8.533c21.333 0 38.4 17.067 38.4 38.4v174.933h-38.4z" />
<glyph unicode="&#xe949;" glyph-name="check" data-tags="check" d="M891.733 874.667l-533.333-738.133c0 0 0 0 0 0l-140.8 192c-38.4 51.2-110.933 55.467-153.6 12.8v0c0 0 0 0 0 0l260.267-358.4c21.333-25.6 51.2-25.6 72.533 0l512 704c42.667 55.467 34.133 136.533-17.067 187.733 0 0 0 0 0 0z" />
<glyph unicode="&#xe94a;" glyph-name="person" data-tags="person" d="M512 896c-260.267 0-469.333-209.067-469.333-469.333s209.067-469.333 469.333-469.333 469.333 209.067 469.333 469.333-209.067 469.333-469.333 469.333zM512 34.134c-221.867 0-392.533 179.2-392.533 392.533 0 221.867 179.2 392.533 392.533 392.533s392.533-179.2 392.533-392.533-174.933-392.533-392.533-392.533zM614.4 460.8c55.467 55.467 55.467 149.333 0 200.533v0 0 0 0c-55.467 55.467-149.333 55.467-200.533 0-55.467-55.467-55.467-149.333 0-200.533 51.2-59.733 140.8-59.733 200.533 0zM460.8 610.134c29.867 29.867 72.533 29.867 102.4 0v0c29.867-29.867 29.867-72.533 0-102.4s-72.533-29.867-102.4 0c-29.867 29.867-29.867 72.533 0 102.4zM584.533 362.667h-140.8c-85.333 0-157.867-64-170.667-149.333-4.267-17.067 8.533-38.4 29.867-42.667 17.067-4.267 38.4 8.533 42.667 29.867 8.533 46.933 51.2 85.333 102.4 85.333h140.8c51.2 0 93.867-38.4 102.4-85.333 4.267-17.067 17.067-34.133 42.667-29.867 17.067 4.267 34.133 25.6 29.867 42.667v0c-21.333 85.333-98.133 149.333-179.2 149.333z" />
<glyph unicode="&#xe94b;" glyph-name="picture_as_pdf" data-tags="picture_as_pdf" d="M546.133 140.8h-85.333c-17.067 0-29.867 12.8-29.867 34.133v234.667c0 17.067 12.8 29.867 29.867 29.867h85.333c42.667 0 72.533-38.4 72.533-89.6v-115.2c0-55.467-34.133-93.867-72.533-93.867zM490.667 200.534h51.2c4.267 0 8.533 8.533 8.533 29.867v115.2c0 17.067-8.533 29.867-8.533 29.867h-51.2c0 0 0-174.933 0-174.933zM256 140.8c-17.067 0-29.867 12.8-29.867 34.133v234.667c0 17.067 12.8 29.867 29.867 29.867h85.333c12.8 0 29.867-4.267 42.667-17.067 8.533-8.533 17.067-25.6 17.067-42.667v-55.467c0-34.133-29.867-55.467-55.467-55.467h-59.733v-89.6c0-25.6-17.067-38.4-29.867-38.4zM285.867 375.467v-51.2h55.467l-4.267 51.2h-51.2zM768 337.067h-55.467v38.4h55.467c17.067 0 34.133 12.8 34.133 29.867s-12.8 29.867-34.133 29.867h-85.333c-17.067 0-34.133-12.8-34.133-29.867v-226.133c0-17.067 12.8-34.133 34.133-34.133 17.067 0 34.133 12.8 34.133 34.133v102.4h55.467c17.067 0 34.133 12.8 34.133 34.133 0 8.533-17.067 21.333-38.4 21.333zM908.8 614.4c0 4.267 0 4.267 0 0 0 4.267 0 4.267 0 8.533-4.267 38.4-25.6 76.8-46.933 106.667l-115.2 115.2c-34.133 34.133-81.067 51.2-128 51.2v0h-341.333c-42.667 0-81.067-12.8-110.933-42.667s-51.2-68.267-51.2-110.933v-652.8c0-68.267 51.2-123.733 119.467-128 4.267 0 8.533-4.267 12.8-4.267h503.467c85.333 0 153.6 72.533 153.6 153.6v486.4c4.267 8.533 4.267 12.8 4.267 17.067zM806.4 674.134c4.267-4.267 12.8-12.8 17.067-25.6h-119.467c-17.067 0-38.4 12.8-38.4 38.4v123.733c8.533-4.267 12.8-8.533 25.6-17.067l115.2-119.467zM755.2 29.867h-494.933c-4.267 0-8.533 0-12.8 0-34.133 0-55.467 29.867-55.467 55.467v657.067c0 25.6 8.533 42.667 25.6 55.467 12.8 12.8 38.4 25.6 55.467 25.6v0h324.267v-132.267c0-55.467 46.933-106.667 106.667-106.667h132.267v-469.333c0-46.933-34.133-85.333-81.067-85.333z" />
<glyph unicode="&#xe94c;" glyph-name="play_arrow" data-tags="play_arrow" d="M904.533 460.8c-12.8 17.067-25.6 38.4-51.2 51.2l-571.733 358.4c-38.4 21.333-81.067 21.333-119.467 0s-55.467-55.467-55.467-93.867v-721.067c0-38.4 21.333-81.067 59.733-93.867 34.133-21.333 72.533-21.333 115.2 0l584.533 362.667c46.933 21.333 68.267 81.067 38.4 136.533zM832 379.734l-593.067-362.667c-12.8-8.533-34.133-8.533-46.933 0-12.8 12.8-21.333 25.6-21.333 38.4v-8.533 721.067c0 12.8 8.533 34.133 25.6 38.4 17.067 8.533 38.4 8.533 51.2 4.267l580.267-358.4c12.8-8.533 21.333-12.8 21.333-21.333 8.533-17.067-4.267-46.933-17.067-51.2z" />
<glyph unicode="&#xe94d;" glyph-name="play_circle_outline" data-tags="play_circle_outline" d="M512 896c-260.267 0-469.333-209.067-469.333-469.333s209.067-469.333 469.333-469.333 469.333 209.067 469.333 469.333-209.067 469.333-469.333 469.333zM512 25.6c-221.867 0-401.067 179.2-401.067 401.067s179.2 401.067 401.067 401.067 401.067-179.2 401.067-401.067-179.2-401.067-401.067-401.067zM426.667 622.934v0c-21.333 12.8-46.933 0-46.933-25.6v-337.067c0-25.6 25.6-38.4 55.467-25.6l268.8 166.4c21.333 12.8 21.333 46.933 0 55.467l-277.333 166.4zM443.733 533.334l166.4-106.667-166.4-106.667v213.333z" />
<glyph unicode="&#xe94e;" glyph-name="public" data-tags="public" d="M593.067 887.467c-8.533 0-8.533 0-12.8 0v0c-21.333 8.533-46.933 8.533-68.267 8.533-260.267 0-469.333-209.067-469.333-469.333s209.067-469.333 469.333-469.333 469.333 209.067 469.333 469.333c0 234.667-166.4 422.4-388.267 460.8zM512 827.734c12.8 0 21.333 0 34.133 0v-115.2c0-46.933-38.4-85.333-85.333-85.333-81.067 0-149.333-68.267-149.333-149.333v-102.4c0-46.933-38.4-85.333-81.067-85.333h-102.4c-12.8 38.4-21.333 85.333-21.333 132.267 4.267 226.133 183.467 405.333 405.333 405.333zM162.133 226.134h59.733c85.333 0 153.6 68.267 153.6 149.333v106.667c0 46.933 34.133 81.067 81.067 81.067 81.067 0 149.333 68.267 149.333 149.333v102.4c153.6-38.4 273.067-166.4 294.4-328.533-12.8 8.533-38.4 8.533-59.733 8.533h-149.333c-81.067 0-149.333-68.267-149.333-149.333s68.267-149.333 149.333-149.333c25.6 0 55.467-21.333 55.467-55.467v-38.4c-68.267-55.467-149.333-81.067-234.667-81.067-149.333 4.267-281.6 85.333-349.867 204.8zM814.933 157.867c-8.533 59.733-55.467 102.4-115.2 102.4-55.467 0-85.333 38.4-85.333 85.333s34.133 81.067 81.067 81.067h140.8c25.6 0 55.467-8.533 72.533-12.8 0-102.4-34.133-187.733-93.867-256z" />
<glyph unicode="&#xe94f;" glyph-name="redo" data-tags="redo" d="M426.667 699.734h409.6l-98.133 98.133c-12.8 17.067-12.8 42.667 0 59.733 17.067 17.067 46.933 17.067 64 0l170.667-170.667c0 0 4.267-4.267 4.267-12.8 4.267-12.8 4.267-21.333 0-34.133 0-4.267-4.267-12.8-12.8-12.8l-170.667-170.667c-4.267-4.267-17.067-12.8-29.867-12.8s-21.333 4.267-29.867 12.8c-8.533 25.6-8.533 51.2 4.267 68.267l98.133 89.6h-409.6c-157.867 4.267-290.133-115.2-294.4-264.533 4.267-157.867 140.8-277.333 298.667-273.067h452.267c21.333 0 46.933-17.067 46.933-46.933s-17.067-46.933-46.933-46.933h-456.533c-4.267 0-12.8 0-17.067 0-196.267 0-362.667 153.6-366.933 358.4 12.8 213.333 187.733 371.2 384 358.4z" />
<glyph unicode="&#xe950;" glyph-name="restore_from_trash" data-tags="restore_from_trash" d="M524.8 25.6v0h-234.667l-68.267 507.733c0 12.8-12.8 25.6-34.133 25.6s-29.867-17.067-29.867-29.867l68.267-537.6c4.267-21.333 17.067-34.133 29.867-34.133h268.8c21.333 0 34.133 12.8 34.133 34.133s-12.8 34.133-34.133 34.133zM780.8 392.534c21.333 0 34.133 12.8 34.133 25.6l12.8 102.4c0 21.333-12.8 34.133-25.6 38.4-21.333 0-34.133-12.8-38.4-25.6v0l-12.8-102.4c-4.267-17.067 8.533-29.867 29.867-38.4zM925.867 661.334c0 21.333-12.8 34.133-25.6 34.133h-200.533v98.133c-8.533 55.467-55.467 102.4-106.667 102.4h-200.533c-55.467 0-102.4-46.933-102.4-102.4v-102.4h-200.533c-12.8 4.267-34.133-8.533-34.133-29.867s21.333-34.133 38.4-34.133h806.4c12.8 0 25.6 12.8 25.6 34.133zM358.4 793.6c0 21.333 12.8 34.133 34.133 34.133h200.533c21.333 0 34.133-12.8 34.133-34.133v-102.4h-268.8c0 0 0 102.4 0 102.4zM793.6 294.4h-256l81.067 81.067c12.8 12.8 12.8 34.133 0 46.933s-34.133 12.8-46.933 0l-132.267-132.267c-12.8-12.8-12.8-34.133 0-46.933l132.267-132.267c12.8-12.8 34.133-12.8 46.933 0s12.8 34.133 0 46.933v0l-72.533 72.533h256c55.467 0 102.4-46.933 102.4-102.4s-46.933-102.4-102.4-102.4h-102.4c-21.333 0-34.133-12.8-34.133-34.133s12.8-34.133 34.133-34.133h102.4c93.867 0 166.4 72.533 166.4 166.4s-81.067 170.667-174.933 170.667z" />
<glyph unicode="&#xe951;" glyph-name="restore" data-tags="restore" d="M512 896c-102.4 0-200.533-29.867-281.6-81.067l12.8 38.4c0 21.333-4.267 42.667-25.6 42.667-21.333 4.267-42.667-8.533-42.667-21.333v0l-29.867-132.267v-25.6c0 0 0-8.533 8.533-8.533v0 0c0 0 8.533 0 8.533-8.533 0 0 0 0 8.533 0 0 0 0 0 8.533 0l132.267-34.133c21.333-8.533 34.133 8.533 38.4 25.6 8.533 21.333-8.533 34.133-25.6 38.4l-72.533 29.867c72.533 42.667 166.4 68.267 260.267 68.267 221.867 0 401.067-179.2 401.067-401.067s-179.2-401.067-401.067-401.067-401.067 179.2-401.067 401.067c0 21.333-12.8 34.133-34.133 34.133s-34.133-17.067-34.133-34.133v0c0-260.267 209.067-469.333 469.333-469.333s469.333 209.067 469.333 469.333-209.067 469.333-469.333 469.333zM324.267 337.067c-21.333-12.8-25.6-34.133-21.333-46.933 8.533-12.8 25.6-21.333 46.933-12.8l174.933 85.333c12.8 8.533 21.333 21.333 21.333 34.133v268.8c0 12.8-21.333 25.6-34.133 25.6-21.333 0-34.133-12.8-34.133-34.133v0-247.467l-153.6-72.533z" />
<glyph unicode="&#xe952;" glyph-name="save" data-tags="save" d="M934.4 716.8l-132.267 140.8c-25.6 25.6-59.733 38.4-93.867 38.4h-533.333c-72.533 0-132.267-64-132.267-132.267v0l4.267-669.867c0-72.533 55.467-128 132.267-128h375.467c17.067 0 34.133 12.8 34.133 38.4s-12.8 38.4-34.133 38.4h-247.467v328.533c0 12.8 8.533 25.6 25.6 25.6h354.133c12.8 0 25.6-8.533 25.6-25.6v-38.4c0-17.067 12.8-38.4 38.4-38.4s38.4 12.8 38.4 38.4v34.133c0 51.2-42.667 93.867-93.867 93.867h-362.667c-51.2 0-93.867-42.667-93.867-93.867v-328.533h-59.733c-34.133 0-55.467 29.867-55.467 55.467l-8.533 669.867c0 34.133 29.867 55.467 59.733 55.467h110.933v-153.6c0-46.933 38.4-85.333 85.333-85.333h285.867c46.933 0 85.333 38.4 85.333 85.333v145.067c-4.267 0 4.267 0 4.267-4.267l132.267-132.267c8.533-8.533 17.067-29.867 17.067-42.667v-298.667c0-17.067 12.8-38.4 38.4-38.4s38.4 12.8 38.4 38.4v298.667c-4.267 29.867-17.067 64-38.4 85.333zM661.333 669.867c0-4.267-4.267-8.533-8.533-8.533h-285.867c-4.267-4.267-17.067 4.267-17.067 8.533v153.6h307.2v-153.6c0 0 4.267 0 4.267 0zM793.6-42.666c-8.533 0-17.067 4.267-25.6 8.533l-93.867 93.867c-12.8 12.8-12.8 38.4 0 51.2s38.4 12.8 51.2 0l72.533-72.533 119.467 119.467c12.8 12.8 38.4 12.8 51.2 0s12.8-38.4 0-51.2l-140.8-145.067c-12.8 0-25.6-4.267-34.133-4.267z" />
<glyph unicode="&#xe953;" glyph-name="search" data-tags="search" d="M968.533 25.6l-285.867 290.133c115.2 140.8 102.4 349.867-25.6 477.867v0c-140.8 136.533-366.933 136.533-507.733 4.267-68.267-72.533-106.667-162.133-106.667-260.267 0-93.867 38.4-187.733 106.667-251.733 68.267-68.267 162.133-106.667 256-106.667v0c76.8 0 153.6 25.6 217.6 72.533l290.133-285.867c8.533-4.267 17.067-8.533 25.6-8.533s17.067 4.267 25.6 8.533c17.067 12.8 21.333 34.133 8.533 51.2 4.267 4.267 4.267 8.533-4.267 8.533zM405.333 264.534c-72.533-4.267-145.067 25.6-196.267 81.067-51.2 51.2-81.067 119.467-81.067 192s29.867 145.067 81.067 196.267 123.733 85.333 196.267 85.333 145.067-29.867 196.267-81.067v0c55.467-51.2 81.067-123.733 81.067-196.267s-29.867-145.067-81.067-196.267c-51.2-46.933-119.467-85.333-196.267-81.067z" />
<glyph unicode="&#xe954;" glyph-name="send" data-tags="send" d="M452.267 183.467v0c0 0 8.533 0 0 0v0zM908.8 891.734c-25.6 4.267-55.467 4.267-72.533 0l-716.8-234.667c-38.4-12.8-68.267-46.933-72.533-85.333-8.533-34.133 0-72.533 25.6-93.867l174.933-174.933-8.533-221.867c0-25.6 25.6-38.4 46.933-25.6l132.267 68.267 132.267-132.267c25.6-25.6 68.267-38.4 102.4-25.6 34.133 8.533 68.267 34.133 81.067 72.533l238.933 721.067c21.333 51.2-4.267 110.933-64 132.267zM110.933 558.934c0 12.8 12.8 25.6 25.6 34.133l708.267 238.933-563.2-469.333-157.867 162.133c-12.8 4.267-17.067 17.067-12.8 34.133zM908.8 776.534l-238.933-721.067c-8.533-12.8-12.8-25.6-34.133-25.6-12.8 0-25.6 0-38.4 12.8l-145.067 140.8c-12.8 8.533-25.6 12.8-38.4 8.533l-93.867-59.733v166.4l597.333 499.2c-4.267-8.533-8.533-12.8-8.533-21.333z" />
<glyph unicode="&#xe955;" glyph-name="sentiment_satisfied_alt" data-tags="sentiment_satisfied_alt" d="M512 896c-260.267 0-469.333-209.067-469.333-469.333s209.067-469.333 469.333-469.333 469.333 209.067 469.333 469.333-209.067 469.333-469.333 469.333zM512 25.6c-221.867 0-401.067 179.2-401.067 401.067s179.2 401.067 401.067 401.067 401.067-179.2 401.067-401.067-179.2-401.067-401.067-401.067zM738.133 392.534c-21.333 8.533-38.4-8.533-38.4-25.6-21.333-59.733-68.267-115.2-132.267-140.8-102.4-25.6-213.333 34.133-243.2 140.8-8.533 21.333-25.6 34.133-46.933 25.6-21.333 0-25.6-21.333-21.333-38.4v0c42.667-140.8 187.733-221.867 328.533-183.467 85.333 34.133 153.6 102.4 174.933 187.733 8.533 12.8 0 29.867-21.333 34.133zM418.133 546.134c0-30.633-24.833-55.467-55.467-55.467s-55.467 24.833-55.467 55.467c0 30.633 24.833 55.467 55.467 55.467s55.467-24.833 55.467-55.467zM716.8 546.134c0-30.633-24.833-55.467-55.467-55.467s-55.467 24.833-55.467 55.467c0 30.633 24.833 55.467 55.467 55.467s55.467-24.833 55.467-55.467z" />
<glyph unicode="&#xe956;" glyph-name="share" data-tags="share" d="M793.6 324.267c-59.733 0-110.933-25.6-140.8-68.267l-256 123.733c4.267 17.067 8.533 29.867 8.533 46.933 0 21.333-4.267 38.4-8.533 55.467l251.733 123.733c34.133-46.933 85.333-76.8 149.333-76.8 102.4 0 183.467 81.067 183.467 183.467s-85.333 183.467-187.733 183.467-183.467-81.067-183.467-183.467c0-17.067 4.267-34.133 8.533-46.933l-256-123.733c-34.133 42.667-85.333 68.267-140.8 68.267-102.4 0-183.467-81.067-183.467-183.467s81.067-183.467 183.467-183.467c59.733 0 115.2 29.867 149.333 76.8l251.733-123.733c-4.267-17.067-8.533-38.4-8.533-55.467 0-102.4 81.067-183.467 183.467-183.467s183.467 81.067 183.467 183.467-85.333 183.467-187.733 183.467zM793.6 827.734c64 0 115.2-51.2 115.2-115.2s-51.2-115.2-115.2-115.2-115.2 51.2-115.2 115.2 51.2 115.2 115.2 115.2zM221.867 311.467c-64 0-115.2 51.2-115.2 115.2s51.2 115.2 115.2 115.2 115.2-51.2 115.2-115.2-51.2-115.2-115.2-115.2zM793.6 25.6c-64 0-115.2 51.2-115.2 115.2s51.2 115.2 115.2 115.2 115.2-51.2 115.2-115.2-51.2-115.2-115.2-115.2z" />
<glyph unicode="&#xe957;" glyph-name="thumb_up_off_alt" data-tags="thumb_up_off_alt" d="M866.133 584.534h-230.4v157.867c0 59.733-46.933 106.667-106.667 106.667-34.133 0-68.267-21.333-89.6-46.933l-153.6-251.733h-46.933c-21.333 0-34.133-12.8-34.133-34.133s12.8-42.667 34.133-42.667h76.8c12.8 0 21.333 8.533 25.6 12.8l170.667 268.8c8.533 8.533 21.333 12.8 34.133 12.8 21.333 0 38.4-12.8 38.4-38.4v-196.267c0-21.333 12.8-34.133 34.133-34.133h264.533c21.333 8.533 38.4-12.8 38.4-38.4v-8.533l-55.467-349.867c0-21.333-21.333-38.4-38.4-38.4h-413.867c-12.8 0-34.133 8.533-46.933 12.8l-55.467 25.6h-72.533c-21.333 0-34.133-12.8-34.133-34.133s12.8-34.133 34.133-34.133h55.467l46.933-17.067c21.333-8.533 46.933-12.8 72.533-12.8h405.333c55.467 0 102.4 38.4 106.667 93.867l55.467 349.867c0 8.533 0 12.8 0 12.8 0 72.533-46.933 119.467-115.2 123.733zM76.8 546.134c-21.333 0-34.133-21.333-34.133-34.133v-439.467c0-21.333 12.8-34.133 34.133-34.133s34.133 12.8 34.133 34.133v439.467c0 12.8-12.8 34.133-34.133 34.133z" />
<glyph unicode="&#xe958;" glyph-name="format_quote" data-tags="format_quote" d="M132.267 725.334h8.533c21.333 0 38.4-8.533 51.2-21.333s21.333-34.133 21.333-55.467c0-21.333-8.533-38.4-21.333-55.467s-38.4-21.333-59.733-21.333c-25.6 0-46.933 8.533-64 29.867s-25.6 46.933-25.6 85.333c0 34.133 8.533 64 21.333 93.867s34.133 55.467 55.467 72.533 38.4 25.6 55.467 25.6c12.8 0 21.333-4.267 25.6-8.533s12.8-17.067 12.8-25.6c0-17.067-8.533-25.6-21.333-34.133-17.067-8.533-34.133-21.333-42.667-34.133s-17.067-29.867-17.067-51.2zM896 128h-8.533c-21.333 0-38.4 8.533-51.2 21.333s-21.333 34.133-21.333 55.467c0 21.333 8.533 38.4 21.333 55.467s34.133 21.333 55.467 21.333c25.6 0 46.933-8.533 64-29.867s25.6-46.933 25.6-85.333c0-34.133-8.533-64-21.333-93.867s-34.133-51.2-51.2-68.267-38.4-25.6-55.467-25.6c-12.8 0-21.333 4.267-25.6 8.533-4.267 8.533-8.533 12.8-8.533 25.6 0 17.067 8.533 25.6 21.333 34.133 17.067 8.533 34.133 21.333 42.667 34.133 4.267 8.533 12.8 25.6 12.8 46.933zM396.8 797.867h524.8c17.067 0 34.133 12.8 34.133 34.133 0 17.067-12.8 34.133-34.133 34.133h-524.8c-17.067 0-34.133-12.8-34.133-34.133 4.267-17.067 17.067-34.133 34.133-34.133zM921.6 605.867h-601.6c-17.067 0-34.133-12.8-34.133-34.133 0-17.067 12.8-34.133 34.133-34.133h601.6c17.067 0 34.133 12.8 34.133 34.133s-17.067 34.133-34.133 34.133zM708.267 349.867h-610.133c-17.067 0-34.133-12.8-34.133-34.133 0-17.067 12.8-34.133 34.133-34.133h610.133c17.067 0 34.133 12.8 34.133 34.133s-17.067 34.133-34.133 34.133zM622.933 93.867h-516.267c-17.067 0-34.133-12.8-34.133-34.133 0-17.067 12.8-34.133 34.133-34.133h516.267c17.067 0 34.133 12.8 34.133 34.133s-17.067 34.133-34.133 34.133z" />
<glyph unicode="&#xe959;" glyph-name="twitter" data-tags="twitter" d="M507.733-42.666c-256 0-465.067 213.333-465.067 473.6s209.067 465.067 465.067 465.067 473.6-209.067 473.6-465.067-213.333-473.6-473.6-473.6zM516.267 832c-226.133 0-409.6-179.2-409.6-401.067s183.467-401.067 409.6-401.067 409.6 179.2 409.6 401.067-179.2 401.067-409.6 401.067zM640 256h38.4l-256 341.333h-42.667l256-341.333zM665.6 640h72.533l-153.6-179.2 183.467-247.467h-145.067l-110.933 149.333-128-149.333h-72.533l166.4 192-174.933 234.667h145.067l102.4-136.533 115.2 136.533z" />
<glyph unicode="&#xe95a;" glyph-name="thumb_up" data-tags="thumb_up" d="M866.133 584.534h-230.4v157.867c0 59.733-46.933 106.667-106.667 106.667-34.133 0-68.267-21.333-89.6-46.933l-153.6-251.733h-46.933c-21.333 0-34.133-12.8-34.133-34.133s12.8-42.667 34.133-42.667h76.8c12.8 0 21.333 8.533 25.6 12.8l170.667 268.8c8.533 8.533 21.333 12.8 34.133 12.8 21.333 0 38.4-12.8 38.4-38.4v-196.267c0-21.333 12.8-34.133 34.133-34.133h264.533c21.333 8.533 38.4-12.8 38.4-38.4v-8.533l-55.467-349.867c0-21.333-21.333-38.4-38.4-38.4h-413.867c-12.8 0-34.133 8.533-46.933 12.8l-55.467 25.6h-72.533c-21.333 0-34.133-12.8-34.133-34.133s12.8-34.133 34.133-34.133h55.467l46.933-17.067c21.333-8.533 46.933-12.8 72.533-12.8h405.333c55.467 0 102.4 38.4 106.667 93.867l55.467 349.867c0 8.533 0 12.8 0 12.8 0 72.533-46.933 119.467-115.2 123.733zM76.8 546.134c-21.333 0-34.133-21.333-34.133-34.133v-439.467c0-21.333 12.8-34.133 34.133-34.133s34.133 12.8 34.133 34.133v439.467c0 12.8-12.8 34.133-34.133 34.133z" />
<glyph unicode="&#xe95b;" glyph-name="undo" data-tags="undo" d="M597.333 699.734h-409.6l98.133 98.133c12.8 17.067 12.8 42.667 0 59.733-17.067 17.067-46.933 17.067-64 0l-170.667-170.667c0 0-4.267-4.267-4.267-12.8-4.267-12.8-4.267-21.333 0-34.133 0-4.267 4.267-12.8 12.8-12.8l170.667-170.667c4.267-4.267 17.067-12.8 29.867-12.8s21.333 4.267 29.867 12.8c8.533 25.6 8.533 51.2-4.267 68.267l-98.133 89.6h409.6c157.867 4.267 290.133-115.2 294.4-264.533-4.267-157.867-140.8-277.333-298.667-273.067h-452.267c-21.333 0-46.933-17.067-46.933-46.933s17.067-46.933 46.933-46.933h456.533c4.267 0 12.8 0 17.067 0 196.267 0 362.667 153.6 366.933 358.4-12.8 213.333-187.733 371.2-384 358.4z" />
<glyph unicode="&#xe95c;" glyph-name="upload" data-tags="upload" d="M746.667 896h-469.333c-128 0-234.667-106.667-234.667-234.667v-469.333c0-128 106.667-234.667 234.667-234.667h469.333c128 0 234.667 106.667 234.667 234.667v469.333c0 128-106.667 234.667-234.667 234.667zM913.067 192c0-93.867-72.533-166.4-166.4-166.4h-469.333c-93.867 0-166.4 72.533-166.4 166.4v469.333c0 93.867 72.533 166.4 166.4 166.4h469.333c93.867 0 166.4-72.533 166.4-166.4v-469.333zM537.6 682.667c-4.267 4.267-4.267 4.267 0 0-21.333 21.333-38.4 12.8-55.467 0l-200.533-234.667c-12.8-12.8-12.8-34.133 8.533-46.933 12.8-12.8 34.133-12.8 46.933 8.533v0l140.8 166.4v-384c0-21.333 12.8-34.133 34.133-34.133s34.133 12.8 34.133 34.133v375.467l140.8-166.4c12.8-12.8 34.133-12.8 46.933 0s12.8 34.133 0 46.933l-196.267 234.667z" />
<glyph unicode="&#xe95d;" glyph-name="visibility_off" data-tags="visibility_off" d="M955.733 490.667c-21.333 21.333-38.4 46.933-68.267 68.267-12.8 12.8-34.133 12.8-46.933 0s-12.8-34.133 0-46.933v0c21.333-21.333 38.4-38.4 59.733-59.733 12.8-12.8 12.8-34.133 0-46.933-115.2-119.467-256-213.333-396.8-213.333h-21.333c-21.333 0-34.133-12.8-34.133-34.133s12.8-34.133 34.133-34.133h29.867c162.133 0 315.733 93.867 443.733 234.667 34.133 38.4 34.133 98.133 0 132.267zM900.267 819.2c-12.8 12.8-34.133 12.8-46.933 0v0l-140.8-140.8c-59.733 25.6-132.267 46.933-200.533 46.933-166.4 0-315.733-93.867-443.733-234.667-34.133-38.4-34.133-93.867 0-136.533 55.467-59.733 115.2-106.667 183.467-153.6l-128-128c-12.8-12.8-12.8-34.133 0-46.933s34.133-12.8 46.933 0l738.133 742.4c8.533 17.067 8.533 38.4-8.533 51.2zM115.2 401.067c-8.533 12.8-8.533 34.133 0 38.4 115.2 128 256 213.333 396.8 213.333 55.467 0 106.667-12.8 153.6-34.133l-59.733-59.733c-25.6 21.333-59.733 25.6-93.867 25.6-93.867 0-166.4-72.533-166.4-166.4 0-34.133 12.8-68.267 25.6-93.867l-72.533-68.267c-68.267 38.4-128 85.333-183.467 145.067zM418.133 384c-8.533 12.8-8.533 25.6-8.533 38.4 0 55.467 46.933 102.4 102.4 102.4 12.8 0 25.6-8.533 38.4-12.8l-132.267-128zM558.933 337.067c-12.8-8.533-21.333-25.6-12.8-46.933 12.8-12.8 34.133-21.333 46.933-8.533 25.6 12.8 46.933 34.133 59.733 59.733 12.8 12.8 8.533 34.133-8.533 46.933-21.333 8.533-38.4 0-46.933-12.8v0c-4.267-21.333-17.067-34.133-38.4-38.4z" />
<glyph unicode="&#xe95e;" glyph-name="visibility" data-tags="visibility" d="M955.733 494.934v0c-128 136.533-277.333 234.667-443.733 234.667s-315.733-93.867-443.733-234.667c-34.133-38.4-34.133-93.867 0-136.533 128-136.533 277.333-234.667 443.733-234.667 162.133 0 315.733 93.867 443.733 234.667 34.133 42.667 34.133 102.4 0 136.533zM900.267 405.334c-115.2-119.467-256-213.333-396.8-213.333s-277.333 89.6-396.8 213.333c0 12.8 0 34.133 8.533 46.933 115.2 119.467 256 209.067 396.8 209.067s277.333-89.6 396.8-213.333v0c8.533-8.533 8.533-29.867-8.533-42.667zM512 593.067c-93.867 0-166.4-72.533-166.4-166.4s72.533-166.4 166.4-166.4 166.4 72.533 166.4 166.4-72.533 166.4-166.4 166.4zM512 324.267c-55.467 0-102.4 46.933-102.4 102.4s46.933 102.4 102.4 102.4 102.4-46.933 102.4-102.4-46.933-102.4-102.4-102.4z" />
<glyph unicode="&#xe95f;" glyph-name="whatsup_circle" data-tags="whatsup_circle" d="M76.8-38.4c-8.533 0-21.333 4.267-25.6 8.533-8.533 12.8-12.8 25.6-8.533 34.133l59.733 204.8c-34.133 68.267-55.467 140.8-55.467 221.867 0 123.733 46.933 243.2 136.533 328.533 183.467 179.2 482.133 179.2 661.333-4.267v0c93.867-85.333 136.533-196.267 136.533-320 0-256-209.067-469.333-465.067-469.333-72.533 0-145.067 21.333-209.067 51.2l-217.6-59.733c-4.267 4.267-4.267 4.267-12.8 4.267zM302.933 98.134c4.267 0 8.533 0 21.333-4.267 59.733-29.867 123.733-46.933 187.733-46.933 217.6 0 392.533 179.2 392.533 392.533 0 102.4-38.4 200.533-110.933 281.6v0c-157.867 153.6-401.067 153.6-554.667 0-72.533-76.8-119.467-179.2-119.467-281.6 0-68.267 21.333-136.533 55.467-196.267 4.267-8.533 4.267-21.333 4.267-29.867l-42.667-162.133 166.4 46.933zM729.6 366.934l-21.333 17.067c-8.533 4.267-21.333 12.8-29.867 21.333-34.133 25.6-76.8 21.333-110.933-8.533-12.8 8.533-29.867 25.6-42.667 38.4s-25.6 29.867-38.4 42.667c25.6 29.867 25.6 81.067 4.267 115.2-12.8 21.333-25.6 38.4-38.4 55.467-4.267 4.267-4.267 8.533-8.533 12.8-17.067 12.8-42.667 25.6-64 25.6-29.867 4.267-51.2-4.267-64-25.6l-21.333-17.067c-76.8-85.333-42.667-213.333 85.333-345.6 0 0 0 0 4.267 0 0 0 0 0 0-4.267 85.333-85.333 166.4-128 234.667-128 38.4 0 72.533 12.8 102.4 42.667v0 0l21.333 21.333c4.267 4.267 8.533 8.533 8.533 8.533 29.867 42.667 21.333 102.4-21.333 128zM435.2 349.867c-4.267 0-4.267 0 0 0-4.267 0-4.267 4.267 0 0-85.333 85.333-140.8 187.733-89.6 243.2v0 0l12.8 21.333c4.267 4.267 8.533 4.267 8.533 4.267 4.267 0 4.267 0 12.8-4.267 17.067-17.067 34.133-38.4 46.933-55.467 4.267-4.267 4.267-17.067 0-21.333l-17.067-21.333c-17.067-12.8-17.067-34.133-8.533-46.933v0c21.333-29.867 38.4-55.467 64-76.8s46.933-42.667 76.8-64c0 0 0 0 4.267 0 12.8-8.533 34.133-8.533 46.933 4.267l21.333 21.333c4.267 4.267 12.8 4.267 21.333 0 8.533-8.533 21.333-12.8 29.867-21.333l25.6-12.8c4.267-4.267 4.267-8.533 4.267-8.533s0-4.267-4.267-12.8l-21.333-21.333c-55.467-68.267-157.867 0-234.667 72.533z" />
<glyph unicode="&#xe960;" glyph-name="zoom_in" data-tags="zoom_in" d="M968.533 25.6l-285.867 290.133c110.933 136.533 106.667 345.6-25.6 477.867v0c-140.8 136.533-371.2 136.533-507.733 0-68.267-68.267-106.667-157.867-106.667-256s38.4-183.467 106.667-251.733c68.267-68.267 162.133-106.667 256-106.667v0c81.067 0 162.133 25.6 217.6 72.533l290.133-285.867c4.267-4.267 17.067-8.533 25.6-8.533 12.8 0 21.333 4.267 25.6 8.533 21.333 21.333 21.333 42.667 4.267 59.733zM405.333 264.534c-76.8 0-145.067 25.6-196.267 81.067s-81.067 119.467-81.067 192 25.6 145.067 81.067 196.267 128 81.067 196.267 81.067 145.067-25.6 196.267-81.067v0c55.467-51.2 81.067-123.733 81.067-196.267s-25.6-140.8-81.067-196.267c-55.467-55.467-119.467-76.8-196.267-76.8v0zM512 576h-64v68.267c0 21.333-17.067 42.667-42.667 42.667s-42.667-21.333-42.667-42.667v-64h-59.733c-21.333 0-42.667-17.067-42.667-42.667s17.067-42.667 42.667-42.667h64v-64c0-21.333 17.067-42.667 42.667-42.667s42.667 17.067 42.667 42.667v64h59.733c21.333 0 42.667 17.067 42.667 42.667 0 29.867-21.333 38.4-42.667 38.4v0z" />
<glyph unicode="&#xe961;" glyph-name="zoom_out_map" data-tags="zoom_out_map" d="M977.067 874.667c-4.267 8.533-8.533 12.8-17.067 17.067-4.267 0-8.533 4.267-12.8 4.267h-192c-17.067 0-38.4-12.8-38.4-38.4s12.8-38.4 38.4-38.4h106.667l-226.133-226.133c-12.8-12.8-12.8-38.4 0-51.2 4.267-4.267 12.8-8.533 25.6-8.533 8.533 0 17.067 4.267 25.6 8.533l217.6 230.4v-102.4c0-17.067 12.8-38.4 38.4-38.4s38.4 12.8 38.4 38.4v192c0 4.267-4.267 8.533-4.267 12.8zM392.533 307.2c-12.8 12.8-38.4 12.8-51.2 0l-226.133-226.133v106.667c0 17.067-12.8 38.4-38.4 38.4s-34.133-21.333-34.133-42.667v-192c0-4.267 0-8.533 4.267-12.8 4.267-8.533 8.533-12.8 17.067-17.067 4.267 0 8.533-4.267 12.8-4.267h192c17.067 0 38.4 12.8 38.4 38.4s-17.067 34.133-38.4 34.133h-102.4l226.133 226.133c12.8 17.067 12.8 38.4 0 51.2zM128 435.2c-17.067 0-38.4 12.8-38.4 38.4v243.2c0 72.533 55.467 128 128 132.267h238.933c17.067 0 38.4-12.8 38.4-38.4s-12.8-38.4-34.133-38.4h-234.667c-34.133 0-64-25.6-55.467-55.467v-243.2c-4.267-17.067-21.333-38.4-42.667-38.4zM797.867-0h-285.867c-17.067 0-38.4 12.8-38.4 38.4s12.8 38.4 38.4 38.4h285.867c34.133 0 55.467 29.867 55.467 64v243.2c0 17.067 12.8 38.4 38.4 38.4s38.4-12.8 38.4-38.4v-243.2c0-76.8-59.733-136.533-132.267-140.8z" />
<glyph unicode="&#xe962;" glyph-name="menu" data-tags="menu" d="M896 665.6h-768c-25.6 0-42.667 17.067-42.667 42.667v0c0 25.6 17.067 42.667 42.667 42.667h768c25.6 0 42.667-17.067 42.667-42.667v0c0-21.333-17.067-42.667-42.667-42.667zM896 384h-768c-25.6 0-42.667 17.067-42.667 42.667v0c0 25.6 17.067 42.667 42.667 42.667h768c25.6 0 42.667-17.067 42.667-42.667v0c0-25.6-17.067-42.667-42.667-42.667zM896 102.4h-768c-25.6 0-42.667 17.067-42.667 42.667v0c0 25.6 17.067 42.667 42.667 42.667h768c25.6 0 42.667-17.067 42.667-42.667v0c0-25.6-17.067-42.667-42.667-42.667z" />
<glyph unicode="&#xe963;" glyph-name="format_list_numbered" data-tags="format_list_numbered" d="M396.8 797.867h524.8c17.067 0 34.133 12.8 34.133 34.133 0 17.067-12.8 34.133-34.133 34.133h-524.8c-17.067 0-34.133-12.8-34.133-34.133 4.267-17.067 17.067-34.133 34.133-34.133zM921.6 605.867h-516.267c-17.067 0-34.133-12.8-34.133-34.133 0-17.067 12.8-34.133 34.133-34.133h516.267c17.067 0 34.133 12.8 34.133 34.133s-17.067 34.133-34.133 34.133zM921.6 349.867h-524.8c-17.067 0-34.133-12.8-34.133-34.133 0-17.067 12.8-34.133 34.133-34.133h524.8c17.067 0 34.133 12.8 34.133 34.133s-17.067 34.133-34.133 34.133zM921.6 93.867h-516.267c-17.067 0-34.133-12.8-34.133-34.133 0-17.067 12.8-34.133 34.133-34.133h516.267c17.067 0 34.133 12.8 34.133 34.133s-17.067 34.133-34.133 34.133zM153.6 558.934v209.067c-38.4-29.867-64-42.667-76.8-42.667-8.533 0-12.8 0-17.067 4.267-8.533 8.533-8.533 12.8-8.533 17.067 0 8.533 4.267 12.8 8.533 17.067s12.8 8.533 25.6 17.067c17.067 8.533 34.133 17.067 42.667 25.6 12.8 8.533 21.333 21.333 29.867 34.133s12.8 17.067 17.067 21.333 8.533 4.267 12.8 4.267c8.533 0 12.8-4.267 21.333-8.533s8.533-12.8 8.533-25.6v-260.267c0-29.867-8.533-46.933-29.867-46.933-8.533 0-17.067 4.267-21.333 8.533s-12.8 12.8-12.8 25.6zM132.267 81.067c17.067-4.267 136.533 8.533 145.067-8.533 21.333-17.067 8.533-51.2-21.333-46.933h-170.667c-29.867 0-46.933 25.6-29.867 55.467 25.6 42.667 72.533 81.067 102.4 106.667 34.133 34.133 81.067 76.8 25.6 123.733-21.333 17.067-55.467 8.533-68.267-17.067-4.267-8.533-12.8-34.133-21.333-42.667-8.533-12.8-29.867-12.8-38.4 0-12.8 12.8-8.533 34.133 0 55.467 55.467 119.467 281.6 55.467 209.067-85.333-25.6-46.933-93.867-85.333-123.733-119.467-12.8-12.8-17.067-21.333-8.533-21.333z" />
<glyph unicode="&#xe964;" glyph-name="photo_file" data-tags="photo_file" d="M849.067 797.867h-209.067c-4.267 0-8.533 4.267-8.533 4.267l-34.133 51.2c-17.067 21.333-42.667 38.4-68.267 38.4h-145.067c-72.533 0-128-59.733-128-128v-89.6h-64c-76.8 0-145.067-59.733-145.067-132.267v-405.333c0-72.533 64-132.267 145.067-132.267h520.533c76.8 0 145.067 59.733 145.067 132.267v76.8c68.267 4.267 123.733 59.733 123.733 128v324.267c-4.267 72.533-64 132.267-132.267 132.267zM712.533 72.534h-520.533c-38.4 0-64 25.6-64 59.733v409.6c0 34.133 29.867 59.733 64 59.733h64v-260.267c0-72.533 59.733-128 128-128h396.8v-81.067c0-34.133-29.867-59.733-68.267-59.733zM904.533 341.334c0-34.133-25.6-59.733-59.733-59.733h-460.8c-17.067 0-34.133 8.533-42.667 21.333l132.267 145.067c4.267 4.267 8.533 4.267 12.8 0l51.2-55.467c12.8-12.8 29.867-12.8 38.4 0l166.4 187.733c4.267 4.267 8.533 4.267 12.8 0l153.6-166.4v-72.533zM904.533 503.467l-106.667 115.2c-25.6 29.867-68.267 29.867-93.867 0l-149.333-162.133-34.133 38.4c-25.6 29.867-68.267 29.867-93.867 0l-106.667-119.467v388.267c0 34.133 25.6 59.733 59.733 59.733h145.067c4.267 0 8.533 0 8.533-4.267l38.4-55.467c21.333-21.333 46.933-38.4 68.267-38.4h209.067c34.133 0 59.733-25.6 59.733-59.733v-162.133zM512 640c0-23.564-19.103-42.667-42.667-42.667s-42.667 19.103-42.667 42.667c0 23.564 19.103 42.667 42.667 42.667s42.667-19.103 42.667-42.667z" />
<glyph unicode="&#xe965;" glyph-name="groups" data-tags="group" d="M686.933 640c0-93.867-76.8-170.667-170.667-170.667s-170.667 76.8-170.667 170.667 76.8 170.667 170.667 170.667 170.667-76.8 170.667-170.667zM516.267 742.4c-59.733 0-102.4-46.933-102.4-102.4s46.933-102.4 102.4-102.4 102.4 46.933 102.4 102.4-46.933 102.4-102.4 102.4zM298.667 520.534c0-68.267-55.467-128-128-128s-128 55.467-128 128 55.467 128 128 128 128-59.733 128-128zM170.667 597.334c-42.667 0-76.8-34.133-76.8-76.8s34.133-76.8 76.8-76.8 76.8 34.133 76.8 76.8-34.133 76.8-76.8 76.8zM981.333 520.534c0-68.267-55.467-128-128-128-68.267 0-128 55.467-128 128s55.467 128 128 128c68.267 0 128-59.733 128-128zM853.333 597.334c-42.667 0-76.8-34.133-76.8-76.8s34.133-76.8 76.8-76.8c42.667 0 76.8 34.133 76.8 76.8s-34.133 76.8-76.8 76.8zM610.133 375.467h-183.467c-93.867 0-174.933-76.8-174.933-174.933v-123.733c0-12.8 8.533-29.867 29.867-29.867 12.8 0 29.867 8.533 29.867 29.867v123.733c0 64 55.467 115.2 115.2 115.2h183.467c64 0 115.2-55.467 115.2-115.2v-123.733c0-12.8 8.533-29.867 29.867-29.867 12.8 0 29.867 8.533 29.867 29.867v123.733c0 93.867-81.067 174.933-174.933 174.933zM998.4 42.667c-17.067 0-34.133 12.8-34.133 34.133v98.133c0 42.667-34.133 76.8-76.8 76.8h-34.133c-17.067 0-34.133 12.8-34.133 34.133s12.8 34.133 34.133 34.133h34.133c76.8 0 140.8-64 140.8-140.8v-110.933c-4.267-12.8-12.8-21.333-29.867-25.6v0zM34.133 42.667c-17.067 0-34.133 12.8-34.133 34.133v98.133c0 76.8 59.733 140.8 140.8 140.8h34.133c21.333 0 34.133-17.067 34.133-34.133s-12.8-34.133-34.133-34.133h-29.867c-42.667 0-76.8-34.133-76.8-72.533v-98.133c0-21.333-17.067-34.133-34.133-34.133v0z" />
<glyph unicode="&#xe966;" glyph-name="private" data-tags="private" d="M768 42.667v469.333h-512v-469.333h512zM384 686.934v-89.6h256v89.6c0 76.8-59.733 136.533-128 136.533s-128-59.733-128-136.533v0zM768 597.334c46.933 0 85.333-38.4 85.333-89.6v-460.8c0-51.2-38.4-89.6-85.333-89.6h-512c-46.933 0-85.333 42.667-85.333 89.6v460.8c0 46.933 38.4 89.6 85.333 89.6h42.667v89.6c0 123.733 93.867 221.867 213.333 221.867s213.333-98.133 213.333-221.867v-89.6h42.667zM516.267 183.467c-42.667 0-81.067 42.667-81.067 89.6s38.4 89.6 81.067 89.6 81.067-42.667 81.067-89.6-38.4-89.6-81.067-89.6v0z" />
<glyph unicode="&#xe967;" glyph-name="calendar_off" data-tags="calendar_off" d="M320 533.334c17.067 0 29.867 8.533 29.867 29.867v85.333h247.467c17.067 0 29.867 8.533 29.867 29.867s-8.533 29.867-29.867 29.867h-251.733v72.533c0 17.067-8.533 29.867-25.6 29.867s-29.867-12.8-29.867-29.867v-213.333c0-17.067 12.8-34.133 29.867-34.133zM183.467 426.667h217.6l51.2 51.2h-268.8v140.8c0 17.067 8.533 29.867 29.867 29.867s29.867 8.533 29.867 29.867-8.533 29.867-29.867 29.867c-46.933 0-85.333-38.4-85.333-85.333v-469.333l55.467 55.467v217.6zM725.333 755.2v25.6c0 17.067-8.533 29.867-25.6 29.867s-29.867-8.533-29.867-29.867v-85.333l55.467 55.467zM968.533 883.2c-12.8 12.8-34.133 12.8-46.933 0l-866.133-866.133c-12.8-12.8-12.8-34.133 0-46.933s34.133-12.8 46.933 0l76.8 81.067c8.533 0 21.333-8.533 34.133-8.533h597.333c46.933 0 85.333 38.4 85.333 85.333v490.667c0 38.4-34.133 72.533-72.533 81.067l145.067 145.067c12.8 8.533 12.8 25.6 0 38.4zM840.533 128c-4.267-17.067-12.8-29.867-29.867-29.867h-580.267l93.867 98.133 226.133 230.4h290.133v-298.667zM844.8 614.4v-136.533h-243.2l72.533 72.533c4.267-8.533 12.8-12.8 25.6-12.8s29.867 8.533 29.867 29.867v38.4l38.4 38.4h46.933c17.067 0 29.867-8.533 29.867-29.867z" />
<glyph unicode="&#xe968;" glyph-name="magic_wand" data-tags="magic_wand" d="M964.267 456.534l-102.4 136.533 55.467 162.133c8.533 21.333 0 46.933-12.8 64-17.067 17.067-42.667 21.333-64 12.8l-162.133-55.467-136.533 102.4c-17.067 12.8-42.667 17.067-64 4.267-21.333-8.533-34.133-29.867-34.133-55.467v-170.667c0 0-136.533-98.133-136.533-98.133-17.067-12.8-29.867-34.133-25.6-59.733 0-12.8 8.533-25.6 17.067-34.133s17.067-12.8 25.6-17.067l119.467-38.4-384-366.933c-17.067-17.067-17.067-42.667 0-59.733s21.333-12.8 29.867-12.8 21.333 0 29.867 12.8l375.467 375.467 38.4-102.4c0-8.533 8.533-17.067 17.067-25.6s21.333-17.067 34.133-17.067c0 0 8.533 0 8.533 0 21.333 0 38.4 8.533 51.2 25.6l98.133 123.733h170.667c21.333 0 42.667 8.533 55.467 29.867 8.533 21.333 8.533 46.933-4.267 64zM721.067 448c-12.8 0-25.6-8.533-34.133-17.067l-85.333-119.467-42.667 136.533c0 12.8-12.8 25.6-29.867 29.867l-140.8 42.667 119.467 85.333c12.8 8.533 17.067 21.333 17.067 34.133v145.067s115.2-85.333 115.2-85.333c12.8-8.533 25.6-8.533 38.4-4.267l136.533 46.933-46.933-136.533c-4.267-12.8 0-29.867 4.267-38.4l85.333-115.2h-145.067z" />
</font>
</defs>
</svg>
