<?xml version="1.0" standalone="no"?>
<!DOCTYPE svg PUBLIC "-//W3C//DTD SVG 1.1//EN" "http://www.w3.org/Graphics/SVG/1.1/DTD/svg11.dtd" >
<!--
2013-9-30: Created.
-->
<svg>
<metadata>
Created by iconfont
</metadata>
<defs>

<font id="iconfont" horiz-adv-x="1024" >
  <font-face
    font-family="iconfont"
    font-weight="500"
    font-stretch="normal"
    units-per-em="1024"
    ascent="896"
    descent="-128"
  />
    <missing-glyph />
    
    <glyph glyph-name="zhaoxiangji" unicode="&#59116;" d="M512 603.428571c-141.357714 0-256-114.642286-256-256s114.642286-256 256-256 256 114.642286 256 256S653.357714 603.428571 512 603.428571zM512 182.857143c-90.750171 0-164.571429 73.821257-164.571429 164.571429s73.821257 164.571429 164.571429 164.571429 164.571429-73.821257 164.571429-164.571429S602.750171 182.857143 512 182.857143zM841.142857 603.428571c-20.214857 0-36.571429-16.356571-36.571429-36.571429s16.356571-36.571429 36.571429-36.571429 36.571429 16.356571 36.571429 36.571429S861.357714 603.428571 841.142857 603.428571zM950.857143 713.142857 750.999771 713.142857l-62.2848 93.429029C681.929143 816.749714 670.500571 822.857143 658.285714 822.857143L365.714286 822.857143c-12.214857 0-23.643429-6.107429-30.429257-16.285257L273.000229 713.142857 73.142857 713.142857c-40.321829 0-73.142857-32.821029-73.142857-73.142857l0-585.142857c0-40.321829 32.821029-73.142857 73.142857-73.142857l877.714286 0c40.321829 0 73.142857 32.821029 73.142857 73.142857L1024 640C1024 680.321829 991.178971 713.142857 950.857143 713.142857zM73.142857 54.857143 73.142857 640l219.428571 0c12.214857 0 23.643429 6.107429 30.429257 16.285257L385.285486 749.714286l253.429029 0 62.2848-93.429029C707.786971 646.107429 719.215543 640 731.428571 640l219.428571 0 0.071314-585.142857L73.142857 54.857143z"  horiz-adv-x="1024" />

    
    <glyph glyph-name="weibiaoti25" unicode="&#58923;" d="M911.2 228 400.8 228c-24.8 0-44.8 21.6-44.8 48s20 48 44.8 48l510.4 0c24.8 0 44.8-21.6 44.8-48S936 228 911.2 228zM911.2 452 400.8 452c-24.8 0-44.8 21.6-44.8 48s20 48 44.8 48l510.4 0c24.8 0 44.8-21.6 44.8-48S936 452 911.2 452zM908 668l-781.6 0c-26.4 0-49.6 20-50.4 46.4-0.8 27.2 20.8 49.6 48 49.6l781.6 0c26.4 0 49.6-20 50.4-46.4C956.8 690.4 935.2 668 908 668zM76 228.8 76 547.2c0 0 0 0 0 0l223.2-159.2c0 0 0 0 0 0L76 228.8C76 228 76 228 76 228.8zM124 108l781.6 0c26.4 0 49.6-20 50.4-46.4 0.8-27.2-20.8-49.6-48-49.6l-781.6 0c-26.4 0-49.6 20-50.4 46.4C75.2 85.6 96.8 108 124 108z"  horiz-adv-x="1024" />

    
    <glyph glyph-name="refresh" unicode="&#58892;" d="M512-40c-75.7 0-150.1 20.2-215 58.5-63 37.1-115.6 90.2-152.2 153.5-11.1 19.1-4.5 43.6 14.6 54.7 19.1 11.1 43.6 4.5 54.7-14.6 61.4-106.1 175.6-172 298-172 168.3 0 310.9 120.2 339.1 285.7 3.7 21.8 24.4 36.4 46.2 32.7 21.8-3.7 36.4-24.4 32.7-46.2-16.6-97.5-67.4-186.7-143.1-251.1-37.5-32-79.9-56.9-125.9-74.2-47.7-17.9-97.8-27-149.1-27zM133.3 407.8c-2.2 0-4.4 0.2-6.6 0.6-21.8 3.6-36.5 24.3-32.9 46 16.4 97.8 67.1 187.3 142.8 252.1 37.6 32.1 80 57.2 126 74.5 47.7 17.9 97.9 27 149.3 27 75.7 0 150.1-20.2 215-58.5 63-37.1 115.6-90.2 152.2-153.5 11.1-19.1 4.5-43.6-14.6-54.7-19.1-11.1-43.6-4.5-54.7 14.6-61.4 106.1-175.6 172-298 172-168.8 0-311.5-120.6-339.3-286.8-3-19.5-20-33.3-39.2-33.3zM704 448h256V704zM65 64l255 255H65z"  horiz-adv-x="1024" />

    
    <glyph glyph-name="xiajiantou" unicode="&#59205;" d="M915 546.7L546.50000001 103.10000000000002c-17.4-21-49.49999999-21-67.00000001-0.1L108.7 547.5C85 575.9 105.2 619 142.2 619l739.3-0.9c36.99999999 0 57.1-43.00000001 33.5-71.4z"  horiz-adv-x="1024" />

    
    <glyph glyph-name="suoxiao" unicode="&#58882;" d="M426.656 820q78.016 0 149.152-30.496t122.496-81.824 81.824-122.496 30.496-149.152q0-67.008-21.824-128.32t-62.176-111.328L968.96-45.632q12.32-12.32 12.32-30.336 0-18.336-12.16-30.496t-30.496-12.16q-18.016 0-30.336 12.32L666.272 136.032q-50.016-40.32-111.328-62.176t-128.32-21.824q-78.016 0-149.152 30.496t-122.496 81.824-81.824 122.496T42.656 436t30.496 149.152 81.824 122.496 122.496 81.824 149.152 30.496z m0-85.344q-60.672 0-116-23.68t-95.328-63.68-63.68-95.328-23.68-116 23.68-116 63.68-95.328 95.328-63.68 116-23.68 116 23.68 95.328 63.68 63.68 95.328 23.68 116-23.68 116-63.68 95.328-95.328 63.68-116 23.68z m-128-256h256q17.664 0 30.176-12.512t12.512-30.176-12.512-30.176-30.176-12.512h-256q-17.664 0-30.176 12.512t-12.512 30.176 12.512 30.176 30.176 12.512z"  horiz-adv-x="1024" />

    
    <glyph glyph-name="wuwangluo" unicode="&#59238;" d="M515.746341 60.565854c-34.965854 0-62.439024-27.473171-62.439024-62.439025 0-33.717073 27.473171-61.190244 62.439024-61.190244s62.439024 27.473171 62.439025 61.190244c0 34.965854-28.721951 62.439024-62.439025 62.439025zM128.62439 662.478049c-39.960976-23.726829-78.673171-51.2-114.887805-82.419512-16.234146-13.736585-17.482927-38.712195-3.746341-54.946342 13.736585-16.234146 38.712195-17.482927 54.946341-3.746341 37.463415 32.468293 77.42439 59.941463 119.882927 83.668292l-56.195122 57.443903zM1010.263415 580.058537C871.64878 699.941463 695.570732 766.126829 512 766.126829c-78.673171 0-157.346341-12.487805-231.02439-36.214634l62.439024-63.687805c54.946341 13.736585 112.390244 21.229268 169.834146 21.229269 164.839024 0 323.434146-58.692683 447.063415-166.087805 7.492683-6.243902 16.234146-9.990244 24.97561-9.990244 11.239024 0 21.229268 4.995122 29.970732 13.736585 12.487805 16.234146 11.239024 41.209756-4.995122 54.946342zM295.960976 492.643902c-51.2-22.478049-99.902439-52.44878-142.360976-91.160975-16.234146-13.736585-17.482927-38.712195-2.497561-54.946342 14.985366-16.234146 38.712195-17.482927 54.946341-2.497561 43.707317 38.712195 94.907317 68.682927 148.604879 88.663415l-58.692683 59.941463zM505.756098 535.102439c-11.239024 0-22.478049 0-33.717074-1.24878l77.424391-78.673171c94.907317-8.741463 184.819512-48.702439 257.24878-112.390244 7.492683-6.243902 16.234146-9.990244 26.22439-9.990244 11.239024 0 21.229268 4.995122 28.721952 12.487805 14.985366 16.234146 12.487805 41.209756-2.497561 54.946341-97.404878 87.414634-223.531707 134.868293-353.404878 134.868293zM569.443902 212.917073l-84.917073 86.165854c-66.185366-4.995122-129.873171-31.219512-179.82439-77.42439-16.234146-14.985366-17.482927-38.712195-2.497561-54.946342 14.985366-16.234146 38.712195-17.482927 54.946342-2.497561 41.209756 37.463415 93.658537 57.443902 148.604878 57.443903 22.478049 0 43.707317-2.497561 63.687804-8.741464zM112.390244 823.570732C102.4 833.560976 87.414634 833.560976 78.673171 824.819512c-8.741463-8.741463-9.990244-23.726829 0-32.468292l679.336585-691.824391c4.995122-4.995122 11.239024-7.492683 16.234146-7.492683 6.243902 0 11.239024 2.497561 16.234147 6.243903 8.741463 8.741463 9.990244 23.726829 0 32.468292L112.390244 823.570732z"  horiz-adv-x="1024" />

    
    <glyph glyph-name="suoxiao1" unicode="&#59426;" d="M407.806963 529.603169l-0.165776 269.456988c-0.011256 19.010983-15.344476 34.43016-34.225499 34.418904-18.881023-0.01228-34.1948-15.4509-34.183544-34.46086l0.119727-194.447621L121.745808 823.471127c-12.799514 12.873192-33.528628 12.859889-46.38033-0.028653-12.785188-12.95608-12.772908-33.827433 0.028653-46.699602L293.068755 557.908842l-193.118346-0.12075c-18.879999-0.01228-34.1948-15.4509-34.183544-34.46086 0.011256-19.009959 15.3455-34.43016 34.225499-34.418904l267.615037 0.166799C392.577097 489.0915 407.824359 502.05065 407.806963 529.603169L407.806963 529.603169zM655.570883 488.782461l267.615037 0.432859c18.881023 0.030699 34.17945 15.484669 34.149774 34.495652-0.030699 19.010983-15.379269 34.414811-34.259268 34.385135l-193.118346-0.312108L947.148681 777.104099c12.772908 12.900821 12.739139 33.772174-0.074701 46.699602-12.880355 12.860912-33.608445 12.827143-46.38033-0.074701L683.57161 604.339314l-0.310062 194.447621c-0.030699 19.009959-15.379269 34.414811-34.259268 34.384112-18.881023-0.030699-34.17945-15.484669-34.149774-34.495652l0.429789-269.456988C615.32732 501.667933 630.53365 488.742553 655.570883 488.782461L655.570883 488.782461zM367.764991 282.151357l-267.615037 0.415462c-18.879999 0.029676-34.227546-15.376199-34.257222-34.387181-0.028653-19.010983 15.270798-34.463929 34.151821-34.492582l193.118346-0.299829L75.28873-5.243165c-12.812817-12.859889-12.844539-33.731242-0.071631-46.699602 12.840446-12.900821 33.568537-12.933567 46.38033-0.071631L339.40406 166.684556l-0.297782-194.447621c-0.028653-19.010983 15.270798-34.463929 34.151821-34.492582 18.881023-0.029676 34.227546 15.376199 34.257222 34.387181l0.412392 269.456988C407.969669 269.140019 392.734686 282.112472 367.764991 282.151357L367.764991 282.151357zM614.842273 241.549637l0.472767-269.456988c0.033769-19.010983 15.384385-34.412764 34.264385-34.378995 18.881023 0.033769 34.177404 15.489786 34.143635 34.500768l-0.340761 194.447621 217.85575-218.650859c12.814864-12.858866 33.542954-12.822027 46.38033 0.082888 12.770861 12.971429 12.734022 33.842783-0.081864 46.699602l-217.923288 218.582297 193.118346 0.343831c18.879999 0.033769 34.177404 15.489786 34.143635 34.500768-0.033769 19.010983-15.384385 34.412764-34.264385 34.378995l-267.615037-0.475837C629.956505 282.077679 614.793154 269.101133 614.842273 241.549637L614.842273 241.549637z"  horiz-adv-x="1024" />

    
    <glyph glyph-name="qiehuanjiaose" unicode="&#58895;" d="M1011.2 108.8H448v64h441.6l-32 51.2 51.2 38.4 102.4-153.6z m-486.4-204.8l57.6 25.6-25.6 51.2h454.4v64H454.4l70.4-140.8z m-44.8 396.8c-217.6 0-390.4-166.4-409.6-377.6h-64c12.8 198.4 147.2 358.4 326.4 416C256 390.4 198.4 480 198.4 582.4c0 153.6 128 281.6 281.6 281.6 153.6 0 281.6-128 281.6-281.6 0-102.4-57.6-192-140.8-243.2 44.8-12.8 83.2-32 115.2-57.6l-44.8-44.8c-57.6 38.4-128 64-211.2 64z m0 57.6c121.6 0 217.6 96 217.6 217.6S601.6 800 480 800 262.4 704 262.4 582.4s96-224 217.6-224z"  horiz-adv-x="1024" />

    
    <glyph glyph-name="caozuo_quanpingfangda" unicode="&#59027;" d="M227.71 735.963l128.007 0.514c18.928-0.475 36.487 12.637 39.356 34.986v24.135c-0.474 18.965-16.114 34.643-35.043 35.06l-244.422-1.443c-0.363 0.039-0.61 0.17-0.932 0.17l-17.14 0.382c-9.466 0.228-17.94-3.478-23.983-9.615-6.14-6.1-8.402-14.615-8.153-24.135l1.825-17.18c0-0.341-1.273-0.57-1.273-0.95l0.95-245.622c0.418-18.928 16.059-30.291 35.042-30.71h25.466c18.927-0.418 33.96 16.058 33.54 34.967l-1.064 133.575 168.526-165.826c18.317-18.357 47.964-18.357 66.283 0 18.263 18.358 18.263 48.024 0 66.4L227.71 735.964z m728.2-743.8l-0.988 241.84c-0.475 18.91-16.116 30.233-35.043 30.65l-24.077 0.04c-18.872 0.437-33.96-16.095-33.485-35.024l1.065-130.707-168.526 166.909c-18.318 18.359-47.926 18.359-66.247 0-18.298-18.358-18.298-48.022 0-66.38l168.505-166.776-127.836-0.513c-18.929 0.42-36.449-11.21-39.358-33.56v-24.133c0.476-18.967 16.175-34.644 35.044-35.12l241.289 1.463c0.38 0 0.607-0.151 0.968-0.151l17.103-0.418c9.465-0.228 17.996 3.477 24.04 9.636 6.177 6.043 8.38 14.594 8.19 24.115l-1.881 17.14c-0.036 0.419 1.237 0.664 1.237 0.989zM394.638 265.87c-18.303 18.359-47.967 18.359-66.267 0L159.828 100.048l1.083 131.503c0.418 18.967-14.612 35.497-33.503 35.023h-25.466C82.96 266.1 67.32 254.83 66.9 235.864l-0.99-243.643c0-0.342 1.274-0.572 1.274-0.952l-1.825-17.142c-0.21-9.52 1.996-18.072 8.134-24.115 6.043-6.156 14.576-9.862 23.984-9.634l17.142 0.418c0.342 0 0.568 0.151 0.95 0.151l244.405-1.463c18.928 0.476 34.587 16.153 35.042 35.118v24.135c-2.85 22.347-20.408 33.977-39.299 33.56l-129.472 0.417 168.393 166.778c18.28 18.3 18.28 48.021 0 66.379z m234.068 238.4c18.318-18.358 47.926-18.358 66.244 0l168.527 166.853-1.084-134.603c-0.455-18.909 14.633-35.442 33.503-35.023h24.076c18.93 0.475 34.569 11.799 35.044 30.71l0.968 245.678c0 0.38-1.254 0.609-1.254 0.95l1.862 17.18c0.19 9.52-2.014 18.035-8.19 24.134-6.044 6.138-14.576 9.844-24.021 9.579l-17.104-0.381c-0.38 0-0.609-0.134-0.987-0.19l-244.788 1.463c-18.927-0.438-34.566-16.116-35.04-35.081l-0.059-24.135c2.908-22.385 20.488-35.442 39.356-35.023l129.89-0.512-166.89-165.295c-18.355-18.281-18.355-47.947-0.053-66.305z"  horiz-adv-x="1024" />

    
    <glyph glyph-name="shipin1" unicode="&#59000;" d="M892.8 768h-761.6c-19.2 0-35.2-6.4-48-22.4-12.8-12.8-19.2-32-19.2-54.4v-611.2c0-44.8 28.8-80 67.2-80h761.6c19.2 0 35.2 6.4 48 22.4s19.2 35.2 19.2 54.4v614.4c0 41.6-32 76.8-67.2 76.8zM224 64h-51.2c-25.6 0-44.8 22.4-44.8 51.2v140.8h96v-192zM224 320h-96v128h96v-128zM224 512h-96v140.8c0 28.8 19.2 51.2 44.8 51.2h51.2v-192zM736 480v-416h-448v640h448v-224zM896 115.2c0-28.8-19.2-51.2-44.8-51.2h-51.2v192h96v-140.8zM896 320h-96v128h96v-128zM896 512h-96v192h54.4c22.4 0 41.6-22.4 41.6-51.2v-140.8zM444.8 268.8l144 73.6 25.6 12.8c32 16 32 41.6 0 57.6l-169.6 86.4c-16 6.4-28.8 0-28.8-16v-192c0-22.4 12.8-28.8 28.8-22.4z"  horiz-adv-x="1024" />

    
    <glyph glyph-name="wenzi" unicode="&#58962;" d="M127.744 796.864l-25.856-206.976h25.856c0 72.448 56.896 129.344 129.344 129.344h181.12v-659.648c0-36.224-28.48-64.704-64.704-64.704h-64.64v-25.92h413.824v25.92h-64.64a64 64 0 0 0-64.704 64.704V719.296h181.12c72.384 0 129.344-56.96 129.344-129.344h25.792l-25.792 206.976H127.744v-0.064z"  horiz-adv-x="1024" />

    
    <glyph glyph-name="shoujiduanxin" unicode="&#59191;" d="M493.572336-26.828511h-216.073395c-54.921665 0-99.726182 44.804517-99.726182 99.726182v654.724065c0 54.921665 44.804517 99.726182 99.726182 99.726182h389.510233c54.921665 0 99.726182-44.804517 99.726182-99.726182v-291.229358c0-13.730416-11.562456-25.292872-25.292872-25.292872s-25.292872 11.562456-25.292872 25.292872v291.229358c0 26.738179-22.402258 49.140438-49.140438 49.140438h-389.510233c-26.738179 0-49.140438-22.402258-49.140437-49.140438v-654.724065c0-26.738179 22.402258-49.140438 49.140437-49.140437h216.073395c13.730416 0 25.292872-11.562456 25.292872-25.292873s-10.839802-25.292872-25.292872-25.292872zM671.345095-83.918137c-7.226535 0-13.730416 3.613267-18.066337 10.117149l-26.738179 41.191249c-19.511644 11.562456-83.827805 55.644319-101.894143 141.640085-2.890614 14.45307-5.058574 29.628793-5.058574 44.804516 0 115.624559 94.667608 210.292167 211.01482 210.292167s211.01482-94.667608 211.01482-211.01482c0-114.901905-92.499647-208.124206-206.678899-211.01482l-54.921666-24.570219c-2.16796-1.445307-5.781228-1.445307-8.671842-1.445307z m59.257587 404.685956c-92.499647 0-167.65561-75.155963-167.655611-166.932957 0-12.285109 1.445307-24.570219 3.613268-35.410021 16.62103-79.491884 83.827805-114.901905 84.550458-115.624559 3.613267-1.445307 6.503881-4.335921 7.949189-7.226535l19.511644-30.351446 42.636556 18.78899c2.890614 1.445307 5.781228 2.16796 8.671842 2.167961 92.499647 0 167.65561 75.155963 167.655611 167.65561s-74.43331 166.932957-166.932957 166.932957zM637.380381 158.893437m-27.460833 0a27.460833 27.460833 0 1 1 54.921666 0 27.460833 27.460833 0 1 1-54.921666 0ZM734.215949 158.893437m-27.460833 0a27.460833 27.460833 0 1 1 54.921666 0 27.460833 27.460833 0 1 1-54.921666 0ZM830.328864 158.893437m-27.460833 0a27.460833 27.460833 0 1 1 54.921666 0 27.460833 27.460833 0 1 1-54.921666 0ZM451.658433 131.432604h-228.358504c-13.730416 0-25.292872 11.562456-25.292872 25.292872s11.562456 25.292872 25.292872 25.292873h228.358504c13.730416 0 25.292872-11.562456 25.292873-25.292873s-11.562456-25.292872-25.292873-25.292872z"  horiz-adv-x="1024" />

    
    <glyph glyph-name="finish" unicode="&#58906;" d="M512-104c-65.9 0-129.8 12.9-190 38.4C263.9-41 211.7-5.7999999999999545 166.9 39s-80 97-104.6 155.1C36.9 254.20000000000005 24 318.1 24 384s12.9 129.8 38.4 190C87 632.1 122.2 684.3 167 729.1s97 80 155.1 104.6C382.2 859.1 446.1 872 512 872s129.8-12.9 190-38.4C760.1 809 812.3 773.8 857.1 729s80-97 104.6-155.1c25.5-60.2 38.4-124.1 38.4-190s-12.9-129.8-38.4-190c-24.6-58.1-59.8-110.3-104.6-155.1s-97-80-155.1-104.6c-60.2-25.3-124.1-38.2-190-38.2z m0 896c-225 0-408-183-408-408s183-408 408-408 408 183 408 408-183 408-408 408zM442.1 197.10000000000002c-10.2 0-20.5 3.9-28.3 11.7l-154 154c-15.6 15.6-15.6 40.9 0 56.6 15.6 15.6 40.9 15.6 56.6 0l154-154c15.6-15.6 15.6-40.9 0-56.6-7.8-7.8-18.1-11.7-28.3-11.7zM442.1 197.10000000000002c-10.2 0-20.5 3.9-28.3 11.7-15.6 15.6-15.6 40.9 0 56.6l293.9 293.9c15.6 15.6 40.9 15.6 56.6 0 15.6-15.6 15.6-40.9 0-56.6L470.4 208.79999999999995c-7.8-7.8-18.1-11.7-28.3-11.7z"  horiz-adv-x="1024" />

    
    <glyph glyph-name="touxiang" unicode="&#58995;" d="M512 864a480 480 0 1 1 0-960 480 480 0 0 1 0 960z m-3.072-168.192a144.64 144.64 0 1 0 0-289.28 144.64 144.64 0 0 0 0 289.28zM256 121.856c-1.472 148.224 70.976 240.256 161.792 276.416l93.248-155.584 98.24 152c87.616-38.4 157.248-129.344 158.656-272.96-161.088-63.872-330.88-68.48-511.936 0.128z"  horiz-adv-x="1024" />

    
    <glyph glyph-name="xuanze" unicode="&#58890;" d="M512-128C229.248-128 0 101.248 0 384S229.248 896 512 896s512-229.248 512-512-229.248-512-512-512z m0 938.666667C276.352 810.666667 85.333333 619.648 85.333333 384s191.018667-426.666667 426.666667-426.666667 426.666667 191.018667 426.666667 426.666667S747.648 810.666667 512 810.666667z m-23.936-640.426667a42.624 42.624 0 0 0-60.330667 0L276.906667 321.066667a42.624 42.624 0 1 0 60.330666 60.330666l120.661334-120.661333 271.530666 271.530667a42.666667 42.666667 0 0 0 60.330667-60.330667l-301.696-301.696z"  horiz-adv-x="1024" />

    
    <glyph glyph-name="Coordinate" unicode="&#58899;" d="M509 504.5m-142.5 0a142.5 142.5 0 1 1 285 0 142.5 142.5 0 1 1-285 0ZM512-87.5c-12.7 0-25.3 4.5-35.5 13.4-29.9 26.4-107.3 98.7-179 198.9-41.6 58.1-74.6 116.4-98 173.2-29.1 70.5-43.8 139.6-43.8 205.4 0 47.6 9.5 93.8 28.1 137.3 18 42 43.7 79.6 76.5 111.9 32.7 32.3 70.8 57.6 113.2 75.3C417.4 846.2 464 855.5 512 855.5s94.6-9.3 138.5-27.6c42.4-17.7 80.5-43.1 113.2-75.3 32.8-32.3 58.5-70 76.5-111.9 18.6-43.5 28.1-89.7 28.1-137.3 0-65.8-14.7-134.9-43.8-205.4-23.5-56.9-56.4-115.2-98-173.2-71.7-100.2-149.1-172.5-179.1-198.9-10.1-8.9-22.7-13.4-35.4-13.4z m0 863c-152.4 0-276.3-122.1-276.3-272.1 0-223.8 203-433.3 276.3-501.6 73.3 68.3 276.3 277.8 276.3 501.6 0 150-123.9 272.1-276.3 272.1z"  horiz-adv-x="1024" />

    
    <glyph glyph-name="icon_huaban" unicode="&#59105;" d="M832 832H192c-19.2 0-32 12.8-32 32s12.8 32 32 32h640c19.2 0 32-12.8 32-32s-12.8-32-32-32zM512-128H64c-35.2 0-64 28.8-64 64V672c0 35.2 28.8 64 64 64h896c35.2 0 64-28.8 64-64v-288c0-19.2-12.8-32-32-32s-32 12.8-32 32V672H64v-736h448c19.2 0 32-12.8 32-32s-12.8-32-32-32zM566.4 291.20000000000005s-3.2 0-6.4 3.2c38.4 32 64 83.2 64 137.6 0 99.2-80 179.2-179.2 179.2s-179.2-80-179.2-179.2c0-54.4 25.6-105.6 64-137.6-96-44.8-169.6-147.2-169.6-265.6 0-19.2 16-32 32-32s32 12.8 32 32c0 124.8 99.2 224 224 224 32 0 64-6.4 92.8-19.2 16-6.4 35.2 0 41.6 16 6.4 12.8 0 32-16 41.6z m-233.6 137.6c0 64 51.2 115.2 115.2 115.2s115.2-51.2 115.2-115.2-51.2-115.2-115.2-115.2c-64 3.2-115.2 54.4-115.2 115.2zM800 320c-124.8 0-224-99.2-224-224s99.2-224 224-224 224 99.2 224 224-99.2 224-224 224z m0-384c-89.6 0-160 70.4-160 160s70.4 160 160 160 160-70.4 160-160-70.4-160-160-160zM896 96c0-16-16-32-32-32h-32v-32c0-16-16-32-32-32s-32 16-32 32v32h-32c-16 0-32 16-32 32s16 32 32 32h32v32c0 16 16 32 32 32s32-16 32-32v-32h32c16 0 32-16 32-32z"  horiz-adv-x="1024" />

    
    <glyph glyph-name="yinshuihudongpingtai1" unicode="&#59354;" d="M542.1 526a22.43 22.43 0 0 0-15.91 6.59l-91.36 91.36a22.5 22.5 0 1 0 31.82 31.82L558 564.38A22.5 22.5 0 0 0 542.1 526zM542.1 526a22.5 22.5 0 0 0-15.91 38.41l91.36 91.36a22.5 22.5 0 1 0 31.82-31.82L558 532.56a22.43 22.43 0 0 0-15.9-6.56zM690 526H394.21a22.5 22.5 0 0 0 0 45H690a22.5 22.5 0 0 0 0-45zM690 412.43H394.21a22.5 22.5 0 0 0 0 45H690a22.5 22.5 0 0 0 0-45zM542.1 302.59a22.5 22.5 0 0 0-22.5 22.5V546.94a22.5 22.5 0 0 0 45 0v-221.85a22.5 22.5 0 0 0-22.5-22.5zM78.93-14.66a22.5 22.5 0 0 0-22.5 22.5V258.7a22.5 22.5 0 0 0 45 0v-250.86a22.5 22.5 0 0 0-22.5-22.5zM608.86-68.7c-55.21 0-308.38 51.9-337 57.81h-86.7c-4.48-0.11-18.34 0.5-29.36 10.89-5.58 5.26-12.24 14.81-12.24 30.36V249.54l0.31 1.84c0.5 3 6 29.53 43.13 35.1 17.65 2.65 115.33 16.46 119.48 17l5.63 0.8 315.83-116.77a66 66 0 0 0 35.81-31.65l216.18 124.93a85.07 85.07 0 0 0 85.44-147.14c-5.5-3.43-83.15-51.81-162.79-99.58C631.25-68.7 618.31-68.7 608.86-68.7zM606-24z m-417.49 58.11h87.91l2.26-0.47c76-15.74 280.92-56.25 328.35-57.32 7.29 2.32 39.59 16.51 178.81 100.19 79.55 47.81 155.24 95 156 95.5l0.66 0.4a40.07 40.07 0 0 1-40.07 69.41L668.52 106.64q-0.63-2.14-1.42-4.27l-2-5.34a66.34 66.34 0 0 0-85.1-39.16l-139.12 51.44a22.5 22.5 0 0 0 15.61 42.21l139.11-51.44a21.39 21.39 0 0 1 27.32 12.57l2 5.34a21.36 21.36 0 0 1 0.69 2.22 22.58 22.58 0 0 0 0.62 5.89 21.3 21.3 0 0 1-13.88 19.21L307.1 258.17c-21.57-3.05-98.43-13.94-113.48-16.2a23.92 23.92 0 0 1-5.11-1.27zM823.54 343.49a22.51 22.51 0 0 0-20.33 32.11A284.58 284.58 0 0 1 830.5 498c0 158.33-128.81 287.14-287.14 287.14S256.23 656.28 256.23 498a284.58 284.58 0 0 1 27.29-122.4 22.5 22.5 0 0 0-40.7-19.2A332.22 332.22 0 1 0 875.5 498a329.25 329.25 0 0 0-31.59-141.6 22.5 22.5 0 0 0-20.37-12.91z"  horiz-adv-x="1024" />

    
    <glyph glyph-name="gerensuodeshui" unicode="&#59419;" d="M525 414.34a22.43 22.43 0 0 0-15.91 6.59L401.61 528.42a22.5 22.5 0 0 0 31.82 31.82l107.48-107.49A22.5 22.5 0 0 0 525 414.34zM525 414.34a22.5 22.5 0 0 0-15.91 38.41l107.48 107.49a22.5 22.5 0 0 0 31.82-31.82L540.91 420.93a22.43 22.43 0 0 0-15.91-6.59zM699 414.34H351a22.5 22.5 0 0 0 0 45h348a22.5 22.5 0 0 0 0-45zM699 280.76H351a22.5 22.5 0 0 0 0 45h348a22.5 22.5 0 0 0 0-45zM525 151.54A22.5 22.5 0 0 0 502.5 174V435a22.5 22.5 0 1 0 45 0v-261a22.5 22.5 0 0 0-22.5-22.46zM518-48.9A431.31 431.31 0 0 0 243.72 49c-76 62.26-129 149.18-149.3 244.74a22.5 22.5 0 0 0 44 9.35c37.77-177.89 197.39-307 379.54-307a387.11 387.11 0 0 1 376.69 294.57 22.5 22.5 0 0 0 43.69-10.8A432.61 432.61 0 0 0 518-48.9zM119.16 459.18A22.52 22.52 0 0 0 97.28 487a433.13 433.13 0 0 0 784.79 131.54A430 430 0 0 0 938.66 487a22.5 22.5 0 1 0-43.72-10.66C852.49 650.48 697.47 772.1 518 772.1S183.46 650.48 141 476.35a22.51 22.51 0 0 0-21.84-17.17zM116.36 459.05a22.51 22.51 0 0 0-21.48 15.85L62.33 580a22.5 22.5 0 1 0 43 13.31l32.54-105.08a22.52 22.52 0 0 0-21.5-29.16zM119 458.76a22.5 22.5 0 0 0-10.18 42.58L207 551a22.5 22.5 0 0 0 20.32-40.15l-98.15-49.67a22.42 22.42 0 0 0-10.17-2.42zM953.17 162.76a22.51 22.51 0 0 0-21.49 15.85l-32.54 105.08a22.5 22.5 0 0 0 43 13.31l32.54-105.08a22.52 22.52 0 0 0-21.5-29.16zM819.84 218.47A22.5 22.5 0 0 0 809.67 261l98.15 49.67a22.5 22.5 0 1 0 20.32-40.15L830 220.89a22.42 22.42 0 0 0-10.16-2.42z"  horiz-adv-x="1024" />

    
    <glyph glyph-name="fujiashuishenbao" unicode="&#59420;" d="M466.5-67.14H206c-78.57 0-142.5 63.93-142.5 142.5v596c0 78.57 63.93 142.5 142.5 142.5h528c78.57 0 142.5-63.93 142.5-142.5v-250a22.5 22.5 0 1 0-45 0v250a97.61 97.61 0 0 1-97.5 97.5H206a97.61 97.61 0 0 1-97.5-97.5v-596a97.61 97.61 0 0 1 97.5-97.5h260.5a22.5 22.5 0 0 0 0-45zM406.5 263.55H229a22.5 22.5 0 0 0 0 45h177.5a22.5 22.5 0 0 0 0-45zM682.5 543.55H229a22.5 22.5 0 0 0 0 45h453.5a22.5 22.5 0 0 0 0-45zM732-86.5a219.5 219.5 0 1 0 155.21 64.29A218.06 218.06 0 0 0 732-86.5z m0 394c-96.22 0-174.5-78.28-174.5-174.5S635.78-41.5 732-41.5 906.5 36.78 906.5 133 828.22 307.5 732 307.5zM843.25 110.5H621.19a22.5 22.5 0 0 0 0 45h222.06a22.5 22.5 0 0 0 0-45zM732.22-0.53a22.5 22.5 0 0 0-22.5 22.5V244a22.5 22.5 0 0 0 45 0v-222a22.5 22.5 0 0 0-22.5-22.53z"  horiz-adv-x="1024" />

    
    <glyph glyph-name="shuifeishenqing" unicode="&#59458;" d="M266.57 452.32A422.36 422.36 0 0 1 313 564.2h-39.44v21.62h43.54v45.76q-19.1-1.58-39.72-3.17a142.59 142.59 0 0 1-4.77 22.25 1065.24 1065.24 0 0 1 106.79 10.17l5.08-21.61q-20.66-2.86-45.13-5.4v-48h42.27v-21.62h-42.27v-28.29l13.65 9.22q15.89-21.93 30.51-45.77l-19.71-12.71q-11.76 21.93-24.47 41.64v-161.15H317.1V518.43q-15.57-52.76-39.41-93.43-5.09 13.34-11.12 27.32z m125.55 165h170v-127.49h-23.48v11.76h-28.93v-87.09q0-17.8 15.57-17.8h10.17q15.57 0 17.48 17.16 1.59 17.16 2.54 41 9.85-4.45 23.84-10.17-2.23-24.79-4.77-42-4.45-29.24-34.33-29.24h-21.6q-32.42 0-32.42 36.23v91.91h-26.06q-1-94.08-79.14-135.08a173.07 173.07 0 0 1-15.26 21.93q70.27 33.05 70.88 113.15h-21v-11.76h-23.5zM405.46 665l20 11.12a454.48 454.48 0 0 0 32.42-42.59l-21.61-13A412.5 412.5 0 0 1 405.46 665z m133.18-70h-123v-71.2h123z m7.63 70.88q-15.26-23.21-33.69-47l-20.66 12.4Q513.85 657 524.65 677zM735.08 223h-440.5a22.5 22.5 0 0 0 0 45h440.5a22.5 22.5 0 0 0 0-45zM735.08 55h-440.5a22.5 22.5 0 1 0 0 45h440.5a22.5 22.5 0 0 0 0-45zM775.38-98.5H254.29a98.16 98.16 0 0 0-98 98V754.45a98.16 98.16 0 0 0 98 98h371.48a71.71 71.71 0 0 0 51-21.14l175.52-175.43a71.71 71.71 0 0 0 21.14-51v-605.33a98.16 98.16 0 0 0-98.05-98.05z m-521.1 906a53.11 53.11 0 0 1-53-53v-754.9a53.11 53.11 0 0 1 53-53h521.1a53.11 53.11 0 0 1 53 53V604.84a27 27 0 0 1-8 19.21L645 799.54a27 27 0 0 1-19.21 8zM850.76 582.92h-198a49.09 49.09 0 0 0-49 49V830h45v-198a4 4 0 0 1 4-4h198z"  horiz-adv-x="1024" />

    
    <glyph glyph-name="yijianlingshenbao" unicode="&#59478;" d="M511 136a219.5 219.5 0 1 0 155.21 64.29A218.06 218.06 0 0 0 511 136z m0 394c-96.22 0-174.5-78.28-174.5-174.5S414.78 181 511 181s174.5 78.28 174.5 174.5S607.22 530 511 530zM422.71 345a22.5 22.5 0 0 0-15.93 38.39l88.79 89a22.5 22.5 0 1 0 31.86-31.78l-88.79-89a22.43 22.43 0 0 0-15.93-6.61zM599.73 345a22.43 22.43 0 0 0-16 6.66l-88.23 89a22.5 22.5 0 1 0 32 31.68l88.23-89a22.5 22.5 0 0 0-16-38.34zM775.5-66.34h-528c-78.58 0-142.5 63.93-142.5 142.5V671.8c0 78.57 63.92 142.5 142.5 142.5h528c78.58 0 142.5-63.93 142.5-142.5v-595.64c0-78.57-63.92-142.5-142.5-142.5z m-528 835.64a97.61 97.61 0 0 1-97.5-97.5v-595.64a97.61 97.61 0 0 1 97.5-97.5h528a97.61 97.61 0 0 1 97.5 97.5V671.8a97.61 97.61 0 0 1-97.5 97.5zM510.5 232h-0.11A22.5 22.5 0 0 0 488 254.61l1 202A22.5 22.5 0 0 0 511.5 479h0.11A22.5 22.5 0 0 0 534 456.39l-1-202A22.5 22.5 0 0 0 510.5 232z"  horiz-adv-x="1024" />

    
    <glyph glyph-name="zengliangfangqishuizhengming" unicode="&#59485;" d="M342 386a22.43 22.43 0 0 0-15.91 6.59l-96.89 96.89a22.5 22.5 0 0 0 31.82 31.82l96.89-96.89A22.5 22.5 0 0 0 342 386zM342 386a22.5 22.5 0 0 0-15.91 38.41L423 521.34a22.5 22.5 0 0 0 31.82-31.82l-96.89-96.89A22.43 22.43 0 0 0 342 386zM498.9 386H185.18a22.5 22.5 0 1 0 0 45H498.9a22.5 22.5 0 1 0 0-45zM498.9 265.61H185.18a22.5 22.5 0 0 0 0 45H498.9a22.5 22.5 0 1 0 0-45zM342 149.12a22.5 22.5 0 0 0-22.5 22.5V406.91a22.5 22.5 0 0 0 45 0v-235.29a22.5 22.5 0 0 0-22.5-22.5zM607-67.54H143.05A73.13 73.13 0 0 0 70 5.52V740.05a73.13 73.13 0 0 0 73.05 73.05h390.9A73.13 73.13 0 0 0 607 740.05zM143.05 768.1A28.08 28.08 0 0 1 115 740.05v-734.53a28.08 28.08 0 0 1 28.05-28.05H562V740.05a28.08 28.08 0 0 1-28.05 28.05zM881.95-66.55H562V577h319.95A73.13 73.13 0 0 0 955 503.95V6.5a73.13 73.13 0 0 0-73.05-73.05z m-274.95 45h274.95A28.08 28.08 0 0 1 910 6.5V503.95A28.08 28.08 0 0 1 881.95 532H607zM845.5 331h-181a22.5 22.5 0 0 0 0 45h181a22.5 22.5 0 0 0 0-45zM845.5 163h-181a22.5 22.5 0 0 0 0 45h181a22.5 22.5 0 0 0 0-45z"  horiz-adv-x="1024" />

    
    <glyph glyph-name="wangluo" unicode="&#58898;" d="M748.4 309.9c-10.4-33.3-27.4-63.6-49.6-89.4-28 18.4-59.5 32.7-93.3 42.4 5.6 32 9.1 67 9.9 104h180.1c0.4 6 0.6 12 0.6 18 0 6.1-0.3 12.2-0.6 18.2h-36.4v-0.2H615.4c-0.8 37.1-4.3 72.1-9.9 104 33.8 9.7 65.3 24 93.3 42.4 22.2-25.8 39.2-56 49.5-89.2h37.9c-33.1 123-145.3 213.5-278.7 213.5-133.4 0-245.6-90.5-278.7-213.5h37.9c10.3 33.2 27.3 63.4 49.4 89.2 28-18.4 59.5-32.6 93.4-42.3-5.6-32-9.1-67-9.9-104.1H255.7v0.2h-36.4c-0.4-6-0.6-12.1-0.6-18.2s0.2-12.1 0.6-18h180.2c0.8-37.1 4.3-72.1 9.9-104.1-33.9-9.7-65.4-23.9-93.4-42.3-22.2 25.8-39.2 56.1-49.5 89.4h-37.9c33-123 145.3-213.7 278.8-213.7s245.7 90.6 278.8 213.7h-37.8z m-75.6 265.6c-22.7-14-47.9-25.2-74.7-33.1-8.8 35.9-20.5 66.1-34.2 88.5 41-9.3 78.2-28.7 108.9-55.4zM435.6 403c0.8 35.9 4.1 67.9 9 95.8 20.4-3.6 41.3-5.6 62.9-5.6 21.5 0 42.5 1.9 62.9 5.5 4.8-27.9 8.1-59.9 9-95.8H435.6z m143.6-36.1c-0.8-35.8-4.1-67.9-9-95.8-20.3 3.6-41.3 5.5-62.8 5.5s-42.5-2-62.9-5.6c-4.8 27.9-8.1 59.9-9 95.8h143.7z m-71.8 270.6c13.3 0 38.7-35.6 55.6-103.4-18-3.1-36.5-4.8-55.6-4.8-19 0-37.6 1.7-55.5 4.8 16.9 67.8 42.3 103.4 55.5 103.4z m-165.3-62c30.7 26.7 67.9 46 108.8 55.4-13.7-22.4-25.4-52.6-34.2-88.5-26.7 7.9-51.8 19.1-74.6 33.1z m0-381.2c22.7 14 47.8 25.2 74.6 33.1 8.8-35.8 20.5-66.1 34.2-88.5-40.9 9.4-78 28.7-108.8 55.4z m165.3-62c-13.3 0-38.7 35.6-55.5 103.4 18 3.1 36.5 4.8 55.5 4.8s37.6-1.7 55.6-4.8c-16.9-67.8-42.3-103.4-55.6-103.4z m56.5 6.6c13.7 22.4 25.5 52.6 34.2 88.5 26.9-7.9 51.9-19 74.7-33-30.7-26.7-67.9-46.1-108.9-55.5zM240.1 384.9m-36.9 0a36.9 36.9 0 1 1 73.8 0 36.9 36.9 0 1 1-73.8 0ZM240.1 333.8c-28.2 0-51.1 22.9-51.1 51.1 0 28.2 22.9 51.1 51.1 51.1s51.1-22.9 51.1-51.1c0-28.2-22.9-51.1-51.1-51.1z m0 73.7c-12.5 0-22.6-10.1-22.6-22.6 0-12.5 10.1-22.6 22.6-22.6s22.6 10.1 22.6 22.6c0 12.5-10.1 22.6-22.6 22.6zM781.4 384.9m-36.9 0a36.9 36.9 0 1 1 73.8 0 36.9 36.9 0 1 1-73.8 0ZM781.4 333.8c-28.2 0-51.1 22.9-51.1 51.1 0 28.2 22.9 51.1 51.1 51.1 28.2 0 51.1-22.9 51.1-51.1 0-28.2-23-51.1-51.1-51.1z m0 73.7c-12.5 0-22.6-10.1-22.6-22.6 0-12.5 10.1-22.6 22.6-22.6 12.5 0 22.6 10.1 22.6 22.6 0 12.5-10.2 22.6-22.6 22.6zM493.8 761c5.6 0.2 11.3 0.4 16.9 0.4 207.8 0 376.8-169 376.8-376.8 0-116.7-53.3-221.1-136.8-290.3l10.7-27.8c94 74.3 154.6 189.2 154.6 318.1 0 223.5-181.8 405.3-405.3 405.3-9.3 0-18.5-0.4-27.7-1.1l10.8-27.8zM504.6 7.9c-205 3.3-370.7 170.9-370.7 376.7 0 108.4 46.1 206.2 119.5 275l-11 28.5c-84-74.3-137.1-182.8-137.1-303.5 0-223.5 181.8-405.3 405.3-405.3 1.6 0 3.3 0.1 4.9 0.1l-10.9 28.5zM510.7-6.8m-36.9 0a36.9 36.9 0 1 1 73.8 0 36.9 36.9 0 1 1-73.8 0ZM510.7-58c-28.2 0-51.1 22.9-51.1 51.1 0 28.2 22.9 51.1 51.1 51.1 28.2 0 51.1-22.9 51.1-51.1 0-28.1-22.9-51.1-51.1-51.1z m0 73.8c-12.5 0-22.6-10.1-22.6-22.6 0-12.5 10.1-22.6 22.6-22.6s22.6 10.1 22.6 22.6c0 12.4-10.1 22.6-22.6 22.6zM510.7 776.7m-36.9 0a36.9 36.9 0 1 1 73.8 0 36.9 36.9 0 1 1-73.8 0ZM510.7 725.6c-28.2 0-51.1 22.9-51.1 51.1s22.9 51.1 51.1 51.1c28.2 0 51.1-22.9 51.1-51.1s-22.9-51.1-51.1-51.1z m0 73.7c-12.5 0-22.6-10.1-22.6-22.6s10.1-22.6 22.6-22.6 22.6 10.1 22.6 22.6-10.1 22.6-22.6 22.6z"  horiz-adv-x="1024" />

    
    <glyph glyph-name="fanhui" unicode="&#58908;" d="M994.3-4.399999999999977c0.3 103.9-30.1 531.9-544.1 587.6V748.8c0 19-22.5 29-36.6 16.2L48.1 433.7c-19.3-17.5-19.2-48 0.4-65.3l357.1-316.3c14.1-12.5 36.4-2.5 36.4 16.4V232.79999999999995S860.5 307.6 985.9-6c1.7-4.5 8.4-3.2 8.4 1.6z"  horiz-adv-x="1148" />

    
    <glyph glyph-name="prohibit" unicode="&#59050;" d="M512-104c-65.9 0-129.8 12.9-190 38.4C263.9-41 211.7-5.7999999999999545 166.9 39s-80 97-104.6 155.1C36.9 254.20000000000005 24 318.1 24 384s12.9 129.8 38.4 190C87 632.1 122.2 684.3 167 729.1s97 80 155.1 104.6C382.2 859.1 446.1 872 512 872s129.8-12.9 190-38.4C760.1 809 812.3 773.8 857.1 729s80-97 104.6-155.1c25.5-60.2 38.4-124.1 38.4-190s-12.9-129.8-38.4-190c-24.6-58.1-59.8-110.3-104.6-155.1s-97-80-155.1-104.6c-60.2-25.3-124.1-38.2-190-38.2z m0 896c-225 0-408-183-408-408s183-408 408-408 408 183 408 408-183 408-408 408zM166.928 672.4970000000001l56.568 56.568 633.562-633.562-56.568-56.568z"  horiz-adv-x="1024" />

    
    <glyph glyph-name="USB-fill" unicode="&#59505;" d="M408 584h48c4.4 0 8 3.6 8 8v48c0 4.4-3.6 8-8 8h-48c-4.4 0-8-3.6-8-8v-48c0-4.4 3.6-8 8-8zM760 464V752c0 17.7-14.3 32-32 32H296c-17.7 0-32-14.3-32-32v-288c-66.2 0-120-52.1-120-116v-356c0-4.4 3.6-8 8-8h720c4.4 0 8 3.6 8 8V348c0 63.9-53.8 116-120 116z m-72 0H336V712h352v-248zM568 584h48c4.4 0 8 3.6 8 8v48c0 4.4-3.6 8-8 8h-48c-4.4 0-8-3.6-8-8v-48c0-4.4 3.6-8 8-8z"  horiz-adv-x="1024" />

    
    <glyph glyph-name="map" unicode="&#58896;" d="M882.9-104.20000000000005H141.1c-28.7 0-55.1 14.5-70.5 38.7s-17.3 54.3-5.1 80.3l79.8 170.3c17.1 37.4 61.7 66.7 101.5 66.7h39.7c22.1 0 40-17.9 40-40s-17.9-40-40-40h-39.7c-7.4 0-24.1-9.7-28.8-20l-0.2-0.4-79.9-170.5c-0.2-0.5-0.8-1.8 0.2-3.4 1-1.6 2.4-1.6 3-1.6h741.8c0.6 0 2 0 3 1.6s0.5 2.9 0.2 3.4L806 151.79999999999995c-4.7 10.3-21.4 20-28.8 20h-39.7c-22.1 0-40 17.9-40 40s17.9 40 40 40h39.7c39.8 0 84.3-29.3 101.5-66.7l79.8-170.3c12.2-26 10.3-56-5.1-80.3s-41.8-38.7-70.5-38.7zM508.2 599.3m-104.7 0a104.7 104.7 0 1 1 209.4 0 104.7 104.7 0 1 1-209.4 0ZM510.4 149.29999999999995c-11.9 0-23.8 4.2-33.3 12.7-22.3 19.9-79.8 74.4-133.2 149.9-70.4 99.6-106.1 196.4-106.1 287.7 0 72.8 28.3 141.2 79.8 192.7s119.9 79.8 192.7 79.8c72.8 0 141.2-28.3 192.7-79.8s79.8-119.9 79.8-192.7c0-91.3-35.7-188.1-106.1-287.7C623.4 236.39999999999998 565.9 182 543.6 162c-9.5-8.4-21.4-12.7-33.2-12.7z m0 642.9c-106.1 0-192.5-86.4-192.5-192.5 0-155.8 134.4-302.9 192.5-359.2 58.1 56.3 192.5 203.4 192.5 359.2 0 106.1-86.4 192.5-192.5 192.5zM668.3 25H359.8c-22.1 0-40 17.9-40 40s17.9 40 40 40h308.5c22.1 0 40-17.9 40-40s-17.9-40-40-40z"  horiz-adv-x="1024" />

    
    <glyph glyph-name="breadcrumb" unicode="&#58926;" d="M512 896C269.6 896 73.1 699.5 73.1 457.1c0-139.8 67.7-261.5 167.3-344.7C310 54.200000000000045 512-128 512-128s202 182.2 271.6 240.4c99.6 83.2 167.3 204.9 167.3 344.7C950.9 699.5 754.4 896 512 896z m0-640c-106 0-192 86-192 192s86 192 192 192 192-86 192-192-86-192-192-192z"  horiz-adv-x="1024" />

    
    <glyph glyph-name="tabs-right" unicode="&#60169;" d="M550.4 405.333333L230.4 725.333333 170.666667 665.6l260.266666-260.266667L170.666667 145.06666700000005 230.4 85.33333300000004l320 320z m298.666667 0L533.333333 725.333333 469.333333 665.6l260.266667-260.266667-260.266667-260.266666 59.733334-59.733334 320 320z"  horiz-adv-x="1024" />

    
    <glyph glyph-name="tabs-left" unicode="&#60170;" d="M473.6 405.333333L789.333333 725.333333 853.333333 665.6l-260.266666-260.266667 260.266666-260.266666-64-59.733334-315.733333 320z m-302.933333 0L490.666667 725.333333l59.733333-59.733333-260.266667-260.266667 260.266667-260.266666-59.733333-59.733334L170.666667 405.333333z"  horiz-adv-x="1024" />

    
    <glyph glyph-name="arrow-bar" unicode="&#59715;" d="M896.5 343.5l-769 1a40 40 0 0 0 0 80l769-1a40 40 0 0 0 0-80z"  horiz-adv-x="1024" />

    
    <glyph glyph-name="arrow-down" unicode="&#59716;" d="M512-39.5a40 40 0 0 0-25 71.24l320 256a40 40 0 0 0 50-62.47l-320-256a39.85 39.85 0 0 0-25-8.77zM512-39.5a39.85 39.85 0 0 0-25 8.77l-320 256a40 40 0 1 0 50 62.47l320-256a40 40 0 0 0-25-71.24zM512-39a40 40 0 0 0-40 40V768.5a40 40 0 0 0 80 0V1a40 40 0 0 0-40-40z"  horiz-adv-x="1024" />

    
    <glyph glyph-name="arrow-vertical" unicode="&#59717;" d="M511.58-40.5a40 40 0 0 0-40 40l0.84 769a40 40 0 0 0 40 40 40 40 0 0 0 40-40l-0.84-769a40 40 0 0 0-40-40z"  horiz-adv-x="1024" />

    
    <glyph glyph-name="arrow-left" unicode="&#59718;" d="M128 343.5a40 40 0 0 0-31.21 65l256 320a40 40 0 1 0 62.47-50l-256-320a39.93 39.93 0 0 0-31.26-15zM384 23.5a40 40 0 0 0-31.26 15l-256 320a40 40 0 1 0 62.47 50l256-320a40 40 0 0 0-31.21-65zM128.5 344a40 40 0 0 0 0 80H896a40 40 0 0 0 0-80z"  horiz-adv-x="1024" />

    
    <glyph glyph-name="arrow-save" unicode="&#59719;" d="M775.94-70.93H248.06c-88.22 0-160 71.77-160 160V678.93c0 88.23 71.78 160 160 160h527.88c88.22 0 160-71.77 160-160v-589.86c0-88.23-71.78-160-160-160zM248.06 758.93a80.09 80.09 0 0 1-80-80v-589.86a80.09 80.09 0 0 1 80-80h527.88a80.09 80.09 0 0 1 80 80V678.93a80.09 80.09 0 0 1-80 80zM644 408H380a100.11 100.11 0 0 0-100 100V839h464v-331a100.11 100.11 0 0 0-100-100zM360 759v-251a20 20 0 0 1 20-20h264a20 20 0 0 1 20 20V759zM576 536a40 40 0 0 0-40 40v64a40 40 0 0 0 80 0v-64a40 40 0 0 0-40-40z"  horiz-adv-x="1024" />

    
    <glyph glyph-name="arrow-up" unicode="&#59720;" d="M832 472.5a39.85 39.85 0 0 0-25 8.77l-320 256a40 40 0 1 0 50 62.47l320-256a40 40 0 0 0-25-71.24zM192 472.5a40 40 0 0 0-25 71.24l320 256a40 40 0 0 0 50-62.47l-320-256a39.85 39.85 0 0 0-25-8.77zM512-39.5a40 40 0 0 0-40 40V768a40 40 0 0 0 80 0v-767.5a40 40 0 0 0-40-40z"  horiz-adv-x="1024" />

    
    <glyph glyph-name="bangzhu" unicode="&#59721;" d="M512-104A488.11 488.11 0 0 0 322 833.63a488.11 488.11 0 0 0 380-899.26A484.94 484.94 0 0 0 512-104z m0 896c-225 0-408-183-408-408s183-408 408-408 408 183 408 408-183 408-408 408zM509.18 220.81a40 40 0 0 0-40 40c0 96.32 45.4 133.26 78.56 160.24 23.83 19.39 35.47 29.8 39.49 54.37 3.72 22.72 4.12 54.06-15.05 74.33-15.4 16.27-42.5 23.24-76.3 19.62-14.93-1.6-36.41-7.64-50.54-41.5-9.88-23.67-10.58-47.82-10.58-48.06V480l-80 1.15a227.82 227.82 0 0 0 15.59 74.71c21.65 54.24 63.2 87.29 117 93.06 59.22 6.34 110-9.35 142.93-44.19 32.53-34.39 45.27-84.89 35.89-142.23-9.1-55.63-41.74-82.18-67.95-103.51-28.48-23.16-49.05-39.9-49.05-98.18a40 40 0 0 0-39.99-40zM509.04 145.84m-45.84 0a45.84 45.84 0 1 1 91.68 0 45.84 45.84 0 1 1-91.68 0Z"  horiz-adv-x="1024" />

    
    <glyph glyph-name="banshuidaohang" unicode="&#59722;" d="M512-104A488.11 488.11 0 0 0 322 833.63a488.11 488.11 0 0 0 380-899.26A484.94 484.94 0 0 0 512-104z m0 896c-225 0-408-183-408-408s183-408 408-408 408 183 408 408-183 408-408 408zM537.26 131.77a40.12 40.12 0 0 0-4.76 0.28 41.11 41.11 0 0 0-35.76 34.56l-26.67 175.46-175.46 26.67a41 41 0 0 0-9.22 78.55l395 159.8a42 42 0 0 0 54.68-54.7l-159.79-395a41.13 41.13 0 0 0-38.02-25.62z m38.58 46.86z m-128.6 247.83l62.51-9.5a41.8 41.8 0 0 0 35.25-35.2l9.5-62.51 72.85 180.07z m50.49-88.59z"  horiz-adv-x="1024" />

    
    <glyph glyph-name="banshuidengdairenshu" unicode="&#59723;" d="M511.42 309.08a281.46 281.46 0 0 0-199 480.48 281.46 281.46 0 1 0 398-398 279.62 279.62 0 0 0-199-82.48z m0 482.92C400.34 792 310 701.63 310 590.54s90.38-201.46 201.46-201.46 201.46 90.38 201.46 201.46S622.51 792 511.42 792zM960-104a40 40 0 0 0-39.76 36.07c-9.53 96.52-52.11 187.39-119.9 255.86a40 40 0 1 0 56.86 56.28 502.16 502.16 0 0 0 142.61-304.27 40 40 0 0 0-35.88-43.73 38 38 0 0 0-3.93-0.21zM64.05-104c-1.32 0-2.64 0.06-4 0.19a40 40 0 0 0-35.88 43.74A501.82 501.82 0 0 0 181.9 258.79C272.33 342.76 389.57 389 512 389a40 40 0 0 0 0-80c-211.49 0-387-162-408.19-376.93A40 40 0 0 0 64.05-104z"  horiz-adv-x="1024" />

    
    <glyph glyph-name="banshuiyuyue" unicode="&#59724;" d="M512-104A488.11 488.11 0 0 0 322 833.63a488.11 488.11 0 0 0 380-899.26A484.94 484.94 0 0 0 512-104z m0 896c-225 0-408-183-408-408s183-408 408-408 408 183 408 408-183 408-408 408zM512 716a40 40 0 0 0-40 40V832a40 40 0 0 0 80 0v-76a40 40 0 0 0-40-40zM512-104a40 40 0 0 0-40 40v66a40 40 0 0 0 80 0v-66a40 40 0 0 0-40-40zM134 344H64a40 40 0 0 0 0 80h70a40 40 0 0 0 0-80zM960 344h-72a40 40 0 0 0 0 80h72a40 40 0 0 0 0-80zM640 216a39.91 39.91 0 0 0-28.29 11.72l-128 128a40 40 0 0 0 56.57 56.57l128-128A40 40 0 0 0 640 216zM512 343.5a40 40 0 0 0-40 40V599a40 40 0 0 0 80 0v-215.5a40 40 0 0 0-40-40z"  horiz-adv-x="1024" />

    
    <glyph glyph-name="banshuirili" unicode="&#59725;" d="M768 384m-64 0a64 64 0 1 1 128 0 64 64 0 1 1-128 0ZM512 384m-64 0a64 64 0 1 1 128 0 64 64 0 1 1-128 0ZM256 384m-64 0a64 64 0 1 1 128 0 64 64 0 1 1-128 0ZM768 160m-64 0a64 64 0 1 1 128 0 64 64 0 1 1-128 0ZM512 160m-64 0a64 64 0 1 1 128 0 64 64 0 1 1-128 0ZM256 160m-64 0a64 64 0 1 1 128 0 64 64 0 1 1-128 0ZM320 664a40 40 0 0 0-40 40V832a40 40 0 0 0 80 0v-128a40 40 0 0 0-40-40zM704 664a40 40 0 0 0-40 40V832a40 40 0 0 0 80 0v-128a40 40 0 0 0-40-40zM960 536H64a40 40 0 0 0 0 80h896a40 40 0 0 0 0-80zM840-71H184c-88.23 0-160 71.78-160 160V648c0 88.22 71.77 160 160 160h656c88.22 0 160-71.78 160-160v-559c0-88.22-71.78-160-160-160zM184 728a80.09 80.09 0 0 1-80-80v-559a80.09 80.09 0 0 1 80-80h656a80.09 80.09 0 0 1 80 80V648a80.09 80.09 0 0 1-80 80z"  horiz-adv-x="1024" />

    
    <glyph glyph-name="banshuiditu" unicode="&#59726;" d="M883.34-104H140.66A83.42 83.42 0 0 0 65 14.86l79.91 169.7C162.05 221.84 206.59 251 246.43 251h39.7a40 40 0 0 0 0-80h-39.7c-8.18 0-24.49-10.31-28.89-19.93l-0.19-0.42-80-169.87a2.93 2.93 0 0 1 0.2-3.12 3.34 3.34 0 0 1 3.1-1.66h742.69a3.35 3.35 0 0 1 3.1 1.66 3 3 0 0 1 0.2 3.12l-80.18 170.29c-4.4 9.62-20.72 19.93-28.89 19.93h-39.7a40 40 0 1 0 0 80h39.7c39.84 0 84.39-29.18 101.55-66.46L959 14.86A83.42 83.42 0 0 0 883.34-104zM512.21 435.95c-77.2 0-140 62.8-140 140s62.8 140 140 140 140-62.81 140-140-62.81-140-140-140z m0 200a60 60 0 1 1 60-60 60.07 60.07 0 0 1-60 60zM668.11 21.66H360.63a40 40 0 0 0 0 80h307.48a40 40 0 0 0 0-80zM512 148.1l-16.64 7.61c-9.73 4.45-77.46 44.15-143.17 112.76-39.18 40.91-70.48 84.57-93 129.78-28.61 57.31-43.1 117.12-43.1 177.75a295.91 295.91 0 0 0 591.82 0.06v-0.06c0-60.63-14.49-120.44-43.08-177.75-22.54-45.21-53.84-88.87-93-129.78-65.73-68.61-133.46-108.31-143.19-112.76z m0 643.54c-118.84-0.06-215.7-96.83-215.89-215.7 0-86.93 37.14-170.54 110.38-248.45A599 599 0 0 1 512 238.92a599 599 0 0 1 105.53 88.57C690.75 405.38 727.89 489 727.91 575.94c-0.19 118.87-97.06 215.64-215.91 215.7z"  horiz-adv-x="1024" />

    
    <glyph glyph-name="banshuizhinan" unicode="&#59727;" d="M512-104A488.11 488.11 0 0 0 322 833.63a488.11 488.11 0 0 0 380-899.26A484.94 484.94 0 0 0 512-104z m0 896c-225 0-408-183-408-408s183-408 408-408 408 183 408 408-183 408-408 408zM512 384m-31 0a31 31 0 1 1 62 0 31 31 0 1 1-62 0ZM313.15 133.53a52.52 52.52 0 0 0-46 77.43l146.73 271.39 272.63 148a52.42 52.42 0 0 0 71.08-71.07l-148-272.63-271.4-146.74a52.58 52.58 0 0 0-25.04-6.38zM473 423.39l-91.48-169.11 169.1 91.44 92.25 169.91zM724.67 560z"  horiz-adv-x="1024" />

    
    <glyph glyph-name="banshuizhuanti" unicode="&#59728;" d="M362 405.83a58.19 58.19 0 0 0-27.11 6.74L259 452.47l-75.9-39.9a58.12 58.12 0 0 0-84.34 61.28l14.49 84.51-61.45 59.86A58.13 58.13 0 0 0 84 717.37l84.85 12.33 37.95 76.9a58.14 58.14 0 0 0 104.26 0L349 729.7l84.86-12.33a58.13 58.13 0 0 0 32.22-99.15l-61.38-59.86 14.5-84.51a58.24 58.24 0 0 0-57.24-68zM139.37 644.57l37.91-36.94A58.13 58.13 0 0 0 194 556.17L185 504l46.86 24.63a58.15 58.15 0 0 0 54.1 0l46.9-24.63-8.95 52.17a58.08 58.08 0 0 0 16.72 51.45l37.91 36.95-52.39 7.62A58.12 58.12 0 0 0 282.38 684L259 731.46 235.52 684a58.12 58.12 0 0 0-43.77-31.8zM960 663.74H576a40 40 0 0 0 0 80h384a40 40 0 0 0 0-80zM960 472H576a40 40 0 0 0 0 80h384a40 40 0 0 0 0-80zM156-72a58.23 58.23 0 0 0-57.24 68l14.49 84.51-61.45 59.86A58.13 58.13 0 0 0 84 239.52l84.85 12.33 37.95 76.9a58.14 58.14 0 0 0 104.26 0l37.94-76.9 84.86-12.33a58.13 58.13 0 0 0 32.21-99.15l-61.4-59.86L419.2-4a58.13 58.13 0 0 0-84.35-61.28L259-25.38l-75.9-39.9A58.15 58.15 0 0 0 156-72z m-16.63 238.73l37.91-37A58.13 58.13 0 0 0 194 78.32l-9-52.17 46.86 24.63a58.12 58.12 0 0 0 54.1 0l46.86-24.63-8.95 52.17a58.11 58.11 0 0 0 16.72 51.46l37.91 37-52.39 7.61a58.12 58.12 0 0 0-43.77 31.8L259 253.61l-23.43-47.47a58.12 58.12 0 0 0-43.77-31.8zM960 183.89H576a40 40 0 0 0 0 80h384a40 40 0 0 0 0-80zM960-7.8H576a40 40 0 0 0 0 80h384a40 40 0 0 0 0-80z"  horiz-adv-x="1024" />

    
    <glyph glyph-name="bianji" unicode="&#59729;" d="M807-104H184c-88.22 0-160 71.78-160 160V679c0 88.22 71.78 160 160 160h392.11a40 40 0 0 0 0-80H184a80.09 80.09 0 0 1-80-80v-623a80.09 80.09 0 0 1 80-80h623a80.09 80.09 0 0 1 80 80V447.79a40 40 0 0 0 80 0V56c0-88.22-71.78-160-160-160zM384 216a40 40 0 0 0-28.28 68.29l557 557a40 40 0 0 0 56.56-56.56l-557-557A39.87 39.87 0 0 0 384 216z"  horiz-adv-x="1024" />

    
    <glyph glyph-name="btn-add" unicode="&#59730;" d="M511.5-40.5h-0.05a40 40 0 0 0-39.95 40l1 769a40 40 0 0 0 40 39.95 40 40 0 0 0 40-40.05l-1-769a40 40 0 0 0-40-39.9zM896.5 343.5l-769 1a40 40 0 0 0 0 80l769-1a40 40 0 0 0 0-80z"  horiz-adv-x="1024" />

    
    <glyph glyph-name="bofang" unicode="&#59731;" d="M512-104A488.11 488.11 0 0 0 322 833.63a488.11 488.11 0 0 0 380-899.26A484.94 484.94 0 0 0 512-104z m0 896c-225 0-408-183-408-408s183-408 408-408 408 183 408 408-183 408-408 408zM396.25 173.5a40 40 0 0 0-40 40v341a40 40 0 0 0 80 0v-341a40 40 0 0 0-40-40zM627.75 173.5a40 40 0 0 0-40 40v341a40 40 0 0 0 80 0v-341a40 40 0 0 0-40-40z"  horiz-adv-x="1024" />

    
    <glyph glyph-name="biaozhengdanshu" unicode="&#59732;" d="M512-71a50.84 50.84 0 0 0-14.5 2.12c-30.14 9-296.58 88.79-368.42 110.5C85.15 54.89 52.94 86.84 36 134a204.42 204.42 0 0 0-12 63.86V757.64c0 12.31-0.08 49.78 29.83 70.35 13.42 9.22 36.82 17.35 72.07 3.75C168.36 815.36 447.49 714.65 512 691.39c64.5 23.26 343.64 124 386.1 140.35 35.25 13.6 58.65 5.47 72.07-3.75 29.91-20.57 29.85-58 29.83-70.35v-559.75a204.42 204.42 0 0 0-12-63.86c-17-47.19-49.2-79.14-93.13-92.41-71.79-21.71-338.23-101.47-368.37-110.49A50.5 50.5 0 0 0 512-71zM104 198.08a127.92 127.92 0 0 1 7.88-38.74c8.38-22 21.57-35.47 40.34-41.14 67.2-20.31 305.18-91.56 359.78-107.91 54.6 16.35 292.58 87.6 359.78 107.91 18.77 5.67 32 19.12 40.34 41.14a128 128 0 0 1 7.88 38.74v556.4c-64.37-24.24-356.45-129.55-390.85-142a50.76 50.76 0 0 0-34.3 0c-34.4 12.4-326.48 117.71-390.85 142zM661.7 436.66a40 40 0 0 0-13.19 77.78l137.94 48.19a40 40 0 0 0 26.39-75.53L674.9 438.91a40.12 40.12 0 0 0-13.2-2.25zM671.27 210.67a40 40 0 0 0-13.19 77.77L796 336.63a40 40 0 0 0 26.4-75.53l-137.94-48.19a40 40 0 0 0-13.19-2.24zM359.06 436.66a40.12 40.12 0 0 0-13.2 2.25L207.92 487.1a40 40 0 0 0 26.39 75.53l137.94-48.19a40 40 0 0 0-13.19-77.78zM360.29 210.67a40.1 40.1 0 0 0-13.2 2.24L209.15 261.1a40 40 0 1 0 26.39 75.53l137.94-48.19a40 40 0 0 0-13.19-77.77zM512-70.53a40 40 0 0 0-40 40l0.54 678.64a40 40 0 0 0 40 40 40 40 0 0 0 40-40L552-30.57a40 40 0 0 0-40-39.96z"  horiz-adv-x="1024" />

    
    <glyph glyph-name="btn-checkbox" unicode="&#59733;" d="M432.12 176.11a39.89 39.89 0 0 0-28.29 11.72l-176 176a40 40 0 0 0 56.57 56.57l176-176a40 40 0 0 0-28.28-68.29zM432.12 176.11a40 40 0 0 0-28.29 68.29l335.78 335.77a40 40 0 0 0 56.57-56.57L460.4 187.83a39.88 39.88 0 0 0-28.28-11.72zM807-71H217c-88.23 0-160 71.78-160 160V679c0 88.23 71.77 160 160 160h590c88.22 0 160-71.77 160-160v-590c0-88.22-71.78-160-160-160zM217 759a80.09 80.09 0 0 1-80-80v-590a80.09 80.09 0 0 1 80-80h590a80.09 80.09 0 0 1 80 80V679a80.09 80.09 0 0 1-80 80z"  horiz-adv-x="1024" />

    
    <glyph glyph-name="btn-check" unicode="&#59734;" d="M512 458.35q-30.93 0-52.77-21.74T437.37 384q0-30.75 21.88-52.55T512 309.72q30.9 0 52.77 21.77T586.66 384q0 30.72-21.87 52.56T512 458.35zM512 532.66q61.83 0 105.6-43.58T661.36 384q0-61.54-43.74-105.11T512 235.3q-61.84 0-105.6 43.58T362.67 384q0 61.53 43.75 105.09T512 532.66zM512.09 9.49H512a428 428 0 0 0-130.72 20.33C339.4 43.2 302 60.94 270 82.55a726.22 726.22 0 0 0-86.57 68.53c-27.31 25.15-50.74 51-69.59 76.73-17.69 24.13-33.32 46.56-46.44 66.67-13.5 20.65-23.8 38.26-30.61 52.31l-0.08 0.16-17 35.42 8.06 17.18c1.39 2.94 3.23 6.87 5.6 11.85 1.93 4.1 5.73 11.6 17.86 33 9.09 16 18.88 32 29.1 47.48l0.06 0.09c10.62 16 24.34 34.58 40.8 55.29a743.71 743.71 0 0 0 52.53 59.5l0.08 0.08a602.17 602.17 0 0 0 65.2 56.33 514.69 514.69 0 0 0 78.1 48.92c27.08 13.66 57.75 24.9 91.15 33.43a418.28 418.28 0 0 0 103.37 13h0.47a428.65 428.65 0 0 0 130.69-20.34c41.81-13.36 79.26-31.16 111.3-52.9a730.19 730.19 0 0 0 86.62-69c27.34-25.48 50.7-51.42 69.48-77.14 17.85-24.42 33.49-47 46.5-67.06 13.85-21.36 23.82-38.33 30.48-51.87l0.3-0.61 16.75-35.6-8-17-1.83-3.88q-1.57-3.33-3.68-7.82l-0.08-0.18c-2.91-6.14-8.77-16.92-17.93-32.94s-18.92-31.92-29.11-47.26c-10.41-15.77-23.79-33.82-40.9-55.18a765.19 765.19 0 0 0-52.42-59.09C831.86 142 809.9 123 785 104.32a513.91 513.91 0 0 0-78.2-48.66c-27-13.52-57.62-24.69-91-33.18a421 421 0 0 0-103.71-12.99zM108.8 381.63c5.34-11 14-25.61 25.58-43.41 12.34-18.91 27.14-40.14 44-63.12 15.81-21.59 35.76-43.53 59.31-65.22a646.33 646.33 0 0 1 77.09-61c25.68-17.39 56.22-31.8 90.85-42.88A348 348 0 0 1 512 89.49h0.1a341.25 341.25 0 0 1 84 10.51c27.79 7.08 53 16.24 74.91 27.2a434.37 434.37 0 0 1 66 41.1c21.77 16.35 40.73 32.66 56.34 48.48a684.36 684.36 0 0 1 46.93 52.9c15.4 19.23 27.72 35.82 36.65 49.34l0.06 0.09c9.2 13.85 18.05 28.22 26.31 42.71 6.48 11.34 10.26 18.23 12.46 22.36l-0.48 1c-5.19 10.51-13.83 25.1-25.68 43.38-12.21 18.83-27 40.15-44 63.38-15.8 21.64-35.78 43.77-59.39 65.77a649.85 649.85 0 0 1-77 61.37c-25.68 17.42-56.21 31.86-90.74 42.89A348.71 348.71 0 0 1 512 678.51v35.68-35.68h-0.38A338.25 338.25 0 0 1 428 668c-27.8-7.09-53-16.29-74.91-27.34a434.42 434.42 0 0 1-65.92-41.33 522.78 522.78 0 0 1-56.45-48.73 662.44 662.44 0 0 1-46.84-53.07c-15.08-19-27.45-35.71-36.81-49.79s-18.07-28.36-26.24-42.82c-6.45-11.39-10.23-18.28-12.43-22.45z"  horiz-adv-x="1024" />

    
    <glyph glyph-name="btn-copy" unicode="&#59735;" d="M807-71H355.37c-88.22 0-160 71.78-160 160V540.63c0 88.23 71.78 160 160 160H807c88.22 0 160-71.77 160-160V89c0-88.22-71.78-160-160-160zM355.37 620.63a80.09 80.09 0 0 1-80-80V89a80.09 80.09 0 0 1 80-80H807a80.09 80.09 0 0 1 80 80V540.63a80.09 80.09 0 0 1-80 80zM235.37 67.33h-8.69C133.12 67.33 57 143.45 57 237V669.28C57 762.84 133.12 839 226.68 839H659c93.56 0 169.68-76.12 169.68-169.68v-8.65a40 40 0 0 0-80 0v8.65A89.78 89.78 0 0 1 659 759H226.68A89.78 89.78 0 0 1 137 669.28V237a89.78 89.78 0 0 1 89.68-89.68h8.69a40 40 0 0 0 0-80zM704 280H448a40 40 0 0 0 0 80h256a40 40 0 0 0 0-80zM576.37 151.63a40 40 0 0 0-40 40L536 447.94A40 40 0 0 0 575.94 488h0.06a40 40 0 0 0 40-39.94l0.37-256.37a40 40 0 0 0-39.94-40.06z"  horiz-adv-x="1024" />

    
    <glyph glyph-name="btn-del" unicode="&#59736;" d="M767.8 617a40 40 0 0 0-40 40v99c0 10.86-11.82 20-25.8 20H321.8c-14 0-25.8-9.18-25.8-20v-99a40 40 0 0 0-80 0v99c0 55.16 47.46 100 105.8 100H702c58.34 0 105.8-44.88 105.8-100v-99a40 40 0 0 0-40-40zM96.8 616.17a40 40 0 0 0 0 80L927 697a40 40 0 0 0 0-80l-830.2-0.83zM737.51-87H286.29c-74.16 0-134.49 57.85-134.49 129V529a40 40 0 0 0 80 0v-487c0-27 24.45-49 54.49-49h451.22c30 0 54.49 22 54.49 49V529a40 40 0 0 0 80 0v-487c0-71.15-60.33-129-134.49-129zM415.69 105.25a40 40 0 0 0-40 40V465a40 40 0 0 0 80 0v-319.75a40 40 0 0 0-40-40zM608.11 105.25a40 40 0 0 0-40 40V465a40 40 0 0 0 80 0v-319.75a40 40 0 0 0-40-40z"  horiz-adv-x="1024" />

    
    <glyph glyph-name="btn-collection" unicode="&#59737;" d="M775.62-82.76a61.17 61.17 0 0 0-29.44 7.61L512 53.1 277.82-75.15a61.14 61.14 0 0 0-89.44 65L238 252.18 43.65 435.26a61.14 61.14 0 0 0 34.17 105.15l264.83 33.89L456.72 815.7a61.15 61.15 0 0 0 110.56 0l114.07-241.4 264.83-33.89a61.14 61.14 0 0 0 34.16-105.15L786 252.18l49.61-262.35a61.32 61.32 0 0 0-60-72.59z m-648 548.88l197.12-185.75-50.33-266.18L512 144.31l237.59-130.12-50.33 266.18 197.17 185.75-268.7 34.38L512 745.43 396.27 500.5z"  horiz-adv-x="1024" />

    
    <glyph glyph-name="btn-drag" unicode="&#59738;" d="M1012 384L830.988 202.98800000000006V344H553v-279.99h141.012L513-117 331.988 64.01199999999994H473V344H193.012v-141.012L12 384l181.012 181.012V424H473V703.988H331.988L513 885l181.012-181.012H553V424h277.99V565.012z"  horiz-adv-x="1024" />

    
    <glyph glyph-name="btn-edit" unicode="&#59739;" d="M896-71H128a40 40 0 0 0 0 80h768a40 40 0 0 0 0-80zM301.769 334.237l324.498 324.498L759.67 525.333 435.172 200.834zM435.17 158.41L259.34 334.24l366.92 366.92 175.83-175.83z m-91 175.83l91-91 282.07 282.09-91 91zM348.63 158.85l-120.94-30.92 31.73 120.14 89.21-89.22zM185.65 86.22l58.08 219.95 163.36-163.35zM275.1 190l-5.37-20.32 20.45 5.23zM819.19 546.64L646.31 719.52l95.14 95.15a51.25 51.25 0 0 0 72.38 0l100.51-100.51a51.24 51.24 0 0 0 0-72.37z m-88 172.88l88-88L865.67 678l-88 88z"  horiz-adv-x="1024" />

    
    <glyph glyph-name="btn-export" unicode="&#59740;" d="M807-71H217c-88.23 0-160 71.78-160 160V648c0 88.23 71.77 160 160 160h295a40 40 0 0 0 0-80H217a80.09 80.09 0 0 1-80-80v-559a80.09 80.09 0 0 1 80-80h590a80.09 80.09 0 0 1 80 80V320a40 40 0 0 0 80 0v-231c0-88.22-71.78-160-160-160zM320.46 269.6S292.34 595 675.38 636.57V798.63L962 538.8 680.74 289.69V450.41S395.46 490.59 320.46 269.6z"  horiz-adv-x="1024" />

    
    <glyph glyph-name="btn-number" unicode="&#59741;" d="M512-104A488.12 488.12 0 0 0 322 833.64a488.12 488.12 0 0 0 380-899.27A484.94 484.94 0 0 0 512-104z m0 896c-225 0-408-183-408-408s183-408 408-408 408 183 408 408-183 408-408 408zM352 184a40 40 0 0 0-40 40V520.76a60 60 0 0 0 106.09 38.41L632 302.48V544a40 40 0 0 0 80 0v-296.76a60 60 0 0 0-106.09-38.41L392 465.52V224a40 40 0 0 0-40-40z"  horiz-adv-x="1024" />

    
    <glyph glyph-name="btn-invalidation" unicode="&#59742;" d="M896.5-71H247.66C160-71 88.59 0 88.59 87.24V680.91c0 87.25 71.36 158.24 159.07 158.24h529.87c87.71 0 159.06-71 159.06-158.24v-433.84c0-87.71-71.35-159.07-159.06-159.07H474.59a40 40 0 1 0 0 80h302.94a79.16 79.16 0 0 1 79.06 79.07V680.91c0 43.14-35.47 78.24-79.06 78.24H247.66c-43.6 0-79.07-35.1-79.07-78.24v-593.67c0-43.14 35.47-78.24 79.07-78.24H896.5a40 40 0 0 0 0-80zM319.5 234.5a40 40 0 0 0-28.28 68.29L672 683.52a40 40 0 1 0 56.57-56.57L347.78 246.22a39.87 39.87 0 0 0-28.28-11.72zM700.23 234.5A39.88 39.88 0 0 0 672 246.22L291.22 626.95a40 40 0 1 0 56.56 56.57l380.74-380.73a40 40 0 0 0-28.29-68.29z"  horiz-adv-x="1024" />

    
    <glyph glyph-name="btn-pay" unicode="&#59743;" d="M513.15-104h-2.3c-149 0-247.61 21.62-319.84 70.1-45.43 30.49-79.73 72-101.93 123.52C67.49 139.64 57 198.27 57 268.86a416 416 0 0 0 37.06 173c20.4 45 49.25 87.39 85.74 126.07 63.73 67.56 136.32 108.42 173.93 126.76a161.18 161.18 0 0 0 70.33 16.23h175.88a161.18 161.18 0 0 0 70.33-16.23c37.61-18.34 110.2-59.2 173.93-126.76 36.49-38.68 65.34-81.1 85.74-126.07a416 416 0 0 0 37.06-173c0-70.59-10.49-129.22-32.08-179.24-22.2-51.47-56.5-93-101.93-123.52-72.23-48.48-170.87-70.1-319.84-70.1z m-89.09 734.95a80.92 80.92 0 0 1-35.26-8.12C356.1 606.87 293 571.39 238 513.07c-30.42-32.25-54.33-67.32-71.08-104.23a336.48 336.48 0 0 1-29.91-140c0-114.5 32.25-191.81 98.59-236.34 58.23-39.07 143.13-56.5 275.25-56.5h2.3c132.12 0 217 17.43 275.26 56.52C854.75 77 887 154.36 887 268.86a336.49 336.49 0 0 1-29.92 140c-16.74 36.91-40.65 72-71.07 104.23-55 58.32-118.11 93.8-150.81 109.76a81 81 0 0 1-35.26 8.12zM589.63 631.13H434.37c-31.95 0-61.55 18.2-75.68 46.43l-41.87 77.86a65.44 65.44 0 0 0-1.44 61.44 67.67 67.67 0 0 0 46.91 35.88l32.91 7a560.71 560.71 0 0 0 233.6 0l32.91-7a67.64 67.64 0 0 0 46.91-35.88 65.45 65.45 0 0 0-1.43-61.43l-41.88-77.87a85 85 0 0 0-75.68-46.43zM395.51 778l34.35-63.87 0.36-0.74a4.7 4.7 0 0 1 4.15-2.26h155.26a4.7 4.7 0 0 1 4.15 2.26l0.75 1.46 34 63.15-16.25 3.44a481.37 481.37 0 0 1-200.48 0zM512 336.36a39.91 39.91 0 0 0-28.29 11.72L382.84 448.95a40 40 0 1 0 56.57 56.57l100.87-100.88A40 40 0 0 0 512 336.36zM512 336.36a40 40 0 0 0-28.29 68.29l100.88 100.87a40 40 0 1 0 56.57-56.57L540.28 348.08A39.87 39.87 0 0 0 512 336.36zM675.3 336.36H348.7a40 40 0 1 0 0 80h326.6a40 40 0 0 0 0-80zM675.3 211H348.7a40 40 0 0 0 0 80h326.6a40 40 0 0 0 0-80zM512 89.71a40 40 0 0 0-40 40v245a40 40 0 1 0 80 0v-245a40 40 0 0 0-40-40z"  horiz-adv-x="1024" />

    
    <glyph glyph-name="btn-print" unicode="&#59744;" d="M921.265 88h-75.529C802.322 88 767 123.51999999999998 767 167.17899999999997V281.4H257v-114.22c0-43.66-35.322-79.18-78.737-79.18h-75.528C59.32 88 24 123.51999999999998 24 167.17899999999997v432.1C24 643.7909999999999 60 680 104.255 680h150.3v78.714A80.362 80.362 0 0 0 334.807 839h354.386a80.362 80.362 0 0 0 80.255-80.286V680h150.3C964 680 1000 643.7909999999999 1000 599.284v-432.105C1000 123.51999999999998 964.68 88 921.265 88zM689.479 758.7139999999999a0.67 0.67 0 0 1-0.285 0.292L334.807 759a0.67 0.67 0 0 1-0.292-0.285V680h354.96v78.714zM448.837 88.17999999999995a40 40 0 0 0 0 80h126.951a40 40 0 0 0 0-80H448.837z m-118.686 147.2a39.991 39.991 0 0 0 39.984-40V9h283.729V195.38199999999995a39.985 39.985 0 1 0 79.97 0v-187.126c0-43.7-33.044-79.256-73.661-79.256H363.827c-40.617 0-73.661 35.554-73.661 79.256V195.38199999999995a39.992 39.992 0 0 0 39.985 40z"  horiz-adv-x="1024" />

    
    <glyph glyph-name="btn-radio" unicode="&#59745;" d="M512-104A488.11 488.11 0 0 0 322 833.63a488.11 488.11 0 0 0 380-899.26A484.94 484.94 0 0 0 512-104z m0 896c-225 0-408-183-408-408s183-408 408-408 408 183 408 408-183 408-408 408zM512 384m-256 0a256 256 0 1 1 512 0 256 256 0 1 1-512 0Z"  horiz-adv-x="1024" />

    
    <glyph glyph-name="btn-refresh" unicode="&#59746;" d="M704 448l106.751 106.751c-0.253 0.4-0.508 0.805-0.748 1.22C748.621 662.082 634.433 728 512 728c-168.8 0-311.487-120.619-339.273-286.805a40 40 0 1 0-78.9 13.194 424.033 424.033 0 0 0 775.11 158.543L960 704v-256H704zM213.629 212.62900000000002c0.121-0.2 0.25-0.4 0.369-0.6C275.38 105.91700000000003 389.568 40 512 40c168.255 0 310.863 120.164 339.09 285.722a40 40 0 0 0 78.863-13.446 424.04 424.04 0 0 0-774.5-157.82L65 64V319h255z"  horiz-adv-x="1024" />

    
    <glyph glyph-name="btn-review" unicode="&#59747;" d="M703.26-104.82a263.27 263.27 0 1 0 186.15 77.11 261.5 261.5 0 0 0-186.15-77.11z m0 446.52c-101 0-183.26-82.21-183.26-183.26s82.21-183.26 183.26-183.26 183.26 82.21 183.26 183.26S804.31 341.7 703.26 341.7zM675.4 60.66a39.88 39.88 0 0 0-28.29 11.71l-59.83 59.84a40 40 0 0 0 56.57 56.57l59.83-59.84a40 40 0 0 0-28.28-68.28zM675.4 60.66a40 40 0 0 0-28.29 68.28L762.67 244.5a40 40 0 0 0 56.57-56.57L703.68 72.37a39.87 39.87 0 0 0-28.28-11.71zM384-71.3H216.21c-87.71 0-159.07 71-159.07 158.23V680.61c0 87.25 71.36 158.23 159.07 158.23h529.86c87.71 0 159.07-71 159.07-158.23V479a40 40 0 0 0-80 0V680.61c0 43.14-35.47 78.23-79.07 78.23H216.21c-43.6 0-79.07-35.09-79.07-78.23v-593.68c0-43.14 35.47-78.23 79.07-78.23H384a40 40 0 0 0 0-80zM672 566.59H231.93a40 40 0 1 0 0 80H672a40 40 0 0 0 0-80zM373.52 374.3H231.93a40 40 0 1 0 0 80h141.59a40 40 0 0 0 0-80zM316 183h-84.07a40 40 0 0 0 0 80H316a40 40 0 0 0 0-80z"  horiz-adv-x="1024" />

    
    <glyph glyph-name="btn-save" unicode="&#59748;" d="M775.94-70.93H248.06c-88.22 0-160 71.77-160 160V678.93c0 88.23 71.78 160 160 160h527.88c88.22 0 160-71.77 160-160v-589.86c0-88.23-71.78-160-160-160zM248.06 758.93a80.09 80.09 0 0 1-80-80v-589.86a80.09 80.09 0 0 1 80-80h527.88a80.09 80.09 0 0 1 80 80V678.93a80.09 80.09 0 0 1-80 80zM644 408H380a100 100 0 0 0-100 100V839h464v-331a100 100 0 0 0-100-100zM360 759v-251a20 20 0 0 1 20-20h264a20 20 0 0 1 20 20V759zM576 536a40 40 0 0 0-40 40v64a40 40 0 0 0 80 0v-64a40 40 0 0 0-40-40z"  horiz-adv-x="1024" />

    
    <glyph glyph-name="btn-set" unicode="&#59749;" d="M563.67-104H460.33a100.85 100.85 0 0 0-100.71 98.88l-3.51 42.44a378.23 378.23 0 0 0-66.34 38.37l-38.57-18.22a100.86 100.86 0 0 0-136 37.78l-51.67 89.5a100.91 100.91 0 0 0 35.29 136.66l35.07 24.3a380.79 380.79 0 0 0 0 76.58l-35.07 24.3a100.92 100.92 0 0 0-35.28 136.66l51.67 89.5a100.86 100.86 0 0 0 136 37.78l38.57-18.22a377 377 0 0 0 66.34 38.37l3.51 42.45A100.85 100.85 0 0 0 460.33 872h103.34a100.84 100.84 0 0 0 100.71-98.88l3.5-42.44a376.71 376.71 0 0 0 66.35-38.37l38.57 18.22a100.91 100.91 0 0 0 136-37.78l51.68-89.5a100.92 100.92 0 0 0-35.28-136.66l-35.07-24.3a380.79 380.79 0 0 0 0-76.58l35.07-24.3a100.91 100.91 0 0 0 35.28-136.66l-51.68-89.5a100.91 100.91 0 0 0-136-37.78l-38.57 18.22a377.33 377.33 0 0 0-66.35-38.37l-3.5-42.44A100.84 100.84 0 0 0 563.67-104zM300.81 169.38l19.6-16.28a299.18 299.18 0 0 1 87.44-50.57l23.88-8.84 7.87-95.31v-1.65A21 21 0 0 1 460.33-24h103.34a21 21 0 0 1 20.73 20.73v1.65l7.86 95.31 23.89 8.84a299 299 0 0 1 87.43 50.57l19.61 16.28 86.57-40.89 1.43-0.82a20.91 20.91 0 0 1 28.31 7.58l51.67 89.5a20.91 20.91 0 0 1-7.58 28.31l-1.43 0.83-78.63 54.48 4.25 25.08a302 302 0 0 1 0 101.1l-4.25 25.08 78.63 54.48 1.43 0.83a20.91 20.91 0 0 1 7.58 28.31l-51.67 89.5a20.9 20.9 0 0 1-28.31 7.59l-1.43-0.83-86.57-40.89-19.61 16.29a299 299 0 0 1-87.43 50.56l-23.89 8.84-7.86 95.31v1.65A21 21 0 0 1 563.67 792H460.33a21 21 0 0 1-20.73-20.73v-1.65l-7.87-95.31-23.88-8.84a299.15 299.15 0 0 1-87.44-50.56l-19.6-16.29-86.57 40.89-1.43 0.83a21 21 0 0 1-28.31-7.59l-51.67-89.5a20.91 20.91 0 0 1 7.58-28.31l1.43-0.83 78.63-54.48-4.25-25.08a302 302 0 0 1 0-101.1l4.25-25.08-78.63-54.48-1.43-0.83a20.91 20.91 0 0 1-7.58-28.31l51.67-89.5a21 21 0 0 1 28.31-7.58l1.43 0.82zM512 184.5c-110 0-199.5 89.5-199.5 199.5S402 583.5 512 583.5 711.5 494 711.5 384 622 184.5 512 184.5z m0 319A119.5 119.5 0 1 1 631.5 384 119.64 119.64 0 0 1 512 503.5z"  horiz-adv-x="1024" />

    
    <glyph glyph-name="btn-Sync" unicode="&#59750;" d="M832 344.07a40 40 0 0 0-40 40V671a40 40 0 0 0 80 0v-286.93a40 40 0 0 0-40-40zM512-106c-90.44 0-176.08 14.33-241.13 40.35-34.09 13.64-61.41 30-81.21 48.77C158.53 12.55 152 42.26 152 62V671a40 40 0 0 0 80 0v-609c0-12.49 21.46-34.52 68.58-53.37C356.41-13.7 431.49-26 512-26c20.49 0 41 0.82 60.82 2.44a40 40 0 0 0 6.49-79.74c-22.02-1.79-44.66-2.7-67.31-2.7zM512 503c-90.44 0-176.08 14.33-241.13 40.35-34.09 13.64-61.41 30-81.21 48.77C158.53 621.55 152 651.26 152 671s6.53 49.45 37.66 78.89c19.8 18.72 47.12 35.12 81.21 48.76C335.92 824.67 421.56 839 512 839s176.08-14.33 241.13-40.35c34.09-13.64 61.41-30 81.21-48.76C865.46 720.45 872 690.74 872 671s-6.54-49.45-37.66-78.88c-19.8-18.73-47.12-35.13-81.21-48.77C688.08 517.33 602.44 503 512 503z m0 256c-80.51 0-155.59-12.3-211.42-34.63C253.46 705.52 232 683.49 232 671s21.46-34.52 68.58-53.37C356.41 595.3 431.49 583 512 583s155.59 12.3 211.42 34.63C770.54 636.48 792 658.51 792 671s-21.46 34.52-68.58 53.37C667.59 746.7 592.51 759 512 759zM512 213c-90.44 0-176.08 14.33-241.13 40.35-34.09 13.64-61.41 30-81.21 48.77C158.53 331.55 152 361.26 152 381a40 40 0 0 0 80 0c0-12.49 21.46-34.52 68.58-53.37C356.41 305.3 431.49 293 512 293a40 40 0 0 0 0-80zM896 24H640a40 40 0 0 0 0 80h256a40 40 0 0 0 0-80zM808-59a40 40 0 0 0-27.46 69.1l88 83a40 40 0 1 0 54.89-58.2l-88-83A39.83 39.83 0 0 0 808-59zM896 152H640a40 40 0 0 0 0 80h256a40 40 0 0 0 0-80zM640 152a40 40 0 0 0-27.46 69.1l88 83a40 40 0 1 0 54.89-58.2l-88-83A39.83 39.83 0 0 0 640 152z"  horiz-adv-x="1024" />

    
    <glyph glyph-name="btn-tracking" unicode="&#59751;" d="M512-104A488.12 488.12 0 0 0 322 833.64a488.12 488.12 0 0 0 380-899.27A484.94 484.94 0 0 0 512-104z m0 896c-225 0-408-183-408-408s183-408 408-408 408 183 408 408-183 408-408 408zM512 384m-192 0a192 192 0 1 1 384 0 192 192 0 1 1-384 0ZM512 694a40 40 0 0 0-40 40V832a40 40 0 0 0 80 0v-98a40 40 0 0 0-40-40zM512-104a40 40 0 0 0-40 40v88a40 40 0 0 0 80 0v-88a40 40 0 0 0-40-40zM156 344H64a40 40 0 0 0 0 80h92a40 40 0 0 0 0-80zM960 344h-94a40 40 0 0 0 0 80h94a40 40 0 0 0 0-80z"  horiz-adv-x="1024" />

    
    <glyph glyph-name="btn-table" unicode="&#59752;" d="M807-71H217c-88.22 0-160 71.78-160 160V679c0 88.23 71.78 160 160 160h590c88.22 0 160-71.77 160-160v-590c0-88.22-71.78-160-160-160zM217 759a80.09 80.09 0 0 1-80-80v-590a80.09 80.09 0 0 1 80-80h590a80.09 80.09 0 0 1 80 80V679a80.09 80.09 0 0 1-80 80zM927 472H97a40 40 0 0 0 0 80h830a40 40 0 0 0 0-80zM927 216H97a40 40 0 0 0 0 80h830a40 40 0 0 0 0-80zM384-71a40 40 0 0 0-40 40V799a40 40 0 0 0 80 0v-830a40 40 0 0 0-40-40zM640-71a40 40 0 0 0-40 40V799a40 40 0 0 0 80 0v-830a40 40 0 0 0-40-40z"  horiz-adv-x="1024" />

    
    <glyph glyph-name="changjingfuwu" unicode="&#59753;" d="M847-70.75H656a120.14 120.14 0 0 0-120 120v191a120.14 120.14 0 0 0 120 120h191a120.14 120.14 0 0 0 120-120v-191a120.14 120.14 0 0 0-120-120z m-191 351a40 40 0 0 1-40-40v-191a40 40 0 0 1 40-40h191a40 40 0 0 1 40 40v191a40 40 0 0 1-40 40zM368-71H177A120.13 120.13 0 0 0 57 49V240a120.13 120.13 0 0 0 120 120h191a120.13 120.13 0 0 0 120-120v-191a120.13 120.13 0 0 0-120-120zM177 280a40 40 0 0 1-40-40v-191a40 40 0 0 1 40-40h191a40 40 0 0 1 40 40V240a40 40 0 0 1-40 40zM368 408H177A120.13 120.13 0 0 0 57 528V719A120.13 120.13 0 0 0 177 839h191a120.13 120.13 0 0 0 120-120v-191a120.13 120.13 0 0 0-120-120zM177 759a40 40 0 0 1-40-40v-191a40 40 0 0 1 40-40h191a40 40 0 0 1 40 40V719a40 40 0 0 1-40 40zM751.5 400.39a106.06 106.06 0 0 0-75.5 31.2L559.59 548a107 107 0 0 0 0 151L676 815.41a107 107 0 0 0 151 0L943.41 699a107 107 0 0 0 0-151L827 431.59a106.06 106.06 0 0 0-75.5-31.2z m0 366.22a26.59 26.59 0 0 1-19-7.77L616.16 642.45a27 27 0 0 1 0-37.9l116.39-116.39a27 27 0 0 1 37.9 0l116.39 116.39a27 27 0 0 1 0 37.9L770.45 758.84a26.59 26.59 0 0 1-18.95 7.77z"  horiz-adv-x="1024" />

    
    <glyph glyph-name="caiyixia" unicode="&#59754;" d="M482.67-103.89c-43.31 0-74.2 15.4-94.27 46.91-17 26.77-23.85 61.83-32.46 106.22-3.05 15.73-6.21 32-10.15 49.83-5.15 23.33-12.21 55.28-17.84 68.45a26.09 26.09 0 0 1-24.08 15.73H117.54A93.68 93.68 0 0 0 24 276.85v463A99.21 99.21 0 0 0 123.06 839h598.16a174.75 174.75 0 0 0 167.92-126.55l105.63-358.73a133.61 133.61 0 0 0-128.36-170.47H619.72c4.15-20.87 6.85-40.49 9.66-60.82 1.13-8.21 2.31-16.69 3.61-25.56 8.56-58.3-3.77-112.78-33.84-149.47-25.48-31.08-62.24-48.73-106.33-51-3.45-0.2-6.82-0.29-10.15-0.29zM123.06 759A19.12 19.12 0 0 1 104 739.87v-463a13.58 13.58 0 0 1 13.54-13.6h186.33A106 106 0 0 0 401.5 199c8.58-20.06 15.93-53.31 22.41-82.65 4.16-18.84 7.56-36.38 10.56-51.85 6.72-34.63 12.52-64.53 21.41-78.49 3-4.66 7.05-11.06 32.79-9.72 21.58 1.13 37.48 8.27 48.6 21.84 15.59 19 21.79 51.6 16.57 87.13-1.36 9.22-2.55 17.87-3.71 26.24-4.35 31.54-7.79 56.45-16.12 87.08a51.24 51.24 0 0 0 49.45 64.69h282.95a53.61 53.61 0 0 1 51.49 68.31L812.27 690.29a95.17 95.17 0 0 1-91 68.71zM195.8 799h80v-576h-80z"  horiz-adv-x="1024" />

    
    <glyph glyph-name="chaxun" unicode="&#59755;" d="M352 152a327.09 327.09 0 1 0 127.68 25.79A326.12 326.12 0 0 0 352 152z m0 576c-136.75 0-248-111.25-248-248s111.25-248 248-248 248 111.25 248 248-111.25 248-248 248zM352 480m-160 0a160 160 0 1 1 320 0 160 160 0 1 1-320 0ZM832-40a39.84 39.84 0 0 0-28.34 11.77l-255 256a40 40 0 0 0 56.68 56.46l255-256A40 40 0 0 0 832-40zM958.25 664H768a40 40 0 0 0 0 80h190.25a40 40 0 0 0 0-80zM958.25 472.64H768a40 40 0 0 0 0 80h190.25a40 40 0 0 0 0-80zM958.7 279.86H768.45a40 40 0 0 0 0 80H958.7a40 40 0 0 0 0-80z"  horiz-adv-x="1024" />

    
    <glyph glyph-name="close" unicode="&#59756;" d="M192 24a40 40 0 0 0-28.29 68.29l640 640a40 40 0 0 0 56.57-56.57l-640-640A39.87 39.87 0 0 0 192 24zM832 24a39.89 39.89 0 0 0-28.29 11.72l-640 640a40 40 0 0 0 56.57 56.57l640-640A40 40 0 0 0 832 24z"  horiz-adv-x="1024" />

    
    <glyph glyph-name="cuowu" unicode="&#59757;" d="M512-104A488.11 488.11 0 0 0 322 833.63a488.11 488.11 0 0 0 380-899.26A484.94 484.94 0 0 0 512-104z m0 896c-225 0-408-183-408-408s183-408 408-408 408 183 408 408-183 408-408 408zM320 152a40 40 0 0 0-28.29 68.29l384 384a40 40 0 0 0 56.57-56.56l-384-384A39.87 39.87 0 0 0 320 152zM704 152a39.89 39.89 0 0 0-28.29 11.72l-384 384a40 40 0 0 0 56.57 56.56l384-384A40 40 0 0 0 704 152z"  horiz-adv-x="1024" />

    
    <glyph glyph-name="chukoutuishuishenbao" unicode="&#59758;" d="M512-104A488.11 488.11 0 0 0 322 833.63a488.11 488.11 0 0 0 380-899.26A484.94 484.94 0 0 0 512-104z m0 896c-225 0-408-183-408-408s183-408 408-408 408 183 408 408-183 408-408 408zM521.87-104a40 40 0 0 0-31.4 64.75c95.51 121.28 146 267.18 146 421.94S586 683.34 490.47 804.62a40 40 0 0 0 62.85 49.5 759.74 759.74 0 0 0 119.89-217.65 760.64 760.64 0 0 0 43.26-253.78 760.66 760.66 0 0 0-43.26-253.79 759.74 759.74 0 0 0-119.89-217.65 40 40 0 0 0-31.45-15.25zM503.08-104a39.92 39.92 0 0 0-31.45 15.25 761.72 761.72 0 0 0 0 942.78 40 40 0 1 0 62.85-49.49C439 683.3 388.5 537.41 388.5 382.69S439 82 534.48-39.22a40 40 0 0 0-31.4-64.75zM959.14 352.09a39.8 39.8 0 0 0-24.72 8.58c-121.28 95.51-267.18 146-421.94 146s-300.65-50.49-421.93-146a40 40 0 0 0-49.5 62.85 761.75 761.75 0 0 0 942.87 0 40 40 0 0 0-24.78-71.43zM512.48 178.7a760.71 760.71 0 0 0-253.75 43.25A759.62 759.62 0 0 0 41.11 341.81a40 40 0 1 0 49.49 62.85c121.27-95.49 267.15-146 421.88-146s300.64 50.48 421.91 146a40 40 0 0 0 49.5-62.85 759.65 759.65 0 0 0-217.64-119.86 760.74 760.74 0 0 0-253.77-43.25z"  horiz-adv-x="1024" />

    
    <glyph glyph-name="dacha1" unicode="&#59759;" d="M931.17 597a448.77 448.77 0 0 1-97.59 143.2 457.6 457.6 0 0 1-643.16 0A448.77 448.77 0 0 1 92.83 597 444 444 0 0 1 57 421.49c0-108.1 74.36-229.09 221-359.6 105.28-93.69 209-157.36 213.37-160l20.85-12.73 20.85 12.74c4.36 2.67 108 66.34 213.13 160C892.72 192.40999999999997 967 313.4 967 421.49A444 444 0 0 1 931.17 597zM673.28 299.28a40 40 0 1 0-56.56-56.56L512 347.42999999999995 407.28 242.72000000000003a40 40 0 0 0-56.56 56.56L455.43 404 350.72 508.72a40 40 0 0 0 56.56 56.56L512 460.57l104.72 104.71a40 40 0 0 0 56.56-56.56L568.57 404z"  horiz-adv-x="1024" />

    
    <glyph glyph-name="dagou1" unicode="&#59760;" d="M931.17 597a448.77 448.77 0 0 1-97.59 143.2 457.6 457.6 0 0 1-643.16 0A448.77 448.77 0 0 1 92.83 597 444 444 0 0 1 57 421.49c0-108.1 74.36-229.09 221-359.6 105.28-93.69 209-157.36 213.37-160l20.85-12.73 20.85 12.74c4.36 2.67 108 66.34 213.13 160C892.72 192.40999999999997 967 313.4 967 421.49A444 444 0 0 1 931.17 597zM722.62 479.78l-228-218.38-0.44-0.4c-0.25-0.24-0.5-0.47-0.76-0.69s-0.49-0.43-0.74-0.64l-0.8-0.66-0.75-0.58c-0.28-0.21-0.55-0.42-0.84-0.62s-0.51-0.36-0.76-0.54-0.57-0.39-0.86-0.57l-0.8-0.51-0.86-0.52-0.85-0.47-0.85-0.46-0.9-0.44-0.83-0.4-1-0.42-0.8-0.34-1-0.38-0.77-0.28c-0.36-0.13-0.73-0.24-1.09-0.35l-0.73-0.23-1.14-0.31-0.7-0.18c-0.4-0.1-0.81-0.18-1.21-0.27l-0.65-0.14-1.28-0.21-0.6-0.1-1.37-0.16-0.51-0.06q-0.79-0.08-1.59-0.12h-4.73c-0.46 0-0.91 0.06-1.37 0.11l-0.66 0.07-1.28 0.16-0.7 0.12-1.2 0.19-0.73 0.16c-0.39 0.09-0.79 0.17-1.18 0.27l-0.75 0.2c-0.38 0.1-0.76 0.2-1.14 0.32l-0.78 0.25-1.08 0.36-0.81 0.3-1 0.4-0.84 0.36-1 0.44-0.85 0.42-0.92 0.47c-0.29 0.15-0.58 0.32-0.86 0.48l-0.87 0.5-0.87 0.54c-0.28 0.18-0.55 0.35-0.82 0.54l-0.87 0.6-0.79 0.57-0.84 0.65-0.76 0.61-0.81 0.69-0.76 0.68-0.74 0.71-0.46 0.44-133 133a40 40 0 1 0 56.56 56.57l105.33-105.28 199.72 191.31a40 40 0 0 0 55.34-57.78z"  horiz-adv-x="1024" />

    
    <glyph glyph-name="dianhua" unicode="&#59761;" d="M959.73 359a40 40 0 0 0-40 38.68c-7.06 213.9-180.14 387-394 394a40 40 0 1 0 2.64 80 488 488 0 0 0 471.36-471.31 40 40 0 0 0-38.66-41.3zM767.83 352.6a40 40 0 0 0-40 38.68c-3.74 113.23-95.37 204.86-208.6 208.6a40 40 0 1 0 2.64 80 296 296 0 0 0 285.96-285.96 40 40 0 0 0-38.65-41.3zM752-104c-46.54 0-98.81 8.49-153.43 25.58-61.44 19.24-122.39 48.08-181.14 85.74-64.85 41.55-125 92.69-178.83 152-96.52 106.36-161.47 212.8-193 316.35C17.79 566.61 23.94 630.1 26 651l0.08 0.74c4.58 39.62 17.55 90.25 77.49 131.18 44.16 35.21 94.57 56 135.71 56h2.4c16.78-0.34 36.41-2.14 57.2-19.33 14.6-12.08 28.76-31 49.69-61.53 66.06-90.68 70.34-137.42 67.8-164.7v-0.25C411.6 545.78 384 524 363.78 508c-4.3-3.4-8.4-6.63-12.19-10-11.93-15.44-19-26.51-16.94-44.91 2.54-23 20.24-65.46 90.05-137.55C532.87 211.81 586.29 203.68 604.24 205c11.73 0.87 15.73 6.06 17.66 8.55l0.29 0.38c21.08 29.59 35.28 48 49.54 60.26C691.2 291 709.85 295 725.8 297.56c44.1 7 66.34-7 149.12-59.16 44.55-28 70.25-48.28 85.94-67.67 18-22.22 24.48-45.27 20.33-72.32-1.52-26.81-11.59-58.41-28.51-89.35-18-32.86-41.47-60.61-66.17-78.14l-0.34-0.24C853-92.38 806.39-104 752-104zM105.55 642.88c-12.33-129 54.15-277.59 192.28-429.79 92.79-102.26 208.08-178.67 324.62-215.15 48.63-15.22 95.77-22.79 136.29-21.86 34.92 0.79 63.9 8 81.65 20.2 32.53 23.22 59.94 77.85 61 107.72l0.1 2.85 0.5 2.81c0.83 4.63 1 5.46-3.3 10.75-9.45 11.67-31.16 28.13-66.37 50.29-77.4 48.73-81.64 49.79-94 47.83-10.53-1.66-11.5-2.5-14.39-5-8.08-6.95-20.67-23.73-37.08-46.79l-0.78-1.1-0.81-1c-22.92-29.7-53.47-37.84-75.06-39.44-29.87-2.22-63.77 6.42-100.73 25.67-41.73 21.74-89.06 57.9-140.67 107.47l-1 1c-36.4 37.53-63.19 71-81.91 102.23-17.8 29.73-27.85 56.79-30.72 82.72C249.31 497 275 530 290.39 549.65l2.12 2.73 2.3 2.14c6.79 6.35 13.49 11.64 19.4 16.3 16.7 13.19 21.17 17.2 22.47 30 1.94 21.64-16.93 60.88-53.13 110.5l-0.69 1c-18.71 27.33-30.71 42.84-35.7 46.12a52 52 0 0 1-7.12 0.44h-0.73c-14.5 0-48.31-8.22-86.91-39.34l-1.35-1.09-1.45-1c-31.85-21.39-40.51-44.45-44.05-74.57z"  horiz-adv-x="1024" />

    
    <glyph glyph-name="diannao" unicode="&#59762;" d="M807 88H217c-88.22 0-160 71.78-160 160V679c0 88.23 71.78 160 160 160h590c88.22 0 160-71.77 160-160v-431c0-88.22-71.78-160-160-160zM217 759a80.09 80.09 0 0 1-80-80v-431a80.09 80.09 0 0 1 80-80h590a80.09 80.09 0 0 1 80 80V679a80.09 80.09 0 0 1-80 80zM720.44-71H303.72a40 40 0 0 0 0 80h416.72a40 40 0 0 0 0-80zM512.08-71a40 40 0 0 0-40 40V128a40 40 0 1 0 80 0v-159a40 40 0 0 0-40-40z"  horiz-adv-x="1024" />

    
    <glyph glyph-name="dianshi" unicode="&#59763;" d="M807 88H217c-88.22 0-160 71.78-160 160V679.13c0 88.22 71.78 160 160 160h590c88.22 0 160-71.78 160-160V248c0-88.22-71.78-160-160-160zM217 759.13a80.09 80.09 0 0 1-80-80V248a80.09 80.09 0 0 1 80-80h590a80.09 80.09 0 0 1 80 80V679.13a80.09 80.09 0 0 1-80 80zM786.71-71h-548.3a40 40 0 0 0 0 80h548.3a40 40 0 0 0 0-80zM494 535.74H274.35a40 40 0 0 0 0 80H494a40 40 0 0 0 0-80zM383.76 280a40 40 0 0 0-40 40V576a40 40 0 0 0 80 0v-256a40 40 0 0 0-40-40zM672 282a40 40 0 0 0-37.41 54.15l96 254a40 40 0 1 0 74.84-28.28l-96-254A40 40 0 0 0 672 282zM672 280a40 40 0 0 0-37.46 26l-96 256a40 40 0 0 0 74.91 28l96-256A40 40 0 0 0 672 280z"  horiz-adv-x="1024" />

    
    <glyph glyph-name="dianzixinxixiazai" unicode="&#59764;" d="M498.78 115.85a40 40 0 0 0-40 40V504.94a40 40 0 1 0 80 0v-349.09a40 40 0 0 0-40-40zM498.78 101a39.89 39.89 0 0 0-28.29 11.72L334 249.22a40 40 0 0 0 56.57 56.57l136.49-136.46A40 40 0 0 0 498.78 101zM498.78 101a40 40 0 0 0-28.29 68.29L607 305.79a40 40 0 0 0 56.57-56.57L527.06 112.76A39.88 39.88 0 0 0 498.78 101zM839.5-70.5h-656c-88.23 0-160 71.78-160 160V774l0.5-0.43v3.28C24 811.12 51.43 839 85.16 839h389.29a145.33 145.33 0 0 0 97.39-37.64 153.21 153.21 0 0 0 45.37-74.86H839.5c88.22 0 160-71.77 160-160v-477c0-88.22-71.78-160-160-160zM103.5 599v-509.5a80.09 80.09 0 0 1 80-80h656a80.09 80.09 0 0 1 80 80v477a80.09 80.09 0 0 1-80 80H600.75a59.69 59.69 0 0 0-39.43 14.87 60.32 60.32 0 0 0-19.8 36.53c-5.17 35.41-33.38 61.1-67.07 61.1H104v-160.44z"  horiz-adv-x="1024" />

    
    <glyph glyph-name="dianziziliaoguanli" unicode="&#59765;" d="M906.45-71H753a60.07 60.07 0 0 0-60 60V779a60.07 60.07 0 0 0 60 60h153.45a60.07 60.07 0 0 0 60-60v-790a60.07 60.07 0 0 0-60-60zM773 9h113.45V759H773zM926 518.81H733a40 40 0 0 0 0 80h193a40 40 0 0 0 0-80zM926 172H733a40 40 0 0 0 0 80h193a40 40 0 0 0 0-80zM270.45-71H117a60.07 60.07 0 0 0-60 60V779a60.07 60.07 0 0 0 60 60h153.45a60.07 60.07 0 0 0 60-60v-790a60.07 60.07 0 0 0-60-60zM137 9h113.45V759H137zM290 518.81H97a40 40 0 0 0 0 80h193a40 40 0 0 0 0-80zM290 172H97a40 40 0 0 0 0 80h193a40 40 0 0 0 0-80zM588.45-71H435a60.07 60.07 0 0 0-60 60V779a60.07 60.07 0 0 0 60 60h153.45a60.07 60.07 0 0 0 60-60v-790a60.07 60.07 0 0 0-60-60zM455 9h113.45V759H455zM608 518.81H415a40 40 0 0 0 0 80h193a40 40 0 0 0 0-80zM608 172H415a40 40 0 0 0 0 80h193a40 40 0 0 0 0-80z"  horiz-adv-x="1024" />

    
    <glyph glyph-name="dianzan" unicode="&#59766;" d="M721.22-70.9H123.06A99.21 99.21 0 0 0 24 28.23v463a93.68 93.68 0 0 0 93.54 93.61h186.33A26.08 26.08 0 0 1 328 600.58c5.63 13.17 12.69 45.12 17.84 68.45 3.94 17.83 7.1 34.1 10.15 49.83 8.61 44.39 15.41 79.45 32.46 106.23C410 859 444.18 874.25 492.82 871.72c44.09-2.29 80.85-19.93 106.33-51 30.07-36.72 42.4-91.19 33.85-149.48-1.31-8.88-2.48-17.36-3.61-25.57-2.81-20.34-5.52-39.95-9.66-60.81h246.68a133.62 133.62 0 0 0 128.36-170.47l-0.08-0.29-105.55-358.45A174.75 174.75 0 0 0 721.22-70.9zM117.54 504.86A13.59 13.59 0 0 1 104 491.25v-463a19.12 19.12 0 0 1 19.06-19.13h598.16a95.17 95.17 0 0 1 91 68.72l0.09 0.28L917.9 436.55a53.61 53.61 0 0 1-51.49 68.31H583.46A51.24 51.24 0 0 0 534 569.54c8.33 30.64 11.77 55.54 16.12 87.07 1.16 8.38 2.35 17 3.71 26.25 5.22 35.53-1 68.11-16.57 87.14-11.12 13.57-27 20.71-48.6 21.83-25.75 1.34-29.82-5-32.79-9.72-8.89-14-14.69-43.86-21.41-78.49-3-15.47-6.4-33-10.56-51.85-6.48-29.34-13.83-62.59-22.41-82.65a106 106 0 0 0-97.63-64.26zM195.8 545.1h80v-576h-80z"  horiz-adv-x="1024" />

    
    <glyph glyph-name="dishui" unicode="&#59767;" d="M332.42 519.87H97.08a40 40 0 0 0 0 80h235.34a40 40 0 0 0 0-80zM214.75 27.67a40 40 0 0 0-40 40V778.11a40 40 0 1 0 80 0v-710.44a40 40 0 0 0-40-40zM105.38-26.9a40 40 0 0 0-11.16 78.42c0.32 0.09 32.64 9.7 78.58 33.48 42 21.74 104.4 60.18 163.23 119.87a40 40 0 1 0 57-56.16c-128.29-130.16-270.51-172.3-276.5-174a40.1 40.1 0 0 0-11.15-1.61zM843.61 223.37a132.35 132.35 0 0 0-24 2.31l-1.51 0.31c-31.74 7.16-86.82 23.16-89.15 23.83a40 40 0 0 0 22.35 76.82c0.54-0.16 54.06-15.7 83.58-22.42 9.06-1.59 13.62-0.6 14.64-0.07 1.25 1.37 2.76 6.87 2.78 11.21l-0.14 1.52 0.11 0.37V543.62c0 19.05-4.28 26.65-5.93 28-1.16 0.94-5.77 1.68-12 0.3-25.63-5.68-496.39-116-501.14-117.13a40 40 0 1 0-18.2 77.85C334.4 537.2 791 644.2 817 650c30 6.66 58.2 1 79.37-16 23.79-19.09 35.86-49.5 35.86-90.37V317.9c0.24-9.16-0.6-48.06-30-73.87-11.39-10.08-30.23-20.66-58.62-20.66z m8.71 91.69zM643.84 126.34a40 40 0 0 0-40 40V799a40 40 0 0 0 80 0v-632.66a40 40 0 0 0-40-40zM794.79-71h-260.3c-40.05 0-71.47 11.12-93.38 33.06-34.68 34.73-34.62 84.29-34.58 120.49V706.13a40 40 0 0 0 80 0v-623.68c0-23.43-0.06-52.59 11.19-63.86 7.92-7.92 24.36-9.59 36.77-9.59h260.3c23.17 0 40.36 7 54.11 22.08 18.34 20.1 40.21 65.31 40.21 166.61a40 40 0 0 0 80 0c0-53-5.52-98.82-16.41-136.08-10.11-34.62-25.16-63-44.71-84.46C878.82-54.8 840.74-71 794.79-71z"  horiz-adv-x="1024" />

    
    <glyph glyph-name="dongtaimima" unicode="&#59768;" d="M776.5-104.09h-528c-88.23 0-160 71.77-160 160V392.5c0 88.23 71.77 160 160 160h528c88.22 0 160-71.77 160-160v-336.59c0-88.23-71.78-160-160-160z m-528 576.59a80.09 80.09 0 0 1-80-80v-336.59a80.09 80.09 0 0 1 80-80h528a80.09 80.09 0 0 1 80 80V392.5a80.09 80.09 0 0 1-80 80zM765.17 512h-80V627c0 91-77.79 165-173.4 165s-173.41-74-173.41-165v-115h-80V627c0 65.76 26.56 127.49 74.79 173.83C381 846.71 444.38 872 511.77 872s130.82-25.29 178.61-71.21c48.23-46.34 74.79-108.07 74.79-173.83zM522.88 25.32a199.1 199.1 0 0 0-150.55 68.8 40 40 0 0 0 60.47 52.38 119.09 119.09 0 1 1-13.86 136.18 40 40 0 1 0-69.74 39.19 199.49 199.49 0 0 0 173.68 101.68c109.8 0 199.12-89.32 199.12-199.11s-89.32-199.12-199.12-199.12zM331.73 210.13l142.82 49.19-164.89 100.25 22.07-149.44z"  horiz-adv-x="1024" />

    
    <glyph glyph-name="duihua" unicode="&#59769;" d="M616.42 478.02m-50.19 0a50.19 50.19 0 1 1 100.38 0 50.19 50.19 0 1 1-100.38 0ZM450.49 477.58m-50.19 0a50.19 50.19 0 1 1 100.38 0 50.19 50.19 0 1 1-100.38 0ZM284.56 477.58m-50.19 0a50.19 50.19 0 1 1 100.38 0 50.19 50.19 0 1 1-100.38 0ZM218.2 37.42a44.35 44.35 0 0 0-44.39 46.07L178 192.37c-43.57 31.14-80 69.99-106.08 113.43C40.57 357.93 24 416.84 24 476.16a325.32 325.32 0 0 0 33.89 144.63c21.49 43.73 52.12 82.88 91.05 116.39C227.79 805 332.25 842.42 443.08 842.42S658.36 805 737.22 737.18c38.92-33.51 69.56-72.66 91-116.39a325.58 325.58 0 0 0 0-289.27c-21.48-43.72-52.12-82.88-91-116.38C658.36 147.27 553.9 109.9 443.08 109.9a484.58 484.58 0 0 0-62.79 4.1L238.2 42.17a44.4 44.4 0 0 0-20-4.75z m224.88 725C256.11 762.42 104 634 104 476.16c0-91 49.64-174.51 136.19-229.26l19.46-12.32-3.58-93.75 111 56.09 12.79-2a403 403 0 0 1 63.25-5c187 0 339.07 128.41 339.07 286.26S630 762.42 443.08 762.42zM833.83-77.21a43.5 43.5 0 0 0-19.64 4.66l-114.26 57.74a403.81 403.81 0 0 0-50.08-3.11c-61.29 0-121.6 14.06-174.42 40.66-51.91 26.14-95.58 63.77-126.3 108.8l66.09 45.08C463.41 106 553.31 62.08 649.85 62.08a322.46 322.46 0 0 1 50.6 4l12.79 2 81.87-41.37-2.62 68.55L812 107.59C880.62 151 920 217.15 920 289c0 75.62-44.8 146.08-119.83 188.48l39.36 69.65c47.84-27 87.86-64.3 115.72-107.75C984.53 393.75 1000 341.74 1000 289c0-49.85-13.92-99.35-40.25-143.13-21.23-35.32-50.56-67-85.59-92.67l3.26-85.2a43.54 43.54 0 0 0-43.59-45.24z"  horiz-adv-x="1024" />

    
    <glyph glyph-name="fanhuidingbu" unicode="&#59770;" d="M927 760H97a40 40 0 0 0 0 80h830a40 40 0 0 0 0-80zM192 408a40 40 0 0 0-25 71.24l320 256a40 40 0 0 0 50-62.47l-320-256a39.85 39.85 0 0 0-25-8.77zM832 408a39.85 39.85 0 0 0-25 8.77l-320 256a40 40 0 0 0 50 62.47l320-256A40 40 0 0 0 832 408zM512-71a40 40 0 0 0-40 40V673.2a40 40 0 1 0 80 0V-31a40 40 0 0 0-40-40z"  horiz-adv-x="1024" />

    
    <glyph glyph-name="erweima" unicode="&#59771;" d="M368 408H177A120.13 120.13 0 0 0 57 528V719A120.13 120.13 0 0 0 177 839h191a120.13 120.13 0 0 0 120-120v-191a120.13 120.13 0 0 0-120-120zM177 759a40 40 0 0 1-40-40v-191a40 40 0 0 1 40-40h191a40 40 0 0 1 40 40V719a40 40 0 0 1-40 40zM222.5 673.5h100v-100h-100zM368-71H177A120.13 120.13 0 0 0 57 49V240a120.13 120.13 0 0 0 120 120h191a120.13 120.13 0 0 0 120-120v-191a120.13 120.13 0 0 0-120-120zM177 280a40 40 0 0 1-40-40v-191a40 40 0 0 1 40-40h191a40 40 0 0 1 40 40V240a40 40 0 0 1-40 40zM222.5 194.5h100v-100h-100zM847 408H656a120.13 120.13 0 0 0-120 120V719A120.13 120.13 0 0 0 656 839h191a120.13 120.13 0 0 0 120-120v-191a120.13 120.13 0 0 0-120-120zM656 759a40 40 0 0 1-40-40v-191a40 40 0 0 1 40-40h191a40 40 0 0 1 40 40V719a40 40 0 0 1-40 40zM701.5 673.5h100v-100h-100zM879 10m40.5 0l0 0q40.5 0 40.5-40.5l0 0q0-40.5-40.5-40.5l0 0q-40.5 0-40.5 40.5l0 0q0 40.5 40.5 40.5ZM690.5 128a40.5 40.5 0 0 1 40.5 40.5V241h43.5a40.5 40.5 0 0 1 40.5 40.5 40.5 40.5 0 0 1-40.5 40.5h-168a40.5 40.5 0 0 1-40.5-40.5 40.5 40.5 0 0 1 40.5-40.5H650v-72.5a40.5 40.5 0 0 1 40.5-40.5zM917.5 322a40.5 40.5 0 0 1-40.5-40.5V174h-81v-83h-65v-81h-86v42.5a40.5 40.5 0 0 1-40.5 40.5 40.5 40.5 0 0 1-40.5-40.5v-83a40.5 40.5 0 0 1 40.5-40.5H794v81h83v84h81V281.5a40.5 40.5 0 0 1-40.5 40.5z"  horiz-adv-x="1024" />

    
    <glyph glyph-name="fapiaochayan" unicode="&#59772;" d="M618.76 89.48a295.77 295.77 0 1 0 209.13 86.63 293.78 293.78 0 0 0-209.13-86.63z m0 511.52C499.79 601 403 504.21 403 385.24s96.79-215.76 215.76-215.76 215.76 96.79 215.76 215.76S737.73 601 618.76 601zM960 25a39.86 39.86 0 0 0-28.29 11.72l-128 128a40 40 0 0 0 56.57 56.57l128-128A40 40 0 0 0 960 25zM618.76 391.16a39.89 39.89 0 0 0-28.29 11.71l-63.55 63.56A40 40 0 1 0 583.49 523L647 459.44a40 40 0 0 0-28.28-68.28zM618.76 391.16a40 40 0 0 0-28.29 68.28L654 523a40 40 0 1 0 56.57-56.57L647 402.87a39.85 39.85 0 0 0-28.24-11.71zM721.64 381.16H515.88a40 40 0 1 0 0 80h205.76a40 40 0 0 0 0-80zM721.64 290.17H515.88a40 40 0 0 0 0 80h205.76a40 40 0 0 0 0-80zM618.76 216a40 40 0 0 0-40 40V430.09a40 40 0 0 0 80 0V256a40 40 0 0 0-40-40zM580.48-71H146.77C79.07-71 24-11.34 24 62V278.69h40c49.26 0 89.33 47.24 89.33 105.31S113.26 489.31 64 489.31H24V706c0 73.34 55.07 133 122.77 133h730.46C944.92 839 1000 779.34 1000 706v-56.62a40 40 0 0 0-80 0V706c0 28.73-19.59 53-42.77 53H146.77c-23.19 0-42.77-24.27-42.77-53v-141.83c30.69-8.07 58.73-25.43 81.33-50.83 30.95-34.78 48-80.71 48-129.34s-17.05-94.56-48-129.34c-22.6-25.4-50.64-42.76-81.33-50.83V62c0-28.73 19.58-53 42.77-53h433.71a40 40 0 0 0 0-80z"  horiz-adv-x="1024" />

    
    <glyph glyph-name="fapiaodaikai" unicode="&#59773;" d="M877.23-71H146.77C79.07-71 24-11.34 24 62V278.69h40c49.26 0 89.33 47.24 89.33 105.31S113.26 489.31 64 489.31H24V706c0 73.34 55.07 133 122.77 133h433.71a40 40 0 0 0 0-80H146.77c-23.19 0-42.77-24.27-42.77-53v-141.83c30.69-8.07 58.73-25.43 81.33-50.83 30.95-34.78 48-80.71 48-129.34s-17.05-94.56-48-129.34c-22.6-25.4-50.64-42.76-81.33-50.83V62c0-28.73 19.58-53 42.77-53h730.46c23.18 0 42.77 24.27 42.77 53v56.62a40 40 0 0 0 80 0V62c0-73.34-55.08-133-122.77-133zM530.94 150.33L369.1 312.18l344.28 344.28 161.84-161.84zM454 312.18l77-77 259.37 259.44-77 77zM457.35 156.24L346.85 128l28.98 109.76 81.52-81.52zM304.8 86.29l55.35 209.58L515.8 140.22z m86.71 93.36l-2.62-9.94 10 2.56zM888.29 507.68L726.44 669.52l87.63 87.62a51.22 51.22 0 0 0 72.37 0l89.47-89.47a51.24 51.24 0 0 0 0-72.37z m-77 161.84l77-77 39 39-77 77z"  horiz-adv-x="1024" />

    
    <glyph glyph-name="fapiaofuwu" unicode="&#59774;" d="M877.34-71H146.77C79.07-71 24-11.34 24 62V278.69h40c49.26 0 89.33 47.24 89.33 105.31S113.26 489.31 64 489.31H24V706c0 73.34 55.07 133 122.77 133h730.57c67.7 0 122.77-59.66 122.77-133v-216.69h-40c-49.26 0-89.33-47.24-89.33-105.31s40.07-105.31 89.33-105.31h40V62c0-73.34-55.11-133-122.77-133zM104 203.83V62c0-28.73 19.59-53 42.77-53h730.57c23.18 0 42.77 24.27 42.77 53V203.83c-30.69 8.07-58.73 25.43-81.33 50.83-30.95 34.78-48 80.71-48 129.34s17.05 94.56 48 129.34c22.6 25.4 50.64 42.76 81.33 50.83V706c0 28.73-19.59 53-42.77 53H146.77c-23.18 0-42.77-24.27-42.77-53v-141.83c30.7-8.07 58.73-25.43 81.33-50.83 30.95-34.78 48-80.71 48-129.34s-17.05-94.56-48-129.34c-22.6-25.4-50.63-42.76-81.33-50.83zM512.05 416.89a39.87 39.87 0 0 0-28.28 11.71L382.9 529.48A40 40 0 0 0 439.46 586l100.88-100.83a40 40 0 0 0-28.29-68.28zM512.06 416.89a40 40 0 0 0-28.29 68.28L584.65 586a40 40 0 1 0 56.56-56.57L540.34 428.6a39.87 39.87 0 0 0-28.28-11.71zM675.36 416.89H348.75a40 40 0 0 0 0 80h326.61a40 40 0 0 0 0-80zM675.36 291.52H348.75a40 40 0 0 0 0 80h326.61a40 40 0 1 0 0-80zM512.06 170.24a40 40 0 0 0-40 40V455.19a40 40 0 0 0 80 0v-245a40 40 0 0 0-40-39.95z"  horiz-adv-x="1024" />

    
    <glyph glyph-name="fapiaolingyong" unicode="&#59775;" d="M737.26-70.52a263.27 263.27 0 1 0 186.15 77.11 261.5 261.5 0 0 0-186.15-77.11z m0 446.52C636.21 376 554 293.79 554 192.74s82.21-183.26 183.26-183.26 183.26 82.21 183.26 183.26S838.31 376 737.26 376zM384-71H146.77C79.07-71 24-11.34 24 62V278.69h40c49.26 0 89.33 47.24 89.33 105.31S113.26 489.31 64 489.31H24V706c0 73.34 55.07 133 122.77 133h730.46C944.92 839 1000 779.34 1000 706v-194a40 40 0 0 0-80 0V706c0 28.73-19.59 53-42.77 53H146.77c-23.18 0-42.77-24.27-42.77-53v-141.83c30.7-8.07 58.73-25.43 81.33-50.83 30.95-34.78 48-80.71 48-129.34s-17.05-94.56-48-129.34c-22.6-25.4-50.63-42.76-81.33-50.83V62c0-28.73 19.59-53 42.77-53H384a40 40 0 0 0 0-80zM704 600H320a40 40 0 0 0 0 80h384a40 40 0 0 0 0-80zM448 407.81H320a40 40 0 0 0 0 80h128a40 40 0 0 0 0-80zM709.4 95a39.89 39.89 0 0 0-28.29 11.72l-59.83 59.83a40 40 0 0 0 56.57 56.57l59.83-59.83A40 40 0 0 0 709.4 95zM709.4 95a40 40 0 0 0-28.29 68.29L796.67 278.8a40 40 0 0 0 56.57-56.56L737.68 106.68A39.88 39.88 0 0 0 709.4 95z"  horiz-adv-x="1024" />

    
    <glyph glyph-name="fapiaorenzheng" unicode="&#59776;" d="M877.28-71H146.72C79-71 23.94-11.34 23.94 62V278.69h40c49.26 0 89.33 47.24 89.33 105.31S113.2 489.31 63.94 489.31h-40V706c0 73.34 55.06 133 122.78 133h730.56c67.7 0 122.78-59.66 122.78-133v-216.69h-40c-49.26 0-89.33-47.24-89.33-105.31s40.07-105.31 89.33-105.31h40V62c0-73.34-55.06-133-122.78-133zM103.94 203.83V62c0-28.73 19.59-53 42.78-53h730.56c23.19 0 42.78 24.27 42.78 53V203.83c-30.7 8.07-58.73 25.43-81.33 50.83-31 34.78-48 80.71-48 129.34s17 94.56 48 129.34c22.6 25.4 50.63 42.76 81.33 50.83V706c0 28.73-19.59 53-42.78 53H146.72c-23.19 0-42.78-24.27-42.78-53v-141.83c30.7-8.07 58.73-25.43 81.33-50.83 31-34.78 48-80.71 48-129.34s-17-94.56-48-129.34c-22.6-25.4-50.63-42.76-81.33-50.83zM451 217.18a39.89 39.89 0 0 0-28.29 11.72l-131 131a40 40 0 0 0 56.56 56.57l131-131A40 40 0 0 0 451 217.18zM451 217.18a40 40 0 0 0-28.29 68.28l253 253a40 40 0 0 0 56.56-56.57l-253-253A39.88 39.88 0 0 0 451 217.18z"  horiz-adv-x="1024" />

    
    <glyph glyph-name="fapiaoyanjiu" unicode="&#59777;" d="M511-104.22a40.13 40.13 0 0 0-8.84 1c-160.09 36.12-260.42 130-316.39 202.36C118.24 186.47 88 276.27 88 326.52V738.43h40c110.4 0 201.2 33.38 257.93 61.38 62.25 30.73 98.51 62 98.87 62.31a40 40 0 1 0 52.71-60.18c-1.71-1.5-42.73-37.21-113.46-72.52a685.15 685.15 0 0 0-128.38-48.76 651.46 651.46 0 0 0-127.67-21v-333.14c0-28.46 22-102.08 81.07-178.45C297 86.08 382.9 5.7 519.79-25.2a40 40 0 0 0-8.77-79zM513-104.22a40 40 0 0 0-8.77 79C641.1 5.7 727 86.08 774.93 148.07 834 224.44 856 298.06 856 326.52V659.69a651.46 651.46 0 0 0-127.67 21A685.15 685.15 0 0 0 600 729.42c-70.73 35.31-111.75 71-113.46 72.52a40 40 0 0 0 52.72 60.17c0.73-0.63 36.93-31.73 98.86-62.3 56.73-28 147.52-61.38 257.93-61.38h40v-411.91c0-50.25-30.24-140-97.79-227.39-56-72.38-156.3-166.24-316.39-202.36a40.13 40.13 0 0 0-8.87-0.99zM704 344H320a40 40 0 0 0 0 80h384a40 40 0 0 0 0-80zM512 152a40 40 0 0 0-40 40V576a40 40 0 0 0 80 0v-384a40 40 0 0 0-40-40z"  horiz-adv-x="1024" />

    
    <glyph glyph-name="fenxiang" unicode="&#59778;" d="M225 216c-92.64 0-168 75.37-168 168s75.36 168 168 168 168-75.36 168-168-75.36-168-168-168z m0 256a88 88 0 1 1 88-88 88.1 88.1 0 0 1-88 88zM799.61 502.25c-92.64 0-168 75.37-168 168s75.37 168 168 168 168-75.37 168-168-75.35-168-168-168z m0 256a88 88 0 1 1 88-88 88.11 88.11 0 0 1-88 88.03zM799.61-71.8c-92.64 0-168 75.37-168 168s75.37 168 168 168 168-75.37 168-168-75.35-168-168-168z m0 256a88 88 0 1 1 88-88 88.11 88.11 0 0 1-88 88.02zM310.413 286.026l36 71.2 348.675-176.297-36-71.2zM311.183 482.544l348.675 176.297 36-71.2-348.675-176.297z"  horiz-adv-x="1024" />

    
    <glyph glyph-name="fuwutousu" unicode="&#59779;" d="M960.34-71H84.5a40 40 0 0 0 0 80h875.84a40 40 0 1 0 0-80zM336.12 71.49c-1 0-2.07 0-3.11 0.07l-173.28 8.56a65.08 65.08 0 0 0-61.56 61.56L89.61 315a62.76 62.76 0 0 0 18.17 47.41l491.3 491.3c24.59 24.59 65 24.23 90-0.8L870.91 671c25-25 25.4-65.41 0.81-90L380.41 89.73a62.68 62.68 0 0 0-44.29-18.24z m-158.73 87.86l152-7.51 473.78 473.79-159.49 159.5-473.79-473.79z"  horiz-adv-x="1024" />

    
    <glyph glyph-name="gengduo" unicode="&#59780;" d="M172 384m-100 0a100 100 0 1 1 200 0 100 100 0 1 1-200 0ZM511.5 384m-100 0a100 100 0 1 1 200 0 100 100 0 1 1-200 0ZM851 384m-100 0a100 100 0 1 1 200 0 100 100 0 1 1-200 0Z"  horiz-adv-x="1024" />

    
    <glyph glyph-name="gengduo1" unicode="&#59781;" d="M897 664H385a40 40 0 0 0 0 80h512a40 40 0 0 0 0-80zM192 384m-64 0a64 64 0 1 1 128 0 64 64 0 1 1-128 0ZM192 64m-64 0a64 64 0 1 1 128 0 64 64 0 1 1-128 0ZM192 704m-64 0a64 64 0 1 1 128 0 64 64 0 1 1-128 0ZM896.5 343.5h-512a40 40 0 0 0 0 80h512a40 40 0 0 0 0-80zM897 24H385a40 40 0 0 0 0 80h512a40 40 0 0 0 0-80z"  horiz-adv-x="1024" />

    
    <glyph glyph-name="gengduo2" unicode="&#59782;" d="M272.55 408.24a215.5 215.5 0 0 0-152.43 367.88A215.5 215.5 0 0 0 488 623.74l-0.3-215.2z m175.21 40.24zM272.5 759.24c-74.72 0-135.5-60.78-135.5-135.5s60.78-135.5 135.5-135.5l135.31 0.19 0.19 135.37c0 74.66-60.79 135.44-135.5 135.44zM751.5 408.24l-215.21 0.3-0.29 215.15a215.5 215.5 0 1 0 215.5-215.45z m-135.32 80.19l135.37-0.19C826.21 488.24 887 549 887 623.74s-60.79 135.5-135.5 135.5S616 698.46 616 623.74zM272.5-70.94a215.5 215.5 0 1 0 0 431l215.2-0.29 0.3-215.15a215.51 215.51 0 0 0-215.5-215.56z m-0.06 351c-74.66 0-135.44-60.78-135.44-135.5s60.78-135.5 135.5-135.5S408 69.85 408 144.56l-0.19 135.32zM751.53-70.94a215.47 215.47 0 0 0-215.47 215.47l0.3 215.18 215.12 0.29a215.47 215.47 0 1 0 0-430.94zM616.25 279.81l-0.19-135.33c0-74.64 60.77-135.42 135.47-135.42S887 69.84 887 144.53 826.23 280 751.53 280z"  horiz-adv-x="1024" />

    
    <glyph glyph-name="gengduo3" unicode="&#59783;" d="M512-104A488.11 488.11 0 0 0 322 833.63a488.11 488.11 0 0 0 380-899.26A484.94 484.94 0 0 0 512-104z m0 896c-225 0-408-183-408-408s183-408 408-408 408 183 408 408-183 408-408 408zM768 344H256a40 40 0 0 0 0 80h512a40 40 0 0 0 0-80zM512 88a40 40 0 0 0-40 40V640a40 40 0 0 0 80 0v-512a40 40 0 0 0-40-40z"  horiz-adv-x="1024" />

    
    <glyph glyph-name="gerensuodeshuidaikoudaijiaoshenbao" unicode="&#59784;" d="M512-104A488.08 488.08 0 0 0 29 314.28999999999996a40 40 0 1 0 79.19 11.33C136.67 126.30999999999995 310.29-24 512-24c194.26 0 362.58 138.07 400.23 328.3a40 40 0 1 0 78.47-15.53c-21.62-109.26-81-208.82-167.11-280.36A486.22 486.22 0 0 0 512-104zM955.44 407.79a40 40 0 0 0-39.55 34.36C887.46 641.6 713.82 792 512 792c-190.21 0-353.51-129.09-397.11-313.92A40 40 0 1 0 37 496.44 484.43 484.43 0 0 0 100.23 646a488.09 488.09 0 0 0 894.86-192.56 40 40 0 0 0-34-45.25 40.88 40.88 0 0 0-5.65-0.4zM512 416.89a39.85 39.85 0 0 0-28.28 11.71L382.84 529.48A40 40 0 0 0 439.41 586l100.87-100.83A40 40 0 0 0 512 416.89zM512 416.89a40 40 0 0 0-28.29 68.28L584.59 586a40 40 0 0 0 56.57-56.57L540.28 428.6A39.87 39.87 0 0 0 512 416.89zM675.3 416.89H348.7a40 40 0 1 0 0 80h326.6a40 40 0 0 0 0-80zM675.3 291.52H348.7a40 40 0 0 0 0 80h326.6a40 40 0 0 0 0-80zM512 170.24a40 40 0 0 0-40 40V455.19a40 40 0 1 0 80 0v-245a40 40 0 0 0-40-39.95zM984.66 151a40 40 0 0 0-38.2 28.18L913.92 284.29999999999995a40 40 0 1 0 76.42 23.7l32.54-105.08A40 40 0 0 0 984.66 151zM851.36 206.76a40 40 0 0 0-18.09 75.7l98.15 49.66a40 40 0 1 0 36.12-71.38l-98.15-49.66a39.85 39.85 0 0 0-18.03-4.32zM74.86 447.34a40 40 0 0 0-38.2 28.18L4.12 580.6a40 40 0 0 0 76.42 23.67l32.54-105.08a40.06 40.06 0 0 0-38.22-51.85zM77.55 447a40 40 0 0 0-18.09 75.7l98.15 49.67A40 40 0 1 0 193.73 501l-98.15-49.63A39.82 39.82 0 0 0 77.55 447z"  horiz-adv-x="1024" />

    
    <glyph glyph-name="gongzhongchaxun" unicode="&#59785;" d="M839.5-70.5h-656c-88.22 0-160 71.78-160 160V774.13l0.5-0.43v3.16C24 811.12 51.43 839 85.16 839h389.29a145.33 145.33 0 0 0 97.39-37.64 153.21 153.21 0 0 0 45.37-74.86H839.5c88.22 0 160-71.77 160-160v-477c0-88.22-71.78-160-160-160z m-736 669.37V89.5a80.09 80.09 0 0 1 80-80h656a80.09 80.09 0 0 1 80 80v477a80.09 80.09 0 0 1-80 80H600.75a59.64 59.64 0 0 0-39.42 14.87 60.29 60.29 0 0 0-19.81 36.53c-5.17 35.41-33.38 61.1-67.07 61.1H104v-160.57zM479.8 153.46c-109.88 0-199.27 89.39-199.27 199.27S369.92 552 479.8 552s199.27-89.39 199.27-199.27-89.39-199.27-199.27-199.27z m0 318.54a119.27 119.27 0 1 1 119.27-119.27A119.4 119.4 0 0 1 479.8 472zM704 88a39.87 39.87 0 0 0-28.28 11.72l-112 112a40 40 0 0 0 56.56 56.57l112-112A40 40 0 0 0 704 88z"  horiz-adv-x="1024" />

    
    <glyph glyph-name="guanbi" unicode="&#59786;" d="M192 24a40 40 0 0 0-28.28 68.29l640 640a40 40 0 0 0 56.56-56.57l-640-640A39.87 39.87 0 0 0 192 24zM832 24a39.87 39.87 0 0 0-28.28 11.72l-640 640a40 40 0 0 0 56.56 56.57l640-640A40 40 0 0 0 832 24z"  horiz-adv-x="1024" />

    
    <glyph glyph-name="guangdongfabao" unicode="&#59787;" d="M911.76-40.13H111.13a40 40 0 0 0 0 80h800.63a40 40 0 0 0 0-80zM761.37 137.52h-170a55 55 0 0 0-54.9 54.89V753.07A55 55 0 0 0 591.4 808h170c63.52 0 123.38-24.89 168.57-70.07s70.06-105 70.06-168.56v-193.22c0-63.52-24.88-123.39-70.06-168.57s-105.08-70.06-168.6-70.06z m-144.87 80h144.87c87.47 0 158.63 71.16 158.63 158.63V569.34C920 656.81 848.84 728 761.37 728H616.5zM284 137.52a217.52 217.52 0 0 0-104.66 26.86c-31.26 16.92-59 41-82.58 71.67C49.82 297 24 379.21 24 467.37 24 565.84 49.3 649.75 97.18 710a253.05 253.05 0 0 0 184.1 96.73c77.51 5.18 138.54-18.91 186.58-73.68a40 40 0 0 0-60.14-52.75c-31.35 35.74-68.69 50.11-121.09 46.61C174 719.39 104 619.93 104 467.37c0-70.63 19.94-135.47 56.14-182.57 33.34-43.39 77.31-67.28 123.81-67.28 67.58 0 109.94 12.47 133.31 39.26a40 40 0 1 0 60.29-52.58c-52.13-59.77-135.46-66.68-193.55-66.68zM448 191.59a40 40 0 0 0-40 40v244.2a40 40 0 0 0 80 0v-244.2a40 40 0 0 0-40-40zM448 435.91H280a40 40 0 1 0 0 80h168a40 40 0 0 0 0-80z"  horiz-adv-x="1024" />

    
    <glyph glyph-name="guanmingfapiaoyinzhi" unicode="&#59788;" d="M921.61 88h-75.56c-43.43 0-78.76 35.52-78.76 79.18V281.4h-510.2v-114.22c0-43.66-35.34-79.18-78.77-79.18h-75.55C59.33 88 24 123.52 24 167.18V599.29c0 44.5 36 80.71 80.29 80.71h815.8c44.27 0 80.29-36.21 80.29-80.71v-432.11c0-43.66-35.38-79.18-78.77-79.18z m-74.32 80h73.09V599.29a0.88 0.88 0 0 1-0.38 0.71H104.38a0.86 0.86 0 0 1-0.38-0.71V168h73.09V361.4h670.2z m72.8 432zM660.42-71H364c-40.64 0-73.69 35.55-73.69 79.26V195.38a40 40 0 1 0 80 0V9h283.8V195.38a40 40 0 0 0 80 0v-187.12c0-43.71-33.06-79.26-73.69-79.26zM729.73 599.87a40 40 0 0 0-40 40V758.71a0.68 0.68 0 0 1-0.28 0.3H334.93a0.68 0.68 0 0 1-0.3-0.28v-118.86a40 40 0 0 0-80 0V758.71A80.38 80.38 0 0 0 334.93 839h354.52a80.38 80.38 0 0 0 80.28-80.29v-118.84a40 40 0 0 0-40-40zM576 88.18H449a40 40 0 0 0 0 80h127a40 40 0 0 0 0-80zM192.05 512.45m-39.78 0a39.78 39.78 0 1 1 79.56 0 39.78 39.78 0 1 1-79.56 0Z"  horiz-adv-x="1024" />

    
    <glyph glyph-name="haiguanjihe" unicode="&#59789;" d="M512.5-105.19a336.31 336.31 0 0 0-336.56 336.57 40 40 0 0 0 80 0c0-141.47 115.09-256.57 256.56-256.57s256.56 115.1 256.56 256.57a40 40 0 0 0 80 0 336.32 336.32 0 0 0-336.56-336.57zM93 118a40 40 0 0 0-23 72.75l123 86.31a40 40 0 0 0 45.95-65.49L116 125.3a39.87 39.87 0 0 0-23-7.3zM338.84 118a39.84 39.84 0 0 0-22.94 7.26L193 211.57a40 40 0 1 0 45.95 65.49l122.94-86.27a40 40 0 0 0-23-72.75zM686.16 118a40 40 0 0 0-23 72.75l122.93 86.27a40 40 0 0 0 46-65.49L709.1 125.3a39.86 39.86 0 0 0-22.94-7.3zM932 118a39.86 39.86 0 0 0-23 7.3l-122.92 86.27a40 40 0 0 0 46 65.49L955 190.79A40 40 0 0 0 932 118zM512.5 602.29c-74.36 0-134.86 60.5-134.86 134.86S438.14 872 512.5 872s134.85-60.49 134.85-134.85-60.49-134.86-134.85-134.86z m0 189.71a54.86 54.86 0 1 1 54.85-54.85A54.92 54.92 0 0 1 512.5 792zM512.5-105.19a40 40 0 0 0-40 40V642a40 40 0 0 0 80 0v-707.19a40 40 0 0 0-40-40zM704 407.65H322a40 40 0 0 0 0 80h382a40 40 0 0 0 0-80z"  horiz-adv-x="1024" />

    
    <glyph glyph-name="guoshui" unicode="&#59790;" d="M776-71H248c-88.23 0-160 71.78-160 160V679c0 88.23 71.77 160 160 160h528c88.22 0 160-71.77 160-160v-590c0-88.22-71.78-160-160-160zM248 759a80.09 80.09 0 0 1-80-80v-590a80.09 80.09 0 0 1 80-80h528a80.09 80.09 0 0 1 80 80V679a80.09 80.09 0 0 1-80 80zM749.86 600H272.14a40 40 0 0 0 0 80h477.72a40 40 0 0 0 0-80zM704 367H320a40 40 0 0 0 0 80h384a40 40 0 0 0 0-80zM768 88H256a40 40 0 0 0 0 80h512a40 40 0 0 0 0-80zM512 88a40 40 0 0 0-40 40V640a40 40 0 0 0 80 0v-512a40 40 0 0 0-40-40zM697 190a40 40 0 0 0-33.12 17.51l-51 75a40 40 0 1 0 66.16 45l51-75A40 40 0 0 0 697 190z"  horiz-adv-x="1024" />

    
    <glyph glyph-name="guiyuanji" unicode="&#59791;" d="M910.27 408h-26.45a40 40 0 0 0 0 80h26.29c2.86 1 10.06 9.64 10.06 24.39V703.62c0 14.74-7.2 23.42-10.06 24.38h-796c-2.86-1-10.06-9.64-10.06-24.38v-191.23c0-14.75 7.2-23.43 10.06-24.39h26.28a40 40 0 1 0 0-80H113.9C88.36 408 64 420.54 47 442.41c-14.86 19.17-23 44-23 70V703.62c0 25.95 8.18 50.8 23 70C64 795.46 88.36 808 113.9 808h796.37c25.54 0 49.91-12.54 66.86-34.41 14.85-19.17 23-44 23-70v-191.2c0-25.95-8.19-50.81-23-70-16.95-21.85-41.32-34.39-66.86-34.39zM729.07-40h-434c-22.82 0-44.47 11.21-59.4 30.74C223 7.37 216 28.82 216 51.16V480a40 40 0 0 0 80 0v-428.84a21.65 21.65 0 0 1 2.77-11.16h426.62a21.64 21.64 0 0 1 2.78 11.16V480a40 40 0 0 0 80 0v-428.84c0-22.34-7-43.79-19.71-60.42-14.93-19.53-36.57-30.74-59.39-30.74zM832 567.5l-640 0.5a40 40 0 0 0 0 80l640-0.5a40 40 0 0 0 0-80zM640 343H384a40 40 0 0 0 0 80h256a40 40 0 0 0 0-80zM576.17 152.5H448a40 40 0 0 0 0 80h128.17a40 40 0 1 0 0-80z"  horiz-adv-x="1024" />

    
    <glyph glyph-name="header-search" unicode="&#59792;" d="M444.84 63.4A387.68 387.68 0 0 0 294 808.1a387.67 387.67 0 0 0 301.71-714.22 385.18 385.18 0 0 0-150.87-30.48z m0 695.17c-169.61 0-307.59-138-307.59-307.58s138-307.59 307.59-307.59S752.42 281.38 752.42 451 614.44 758.57 444.84 758.57zM926.75-70.57a39.85 39.85 0 0 0-28.29 11.72l-236 236a40 40 0 0 0 56.57 56.57l236-236a40 40 0 0 0-28.28-68.28z"  horiz-adv-x="1024" />

    
    <glyph glyph-name="help" unicode="&#59793;" d="M961.63 574A489.41 489.41 0 1 1 1000 384a486.4 486.4 0 0 1-38.37 190zM509 100a45.84 45.84 0 1 0 45.83 45.83A45.83 45.83 0 0 0 509 100z m157.18 362.5c-9.1-55.63-41.74-82.17-67.95-103.51-28.48-23.16-49.05-39.9-49.05-98.18a40 40 0 1 0-80 0c0 96.32 45.4 133.26 78.56 160.24 23.83 19.39 35.47 29.8 39.49 54.37 3.72 22.72 4.12 54.06-15.05 74.33-15.4 16.27-42.5 23.23-76.3 19.62-14.93-1.6-36.41-7.64-50.54-41.5-9.32-22.33-10.47-45.08-10.57-47.79v-0.08a40 40 0 0 0-80 0v1.15a227.82 227.82 0 0 0 15.59 74.71c21.65 54.24 63.2 87.29 117 93.06 59.22 6.33 110-9.35 142.93-44.19 32.53-34.39 45.27-84.89 35.89-142.23z"  horiz-adv-x="1024" />

    
    <glyph glyph-name="header-user" unicode="&#59794;" d="M512-104A488.11 488.11 0 0 0 322 833.63a488.11 488.11 0 0 0 380-899.26A484.94 484.94 0 0 0 512-104z m0 896c-225 0-408-183-408-408s183-408 408-408 408 183 408 408-183 408-408 408zM512 325.69c-97.68 0-177.16 79.47-177.16 177.16S414.32 680 512 680s177.15-79.47 177.15-177.15S609.68 325.69 512 325.69zM512 600a97.16 97.16 0 1 1 97.15-97.15A97.27 97.27 0 0 1 512 600zM752 152a40 40 0 0 0-38 27.56 212.61 212.61 0 0 1-404 0 40 40 0 0 0-76 24.9 292.61 292.61 0 0 0 556.07 0A40 40 0 0 0 752 152z"  horiz-adv-x="1024" />

    
    <glyph glyph-name="huanfu" unicode="&#59795;" d="M656.52-71H367.74c-92.31 0-167.4 75.1-167.4 167.4V315.65L41.94 473.94a61.22 61.22 0 0 0 0 86.6L295.66 814.27a50.61 50.61 0 0 0 81.09-13.2 151.15 151.15 0 0 1 270.69-0.13A50.6 50.6 0 0 0 728.5 814.1l253.56-253.56a61.22 61.22 0 0 0 0-86.6L823.92 315.67V96.4c0-92.3-75.1-167.4-167.4-167.4zM111.78 517.25l168.56-168.44V96.4a87.5 87.5 0 0 1 87.4-87.4h288.78a87.5 87.5 0 0 1 87.4 87.4V348.79l168.31 168.44-214 214a231.91 231.91 0 0 0-62.83-58.48 231.26 231.26 0 0 0-246.66 0.06 231.79 231.79 0 0 0-62.84 58.56z"  horiz-adv-x="1024" />

    
    <glyph glyph-name="icon-test9" unicode="&#59796;" d="M931.17 597a448.77 448.77 0 0 1-97.59 143.2 457.6 457.6 0 0 1-643.16 0A448.77 448.77 0 0 1 92.83 597 444 444 0 0 1 57 421.49c0-108.1 74.36-229.09 221-359.6 105.28-93.69 209-157.36 213.37-160l20.85-12.73 20.85 12.74c4.36 2.67 108 66.34 213.13 160C892.72 192.40999999999997 967 313.4 967 421.49A444 444 0 0 1 931.17 597zM624.66 250.85000000000002H398.34v25.26q0 26.6 9.78 48.56a155.27 155.27 0 0 0 26.91 41q17.14 19 53.18 44.5 33 24.6 46.14 43.61t13.18 40.32q0 45.93-50.1 45.93-43.93 0-83.93-35.16v63.26q44.6 28.78 100.19 28.79 51 0 80.64-26T624 499.14q0-25.5-8.57-46a135.38 135.38 0 0 0-24.83-38.56q-16.26-18-52.08-43.28-34.5-24.62-46.36-38t-11.86-23.35h144.36z"  horiz-adv-x="1024" />

    
    </font>
</defs>
</svg>
