<?xml version="1.0" standalone="no"?>
<!DOCTYPE svg PUBLIC "-//W3C//DTD SVG 1.1//EN" "http://www.w3.org/Graphics/SVG/1.1/DTD/svg11.dtd" >
<svg xmlns="http://www.w3.org/2000/svg">
<defs>
  <font id="akar-icons" horiz-adv-x="300">
    <font-face font-family="akar-icons"
      units-per-em="300" ascent="255"
      descent="45" />
    <missing-glyph horiz-adv-x="0" />
    <glyph glyph-name="air"
      unicode="&#xF101;"
      horiz-adv-x="300" d="M119 242.1625C102.675 239.6 89.9 231.25 82.05 218.025C76.5125 208.6875 73.5875 195.0125 75.75 188.5125C77.3625 183.65 82.4125 180 87.5 180C94.2375 180 100 185.9 100 192.8125C100 205.9875 111.6625 217.5 125 217.5C138.5 217.5 150 206 150 192.5C150 181 141.375 170.4 130.1 168.05C128.275 167.675 113.1375 167.5 81.5625 167.5C29.9125 167.5 32.6625 167.7 28.7375 163.7625C23.8375 158.8625 23.85 151.125 28.75 146.225C32.725 142.25 29.6625 142.45 84.3 142.625C132.075 142.7875 132.8 142.8 136.75 143.8625C155.4625 148.9 168.975 162.5125 173.6375 181C175.0875 186.7625 175.175 197.45 173.8125 203.25C169.1 223.4375 153.55 238.2 133.2375 241.7375C129.2375 242.4375 122.075 242.65 119 242.1625M231.5 192.1625C215.175 189.6 202.4 181.25 194.55 168.025C189.0125 158.6875 186.0875 145.0125 188.25 138.5125C189.8625 133.65 194.9125 130 200 130C206.7375 130 212.5 135.9 212.5 142.8125C212.5 155.9875 224.1625 167.5 237.5 167.5C251 167.5 262.5 156 262.5 142.5C262.5 131 253.875 120.4 242.6 118.05C240.7125 117.6625 208.7625 117.5 131.5625 117.5C9.9125 117.5 20.3125 117.8375 16.2375 113.7625C11.3375 108.8625 11.35 101.125 16.25 96.225C20.3375 92.1375 9.6375 92.4625 134.275 92.625L245.25 92.7625L249.2500000000001 93.85C268.0125 98.95 281.475 112.5125 286.1375 131C287.5875000000001 136.7625 287.675 147.45 286.3125 153.25C281.6 173.4375 266.05 188.2 245.7375 191.7375C241.7375 192.4375 234.575 192.65 231.5 192.1625M45.5375 66.6375C41.1375 65.0875 37.5 59.825 37.5 55C37.5 51.975 38.9875 48.4875 41.2375 46.2375C45.25 42.225 39.425 42.5 119.0625 42.5C168.8875 42.5 190.7375 42.3375 192.6 41.95C203.875 39.6 212.5 29 212.5 17.5C212.5 4 201 -7.5 187.5 -7.5C174.1625 -7.5 162.5 4.0125 162.5 17.1875C162.5 24.1 156.7375 30 150 30C144.9125 30 139.8625 26.35 138.25 21.4875C137.5375 19.3625 137.425 17.9125 137.675 14.2875C139.2125 -8.05 154.75 -26.1875 176.75 -31.3125C182.55 -32.675 193.2375 -32.5875 199 -31.1375C217.6125 -26.45 231.45 -12.6125 236.1375 6C237.5875 11.7625 237.675 22.45 236.3125 28.25C231.6 48.4375 216.05 63.2 195.7375 66.7375C191.95 67.4 181.725 67.5 119.5625 67.4625C55.8625 67.425 47.5 67.3375 45.5375 66.6375" />
    <glyph glyph-name="airplay-audio"
      unicode="&#xF102;"
      horiz-adv-x="300" d="M139.5 242.1875C116.2625 240 95.1875 233.0125 76.85 221.4125C60.275 210.9125 44.0875 194.725 33.5875 178.15C23.3625 161.975 16.625 143.4375 13.675 123.25C12.45 114.925 12.45 95.7375 13.6625 87C16.6625 65.5 23.7625 46.75 35.7875 28.65C40.6 21.4125 42.5375 19.4 45.875 18.2125C55.375 14.825 65.175 24.4125 61.8 33.8125C61.425 34.875 59.15 38.675 56.75 42.25C37.2125 71.3875 32.2875 107.4125 43.2875 140.5C62.875 199.3875 126.6625 231.25 185.7 211.6375C232.7125 196.0375 264.3375 150.35 262.3125 101C261.425 79.2875 255.175 60.0125 243.25 42.25C240.85 38.675 238.575 34.875 238.2 33.8125C234.825 24.4125 244.625 14.825 254.125 18.2125C257.5 19.425 259.45 21.4625 264.55 29.15C276.4625000000001 47.1 283.825 67.1125 286.5875 89C287.55 96.6625 287.4000000000001 115.7125 286.3125 123.25C282.725 148.15 273.475 170.0125 258.0875 190C253.2375 196.2875 239.6625 209.5875 232.9625 214.6125C214.05 228.7875 193.2 237.525 170 241.025C163.4375 242.0125 145.1125 242.7125 139.5 242.1875M138.75 191.725C109.05 187.7125 84.0625 169.625 71.225 142.8375C61.275 122.0875 59.8125 99.125 67.0375 77.25C68.8125 71.8875 74.3875 60.3125 76.275 58.0625C77 57.2 78.65 55.8625 79.925 55.1125C81.9 53.95 82.8125 53.75 86 53.75C89.2125 53.75 90.0875 53.95 92.15 55.1625C95.1875 56.95 97.275 59.825 98.05 63.3C98.8375 66.7875 98.225 69.6375 95.7375 74.0125C83.9625 94.7875 84.95 119.8375 98.35 140.1875C101.3625 144.75 110.2 153.575 114.8625 156.65C126.0875 164.0875 136.5625 167.2375 150 167.2375C167.6 167.2375 181.6375 161.4375 194.025 149.0375C199.5875 143.4625 202.6 139.3375 205.9125 132.7375C215.1375 114.3875 214.5125 92.05 204.25 74C201.825 69.7375 201.0875 66.2875 201.9125 63.125C204.45 53.4125 216.625 50.225 223.2375 57.55C225.4125 59.9625 230.975 71.2375 233 77.375C242.575 106.2875 236.55 137.7 216.9125 161.275C209.3 170.4125 200.2875 177.5 189.25 183C172.95 191.1375 156.0375 194.0625 138.75 191.725M145.25 142.1875C140.15 141.1875 138.5875 140.7625 135.875 139.6625C129.3125 136.9875 122.975 131.8375 118.875 125.8125C113.8 118.35 111.2375 107.0625 113.25 101C115.4 94.525 122.525 91.0375 129.0625 93.2625C134.0875 94.975 136.8125 98.8625 137.5375 105.325C138.2 111.1875 141 115.05 145.875 116.7875C153.7125 119.5875 162.5 113.35 162.5 105C162.5 98.4125 168.4125 92.5 175 92.5C180.0875 92.5 185.1375 96.15 186.75 101C187.75 104 187.55 109.7125 186.3125 114.25C182.3 128.8375 170.5125 139.625 156 141.9625C152.85 142.475 147.2875 142.5875 145.25 142.1875M145.7125 66.7C144.3125 66.2 131.225 55.6 104.375 33.225C70.1875 4.7375 64.9375 0.1875 63.9625 -1.825C61.525 -6.85 62.4125 -12.4375 66.225 -16.25C70.2625 -20.3 63.6875 -20 150 -20C236.3125 -20 229.7375 -20.3 233.7750000000001 -16.25C237.6125 -12.4125 238.475 -6.85 236 -1.7625C234.9875 0.35 230.275 4.4375 195.675 33.2625C165.1625 58.675 155.975 66.0875 154.15 66.7C151.325 67.6625 148.4375 67.6625 145.7125 66.7M170.25 21.875L190.2 5.25L170.1 5.125C159.05 5.05 140.975 5.05 129.95 5.125L109.8875 5.25L129.825 21.8625C140.7875 31 149.875 38.4875 150.025 38.4875C150.175 38.5 159.275 31.025 170.25 21.875" />
    <glyph glyph-name="airplay-video"
      unicode="&#xF103;"
      horiz-adv-x="300" d="M45.25 229.6875C40.15 228.6875 38.5875 228.2625 35.875 227.1625C24.8625 222.6875 16.5125 212.95 13.45 201C12.4125 196.925 12.4 63.1 13.45 59.0375C16.9875 45.225 26.675 35.325 40.75 31.1375C42.45 30.625 46.5375 30.3125 53.575 30.1375C65.7625 29.8375 67.775 30.25 71.25 33.725C76.15 38.625 76.1625 46.3625 71.2625 51.2625C68.0875 54.4375 65.825 55 56.25 55C46.675 55 44.4125 55.5625 41.225 58.75C37.2125 62.7625 37.475 57.65 37.6125 131.025L37.75 196.25L39.1375 198.6125C40.7 201.275 43.1125 203.3 45.875 204.2875C47.4125 204.8375 65.85 204.9625 149.7875 204.975C264.325 205 254.7 205.325 258.7625 201.2625C262.7625 197.2625 262.5 202.2875 262.5 130C262.5 57.7125 262.7625 62.7375 258.7625 58.7375C255.5875 55.5625 253.325 55 243.75 55C234.175 55 231.9125 54.4375 228.7375 51.2625C223.85 46.375 223.85 38.625 228.7375 33.7375C231.95 30.525 234.1375 30 244.2125 30C253.5 30.0125 257.4625000000001 30.475 262.175 32.1C274.1375 36.2375 283.35 46.4 286.55 59C287.5875000000001 63.0875 287.5875000000001 196.9125 286.55 200.9625C282.7125000000001 215.925 270.75 227.0875 256 229.4625C252.925 229.9625 47.75 230.175 45.25 229.6875M145.7125 66.7C144.3125 66.2 131.225 55.6 104.375 33.225C70.1875 4.7375 64.9375 0.1875 63.9625 -1.825C61.525 -6.85 62.4125 -12.4375 66.225 -16.25C70.2625 -20.3 63.6875 -20 150 -20C236.3125 -20 229.7375 -20.3 233.7750000000001 -16.25C237.6125 -12.4125 238.475 -6.85 236 -1.7625C234.9875 0.35 230.275 4.4375 195.675 33.2625C165.1625 58.675 155.975 66.0875 154.15 66.7C151.325 67.6625 148.4375 67.6625 145.7125 66.7M170.25 21.875L190.2 5.25L170.1 5.125C159.05 5.05 140.975 5.05 129.95 5.125L109.8875 5.25L129.825 21.8625C140.7875 31 149.875 38.4875 150.025 38.4875C150.175 38.5 159.275 31.025 170.25 21.875" />
    <glyph glyph-name="airpods"
      unicode="&#xF104;"
      horiz-adv-x="300" d="M66.25 229.4625C44.725 226.5375 26.4875 213.05 18.05 193.8125C10.4875 176.5625 10.75 156.375 18.7625 139.75C26.6625 123.375 40.45 111.9375 57.8625 107.3125L62.25 106.15L62.525 58.45C62.7625 16.775 62.8875 10.4375 63.5875 8.25C66.75 -1.7375 71.9125 -8.875 79.5 -13.7375C85.45 -17.55 90.6625 -19.3125 97.5 -19.8125C113.2125 -20.9625 128.2875 -11.6625 134.4875 3C137.4125 9.9375 137.2125 3.675 137.3875 90.5C137.5 145.9625 137.3875 171.725 137 175.075C133.925 202.2 114.3625 223.6 87.9125 228.7625C82.8875 229.7375 71.075 230.125 66.25 229.4625M216.25 229.4625C187.6625 225.575 166.2375 203.7 163 175.075C162.6125 171.725 162.5 145.9625 162.6125 90.5C162.7875 3.7625 162.575 10.2375 165.4625 3.0625C169.5625 -7.175 179.5 -15.775 190.75 -18.825C194.575 -19.8625 201.3 -20.2 205.4125 -19.55C220.3375 -17.225 231.6375 -7.0875 236.425 8.25C237.1 10.4125 237.25 17.125 237.475 58.4625L237.75 106.175L241.275 107.0375C271.325 114.425 290.9125 143.7875 286.975 175.5125C283.6125 202.55 264.1875 223.6375 237.9125 228.7625C232.8875 229.7375 221.075 230.125 216.25 229.4625M85.25 203.775C89.8125 202.5875 96.9 198.875 100.1375 195.9875C105.3 191.3625 109.3125 184.7125 111.3125 177.475C112.5625 172.9625 112.55 162.025 111.3125 157.5C107.675 144.3125 98.5875 135.075 85.65 131.4C82.6 130.5375 80.375 130.3 75.5 130.275C72.0625 130.2625 68.3875 130.4375 67.325 130.6625C65.1125 131.125 65.075 130.65 67.8875 137.5C71.85 147.1 73.6875 156.6 73.6875 167.5C73.6875 179.2375 71.8 188.4625 67.15 199.4C66.175 201.6875 65.5 203.675 65.65 203.8125C66.95 205.1125 80.225 205.0875 85.25 203.775M231.1875 204.5125C232.8125 204.25 234.2375 203.925 234.375 203.7875C234.5000000000001 203.6625 233.7125 201.45 232.6125 198.8875C223.9625 178.725 224.0375 156.2375 232.8375 135.6C233.8125 133.3125 234.5000000000001 131.3375 234.3625 131.2C233.675 130.5125 226.6875000000001 129.9125 222.5 130.175C208.45 131.05 197.325 138.25 191.5125 150.25C188.5 156.45 187.8 159.7 187.7875 167.5C187.775 173.0375 187.9875 174.9625 188.9125 178.225C193.55 194.45 207.275 204.7625 224.5 204.95C226.5625 204.975 229.575 204.775 231.1875 204.5125M46.725 182.2875C49.75 171.825 49.4875 161.225 45.9 150.025C44.1875 144.6625 44.2375 144.6625 41.4625 150.1C38.7375 155.45 37.775 159.975 37.7875 167.5C37.8 176.025 39.2875 181.7375 43.1 187.925L44.2 189.6875L44.85 188.0875C45.2125 187.2125 46.05 184.6 46.725 182.2875M258.7625 184.25C261.5250000000001 178.3875 262.2 175.075 262.2 167.5C262.2 159.925 261.5250000000001 156.6125 258.7625 150.75C255.8625 144.575 255.85 144.575 254.1 150.025C251.8875 156.9125 251.325 160.5 251.325 167.5C251.325 174.5 251.8875 178.0875 254.1 184.975C255.85 190.425 255.8625 190.425 258.7625 184.25M197.25 111.2C199.725 110.025 203.8875 108.4625 206.5 107.7375C209.1125 107.0125 211.525 106.3375 211.875 106.225C212.3625 106.075 212.5 100.4875 212.5 80.5125L212.5 55L200 55L187.5 55L187.5 85.9625L187.5 116.9375L190.125 115.15C191.5625 114.1625 194.775 112.3875 197.25 111.2M112.5 85.75L112.5 55L100 55L87.4875 55L87.625 80.5875L87.75 106.175L91.275 107.0375C96.275 108.275 102.1125 110.6125 106.75 113.2625C108.9375 114.5125 110.95 115.75 111.225 116.025C111.4875 116.2875 111.875 116.5 112.1 116.5C112.325 116.5 112.5 102.6625 112.5 85.75M112.5 22.8375C112.5 14.2625 111.85 11.825 108.7625 8.7375C103.875 3.85 96.125 3.85 91.2375 8.7375C88.15 11.825 87.5 14.2625 87.5 22.8375L87.5 30L100 30L112.5 30L112.5 22.8375M212.5 22.8375C212.5 14.2625 211.85 11.825 208.7625 8.7375C203.875 3.85 196.125 3.85 191.2375 8.7375C188.15 11.825 187.5 14.2625 187.5 22.8375L187.5 30L200 30L212.5 30L212.5 22.8375" />
    <glyph glyph-name="alarm"
      unicode="&#xF105;"
      horiz-adv-x="300" d="M58 241.65C56.1 240.9875 52.6125 237.75 35.3625 220.5625C21.05 206.3125 14.65 199.6 13.9 198.05C8.7 187.3125 19.8125 176.2 30.55 181.4C32.1 182.15 38.8 188.55 53.0625 202.8625C71.225 221.1 73.45 223.5125 74.1875 225.7125C75.8 230.575 74.7375 235.2875 71.2625 238.7625C67.7875 242.2375 62.8375 243.3125 58 241.65M145.5375 241.6375C144.325 241.2125 142.4 239.925 141.25 238.775C138.125 235.65 137.5 233.2625 137.5 224.425C137.5 215.925 138.3 217 131.25 216C110.45 213.0125 90.1375 204.225 72.5 190.575C67.0125 186.325 56.15 175.45 51.8875 169.9375C37.5625 151.45 29.2125 131.4625 25.9 107.75C25.0875 101.9375 25.0875 83.0625 25.9 77.25C28.7375 57.0125 35.0375 40 45.7625 23.6625L49.4375 18.075L43.475 0.1625C39.8 -10.875 37.5125 -18.5375 37.5 -19.7875C37.475 -29.25 47.4 -35.275 55.8625 -30.925C59.8 -28.8875 61 -26.775 65.0125 -14.65C67 -8.6625 68.7875 -3.575 68.975 -3.3625C69.175 -3.15 70.775 -4.1375 72.5375 -5.5625C86.075 -16.475 104.575 -25.35 122 -29.2625C132.4 -31.6 138.1 -32.2125 149.75 -32.225C167.375 -32.2375 180.9 -29.7125 196.6 -23.4625C206.825 -19.3875 219.2875 -12.1625 227.4625 -5.5625C229.225 -4.1375 230.825 -3.15 231.025 -3.3625C231.2125 -3.575 233 -8.6625 234.9875 -14.65C239 -26.775 240.2 -28.8875 244.1375 -30.925C252.6 -35.275 262.525 -29.25 262.5 -19.7875C262.4875 -18.5375 260.2 -10.875 256.525 0.1625L250.5625000000001 18.075L254.2375 23.6625C264.7625 39.7125 270.775 55.6125 273.825 75.5C274.9125 82.525 275.0625 100.9125 274.1 107.75C271.875 123.6 267.4875 137.575 260.6875 150.4625C244.8875 180.425 218.2125 202.425 185.85 212.2C180.2875 213.8875 172.0375 215.6875 167.25 216.25C162 216.8875 162.5 216.025 162.5 224.425C162.5 233.2625 161.875 235.65 158.7625 238.7625C155.3 242.2375 150.3 243.325 145.5375 241.6375M233.0375 241.6375C228.6375 240.0875 225 234.825 225 230C225 229 225.3625 227.075 225.8125000000001 225.7125C226.55 223.5125 228.775 221.1 246.9375 202.8625C261.2 188.55 267.9 182.15 269.45 181.4C280.1875 176.2 291.3 187.3125 286.1 198.05C285.35 199.6 278.95 206.3 264.6375 220.5625C246.4 238.725 243.9875 240.95 241.7875 241.6875C238.7625 242.6875 235.95 242.675 233.0375 241.6375M159.9 191.9875C182.7 189.55 203.1125 180.0625 219.425 164.3C241.3125 143.175 252.4625 112.9875 249.4875 82.925C247.2375 60.2 237.6625 39.4875 221.8 23.075C213.625 14.6 204.55 8 193.75 2.7C156.4375 -15.625 111.575 -8.725 81.3125 20C49.525 50.175 40.9875 97.1375 60.2 136.25C65.275 146.5875 70.475 153.9625 78.45 162.1625C99.6125 183.9375 130.225 195.15 159.9 191.9875M188.225 147.2625C186.35 146.3375 180.05 140.3125 162.4375 122.6375C141.4875 101.6125 139.05 99 138.3125 96.7875C136.7 91.925 137.7625 87.2125 141.2375 83.7375C144.7125 80.2625 149.425 79.2 154.2875 80.8125C156.5 81.55 159.1125 83.9875 180.1375 104.9375C205.725 130.4375 206 130.7625 206 136.1125C206 143.3875 200.9375 148.4875 193.725 148.5C191.5 148.5 190.0375 148.175 188.225 147.2625" />
    <glyph glyph-name="align-bottom"
      unicode="&#xF106;"
      horiz-adv-x="300" d="M70.5375 241.6375C69.325 241.2125 67.4 239.925 66.25 238.775C62.1625 234.7 62.5 244.3125 62.5 130C62.5 15.7 62.175 25.3 66.2375 21.2375C70.0125 17.4625 69.6625 17.5 100 17.5C130.3375 17.5 129.9875 17.4625 133.7625 21.2375C137.825 25.3 137.5 15.7 137.5 130C137.5 244.3 137.825 234.7 133.7625 238.7625C129.975 242.55 130.375 242.5 99.7875 242.4625C76.65 242.425 72.4375 242.3125 70.5375 241.6375M112.5 130L112.5 42.5L100 42.5L87.5 42.5L87.5 130L87.5 217.5L100 217.5L112.5 217.5L112.5 130M170.5375 166.6375C169.325 166.2125 167.4 164.925 166.25 163.775C162.2375 159.7625 162.5 164.8 162.5 92.5C162.5 20.2125 162.2375 25.2375 166.2375 21.2375C170.0125 17.4625 169.6625 17.5 200 17.5C230.3375 17.5 229.9875 17.4625 233.7625 21.2375C237.7625 25.2375 237.5 20.2125 237.5 92.5C237.5 164.7875 237.7625 159.7625 233.7625 163.7625C229.975 167.55 230.375 167.5 199.7875 167.4625C176.65 167.425 172.4375 167.3125 170.5375 166.6375M212.5 92.5L212.5 42.5L200 42.5L187.5 42.5L187.5 92.5L187.5 142.5L200 142.5L212.5 142.5L212.5 92.5M33.0375 -8.3625C28.6375 -9.9125 25 -15.175 25 -20C25 -23.025 26.4875 -26.5125 28.7375 -28.7625C32.8125 -32.8375 21.7 -32.5 150 -32.5C278.3 -32.5 267.1875 -32.8375 271.2625 -28.7625C276.15 -23.875 276.15 -16.125 271.2625 -11.2375C267.1875 -7.15 278.35 -7.5 149.7875 -7.5375C47.3875 -7.575 35.0125 -7.6625 33.0375 -8.3625" />
    <glyph glyph-name="align-horizontal-center"
      unicode="&#xF107;"
      horiz-adv-x="300" d="M145.5375 229.1375C142.5875 228.1 139.3625 224.8 138.325 221.75C137.5625 219.5125 137.5 210.1 137.5 105C137.5 -23.3 137.1625 -12.1875 141.2375 -16.2625C146.125 -21.15 153.875 -21.15 158.7625 -16.2625C162.8375 -12.1875 162.5 -23.3 162.5 105C162.5 233.3 162.8375 222.1875 158.7625 226.2625C155.3 229.7375 150.3 230.825 145.5375 229.1375M45.5375 191.6375C44.325 191.2125 42.4 189.925 41.25 188.775C37.4625 184.9875 37.5 185.35 37.5 155C37.5 124.6625 37.4625 125.0125 41.2375 121.2375C45.0125 117.4625 44.6625 117.5 75 117.5C105.3375 117.5 104.9875 117.4625 108.7625 121.2375C113.65 126.125 113.65 133.875 108.7625 138.7625C105.1125 142.425 104.525 142.5 82.1625 142.5L62.5 142.5L62.5 155L62.5 167.5L82.1625 167.5C104.525 167.5 105.1125 167.575 108.7625 171.2375C113.65 176.125 113.65 183.875 108.7625 188.7625C104.975 192.55 105.375 192.5 74.7875 192.4625C51.65 192.425 47.4375 192.3125 45.5375 191.6375M195.5375 191.6375C191.1375 190.0875 187.5 184.825 187.5 180C187.5 176.975 188.9875 173.4875 191.2375 171.2375C194.8875 167.575 195.475 167.5 217.8375 167.5L237.5 167.5L237.5 155L237.5 142.5L217.8375 142.5C195.475 142.5 194.8875 142.425 191.2375 138.7625C186.35 133.875 186.35 126.125 191.2375 121.2375C195.0125 117.4625 194.6625 117.5 225 117.5C255.3375 117.5 254.9875 117.4625 258.7625 121.2375C262.5375 125.0125 262.5 124.6625 262.5 155C262.5 185.3375 262.5375 184.9875 258.7625 188.7625C254.975 192.55 255.375 192.5 224.7875 192.4625C201.65 192.425 197.4375 192.3125 195.5375 191.6375M70.5375 91.6375C69.325 91.2125 67.4 89.925 66.25 88.775C62.4625 84.9875 62.5 85.35 62.5 55C62.5 24.6625 62.4625 25.0125 66.2375 21.2375C69.7375 17.725 71.05 17.5 87.5 17.5C103.95 17.5 105.2625 17.725 108.7625 21.2375C113.65 26.125 113.65 33.875 108.7625 38.7625C105.675 41.85 103.2375 42.5 94.6625 42.5L87.5 42.5L87.5 55L87.5 67.5L94.6625 67.5C103.2375 67.5 105.675 68.15 108.7625 71.2375C113.65 76.125 113.65 83.875 108.7625 88.7625C105.2375 92.2875 103.975 92.5 87.2875 92.4625C75.475 92.425 72.3375 92.275 70.5375 91.6375M195.5375 91.6375C191.1375 90.0875 187.5 84.825 187.5 80C187.5 76.975 188.9875 73.4875 191.2375 71.2375C194.325 68.15 196.7625 67.5 205.3375 67.5L212.5 67.5L212.5 55L212.5 42.5L205.3375 42.5C196.7625 42.5 194.325 41.85 191.2375 38.7625C186.35 33.875 186.35 26.125 191.2375 21.2375C194.7375 17.725 196.05 17.5 212.5 17.5C228.95 17.5 230.2625 17.725 233.7625 21.2375C237.5375 25.0125 237.5 24.6625 237.5 55C237.5 85.3375 237.5375 84.9875 233.7625 88.7625C230.2375 92.2875 228.975 92.5 212.2875 92.4625C200.475 92.425 197.3375 92.275 195.5375 91.6375" />
    <glyph glyph-name="align-left"
      unicode="&#xF108;"
      horiz-adv-x="300" d="M20.5375 229.1375C17.5875 228.1 14.3625 224.8 13.325 221.75C12.5625 219.5125 12.5 210.1 12.5 105C12.5 -23.3 12.1625 -12.1875 16.2375 -16.2625C21.125 -21.15 28.875 -21.15 33.7625 -16.2625C37.8375 -12.1875 37.5 -23.3 37.5 105C37.5 233.3 37.8375 222.1875 33.7625 226.2625C30.3 229.7375 25.3 230.825 20.5375 229.1375M70.5375 191.6375C69.325 191.2125 67.4 189.925 66.25 188.775C62.4625 184.9875 62.5 185.35 62.5 155C62.5 124.6625 62.4625 125.0125 66.2375 121.2375C70.3 117.175 60.7 117.5 175 117.5C289.3 117.5 279.7 117.175 283.7625 121.2375C287.5375 125.0125 287.5 124.6625 287.5 155C287.5 185.3375 287.5375 184.9875 283.7625 188.7625C279.7 192.8375 289.3375 192.5 174.7875 192.4625C83.7125 192.425 72.5125 192.3375 70.5375 191.6375M262.5 155L262.5 142.5L175 142.5L87.5 142.5L87.5 155L87.5 167.5L175 167.5L262.5 167.5L262.5 155M70.5375 91.6375C69.325 91.2125 67.4 89.925 66.25 88.775C62.4625 84.9875 62.5 85.35 62.5 55C62.5 24.6625 62.4625 25.0125 66.2375 21.2375C70.2375 17.2375 65.2125 17.5 137.5 17.5C209.7875 17.5 204.7625 17.2375 208.7625 21.2375C212.5375 25.0125 212.5 24.6625 212.5 55C212.5 85.3375 212.5375 84.9875 208.7625 88.7625C204.7625 92.7625 209.825 92.5 137.2875 92.4625C80.175 92.425 72.5 92.3375 70.5375 91.6375M187.5 55L187.5 42.5L137.5 42.5L87.5 42.5L87.5 55L87.5 67.5L137.5 67.5L187.5 67.5L187.5 55" />
    <glyph glyph-name="align-right"
      unicode="&#xF109;"
      horiz-adv-x="300" d="M270.5375 229.1375C267.5875 228.1 264.3625 224.8 263.325 221.75C262.5625 219.5125 262.5 210.1 262.5 105C262.5 -23.3 262.1625 -12.1875 266.2375 -16.2625C271.125 -21.15 278.875 -21.15 283.7625 -16.2625C287.8375000000001 -12.1875 287.5 -23.3 287.5 105C287.5 233.3 287.8375000000001 222.1875 283.7625 226.2625C280.3 229.7375 275.3 230.825 270.5375 229.1375M20.5375 191.6375C19.325 191.2125 17.4 189.925 16.25 188.775C12.4625 184.9875 12.5 185.35 12.5 155C12.5 124.6625 12.4625 125.0125 16.2375 121.2375C20.3 117.175 10.7 117.5 125 117.5C239.3 117.5 229.7 117.175 233.7625 121.2375C237.5375 125.0125 237.5 124.6625 237.5 155C237.5 185.3375 237.5375 184.9875 233.7625 188.7625C229.7 192.8375 239.3375 192.5 124.7875 192.4625C33.7125 192.425 22.5125 192.3375 20.5375 191.6375M212.5 155L212.5 142.5L125 142.5L37.5 142.5L37.5 155L37.5 167.5L125 167.5L212.5 167.5L212.5 155M95.5375 91.6375C94.325 91.2125 92.4 89.925 91.25 88.775C87.4625 84.9875 87.5 85.35 87.5 55C87.5 24.6625 87.4625 25.0125 91.2375 21.2375C95.2375 17.2375 90.2125 17.5 162.5 17.5C234.7875 17.5 229.7625 17.2375 233.7625 21.2375C237.5375 25.0125 237.5 24.6625 237.5 55C237.5 85.3375 237.5375 84.9875 233.7625 88.7625C229.7625 92.7625 234.825 92.5 162.2875 92.4625C105.175 92.425 97.5 92.3375 95.5375 91.6375M212.5 55L212.5 42.5L162.5 42.5L112.5 42.5L112.5 55L112.5 67.5L162.5 67.5L212.5 67.5L212.5 55" />
    <glyph glyph-name="align-to-bottom"
      unicode="&#xF10A;"
      horiz-adv-x="300" d="M145.5375 241.6375C144.325 241.2125 142.4 239.925 141.25 238.775C137.2 234.725 137.5 241.625 137.5 152.3L137.5 72.7625L103.375 106.825C72.35 137.7875 69.025 140.95 66.7875 141.6875C61.9125 143.3 57.2125 142.2375 53.7375 138.7625C50.2625 135.2875 49.2125 130.5875 50.8125 125.7125C51.55 123.4625 55.5125 119.35 96.9375 77.825C146.125 28.5125 144.4625 30.0125 150 30.0125C155.5375 30.0125 153.875 28.5125 203.0625 77.825C244.4875 119.35 248.45 123.4625 249.1875 125.7125C250.7875 130.5875 249.7375 135.2875 246.2625 138.7625C242.7875 142.2375 238.0875 143.3 233.2125 141.6875C230.975 140.95 227.65 137.7875 196.625 106.825L162.5 72.7625L162.5 152.3C162.5 241.6125 162.8 234.725 158.7625 238.7625C155.3 242.2375 150.3 243.325 145.5375 241.6375M33.0375 -8.3625C28.6375 -9.9125 25 -15.175 25 -20C25 -23.025 26.4875 -26.5125 28.7375 -28.7625C32.8125 -32.8375 21.7 -32.5 150 -32.5C278.3 -32.5 267.1875 -32.8375 271.2625 -28.7625C276.15 -23.875 276.15 -16.125 271.2625 -11.2375C267.1875 -7.15 278.35 -7.5 149.7875 -7.5375C47.3875 -7.575 35.0125 -7.6625 33.0375 -8.3625" />
    <glyph glyph-name="align-to-middle"
      unicode="&#xF10B;"
      horiz-adv-x="300" d="M145.5375 241.6375C142.5875 240.6 139.3625 237.3 138.325 234.25C137.6 232.125 137.5 228.9 137.5 208.5625L137.5 185.3125L128.375 194.325C120.65 201.9625 118.875 203.475 116.7875 204.175C111.9375 205.8 107.225 204.75 103.7375 201.2625C100.2625 197.7875 99.2 193.075 100.8125 188.2125C101.55 186.0125 103.8 183.575 121.9375 165.325C144.125 143.0125 144.7375 142.5125 150 142.5125C155.2625 142.5125 155.875 143.0125 178.0625 165.325C196.2 183.575 198.45 186.0125 199.1875 188.2125C200.8 193.075 199.7375 197.7875 196.2625 201.2625C192.775 204.75 188.0625 205.8 183.2125 204.175C181.125 203.475 179.35 201.9625 171.625 194.325L162.5 185.3125L162.5 208.5625C162.5 234.9375 162.4875 235.0375 158.7625 238.7625C155.3 242.2375 150.3 243.325 145.5375 241.6375M33.0375 116.6375C28.6375 115.0875 25 109.825 25 105C25 101.975 26.4875 98.4875 28.7375 96.2375C32.8125 92.1625 21.7 92.5 150 92.5C278.3 92.5 267.1875 92.1625 271.2625 96.2375C276.15 101.125 276.15 108.875 271.2625 113.7625C267.1875 117.85 278.35 117.5 149.7875 117.4625C47.3875 117.425 35.0125 117.3375 33.0375 116.6375M144.75 66.3C142.7875 65.375 137.85 60.6875 121.9375 44.675C103.8 26.425 101.55 23.9875 100.8125 21.7875C99.2 16.925 100.2625 12.2125 103.7375 8.7375C107.225 5.25 111.9375 4.2 116.7875 5.825C118.875 6.525 120.65 8.0375 128.375 15.675L137.5 24.6875L137.5 1.4375C137.5 -24.9375 137.5125 -25.0375 141.2375 -28.7625C143.4875 -31.0125 146.975 -32.5 150 -32.5C153.025 -32.5 156.5125 -31.0125 158.7625 -28.7625C162.4875 -25.0375 162.5 -24.9375 162.5 1.4375L162.5 24.6875L171.625 15.675C179.35 8.0375 181.125 6.525 183.2125 5.825C188.0625 4.2 192.775 5.25 196.2625 8.7375C199.7375 12.2125 200.8 16.925 199.1875 21.7875C198.45 23.9875 196.2 26.425 178.0625 44.675C155.875 66.9875 155.2625 67.4875 150 67.4875C148.1375 67.4875 146.4375 67.1 144.75 66.3" />
    <glyph glyph-name="align-to-top"
      unicode="&#xF10C;"
      horiz-adv-x="300" d="M33.0375 241.6375C28.6375 240.0875 25 234.825 25 230C25 226.975 26.4875 223.4875 28.7375 221.2375C32.8125 217.1625 21.7 217.5 150 217.5C278.3 217.5 267.1875 217.1625 271.2625 221.2375C276.15 226.125 276.15 233.875 271.2625 238.7625C267.1875 242.85 278.35 242.5 149.7875 242.4625C47.3875 242.425 35.0125 242.3375 33.0375 241.6375M144.75 178.8C142.7375 177.8375 133.4 168.7375 96.9375 132.175C55.5125 90.65 51.55 86.5375 50.8125 84.2875C49.2125 79.4125 50.2625 74.7125 53.7375 71.2375C57.2125 67.7625 61.9125 66.7 66.7875 68.3125C69.025 69.05 72.35 72.2125 103.375 103.175L137.5 137.2375L137.5 57.7C137.5 -31.6125 137.2 -24.725 141.2375 -28.7625C146.125 -33.65 153.875 -33.65 158.7625 -28.7625C162.8 -24.725 162.5 -31.6125 162.5 57.7L162.5 137.2375L196.625 103.175C227.65 72.2125 230.975 69.05 233.2125 68.3125C238.0875 66.7 242.7875 67.7625 246.2625 71.2375C249.7375 74.7125 250.7875 79.4125 249.1875 84.2875C248.45 86.5375 244.4875 90.65 203.0625 132.175C153.875 181.4875 155.5375 179.9875 150 179.9875C148.1375 179.9875 146.45 179.6125 144.75 178.8" />
    <glyph glyph-name="align-top"
      unicode="&#xF10D;"
      horiz-adv-x="300" d="M33.0375 241.6375C28.6375 240.0875 25 234.825 25 230C25 226.975 26.4875 223.4875 28.7375 221.2375C32.8125 217.1625 21.7 217.5 150 217.5C278.3 217.5 267.1875 217.1625 271.2625 221.2375C276.15 226.125 276.15 233.875 271.2625 238.7625C267.1875 242.85 278.35 242.5 149.7875 242.4625C47.3875 242.425 35.0125 242.3375 33.0375 241.6375M70.5375 191.6375C69.325 191.2125 67.4 189.925 66.25 188.775C62.1625 184.7 62.5 194.3125 62.5 80C62.5 -34.3 62.175 -24.7 66.2375 -28.7625C70.0125 -32.5375 69.6625 -32.5 100 -32.5C130.3375 -32.5 129.9875 -32.5375 133.7625 -28.7625C137.825 -24.7 137.5 -34.3 137.5 80C137.5 194.3 137.825 184.7 133.7625 188.7625C129.975 192.55 130.375 192.5 99.7875 192.4625C76.65 192.425 72.4375 192.3125 70.5375 191.6375M170.5375 191.6375C169.325 191.2125 167.4 189.925 166.25 188.775C162.2375 184.7625 162.5 189.8 162.5 117.5C162.5 45.2125 162.2375 50.2375 166.2375 46.2375C170.0125 42.4625 169.6625 42.5 200 42.5C230.3375 42.5 229.9875 42.4625 233.7625 46.2375C237.7625 50.2375 237.5 45.2125 237.5 117.5C237.5 189.7875 237.7625 184.7625 233.7625 188.7625C229.975 192.55 230.375 192.5 199.7875 192.4625C176.65 192.425 172.4375 192.3125 170.5375 191.6375M112.5 80L112.5 -7.5L100 -7.5L87.5 -7.5L87.5 80L87.5 167.5L100 167.5L112.5 167.5L112.5 80M212.5 117.5L212.5 67.5L200 67.5L187.5 67.5L187.5 117.5L187.5 167.5L200 167.5L212.5 167.5L212.5 117.5" />
    <glyph glyph-name="align-vertical-center"
      unicode="&#xF10E;"
      horiz-adv-x="300" d="M70.5375 216.6375C69.325 216.2125 67.4 214.925 66.25 213.775C62.4625 209.9875 62.5 210.35 62.5 180C62.5 149.6625 62.4625 150.0125 66.2375 146.2375C71.125 141.35 78.875 141.35 83.7625 146.2375C87.425 149.8875 87.5 150.475 87.5 172.8375L87.5 192.5L100 192.5L112.5 192.5L112.5 172.8375C112.5 150.475 112.575 149.8875 116.2375 146.2375C121.125 141.35 128.875 141.35 133.7625 146.2375C137.5375 150.0125 137.5 149.6625 137.5 180C137.5 210.3375 137.5375 209.9875 133.7625 213.7625C129.975 217.55 130.375 217.5 99.7875 217.4625C76.65 217.425 72.4375 217.3125 70.5375 216.6375M170.5375 191.6375C167.5875 190.6 164.3625 187.3 163.325 184.25C162.6375 182.2125 162.5 179.525 162.5 167.5C162.5 151.05 162.725 149.7375 166.2375 146.2375C171.125 141.35 178.875 141.35 183.7625 146.2375C186.85 149.325 187.5 151.7625 187.5 160.3375L187.5 167.5L200 167.5L212.5 167.5L212.5 160.3375C212.5 151.7625 213.15 149.325 216.2375 146.2375C221.125 141.35 228.875 141.35 233.7625 146.2375C237.275 149.7375 237.5 151.05 237.5 167.5C237.5 183.95 237.275 185.2625 233.7625 188.7625C229.975 192.55 230.375 192.5 199.7875 192.4625C176.65 192.425 172.4375 192.3125 170.5375 191.6375M33.0375 116.6375C28.6375 115.0875 25 109.825 25 105C25 101.975 26.4875 98.4875 28.7375 96.2375C32.8125 92.1625 21.7 92.5 150 92.5C278.3 92.5 267.1875 92.1625 271.2625 96.2375C276.15 101.125 276.15 108.875 271.2625 113.7625C267.1875 117.85 278.35 117.5 149.7875 117.4625C47.3875 117.425 35.0125 117.3375 33.0375 116.6375M70.5375 66.6375C69.325 66.2125 67.4 64.925 66.25 63.775C62.4625 59.9875 62.5 60.35 62.5 30C62.5 -0.3375 62.4625 0.0125 66.2375 -3.7625C70.0125 -7.5375 69.6625 -7.5 100 -7.5C130.3375 -7.5 129.9875 -7.5375 133.7625 -3.7625C137.5375 0.0125 137.5 -0.3375 137.5 30C137.5 60.3375 137.5375 59.9875 133.7625 63.7625C128.875 68.65 121.125 68.65 116.2375 63.7625C112.575 60.1125 112.5 59.525 112.5 37.1625L112.5 17.5L100 17.5L87.5 17.5L87.5 37.1625C87.5 59.525 87.425 60.1125 83.7625 63.7625C80.3 67.2375 75.3 68.325 70.5375 66.6375M170.5375 66.6375C167.5875 65.6 164.3625 62.3 163.325 59.25C162.6375 57.2125 162.5 54.525 162.5 42.5C162.5 26.05 162.725 24.7375 166.2375 21.2375C170.0125 17.4625 169.6625 17.5 200 17.5C230.3375 17.5 229.9875 17.4625 233.7625 21.2375C237.275 24.7375 237.5 26.05 237.5 42.5C237.5 58.95 237.275 60.2625 233.7625 63.7625C228.875 68.65 221.125 68.65 216.2375 63.7625C213.15 60.675 212.5 58.2375 212.5 49.6625L212.5 42.5L200 42.5L187.5 42.5L187.5 49.6625C187.5 58.2375 186.85 60.675 183.7625 63.7625C180.3 67.2375 175.3 68.325 170.5375 66.6375" />
    <glyph glyph-name="android-fill"
      unicode="&#xF10F;"
      horiz-adv-x="300" d="M52.7 190.8C51.4625 189.5625 51 188.6625 51 187.4625C51 186.2375 53.9375 180.7125 62.6875 165.5375C69.125 154.375 74.875 144.425 75.475 143.4125L76.55 141.575L72.9 139.4625C55.8625 129.5875 39.0125 114.2875 27.4125 98.1875C15.6125 81.7875 7.0625 62.325 2.8 42.1375C1.75 37.1875 0 25.8 0 23.975C0 23.675 55.75 23.5 150.0375 23.5L300.075 23.5L299.75 26.375C299.5625 27.9625 299.075 31.5 298.6625 34.25C293.3625 69.6875 274.525 102.9125 246.8625 125.675C241.4 130.1625 231.1875 137.2625 226.625 139.7375C225.1875 140.5125 224 141.375 224 141.6375C224 141.9 229.4375 151.4875 236.0875 162.9375C242.7375 174.3875 248.5 184.575 248.9 185.5875C249.55 187.25 249.5375 187.6 248.6875 189.3375C247.975 190.7875 247.2625 191.425 245.6875 191.9625C241.7625 193.325 241.775 193.35 227.35 168.475C220.2625 156.25 214.1875 146.2875 213.85 146.35C213.525 146.4 210.4375 147.6 207 149.0125C178.55 160.6875 143.4 162.975 112.4125 155.1875C104.825 153.2875 94.2375 149.775 89.125 147.475L86 146.0625L84.0375 149.4125C82.95 151.25 77.1125 161.3 71.075 171.75C63.25 185.2875 59.675 191 58.6625 191.625C56.45 192.9875 54.6375 192.7375 52.7 190.8M86.2625 90.0625C90.7 88.05 93.475 83.75 93.4875 78.8625C93.5125 73.875 91.3125 70.15 86.975 67.7875C82.3625 65.275 76.75 65.9125 72.9 69.4C69.875 72.1375 68.775 74.6125 68.775 78.75C68.775 81.375 69.05 82.7625 69.8625 84.3C71.0875 86.6125 73.925 89.3 76.2125 90.2875C78.475 91.275 83.85 91.1625 86.2625 90.0625M225.775 89.2375C229.2 87.1125 231.15 83.8375 231.4125 79.75C231.75 74.3 229.6 70.3 224.975 67.775C218.1375 64.0625 209.4875 67.6125 207.275 75.0625C206.3125 78.3 206.3125 79.175 207.2375 82.3C208.15 85.3875 210.7875 88.5375 213.6125 89.9375C215.325 90.7875 216.5 90.975 219.5375 90.875C222.7625 90.775 223.7 90.525 225.775 89.2375" />
    <glyph glyph-name="angular-fill"
      unicode="&#xF110;"
      horiz-adv-x="300" d="M87.5125 219.7125C53.2875 207.1875 25.225 196.8875 25.15 196.8125C24.875 196.5375 44.0625 27.7375 44.4 27.45C44.5875 27.2875 68.4375 13.725 97.3875 -2.6875L150.025 -32.5125L202.6375 -2.6875C231.575 13.7125 255.4125 27.2625 255.6 27.4375C255.95 27.75 275.1125 196.55 274.825 196.8375C274.625 197.0375 151.5125 242.05 150.5 242.3C150.0875 242.4 121.75 232.2375 87.5125 219.7125M189.0125 122.425C210.3125 73.4375 227.825 33.1625 227.925 32.925C228.0125 32.675 221.6625 32.5375 213.475 32.6125L198.85 32.75L191.025 52.75L183.2 72.75L150 72.75L116.8 72.75L108.975 52.75L101.15 32.75L86.525 32.6125C78.3375 32.5375 71.9875 32.675 72.075 32.925C73.5625 36.7625 149.8125 211.5 150 211.5C150.15 211.5 167.7 171.4125 189.0125 122.425M138.575 125.625C132.475 110.5625 127.4875 98.0875 127.4875 97.875C127.5 97.3875 172.5 97.3875 172.5125 97.875C172.525 98.6375 150.325 153 150 153C149.8125 153 144.6625 140.675 138.575 125.625" />
    <glyph glyph-name="arrow-back-thick-fill"
      unicode="&#xF111;"
      horiz-adv-x="300" d="M108.425 241.7625C107.4125 241.3875 105.9875 240.6875 105.2375 240.2C103.875 239.3 15.925 126.625 13.85 123.125C12.975 121.6375 12.75 120.475 12.75 117.5C12.75 114.3 12.95 113.4125 14.1125 111.5C14.85 110.2625 35.4375 83.6125 59.8625 52.2625C100.1375 0.55 104.475 -4.825 106.6375 -5.9375C111.6625 -8.4875 117.375 -7.65 121.25 -3.775C125.025 0 125 -0.25 125 29.0875L125 55L130.875 54.725C144.925 54.075 154.8625 53.375 163.5 52.45C212.05 47.1875 241.775 33.4875 253.45 11C256.95 4.25 259.3375 -3.75 261.5250000000001 -16C262.975 -24.1125 263.775 -26.3 266.225 -28.75C271.125 -33.65 278.8625 -33.6625 283.7625 -28.7625C287.1500000000001 -25.375 287.5125 -23.6375 287.85 -9.25C289.5625 65.375 263.2750000000001 124.0625 214.5375 154.3875C191.65 168.625 161.675 177.5875 131.125 179.3L125 179.65L125 205.7375C125 235.2625 125.025 235 121.2625 238.7625C117.9 242.125 112.7125 243.3375 108.425 241.7625" />
    <glyph glyph-name="arrow-back-thick"
      unicode="&#xF112;"
      horiz-adv-x="300" d="M108.425 241.7625C107.4125 241.3875 105.9875 240.6875 105.2375 240.2C103.625 239.1375 15.2 125.625 13.8 122.825C12.45 120.1125 12.225 116.6 13.1875 113.675C13.8125 111.8125 24.4125 97.8625 59.125 53.2625C100.1125 0.6 104.475 -4.825 106.6375 -5.9375C111.6625 -8.4875 117.375 -7.65 121.25 -3.775C125.025 0 125 -0.25 125 29.1L125 55.025L131.125 54.75C152.05 53.775 163.675 52.75 177 50.7C207.675 46 229.6875 37.35 242.8875 24.8125C252.5125 15.6625 257.5125 5.2125 260.95 -13C263.125 -24.5375 263.6875 -26.2125 266.2 -28.725C271.125 -33.65 278.85 -33.675 283.7625 -28.7625C287.1500000000001 -25.375 287.5125 -23.6375 287.85 -9.25C289.4000000000001 58.05 267.9875 113.0125 227.75 145.05C202.6875 165 168.2375 177.2125 131.125 179.3L125 179.65L125 205.7375C125 235.2625 125.025 235 121.2625 238.7625C117.9 242.125 112.7125 243.3375 108.425 241.7625M101.425 161.875C102.8375 158.9875 105.45 156.75 108.4875 155.8C109.925 155.35 114.2875 154.975 120.5 154.7875C188.5625 152.6875 232.8125 122.9625 252.3125 66.25C254.4625 60.025 258 47.2375 258 45.725C258 45.2875 256.7625 46.0125 254.875 47.5375C236.325 62.5875 207.25 72.575 169.25 76.975C145.7625 79.6875 113.3 80.8875 108.4375 79.2375C105.375 78.1875 102.825 75.9625 101.425 73.125C100.3 70.8375 100.2375 70.175 100 56.2625L99.75 41.775L70.5 79.3875C54.4125 100.075 41.25 117.225 41.25 117.5C41.25 117.775 54.4125 134.925 70.5 155.6125L99.75 193.225L100 178.7375C100.2375 164.825 100.3 164.1625 101.425 161.875" />
    <glyph glyph-name="arrow-back"
      unicode="&#xF113;"
      horiz-adv-x="300" d="M95.5 204.15C93.5625 203.4875 88.6625 198.8 60.325 170.5625C24.525 134.8875 25.0125 135.45 25.0125 130C25.0125 124.55 24.525 125.1125 60.325 89.4375C90.2125 59.65 93.475 56.55 95.7125 55.8125C100.5875 54.2 105.2875 55.2625 108.7625 58.7375C112.2375 62.2125 113.3 66.925 111.6875 71.7875C110.95 74 108.6375 76.4875 89.325 95.875L67.775 117.5L105.3 117.5C128.0375 117.5 144.975 117.2875 148.2875 116.9625C192.4375 112.675 230.425 82.3625 244.225 40.3875C248.45 27.55 250 16.875 250 0.5C250 -10.9875 250.4375 -12.9625 253.7375 -16.2625C258.6375 -21.1625 266.375 -21.15 271.2750000000001 -16.25C274.9125 -12.6125 275.175 -11.05 274.85 4.7125C274.6500000000001 14.6375 274.3 20.025 273.5625 24.9C270.45 45.175 263.5375 63.4 252.6375 80C246.6625 89.1 242.8875 93.6875 234.275 102.2625C212.8625 123.6375 188.05 136.1875 157.5 141.1C151.05 142.1375 148.925 142.1875 109.3 142.375L67.8375 142.5625L89.35 164.1625C108.6375 183.5125 110.95 186 111.6875 188.2125C113.3 193.075 112.2375 197.7875 108.7625 201.2625C105.3 204.7375 100.35 205.8125 95.5 204.15" />
    <glyph glyph-name="arrow-clockwise"
      unicode="&#xF114;"
      horiz-adv-x="300" d="M139 229.675C117.15 227.625 98.15 221.1125 81.1125 209.8C51.125 189.9 31.7875 159.175 26.175 122.5C25.075 115.3125 24.9375 96.6125 25.925 89.5C30.5625 56.35 46.0625 28.0875 70.65 7.9375C115.725 -29 179.375 -29.2375 224.75 7.35C237.5375 17.65 250.95 34.3125 257.3875 47.8625C258.9375 51.15 259.0875 51.8375 258.9125 54.9375C258.5375 61.7125 254.1125 66.075 247.2625 66.425C241.2625 66.725 237.675 64.3125 234.4125 57.8C231.25 51.5 225.4375 43.2375 219.6125 36.7625C207.5125 23.325 189.975 12.8 171.75 8.025C147.6125 1.7 120.1125 5.7375 98.3625 18.8125C76.9625 31.675 60.825 52.975 53.7625 77.7C51.1375 86.9 50.3 93.3625 50.2875 104.75C50.275 116.0375 50.675 119.5625 53.025 129.25C57.525 147.8125 66.75 163.8875 80.5625 177.2625C89.3875 185.8125 95.9 190.35 106.75 195.525C125.875 204.65 146.725 207.2125 167.3625 202.975C185.625 199.2375 201.1 190.9125 214.2625 177.7625C220.4875 171.55 226.8 163.8125 225.8125000000001 163.6C225.4375 163.5125 216.875 164.925 206.8 166.725C193.8125 169.0625 187.9125 169.9125 186.4875 169.6875C183.35 169.1875 179.5 166.6 177.8 163.8375C176.075 161.0375 175.55 157.0125 176.475 153.575C177.125 151.2 180.3 147.3875 182.65 146.175C184.8125 145.05 249.75 133.4 252.5 133.6375C256.825 134.0125 260.9375 136.9375 262.675 140.875C263.9875 143.85 275.1375 208.7625 274.8125 211.5875C273.6875 221.6375 261.225 226.1 253.825 219.1C250.8125000000001 216.2375 250.925 216.7 244.875 181.5375C244.8 181.15 243.775 182.1125 242.5875 183.6875C239.0875 188.325 227.65 199.8375 222.25 204.1625C207.5375 215.95 190.7375 223.7625 172.0875 227.4875C161.2375 229.65 148.05 230.525 139 229.675" />
    <glyph glyph-name="arrow-counter-clockwise"
      unicode="&#xF115;"
      horiz-adv-x="300" d="M140 229.45C117.4125 227.1625 94.5875 217.85 77.25 203.85C72.5875 200.1 60.5875 187.9 57.425 183.7125C56.225 182.125 55.2 181.15 55.125 181.5375C49.075 216.7 49.1875 216.2375 46.175 219.1C38.775 226.1 26.3125 221.6375 25.1875 211.5875C24.8625 208.775 36.0125 143.85 37.3125 140.8875C38.3375 138.5625 41.0375 135.8375 43.4 134.7125C47.2125 132.9 45.5625 132.675 102.3125 142.95C109.7625 144.3 116.525 145.75 117.3375 146.1625C119.575 147.325 122.8625 151.1625 123.4625 153.325C125.1625 159.475 122.75 165.5875 117.575 168.2125C113.4 170.325 112.2625 170.25 92.25 166.575C82.075 164.7 73.6625 163.2375 73.55 163.325C73.2125 163.5875 77.175 168.55 81.925 173.8375C96.4875 190.05 114.25 199.75 136.75 203.8C143.7125 205.0375 160.2875 205.075 167 203.85C178.025 201.8375 184.8 199.6375 194.25 195C205.55 189.4625 212.8375 184.15 221.7875 174.9375C259.325 136.2625 259.325 73.7375 221.7875 35.0625C212.875 25.8875 205.4375 20.4625 194.25 14.9875C190.4 13.1 185.15 10.875 182.5875 10.05C154.525 0.9375 125.5125 4.4375 100.525 19.95C86.425 28.7125 72.9375 43.275 65.725 57.55C63.5125 61.9375 61.875 63.8 58.85 65.325C56.7 66.4125 55.825 66.575 52.7375 66.425C45.8875 66.075 41.4625 61.7125 41.0875 54.9375C40.9125 51.8375 41.0625 51.15 42.6125 47.8625C48.9375 34.55 62.325 17.825 74.725 7.7625C113.025 -23.3375 165.0875 -28.7 208.3375 -6.0125C215.7125 -2.15 221.15 1.375 227.25 6.225C253.3 26.95 269.3125 55.425 274.0625 89.5C275.05 96.5625 274.9125 114.7875 273.8125 122.25C269.1125 154.2125 253.4375 182.3625 229.3750000000001 202.05C211.7125 216.5125 192.2625 225.125 169.025 228.7875C163.1125 229.7125 146.375 230.1 140 229.45" />
    <glyph glyph-name="arrow-cycle"
      unicode="&#xF116;"
      horiz-adv-x="300" d="M134.75 241.9625C111.775 239.825 89.6125 232.1375 71.35 220C35.55 196.1875 14.5625 157.3125 12.6625 111.225C12.2875 102.125 12.8875 99.575 16.225 96.25C21.1375 91.3375 28.8625 91.3375 33.775 96.25C36.65 99.125 37.35 101.6875 37.7125 110.725C38.6 132.7375 44.7125 152.725 55.7125 169.5C77.6375 202.9625 116.275 220.7125 159 216.9875C191.725 214.1375 218.775 200.35 236.475 177.4875C237.85 175.7125 238.7875 174.1875 238.55 174.1C238.325 174.025 232.7125 175.325 226.075 176.975C219.45 178.6375 213.275 180 212.35 180C205.9125 180 200 174.025 200 167.5C200 163.0875 202.8625 158.375 206.625 156.575C209.5625 155.1625 260.4000000000001 142.5 263.0875000000001 142.5C267.2875 142.5125 272.3375 145.9125 273.8875000000001 149.775C274.9625 152.425 287.5 203.475 287.5 205.175C287.5 211.6 281.5125 217.5 274.975 217.5C271.025 217.5 266.5375 215.05 264.5125000000001 211.775C263.925 210.825 262.35 205.725 261 200.475C259.6625 195.2125 258.475 190.8125 258.35 190.6875C258.2375 190.575 256.5625 192.45 254.625 194.8625C234.1625 220.3625 203.8 236.5125 167.325 241.2875C160.4 242.2 141.45 242.5875 134.75 241.9625M270.5375 116.6375C267.5875 115.6 264.3625 112.3 263.325 109.25C262.85 107.8375 262.5 105.25 262.5 103.0375C262.4875 90.1 259.2 72.375 254.675 60.875C239.5125 22.3375 206.7125 -2.3125 164.6125 -6.825C152.7625 -8.0875 137.6375 -7.2875 125.325 -4.75C103.5125 -0.2375 82.1125 11.3875 69.2125 25.7375C64.8625 30.575 60.9375 35.725 61.45 35.9C61.675 35.975 67.2875 34.675 73.925 33.025C80.55 31.3625 86.725 30 87.65 30C94.0875 30 100 35.975 100 42.5C100 46.9125 97.1375 51.625 93.375 53.425C90.4375 54.8375 39.6 67.5 36.9125 67.5C32.7125 67.4875 27.6625 64.0875 26.1125 60.225C25.0375 57.575 12.5 6.525 12.5 4.825C12.5 -1.6 18.4875 -7.5 25.025 -7.5C28.975 -7.5 33.4625 -5.05 35.4875 -1.775C36.075 -0.825 37.65 4.275 39 9.525C40.3375 14.7875 41.525 19.1875 41.65 19.3125C41.7625 19.425 43.4375 17.55 45.375 15.1375C63.6375 -7.6875 91.65 -23.9 122.9 -29.75C154.975 -35.75 186.825 -31.75 214.25 -18.25C227.6875 -11.6375 237.375 -4.675 248.2875 6.225C258.75 16.675 265.2875 25.5875 271.8 38.25C281.4125 56.9375 286.4125 76.4125 287.3375 98.775C287.6 105.2125 287.525 106.6875 286.7625 108.975C284.5625 115.5875 277.2875 119.025 270.5375 116.6375" />
    <glyph glyph-name="arrow-down-left"
      unicode="&#xF117;"
      horiz-adv-x="300" d="M220.5 191.65C218.5375 190.9875 209.95 182.5875 152.875 125.575L87.5 60.2625L87.5 108.5375C87.5 162.8625 87.7 159.825 83.7625 163.7625C78.875 168.65 71.125 168.65 66.2375 163.7625C62.2375 159.7625 62.5 164.8375 62.5 92.0375L62.5125 27.25L63.6875 24.75C65.1125 21.75 66.975 19.9125 70 18.5375C72.225 17.5375 72.9375 17.525 137.0375 17.5125C209.8375 17.5 204.7625 17.2375 208.7625 21.2375C211.0125 23.4875 212.5 26.975 212.5 30C212.5 33.025 211.0125 36.5125 208.7625 38.7625C204.825 42.7 207.8625 42.5 153.5375 42.5L105.2625 42.5L170.575 107.875C230.6375 168 235.95 173.45 236.6875 175.7125C238.2875 180.5875 237.2375 185.2875 233.7625 188.7625C230.3 192.225 225.35 193.3125 220.5 191.65" />
    <glyph glyph-name="arrow-down-right"
      unicode="&#xF118;"
      horiz-adv-x="300" d="M70.5375 191.6375C66.1375 190.0875 62.5 184.825 62.5 180C62.5 179 62.8625 177.075 63.3125 175.7125C64.05 173.45 69.3625 168 129.425 107.875L194.7375 42.5L146.4625 42.5C92.1375 42.5 95.175 42.7 91.2375 38.7625C86.35 33.875 86.35 26.125 91.2375 21.2375C95.2375 17.2375 90.1625 17.5 162.9625 17.5L227.75 17.5125L230.2500000000001 18.6875C233.25 20.1125 235.0875 21.975 236.4625000000001 25C237.4625 27.225 237.475 27.9375 237.4875 92.0375C237.5 164.8375 237.7625 159.7625 233.7625 163.7625C228.875 168.65 221.125 168.65 216.2375 163.7625C212.3 159.825 212.5 162.8625 212.5 108.5375L212.5 60.2625L147.125 125.575C87 185.6375 81.55 190.95 79.2875 191.6875C76.2625 192.6875 73.45 192.6625 70.5375 191.6375" />
    <glyph glyph-name="arrow-down-thick"
      unicode="&#xF119;"
      horiz-adv-x="300" d="M95.5375 229.1375C94.325 228.7125 92.4 227.425 91.25 226.275C87.2375 222.2625 87.5 227.1875 87.5 155.9125L87.5 92.5L61.5875 92.5C32.25 92.5 32.5 92.525 28.725 88.75C24.85 84.875 24 79.15 26.575 74.1375C27.6875 71.975 33.2375 67.5125 85.775 26.6375C126.1875 -4.8 144.425 -18.7 145.9625 -19.2375C148.7625 -20.2 151.225 -20.2 154.05 -19.2375C155.625 -18.7 173.25 -5.275 214.25 26.6375C266.9 67.6125 272.3250000000001 71.975 273.4375 74.1375C275.9875 79.1625 275.15 84.875 271.2750000000001 88.75C267.5 92.525 267.75 92.5 238.4125 92.5L212.5 92.5L212.5 155.9125C212.5 227.175 212.7625 222.2625 208.7625 226.2625C204.8 230.225 208.325 230 149.7875 229.9625C104 229.925 97.4875 229.825 95.5375 229.1375M187.6125 140.875L187.75 76.75L188.8375 74.725C190.175 72.2125 192.575 69.825 194.95 68.65C196.5375 67.8625 198.5 67.7375 211.4 67.6L226.05 67.4625L188.15 37.975C167.3 21.7625 150.0875 8.5625 149.875 8.625C149.675 8.7 132.575 21.9125 111.8875 38L74.275 67.25L88.7625 67.5C102.675 67.7375 103.3375 67.8 105.625 68.925C106.9375 69.5625 108.675 70.9 109.4875 71.8875C112.6625 75.75 112.5 71.925 112.5 141.5875L112.5 205L149.9875 205L187.4875 205L187.6125 140.875" />
    <glyph glyph-name="arrow-down"
      unicode="&#xF11A;"
      horiz-adv-x="300" d="M145.5375 216.6375C144.325 216.2125 142.4 214.925 141.25 213.775C137.1875 209.7125 137.5 217.3875 137.5 121.05L137.5 35.2625L103.375 69.325C72.35 100.2875 69.025 103.45 66.7875 104.1875C61.9125 105.8 57.2125 104.7375 53.7375 101.2625C50.2625 97.7875 49.2125 93.0875 50.8125 88.2125C51.55 85.9625 55.5125 81.85 96.9375 40.325C146.125 -8.9875 144.4625 -7.4875 150 -7.4875C155.5375 -7.4875 153.875 -8.9875 203.0625 40.325C244.4875 81.85 248.45 85.9625 249.1875 88.2125C250.7875 93.0875 249.7375 97.7875 246.2625 101.2625C242.7875 104.7375 238.0875 105.8 233.2125 104.1875C230.975 103.45 227.65 100.2875 196.625 69.325L162.5 35.2625L162.5 121.05C162.5 217.3625 162.8125 209.7125 158.7625 213.7625C155.3 217.2375 150.3 218.325 145.5375 216.6375" />
    <glyph glyph-name="arrow-forward-thick-fill"
      unicode="&#xF11B;"
      horiz-adv-x="300" d="M183.0375 241.6625C181.825 241.225 179.9 239.925 178.75 238.775C174.975 235 175 235.275 175 205.7375L175 179.65L168.875 179.3C157.5 178.6625 142.8625 176.4 131.325 173.4875C72.9375 158.7625 34.0625 118.525 19 57.25C15.55 43.225 13.4875 29.2 12.4625 12.75C11.7875 2.1 12.125 -20.625 13 -23.6125C13.8 -26.3875 16.45 -29.5375 19.1375 -30.925C24.15 -33.5 29.875 -32.65 33.7625 -28.7625C36.225 -26.3 37.025 -24.125 38.475 -16C40.6625 -3.75 43.05 4.25 46.55 11C57.25 31.6125 83.1375 44.85 124.75 50.9625C136.9375 52.7625 149.3625 53.8125 169.125 54.7375L175 55L175 29.0875C175 -0.25 174.975 0 178.75 -3.775C182.625 -7.65 188.3375 -8.4875 193.3625 -5.9375C195.525 -4.825 199.8875 0.6 240.8625 53.25C272.775 94.25 286.2 111.875 286.7375 113.45C287.1625 114.675 287.5 116.5 287.5 117.5C287.5 118.5 287.1625 120.325 286.7375 121.55C286.2 123.125 272.775 140.75 240.8625 181.75C199.5625 234.825 195.55 239.825 193.3125 240.9625C190.2875 242.5 186.1125 242.7875 183.0375 241.6625" />
    <glyph glyph-name="arrow-forward-thick"
      unicode="&#xF11C;"
      horiz-adv-x="300" d="M183.0375 241.6625C181.825 241.225 179.9 239.925 178.75 238.775C174.975 235 175 235.275 175 205.7375L175 179.65L169.125 179.3125C122.925 176.7 82.55 159.1 56.325 130.1375C33.2625 104.6625 19.2875 71.5875 14.0375 30C12.4625 17.5875 11.8375 4.4875 12.15 -9.25C12.4875 -23.6375 12.85 -25.375 16.2375 -28.7625C21.15 -33.675 28.875 -33.65 33.8 -28.725C36.325 -26.2 36.8125 -24.7125 39.2375 -12.175C42.65 5.4375 47.0125 14.675 56.25 23.8375C66.2625 33.775 80.0625 40.7375 100.525 46.175C115.4625 50.1375 138.65 53.35 158.75 54.2375C162.325 54.3875 167.45 54.65 170.125 54.8L175 55.075L175 29.125C175 -0.2625 174.975 0 178.75 -3.775C182.625 -7.65 188.3375 -8.4875 193.3625 -5.9375C195.525 -4.825 199.8875 0.6 240.8625 53.25C272.775 94.25 286.2 111.875 286.7375 113.45C287.1625 114.675 287.5 116.5 287.5 117.5C287.5 118.5 287.1625 120.325 286.7375 121.55C286.2 123.125 272.775 140.75 240.8625 181.75C199.5625 234.825 195.55 239.825 193.3125 240.9625C190.2875 242.5 186.1125 242.7875 183.0375 241.6625M229.5875 155.5C245.625 134.875 258.75 117.775 258.75 117.5C258.75 117.225 245.5875 100.075 229.5 79.3875L200.25 41.775L200 56.2625C199.7625 70.175 199.7 70.8375 198.575 73.125C197.175 75.9625 194.625 78.1875 191.5625 79.2375C186.7 80.8875 154.2375 79.6875 130.75 76.975C92.725 72.575 62.7875 62.2625 44.9375 47.4125C43.325 46.0625 42 45.25 42 45.6125C42 46.9875 44.5875 56.8 46.5375 62.8625C64.05 117.05 102.5 147.05 163 153.7375C166.7125 154.15 174.1375 154.625 179.5 154.7875C191 155.1375 193.1875 155.6625 196.25 158.725C199.75 162.225 200 163.6125 200 179.3375C200 186.85 200.1 193 200.2125 193C200.325 193 213.55 176.125 229.5875 155.5" />
    <glyph glyph-name="arrow-forward"
      unicode="&#xF11D;"
      horiz-adv-x="300" d="M195.5375 204.1375C191.1375 202.5875 187.5 197.325 187.5 192.5C187.5 191.5 187.8625 189.575 188.3125 188.2125C189.05 186 191.3625 183.5125 210.65 164.1625L232.1625 142.5625L190.7 142.375C151.075 142.1875 148.95 142.1375 142.5 141.1C111.8 136.1625 87.075 123.6125 65.4875 102.0125C49.675 86.2125 39.6125 70.225 32.425 49.5C27.4 34.975 25.5125 23.4125 25.1375 4.7C24.825 -11.075 25.0875 -12.6125 28.725 -16.25C33.625 -21.15 41.3625 -21.1625 46.2625 -16.2625C49.5625 -12.9625 50 -10.9875 50 0.5C50 16.8875 51.5875 27.875 55.7875 40.5C69.7625 82.4875 107.625 112.675 151.7125 116.9625C155.025 117.2875 171.9625 117.5 194.7 117.5L232.225 117.5L210.675 95.875C191.3625 76.4875 189.05 74 188.3125 71.7875C186.7 66.925 187.7625 62.2125 191.2375 58.7375C194.7125 55.2625 199.4125 54.2 204.2875 55.8125C206.525 56.55 209.7875 59.65 239.675 89.4375C275.475 125.1125 274.9875 124.55 274.9875 130C274.9875 135.45 275.475 134.8875 239.675 170.5625C209.7875 200.35 206.525 203.45 204.2875 204.1875C201.2625 205.1875 198.45 205.175 195.5375 204.1375" />
    <glyph glyph-name="arrow-left-thick"
      unicode="&#xF11E;"
      horiz-adv-x="300" d="M120.925 229.2625C119.9125 228.8875 118.4875 228.1875 117.7375 227.7C116.125 226.6375 27.7 113.125 26.3 110.325C24.95 107.6125 24.725 104.1 25.6875 101.175C26.3125 99.3125 36.9125 85.3625 71.625 40.7625C112.6125 -11.9 116.975 -17.325 119.1375 -18.4375C124.1625 -20.9875 129.875 -20.15 133.75 -16.275C137.525 -12.5 137.5 -12.75 137.5 16.5875L137.5 42.5L200.9125 42.5C272.175 42.5 267.2625 42.2375 271.2625 46.2375C275.225 50.2 275 46.7125 275 105C275 163.2875 275.225 159.8 271.2625 163.7625C267.2625 167.7625 272.175 167.5 200.9125 167.5L137.5 167.5L137.5 193.4125C137.5 222.7375 137.525 222.5 133.7625 226.2625C130.4 229.625 125.2125 230.8375 120.925 229.2625M113.7 149.8375C114.9 147.4125 117.05 145.2625 119.6875 143.85L121.75 142.75L185.875 142.6125L250 142.4875L250 104.9875L250 67.5L186.5875 67.5C116.925 67.5 120.75 67.6625 116.8875 64.4875C115.9 63.675 114.5625 61.9375 113.925 60.625C112.8 58.3375 112.7375 57.675 112.5 43.7625L112.25 29.275L83 66.8875C66.9125 87.575 53.75 104.725 53.75 105C53.75 105.275 66.9125 122.425 83 143.1125L112.25 180.725L112.5 166.2375C112.725 153.325 112.85 151.5375 113.7 149.8375" />
    <glyph glyph-name="arrow-left"
      unicode="&#xF11F;"
      horiz-adv-x="300" d="M133 204.15C131.05 203.4875 124.725 197.375 85.325 158.0625C36.0125 108.875 37.5125 110.5375 37.5125 105C37.5125 99.4625 36.0125 101.125 85.325 51.9375C126.85 10.5125 130.9625 6.55 133.2125 5.8125C138.0875 4.2125 142.7875 5.2625 146.2625 8.7375C149.7375 12.2125 150.8 16.9125 149.1875 21.7875C148.45 24.025 145.2875 27.35 114.325 58.375L80.2625 92.5L166.05 92.5C262.3625 92.5 254.7125 92.1875 258.7625 96.2375C263.65 101.125 263.65 108.875 258.7625 113.7625C254.7125 117.8125 262.3625 117.5 166.05 117.5L80.2625 117.5L114.325 151.625C145.2875 182.65 148.45 185.975 149.1875 188.2125C150.8 193.0875 149.7375 197.7875 146.2625 201.2625C142.8 204.725 137.85 205.8125 133 204.15" />
    <glyph glyph-name="arrow-repeat"
      unicode="&#xF120;"
      horiz-adv-x="300" d="M220.5375 241.6375C216.1375 240.0875 212.5 234.825 212.5 230C212.5 225.45 213.6 223.8 223.175 214.125L232.1875 205L176.075 205C140.825 205 118.15 204.8125 115.1 204.4875C103.05 203.2 91.7875 199.975 81.25 194.8C49.8875 179.3875 29.2375 149.7875 25.5125 114.9C24.375 104.1375 25.1125 99.8625 28.7375 96.2375C33.6375 91.3375 41.375 91.35 46.275 96.25C48.9625 98.9375 49.8375 101.7375 50.1875 108.7625C50.7375 119.7 53.425 129.6125 58.55 139.5125C68.925 159.5875 87.525 173.6125 110.45 178.6375C115.15 179.6625 116.45 179.6875 173.7375 179.8625L232.225 180.0375L223.1875 170.8875C215.5375 163.15 214.025 161.375 213.325 159.2875C211.7 154.4375 212.75 149.725 216.2375 146.2375C219.7125 142.7625 224.425 141.7 229.2875 143.3125C231.4875 144.05 233.925 146.3 252.175 164.4375C274.4875 186.625 274.9875 187.2375 274.9875 192.5C274.9875 197.7625 274.4875 198.375 252.175 220.5625C233.925 238.7 231.4875 240.95 229.2875 241.6875C226.2625 242.6875 223.45 242.675 220.5375 241.6375M258.0375 116.6375C255.0125 115.575 251.825 112.2625 250.8625 109.2C250.4375 107.85 249.9625 104.225 249.8125 101.1375C248.475 74.675 233.0625 50.7125 209.5125 38.55C203.1 35.225 197.275 33.1375 189.75 31.425L184.75 30.3L126.2625 30.125L67.775 29.9625L76.8125 39.1125C84.4625 46.85 85.975 48.625 86.675 50.7125C88.3 55.5625 87.25 60.275 83.7625 63.7625C80.2875 67.2375 75.575 68.3 70.7125 66.6875C68.5125 65.95 66.075 63.7 47.825 45.5625C25.5125 23.375 25.0125 22.7625 25.0125 17.5C25.0125 12.2375 25.5125 11.625 47.825 -10.5625C66.075 -28.7 68.5125 -30.95 70.7125 -31.6875C75.575 -33.3 80.2875 -32.2375 83.7625 -28.7625C87.25 -25.275 88.3 -20.5625 86.675 -15.7125C85.975 -13.625 84.4625 -11.85 76.825 -4.125L67.8125 5L123.6 5C181.925 5 185.1625 5.1 195.5875 7.2375C233.95 15.1 264.9 46.05 272.7625000000001 84.4125C275 95.3625 275.5625 105.1625 274.175 109.25C272.0125 115.6 264.6500000000001 118.975 258.0375 116.6375" />
    <glyph glyph-name="arrow-right-left"
      unicode="&#xF121;"
      horiz-adv-x="300" d="M208.0375 241.6375C203.6375 240.0875 200 234.825 200 230C200 229 200.375 227.075 200.825 225.7125C201.5375 223.5375 203.45 221.4375 216.925 207.875L232.2125000000001 192.5L133.95 192.5C23.6375 192.5 32.8 192.825 28.7375 188.7625C23.85 183.875 23.85 176.125 28.7375 171.2375C32.8 167.175 23.6375 167.5 133.95 167.5L232.2125000000001 167.5L216.925 152.125C203.45 138.5625 201.5375 136.4625 200.825 134.2875C199.2 129.425 200.25 124.7125 203.75 121.225C207.525 117.45 213.15 116.5375 218.05 118.9C219.6125 119.6625 227.925 127.6625 246.8125 146.6125C271.7750000000001 171.65 273.4375 173.4125 274.25 175.925C275.3 179.1875 275.075 182.5 273.6 185.55C272.8375000000001 187.1125 264.8375000000001 195.425 245.8875 214.3125C221.8375 238.3 219.0125 240.95 216.7875 241.6875C213.7625 242.6875 210.95 242.675 208.0375 241.6375M83 91.65C81.075 90.9875 76.9 87.0375 54.1125 64.3125C35.1625 45.425 27.1625 37.1125 26.4 35.55C24.925 32.5 24.7 29.1875 25.75 25.925C26.5625 23.4125 28.225 21.65 53.1875 -3.3875C72.075 -22.3375 80.3875 -30.3375 81.95 -31.1C86.85 -33.4625 92.475 -32.55 96.25 -28.775C99.75 -25.2875 100.8 -20.575 99.175 -15.7125C98.4625 -13.5375 96.55 -11.4375 83.075 2.125L67.7875 17.5L166.05 17.5C276.3625 17.5 267.2 17.175 271.2625 21.2375C276.15 26.125 276.15 33.875 271.2625 38.7625C267.2 42.825 276.3625 42.5 166.05 42.5L67.7875 42.5L83.075 57.875C96.55 71.4375 98.4625 73.5375 99.175 75.7125C100.8 80.575 99.7375 85.2875 96.2625 88.7625C92.7875 92.2375 87.8375 93.3125 83 91.65" />
    <glyph glyph-name="arrow-right-thick"
      unicode="&#xF122;"
      horiz-adv-x="300" d="M170.5375 229.1625C167.575 228.0875 164.3625 224.775 163.325 221.75C162.6 219.6125 162.5 216.2125 162.5 193.4125L162.5 167.5L99.0875 167.5C27.825 167.5 32.7375 167.7625 28.7375 163.7625C24.775 159.8 25 163.2875 25 105C25 46.7125 24.775 50.2 28.7375 46.2375C32.7375 42.2375 27.825 42.5 99.0875 42.5L162.5 42.5L162.5 16.5875C162.5 -12.75 162.475 -12.5 166.25 -16.275C170.125 -20.15 175.8375 -20.9875 180.8625 -18.4375C183.025 -17.325 187.3875 -11.9 228.3625 40.75C260.275 81.75 273.7 99.375 274.2375 100.95C274.6625 102.175 275 104 275 105C275 106 274.6625 107.825 274.2375 109.05C273.7 110.625 260.275 128.25 228.3625 169.25C187.0625 222.325 183.05 227.325 180.8125 228.4625C177.7875 230 173.6125 230.2875 170.5375 229.1625M217.0875 143C233.125 122.375 246.25 105.275 246.25 105C246.25 104.725 233.0875 87.575 217 66.8875L187.75 29.275L187.5 43.7625C187.2625 57.675 187.2 58.3375 186.075 60.625C185.4375 61.9375 184.1 63.675 183.1125 64.4875C179.25 67.6625 183.075 67.5 113.4125 67.5L50 67.5L50 104.9875L50 142.4875L114.125 142.6125L178.25 142.75L180.3125 143.85C182.95 145.2625 185.1 147.4125 186.3 149.8375C187.15 151.5625 187.2625 153.1875 187.4 166.125C187.475 174.025 187.625 180.5 187.7375 180.5C187.8375 180.5 201.05 163.625 217.0875 143" />
    <glyph glyph-name="arrow-right"
      unicode="&#xF123;"
      horiz-adv-x="300" d="M158.0375 204.1375C153.6375 202.5875 150 197.325 150 192.5C150 191.5 150.3625 189.575 150.8125 188.2125C151.55 185.975 154.7125 182.65 185.675 151.625L219.7375 117.5L133.95 117.5C37.6375 117.5 45.2875 117.8125 41.2375 113.7625C36.35 108.875 36.35 101.125 41.2375 96.2375C45.2875 92.1875 37.6375 92.5 133.95 92.5L219.7375 92.5L185.675 58.375C154.7125 27.35 151.55 24.025 150.8125 21.7875C149.2 16.9125 150.2625 12.2125 153.7375 8.7375C157.2125 5.2625 161.9125 4.2125 166.7875 5.8125C169.0375 6.55 173.15 10.5125 214.675 51.9375C263.9875 101.125 262.4875 99.4625 262.4875 105C262.4875 110.5375 263.9875 108.875 214.675 158.0625C173.15 199.4875 169.0375 203.45 166.7875 204.1875C163.7625 205.1875 160.95 205.1625 158.0375 204.1375" />
    <glyph glyph-name="arrow-shuffle"
      unicode="&#xF124;"
      horiz-adv-x="300" d="M233.0375 241.6375C228.6375 240.0875 225 234.825 225 230C225 225.45 226.1125 223.8 235.6375 214.1625L244.6125 205.075L225.6875 204.8875C207.55 204.7125 206.6 204.65 203.25 203.55C196.625 201.375 192.1125 198.6375 187.5 194.0125C183.475 189.975 180.625 185.6625 133.5875 112.3875C106.2625 69.85 83.225 34.3625 82.3875 33.5375C78.9125 30.1375 80.1375 30.275 49.5 30L21.75 29.75L19.375 28.575C11.85 24.875 10.25 14.725 16.25 8.725C20.1 4.8625 19.5375 4.925 52.0875 5.1125C80.5375 5.275 80.775 5.2875 84.25 6.4375C90.9625 8.6625 95.4 11.3625 100 15.9875C104.0125 20.0375 107.0125 24.5875 153.9625 97.675C181.3 140.25 204.2875 175.7125 205.05 176.475C208.275 179.6875 208.55 179.7375 227.4875 179.9L244.725 180.0375L235.6875 170.9C228.0375 163.15 226.525 161.375 225.825 159.2875C224.2 154.4375 225.25 149.725 228.7375 146.2375C232.2125000000001 142.7625 236.925 141.7 241.7875 143.3125C243.9875 144.05 246.425 146.3 264.675 164.4375C286.9875 186.625 287.4875 187.2375 287.4875 192.5C287.4875 197.7625 286.9875 198.375 264.675 220.5625C246.425 238.7 243.9875 240.95 241.7875 241.6875C238.7625 242.6875 235.95 242.675 233.0375 241.6375M20.5375 204.15C19.325 203.7125 17.4 202.425 16.25 201.275C10.25 195.275 11.85 185.125 19.375 181.425L21.75 180.25L49.5 180C75.4625 179.7625 77.375 179.6875 79.1625 178.8C80.2125 178.275 81.7 177.225 82.4625 176.4625C83.225 175.7 89.6375 166.0625 96.7125 155.0625C103.7875 144.05 110.2625 134.375 111.1125 133.55C113.625 131.0875 115.8375 130.25 119.75 130.275C122.325 130.2875 123.775 130.575 125.25 131.35C131.375 134.6 133.7375 141.95 130.625 148.05C129.8625 149.5375 123.625 159.525 116.75 170.25C105.7875 187.35 103.725 190.275 100 194.0125C95.4 198.625 90.9125 201.35 84.25 203.5625C80.7625 204.725 80.625 204.725 51.75 204.8375C26.35 204.9375 22.475 204.85 20.5375 204.15M164.5 79.5625C156.8375 77.075 153.3125 68.925 156.875 61.95C157.6375 60.4625 163.875 50.475 170.75 39.75C181.7125 22.65 183.775 19.725 187.5 15.9875C192.1125 11.3625 196.625 8.625 203.25 6.45C206.6 5.35 207.55 5.2875 225.6875 5.1125L244.6125 4.925L235.6375 -4.1625C228.0375 -11.85 226.525 -13.625 225.825 -15.7125C224.2 -20.5625 225.25 -25.275 228.7375 -28.7625C232.2125000000001 -32.2375 236.925 -33.3 241.7875 -31.6875C243.9875 -30.95 246.425 -28.7 264.675 -10.5625C286.9875 11.625 287.4875 12.2375 287.4875 17.5C287.4875 22.7625 286.9875 23.375 264.675 45.5625C246.425 63.7 243.9875 65.95 241.7875 66.6875C236.925 68.3 232.2125000000001 67.2375 228.7375 63.7625C225.25 60.275 224.2 55.5625 225.825 50.7125C226.525 48.625 228.0375 46.85 235.6875 39.1L244.725 29.9625L227.4875 30.1C208.5375 30.2625 208.275 30.3 205.0375 33.5375C204.275 34.3 197.85 43.9625 190.75 55C183.65 66.0375 177.225 75.7 176.4625 76.4625C175.7 77.225 174.2125 78.2625 173.1625 78.775C171.0625 79.775 166.4625 80.2 164.5 79.5625" />
    <glyph glyph-name="arrow-up-down"
      unicode="&#xF125;"
      horiz-adv-x="300" d="M70.5 229.15C68.575 228.4875 64.4 224.5375 41.6125 201.8125C22.6625 182.925 14.6625 174.6125 13.9 173.05C11.5375 168.15 12.45 162.525 16.225 158.75C19.7125 155.25 24.425 154.2 29.2875 155.825C31.4625 156.5375 33.5625 158.45 47.125 171.925L62.5 187.2125L62.5 88.95C62.5 -21.3625 62.175 -12.2 66.2375 -16.2625C71.125 -21.15 78.875 -21.15 83.7625 -16.2625C87.825 -12.2 87.5 -21.3625 87.5 88.95L87.5 187.2125L102.875 171.925C116.4375 158.45 118.5375 156.5375 120.7125 155.825C125.575 154.2 130.2875 155.25 133.775 158.75C137.55 162.525 138.4625 168.15 136.1 173.05C135.3375 174.6125 127.3375 182.925 108.3875 201.8125C84.3375 225.8 81.5125 228.45 79.2875 229.1875C76.275 230.175 73.475 230.175 70.5 229.15M220.5375 229.1375C219.325 228.7125 217.4 227.425 216.25 226.275C212.175 222.2 212.5 231.3875 212.5 121.05L212.5 22.7875L197.125 38.075C183.5625 51.55 181.4625 53.4625 179.2875 54.175C174.425 55.8 169.7125 54.75 166.225 51.25C162.45 47.475 161.5375 41.85 163.9 36.95C164.6625 35.3875 172.6625 27.075 191.6125 8.1875C216.65 -16.775 218.4125 -18.4375 220.925 -19.25C224.1875 -20.3 227.5 -20.075 230.55 -18.6C232.1125 -17.8375 240.425 -9.8375 259.3125 9.1125C283.3 33.1625 285.95 35.9875 286.6875 38.2125C288.3 43.0875 287.2375 47.7875 283.7625 51.2625C280.2875 54.7375 275.575 55.8 270.7125 54.175C268.5375 53.4625 266.4375 51.55 252.875 38.075L237.5 22.7875L237.5 121.05C237.5 231.3625 237.825 222.2 233.7625 226.2625C230.3 229.7375 225.3 230.825 220.5375 229.1375" />
    <glyph glyph-name="arrow-up-left"
      unicode="&#xF126;"
      horiz-adv-x="300" d="M69.75 191.3125C66.75 189.8875 64.9125 188.025 63.5375 185C62.5375 182.775 62.525 182.0625 62.5125 117.9625C62.5 45.1625 62.2375 50.2375 66.2375 46.2375C71.125 41.35 78.875 41.35 83.7625 46.2375C87.7 50.175 87.5 47.1375 87.5 101.4625L87.5 149.7375L152.875 84.425C213 24.3625 218.45 19.05 220.7125 18.3125C225.5875 16.7125 230.2875 17.7625 233.7625 21.2375C237.2375 24.7125 238.2875 29.4125 236.6875 34.2875C235.95 36.55 230.6375 42 170.575 102.125L105.2625 167.5L153.5375 167.5C207.8625 167.5 204.825 167.3 208.7625 171.2375C213.65 176.125 213.65 183.875 208.7625 188.7625C204.7625 192.7625 209.8375 192.5 137.0375 192.5L72.25 192.4875L69.75 191.3125" />
    <glyph glyph-name="arrow-up-right"
      unicode="&#xF127;"
      horiz-adv-x="300" d="M95.5375 191.6375C91.1375 190.0875 87.5 184.825 87.5 180C87.5 176.975 88.9875 173.4875 91.2375 171.2375C95.175 167.3 92.1375 167.5 146.4625 167.5L194.7375 167.5L129.425 102.125C69.3625 42 64.05 36.55 63.3125 34.2875C61.7125 29.4125 62.7625 24.7125 66.2375 21.2375C69.7125 17.7625 74.4125 16.7125 79.2875 18.3125C81.55 19.05 87 24.3625 147.125 84.425L212.5 149.7375L212.5 101.4625C212.5 47.1375 212.3 50.175 216.2375 46.2375C221.125 41.35 228.875 41.35 233.7625 46.2375C237.7625 50.2375 237.5 45.1625 237.4875 117.9625C237.475 182.0625 237.4625 182.775 236.4625000000001 185C235.0875 188.025 233.25 189.8875 230.2500000000001 191.3125L227.75 192.4875L162.75 192.45C105.2125 192.425 97.5 192.3375 95.5375 191.6375" />
    <glyph glyph-name="arrow-up-thick"
      unicode="&#xF128;"
      horiz-adv-x="300" d="M145.75 229.2C144.5375 228.7625 120.7875 210.6125 85.775 183.3625C33.2375 142.4875 27.6875 138.025 26.575 135.8625C24 130.85 24.85 125.125 28.725 121.25C32.5 117.475 32.25 117.5 61.5875 117.5L87.5 117.5L87.5 54.0875C87.5 -17.175 87.2375 -12.2625 91.2375 -16.2625C95.2 -20.225 91.7125 -20 150 -20C208.2875 -20 204.8 -20.225 208.7625 -16.2625C212.7625 -12.2625 212.5 -17.175 212.5 54.0875L212.5 117.5L238.4125 117.5C267.75 117.5 267.5 117.475 271.2750000000001 121.25C275.15 125.125 275.9875 130.8375 273.4375 135.8625C272.3250000000001 138.025 266.9 142.3875 214.25 183.3625C173.25 215.275 155.625 228.7 154.05 229.2375C151.325 230.175 148.4 230.15 145.75 229.2M188.15 172.025L226.05 142.5375L211.4 142.4C198.5 142.2625 196.5375 142.1375 194.95 141.35C192.575 140.175 190.175 137.7875 188.8375 135.275L187.75 133.25L187.6125 69.125L187.4875 5L149.9875 5L112.5 5L112.5 68.4125C112.5 138.075 112.6625 134.25 109.4875 138.1125C108.675 139.1 106.9375 140.4375 105.625 141.075C103.3375 142.2 102.675 142.2625 88.7625 142.5L74.275 142.75L112.0125 172.1125C132.775 188.2625 149.8625 201.4875 150 201.4875C150.1375 201.5 167.3 188.2375 188.15 172.025" />
    <glyph glyph-name="arrow-up"
      unicode="&#xF129;"
      horiz-adv-x="300" d="M144.75 216.3C142.7375 215.3375 133.4 206.2375 96.9375 169.675C55.5125 128.15 51.55 124.0375 50.8125 121.7875C49.2125 116.9125 50.2625 112.2125 53.7375 108.7375C57.2125 105.2625 61.9125 104.2 66.7875 105.8125C69.025 106.55 72.35 109.7125 103.375 140.675L137.5 174.7375L137.5 88.95C137.5 -7.3625 137.1875 0.2875 141.2375 -3.7625C146.125 -8.65 153.875 -8.65 158.7625 -3.7625C162.8125 0.2875 162.5 -7.3625 162.5 88.95L162.5 174.7375L196.625 140.675C227.65 109.7125 230.975 106.55 233.2125 105.8125C238.0875 104.2 242.7875 105.2625 246.2625 108.7375C249.7375 112.2125 250.7875 116.9125 249.1875 121.7875C248.45 124.0375 244.4875 128.15 203.0625 169.675C166.6 206.2375 157.2625 215.3375 155.25 216.3C151.8875 217.9 148.1125 217.9 144.75 216.3" />
    <glyph glyph-name="attach"
      unicode="&#xF12A;"
      horiz-adv-x="300" d="M165.75 241.8C142.125 237.8375 123.1375 221.9375 115.825 199.9875C112.6125 190.3625 112.8125 194.9875 112.625 125.5C112.4875 68.975 112.55 61.825 113.2625 58.25C114.85 50.3875 117.85 44.725 123.5 38.975C131.55 30.775 142.275 26.95 154 28.0875C167.475 29.3875 179.65 38.6 184.7625 51.3625C187.5125 58.2 187.5 58.025 187.5 109.3875C187.5 162.7625 187.7 159.825 183.7625 163.7625C177.775 169.75 167.625 168.1375 163.925 160.625L162.75 158.25L162.5 110L162.25 61.75L161.175 59.75C158.7875 55.3375 154.8125 52.9 150 52.9C144.9375 52.9 140.95 55.4875 138.6875 60.25L137.5125 62.75L137.5 123.15C137.5 176.25 137.6 184.0125 138.2875 187.4C141.325 202.1875 152.8 213.65 167.6 216.7C187.775 220.8625 207.6375 207.6 211.725 187.25C212.45 183.6625 212.5125 176.1125 212.375 114.75C212.2125 51.1 212.1375 45.9875 211.3125 42.5C208.2 29.3875 203.0875 20.0875 194.0125 10.975C184.825 1.7625 174.9375 -3.5875 162 -6.3375C156.1125 -7.5875 143.8875 -7.5875 138 -6.3375C125.0875 -3.5875 115.275 1.725 105.975 10.9875C96.9125 20.025 91.7875 29.3625 88.6875 42.5C87.8875 45.9375 87.7875 51.05 87.525 103L87.25 159.75L86.175 161.75C83.9 165.95 79.7125 168.475 75 168.475C70.2875 168.475 66.1 165.95 63.825 161.75L62.75 159.75L62.6 105.75C62.5 69.7625 62.625 50 62.9875 46.5C66.75 9.6625 92.875 -20.8 128.3625 -29.7375C161.1375 -37.9875 195.4125 -26.9625 216.9125 -1.25C228.3875 12.45 235.1875000000001 28.6125 237.025 46.5C237.3875 50.075 237.5 73.5875 237.3875 120.25C237.225 183.875 237.1375 189.0125 236.3125 192.5C233.2 205.6 228.0875 214.9125 219.0125 224.0375C209.85 233.225 199.9625 238.6 187.25 241.2625C181.925 242.3875 170.875 242.65 165.75 241.8" />
    <glyph glyph-name="backspace-fill"
      unicode="&#xF12B;"
      horiz-adv-x="300" d="M105 216.725C97.9625 215.2 91.35 211.7125 86.425 206.9C82.6625 203.225 24.3625 125.15 22.55 121.35C17.75 111.2875 17.75 98.7125 22.55 88.65C24.3625 84.85 82.6625 6.7625 86.425 3.1C89.3125 0.2875 94.3 -2.9875 98.25 -4.65C105.275 -7.6 102.3125 -7.5 181.25 -7.5C260.45 -7.5 257.2 -7.6125 264.5125000000001 -4.5625C273.1625 -0.9375 280.9375 6.8375 284.5625 15.4875C287.625 22.8375 287.5 18.9125 287.5 105C287.5 191.0875 287.625 187.1625 284.5625 194.5125C280.9375 203.1625 273.1625 210.9375 264.5125000000001 214.5625C257.1875 217.625 260.5125 217.5 180.9 217.4625C120.6 217.425 107.7 217.3 105 216.725M141.7875 154.175C143.9625 153.4625 146.0625 151.55 159.625 138.075L175 122.7875L190.375 138.075C203.9375 151.55 206.0375 153.4625 208.2125 154.175C213.075 155.8 217.7875 154.7375 221.2625 151.2625C224.7375 147.7875 225.8 143.075 224.175 138.2125C223.4625 136.0375 221.55 133.9375 208.075 120.375L192.7875 105L208.075 89.625C221.55 76.0625 223.4625 73.9625 224.175 71.7875C225.8 66.925 224.7375 62.2125 221.2625 58.7375C217.7875 55.2625 213.075 54.2 208.2125 55.825C206.0375 56.5375 203.9375 58.45 190.375 71.925L175 87.2125L159.625 71.925C146.0625 58.45 143.9625 56.5375 141.7875 55.825C136.925 54.2 132.2125 55.2625 128.7375 58.7375C125.2625 62.2125 124.2 66.925 125.825 71.7875C126.5375 73.9625 128.45 76.0625 141.925 89.625L157.2125 105L141.925 120.375C128.45 133.9375 126.5375 136.0375 125.825 138.2125C124.2 143.075 125.25 147.7875 128.75 151.275C132.2125 154.75 136.925 155.8 141.7875 154.175" />
    <glyph glyph-name="backspace"
      unicode="&#xF12C;"
      horiz-adv-x="300" d="M105 216.725C97.9375 215.1875 91.35 211.7125 86.425 206.9C82.6625 203.225 24.3625 125.15 22.55 121.35C17.75 111.2875 17.75 98.7125 22.55 88.65C24.3625 84.85 82.6625 6.7625 86.425 3.1C89.3125 0.275 94.3 -2.9875 98.275 -4.6625C105.3875 -7.65 102.2875 -7.55 183 -7.375C263.2375 -7.2125 257.5750000000001 -7.4125 264.5 -4.4875C275.2875 0.075 283.5875000000001 9.85 286.55 21.5C287.5875000000001 25.5875 287.6 184.4125 286.55 188.4625C283.5375 200.2375 275 210.3125 264.4375 214.5375C257.2750000000001 217.4125 263.2375 217.2125 182.5 217.325C120.1375 217.4125 107.725 217.3125 105 216.725M254.25 191.675C255.6875 191.1875 257.5375 189.9875 258.7625 188.7625C262.7875 184.7375 262.5 191.2875 262.5 105C262.5 18.6875 262.8 25.2625 258.75 21.225C254.725 17.2 260.575 17.475 180.4625 17.625L109.225 17.75L106.7375 19.0125C104.4125 20.1875 102.2875 22.875 75.0875 59.0125C59.05 80.3125 45.5 98.65 44.975 99.75C43.825 102.1625 43.675 107.2625 44.7 109.7C45.075 110.6125 58.55 128.9125 74.6375 150.3625C103.9875 189.475 105.1375 190.875 108.8875 192C109.6375 192.225 142.1 192.4375 181.0375 192.4625C245.6875 192.5 252.0375 192.425 254.25 191.675M133.0375 154.1375C128.6375 152.5875 125 147.325 125 142.5C125 141.5 125.375 139.575 125.825 138.2125C126.5375 136.0375 128.45 133.9375 141.925 120.375L157.2125 105L141.925 89.625C128.45 76.0625 126.5375 73.9625 125.825 71.7875C124.2 66.925 125.2625 62.2125 128.7375 58.7375C132.2125 55.2625 136.925 54.2 141.7875 55.825C143.9625 56.5375 146.0625 58.45 159.625 71.925L175 87.2125L190.375 71.925C203.9375 58.45 206.0375 56.5375 208.2125 55.825C213.075 54.2 217.7875 55.2625 221.2625 58.7375C224.7375 62.2125 225.8 66.925 224.175 71.7875C223.4625 73.9625 221.55 76.0625 208.075 89.625L192.7875 105L208.075 120.375C221.55 133.9375 223.4625 136.0375 224.175 138.2125C225.8 143.075 224.7375 147.7875 221.2625 151.2625C217.7875 154.7375 213.075 155.8 208.2125 154.175C206.0375 153.4625 203.9375 151.55 190.375 138.075L175 122.7875L159.625 138.075C146.0625 151.55 143.9625 153.4625 141.7875 154.175C138.775 155.1875 135.9625 155.175 133.0375 154.1375" />
    <glyph glyph-name="basket"
      unicode="&#xF12D;"
      horiz-adv-x="300" d="M120.8 216.7125C119.725 216.325 118.15 215.4625 117.3 214.8125C116.4125 214.15 105.5 198.2625 92.05 178.0625L68.3375 142.5L53.275 142.5C36.95 142.5 34.925 142.2625 29.5 139.65C25.9875 137.9625 20.6625 132.6125 18.8875 129C17.1 125.3625 16 120.95 16 117.4C16 115.3 19.2875 101.3625 28.175 65.8875C41.475 12.7375 41.375 13.05 46.6625 6.5125C50.1125 2.2375 54.3375 -1.125 59.25 -3.5125C67.575 -7.5625 59.925 -7.25 150 -7.25C240.0250000000001 -7.25 232.5625 -7.55 240.7500000000001 -3.525C245.6875 -1.1 249.9 2.2625 253.3375 6.5125C258.625 13.05 258.525 12.7375 271.825 65.8875C280.7125000000001 101.3625 284 115.3 284 117.4C284 128.925 275.3375000000001 139.6 264.1 141.95C262.5125 142.275 255.5000000000001 142.5 246.5625000000001 142.5L231.6625 142.5L207.95 178.0625C194.625 198.075 183.575 214.15 182.7125 214.8125C181.875 215.45 180.2125 216.325 179.025 216.7375C169.4625 220.1125 159.85 210.6375 163.2 201.125C163.5875 200.025 172.3625 186.45 182.7 170.9375L201.5 142.75L175.75 142.625C161.5875 142.55 138.4125 142.55 124.25 142.625L98.5 142.75L117.3 170.9375C127.6375 186.45 136.4125 200.025 136.8 201.125C140.1625 210.675 130.375 220.225 120.8 216.7125M258.8 116.625C258.6625 116.15 253.4375 95.3 247.1875 70.3125C236.825 28.825 235.7125 24.6875 234.275 22.8125C232.425 20.4 230.0625 18.7 227.5625 18.0125C225.075 17.3125 74.925 17.3125 72.4375 18.0125C69.9375 18.7 67.575 20.4 65.725 22.8125C64.2875 24.6875 63.175 28.825 52.8125 70.3125C46.5625 95.3 41.3375 116.15 41.2 116.625C40.95 117.4625 46.3625 117.5 150 117.5C253.6375 117.5 259.05 117.4625 258.8 116.625M108.0375 91.6375C105.0875 90.6 101.8625 87.3 100.825 84.25C99.6 80.65 99.6 54.35 100.825 50.75C102.4 46.1375 107.55 42.5 112.5 42.5C117.45 42.5 122.6 46.1375 124.175 50.75C125.4 54.35 125.4 80.65 124.175 84.25C122.0125 90.6 114.65 93.975 108.0375 91.6375M183.0375 91.6375C180.0875 90.6 176.8625 87.3 175.825 84.25C174.6 80.65 174.6 54.35 175.825 50.75C177.4 46.1375 182.55 42.5 187.5 42.5C192.45 42.5 197.6 46.1375 199.175 50.75C200.4 54.35 200.4 80.65 199.175 84.25C197.0125 90.6 189.65 93.975 183.0375 91.6375" />
    <glyph glyph-name="battery-charging"
      unicode="&#xF12E;"
      horiz-adv-x="300" d="M45.25 192.1875C40.15 191.1875 38.5875 190.7625 35.875 189.6625C24.8625 185.1875 16.5125 175.45 13.45 163.5C12.4125 159.4375 12.4 50.5875 13.45 46.5375C16.9625 32.8 26.4625 23.0875 40.75 18.5625C42.9875 17.8625 53.0375 17.7625 135.25 17.625C197.725 17.525 228.35 17.6375 230.6625 18C245.3 20.25 257.0375 30.85 261.375 45.75C261.85 47.3625 262.2 51.65 262.3625 57.875L262.6125 67.5L266.2875 67.5C273.3125 67.5 277.6 69.0125 281.6625 72.925C284.45 75.6125 286.1375 78.6375 286.9375 82.4C287.7 86.0125 287.7 123.9875 286.9375 127.6C286.1375 131.3625 284.45 134.3875 281.6625 137.075C277.6 140.9875 273.3125 142.5 266.2875 142.5L262.6125 142.5L262.3625 152.125C262.1875 158.4625 261.85 162.6 261.3625 164.25C256.9375 179.2 245.5125 189.625 231 191.9625C227.925 192.4625 47.7375 192.675 45.25 192.1875M229.25 166.675C230.6875 166.1875 232.5375 164.9875 233.7625 163.7625C237.725 159.8 237.5 163.2875 237.5 105C237.5 46.7125 237.725 50.2 233.7625 46.2375C229.7125 42.1875 237.7875 42.5 137.5 42.5C37.1875 42.5 45.2875 42.1875 41.225 46.25C37.25 50.225 37.4625 46.6375 37.6125 106.025L37.75 158.75L39.1375 161.1125C40.7 163.775 43.1125 165.8 45.875 166.7875C47.4125 167.3375 63.8 167.4625 137.2875 167.475C219.35 167.5 227.025 167.425 229.25 166.675M139.5 154.6625C135.0375 153.1 134.7375 152.7875 118.3375 132.3125C109.5 121.275 101.8375 111.3875 101.3 110.325C99.025 105.7375 100.0125 99.9625 103.725 96.25C107.1875 92.7875 108.6875 92.5 123.6 92.5L136.5125 92.5L129.0125 83.1375C124.1875 77.1125 121.25 72.9875 120.7625 71.55C117.1375 60.9375 128.025 51.55 138.225 56.4875C140.3125 57.5 142.525 60.05 156.6625 77.6875C165.5 88.725 173.1625 98.6125 173.7 99.675C175.975 104.2625 174.9875 110.0375 171.275 113.75C167.8125 117.2125 166.3125 117.5 151.4 117.5L138.4875 117.5L145.9875 126.8625C153.625 136.4 155 138.7875 155 142.5C155 147.45 151.3625 152.6 146.75 154.175C144.4 154.975 141.05 155.2 139.5 154.6625" />
    <glyph glyph-name="battery-empty"
      unicode="&#xF12F;"
      horiz-adv-x="300" d="M45.25 192.1875C40.15 191.1875 38.5875 190.7625 35.875 189.6625C24.8625 185.1875 16.5125 175.45 13.45 163.5C12.4125 159.4375 12.4 50.5875 13.45 46.5375C16.9625 32.8 26.4625 23.0875 40.75 18.5625C42.9875 17.8625 53.0375 17.7625 135.25 17.625C197.725 17.525 228.35 17.6375 230.6625 18C245.3 20.25 257.0375 30.85 261.375 45.75C261.85 47.3625 262.2 51.65 262.3625 57.875L262.6125 67.5L266.2875 67.5C273.3125 67.5 277.6 69.0125 281.6625 72.925C284.45 75.6125 286.1375 78.6375 286.9375 82.4C287.7 86.0125 287.7 123.9875 286.9375 127.6C286.1375 131.3625 284.45 134.3875 281.6625 137.075C277.6 140.9875 273.3125 142.5 266.2875 142.5L262.6125 142.5L262.3625 152.125C262.1875 158.4625 261.85 162.6 261.3625 164.25C256.9375 179.2 245.5125 189.625 231 191.9625C227.925 192.4625 47.7375 192.675 45.25 192.1875M229.25 166.675C230.6875 166.1875 232.5375 164.9875 233.7625 163.7625C237.725 159.8 237.5 163.2875 237.5 105C237.5 46.7125 237.725 50.2 233.7625 46.2375C229.7125 42.1875 237.7875 42.5 137.5 42.5C37.1875 42.5 45.2875 42.1875 41.225 46.25C37.25 50.225 37.4625 46.6375 37.6125 106.025L37.75 158.75L39.1375 161.1125C40.7 163.775 43.1125 165.8 45.875 166.7875C47.4125 167.3375 63.8 167.4625 137.2875 167.475C219.35 167.5 227.025 167.425 229.25 166.675" />
    <glyph glyph-name="battery-full"
      unicode="&#xF130;"
      horiz-adv-x="300" d="M45.25 192.1875C40.15 191.1875 38.5875 190.7625 35.875 189.6625C24.8625 185.1875 16.5125 175.45 13.45 163.5C12.4125 159.4375 12.4 50.5875 13.45 46.5375C16.9625 32.8 26.4625 23.0875 40.75 18.5625C42.9875 17.8625 53.0375 17.7625 135.25 17.625C197.725 17.525 228.35 17.6375 230.6625 18C245.3 20.25 257.0375 30.85 261.375 45.75C261.85 47.3625 262.2 51.65 262.3625 57.875L262.6125 67.5L266.2875 67.5C273.3125 67.5 277.6 69.0125 281.6625 72.925C284.45 75.6125 286.1375 78.6375 286.9375 82.4C287.7 86.0125 287.7 123.9875 286.9375 127.6C286.1375 131.3625 284.45 134.3875 281.6625 137.075C277.6 140.9875 273.3125 142.5 266.2875 142.5L262.6125 142.5L262.3625 152.125C262.1875 158.4625 261.85 162.6 261.3625 164.25C256.9375 179.2 245.5125 189.625 231 191.9625C227.925 192.4625 47.7375 192.675 45.25 192.1875M229.25 166.675C230.6875 166.1875 232.5375 164.9875 233.7625 163.7625C237.725 159.8 237.5 163.2875 237.5 105C237.5 46.7125 237.725 50.2 233.7625 46.2375C229.7125 42.1875 237.7875 42.5 137.5 42.5C37.1875 42.5 45.2875 42.1875 41.225 46.25C37.25 50.225 37.4625 46.6375 37.6125 106.025L37.75 158.75L39.1375 161.1125C40.7 163.775 43.1125 165.8 45.875 166.7875C47.4125 167.3375 63.8 167.4625 137.2875 167.475C219.35 167.5 227.025 167.425 229.25 166.675M83.0375 141.6375C81.825 141.2125 79.9 139.925 78.75 138.775C74.9625 134.9875 75 135.35 75 105C75 74.6625 74.9625 75.0125 78.7375 71.2375C83.625 66.35 91.375 66.35 96.2625 71.2375C100.0375 75.0125 100 74.6625 100 105C100 135.3375 100.0375 134.9875 96.2625 138.7625C92.8 142.2375 87.8 143.325 83.0375 141.6375M133.0375 141.6375C131.825 141.2125 129.9 139.925 128.75 138.775C124.9625 134.9875 125 135.35 125 105C125 74.6625 124.9625 75.0125 128.7375 71.2375C133.625 66.35 141.375 66.35 146.2625 71.2375C150.0375 75.0125 150 74.6625 150 105C150 135.3375 150.0375 134.9875 146.2625 138.7625C142.8 142.2375 137.8 143.325 133.0375 141.6375M183.0375 141.6375C181.825 141.2125 179.9 139.925 178.75 138.775C174.9625 134.9875 175 135.35 175 105C175 74.6625 174.9625 75.0125 178.7375 71.2375C183.625 66.35 191.375 66.35 196.2625 71.2375C200.0375 75.0125 200 74.6625 200 105C200 135.3375 200.0375 134.9875 196.2625 138.7625C192.8 142.2375 187.8 143.325 183.0375 141.6375" />
    <glyph glyph-name="battery-low"
      unicode="&#xF131;"
      horiz-adv-x="300" d="M45.25 192.1875C40.15 191.1875 38.5875 190.7625 35.875 189.6625C24.8625 185.1875 16.5125 175.45 13.45 163.5C12.4125 159.4375 12.4 50.5875 13.45 46.5375C16.9625 32.8 26.4625 23.0875 40.75 18.5625C42.9875 17.8625 53.0375 17.7625 135.25 17.625C197.725 17.525 228.35 17.6375 230.6625 18C245.3 20.25 257.0375 30.85 261.375 45.75C261.85 47.3625 262.2 51.65 262.3625 57.875L262.6125 67.5L266.2875 67.5C273.3125 67.5 277.6 69.0125 281.6625 72.925C284.45 75.6125 286.1375 78.6375 286.9375 82.4C287.7 86.0125 287.7 123.9875 286.9375 127.6C286.1375 131.3625 284.45 134.3875 281.6625 137.075C277.6 140.9875 273.3125 142.5 266.2875 142.5L262.6125 142.5L262.3625 152.125C262.1875 158.4625 261.85 162.6 261.3625 164.25C256.9375 179.2 245.5125 189.625 231 191.9625C227.925 192.4625 47.7375 192.675 45.25 192.1875M229.25 166.675C230.6875 166.1875 232.5375 164.9875 233.7625 163.7625C237.725 159.8 237.5 163.2875 237.5 105C237.5 46.7125 237.725 50.2 233.7625 46.2375C229.7125 42.1875 237.7875 42.5 137.5 42.5C37.1875 42.5 45.2875 42.1875 41.225 46.25C37.25 50.225 37.4625 46.6375 37.6125 106.025L37.75 158.75L39.1375 161.1125C40.7 163.775 43.1125 165.8 45.875 166.7875C47.4125 167.3375 63.8 167.4625 137.2875 167.475C219.35 167.5 227.025 167.425 229.25 166.675M83.0375 141.6375C81.825 141.2125 79.9 139.925 78.75 138.775C74.9625 134.9875 75 135.35 75 105C75 74.6625 74.9625 75.0125 78.7375 71.2375C83.625 66.35 91.375 66.35 96.2625 71.2375C100.0375 75.0125 100 74.6625 100 105C100 135.3375 100.0375 134.9875 96.2625 138.7625C92.8 142.2375 87.8 143.325 83.0375 141.6375" />
    <glyph glyph-name="battery-medium"
      unicode="&#xF132;"
      horiz-adv-x="300" d="M45.25 192.1875C40.15 191.1875 38.5875 190.7625 35.875 189.6625C24.8625 185.1875 16.5125 175.45 13.45 163.5C12.4125 159.4375 12.4 50.5875 13.45 46.5375C16.9625 32.8 26.4625 23.0875 40.75 18.5625C42.9875 17.8625 53.0375 17.7625 135.25 17.625C197.725 17.525 228.35 17.6375 230.6625 18C245.3 20.25 257.0375 30.85 261.375 45.75C261.85 47.3625 262.2 51.65 262.3625 57.875L262.6125 67.5L266.2875 67.5C273.3125 67.5 277.6 69.0125 281.6625 72.925C284.45 75.6125 286.1375 78.6375 286.9375 82.4C287.7 86.0125 287.7 123.9875 286.9375 127.6C286.1375 131.3625 284.45 134.3875 281.6625 137.075C277.6 140.9875 273.3125 142.5 266.2875 142.5L262.6125 142.5L262.3625 152.125C262.1875 158.4625 261.85 162.6 261.3625 164.25C256.9375 179.2 245.5125 189.625 231 191.9625C227.925 192.4625 47.7375 192.675 45.25 192.1875M229.25 166.675C230.6875 166.1875 232.5375 164.9875 233.7625 163.7625C237.725 159.8 237.5 163.2875 237.5 105C237.5 46.7125 237.725 50.2 233.7625 46.2375C229.7125 42.1875 237.7875 42.5 137.5 42.5C37.1875 42.5 45.2875 42.1875 41.225 46.25C37.25 50.225 37.4625 46.6375 37.6125 106.025L37.75 158.75L39.1375 161.1125C40.7 163.775 43.1125 165.8 45.875 166.7875C47.4125 167.3375 63.8 167.4625 137.2875 167.475C219.35 167.5 227.025 167.425 229.25 166.675M83.0375 141.6375C81.825 141.2125 79.9 139.925 78.75 138.775C74.9625 134.9875 75 135.35 75 105C75 74.6625 74.9625 75.0125 78.7375 71.2375C83.625 66.35 91.375 66.35 96.2625 71.2375C100.0375 75.0125 100 74.6625 100 105C100 135.3375 100.0375 134.9875 96.2625 138.7625C92.8 142.2375 87.8 143.325 83.0375 141.6375M133.0375 141.6375C131.825 141.2125 129.9 139.925 128.75 138.775C124.9625 134.9875 125 135.35 125 105C125 74.6625 124.9625 75.0125 128.7375 71.2375C133.625 66.35 141.375 66.35 146.2625 71.2375C150.0375 75.0125 150 74.6625 150 105C150 135.3375 150.0375 134.9875 146.2625 138.7625C142.8 142.2375 137.8 143.325 133.0375 141.6375" />
    <glyph glyph-name="bell"
      unicode="&#xF133;"
      horiz-adv-x="300" d="M145.25 242.1875C140.15 241.1875 138.5875 240.7625 135.875 239.6625C127.05 236.075 119.1 228.2875 115.625 219.8125C113.5875 214.8375 112.975 212.075 112.6625 206.175L112.3625 200.6L108.8 199.225C79.15 187.7375 58.1625 163.6875 51.4 133.4375C50.4125 129.0375 50.325 126.6875 49.9875 95.25C49.55 54.7125 49.825 56.675 43.1625 46.0625C39.2125 39.7625 37.9875 36.5375 37.6375 31.5C37.1375 24.3375 39.7 17.7375 45.05 12.3625C48.675 8.7125 52.55 6.5875 57.4 5.5625C59.1125 5.2 67.375 5 80.7875 5C100.1125 5 101.55 4.9375 101.8 4.125C107.4875 -14.2875 120.975 -27.05 139.25 -31.3125C145.05 -32.675 155.7375 -32.5875 161.5 -31.1375C179.3875 -26.6375 192.525 -14.0125 198.2 4.125C198.45 4.9375 199.9 5 219.3625 5.0125C241.8625 5.0125 243.9875 5.2125 248.9125 7.7C251.8625 9.2 256.05 12.9125 258.0375 15.8125C258.8625 17.0125 260.1375 19.5125 260.8625 21.375C261.9875 24.25 262.175 25.5125 262.175 30C262.1875 36.4875 261.4375 38.725 256.8375000000001 46.0625C250.175 56.675 250.4375 54.75 250.0125 95C249.6125 131.775 249.6625 131.2 245.9875 142.5875C243.925 148.9875 238.2 160.2875 234.125 165.9625C226.6625 176.4 215.275 186.6 204.1 192.8625C198.9 195.7875 191.5875 199.1125 188.95 199.75C187.6625 200.075 187.6375 200.1375 187.3375 205.9125C186.925 214.075 185.3125 219.2875 181.3125 225.4375C175.65 234.1375 166.175 240.325 156 241.9625C152.85 242.475 147.2875 242.5875 145.25 242.1875M154.25 216.675C157.4125 215.5875 160.5875 212.4125 161.675 209.25C163.2375 204.6625 164.175 205 149.9375 205L137.375 205L137.7125 207.125C138.925 214.7125 146.75 219.225 154.25 216.675M166.5125 179.475C193.6375 176.15 216.2375 156.9125 223.3625 131.0625L224.6875 126.25L225.025 93.5C225.3 66.625 225.5 59.9375 226.1625 56.225C227.7375 47.4375 230.125 41.275 234.7125 34.25L237.475 30L150 30L62.525 30L65.2875 34.25C69.875 41.275 72.275 47.45 73.8375 56.225C74.4875 59.925 74.7 66.7875 74.9875 93.75C75.375 129.4125 75.275 128.125 78.275 136.5C84.9875 155.3 101.225 170.65 121 176.8875C125.0875 178.175 128.2625 178.8625 134 179.6875C136.9875 180.1125 162.6625 179.95 166.5125 179.475M170.65 3.45C170.1625 2.6 168.45 0.7 166.875 -0.775C157.3 -9.675 142.7 -9.675 133.125 -0.775C131.55 0.7 129.8375 2.6 129.35 3.45L128.4375 5L150 5L171.5625 5L170.65 3.45" />
    <glyph glyph-name="bicycle"
      unicode="&#xF134;"
      horiz-adv-x="300" d="M70.5375 204.1375C66.1375 202.5875 62.5 197.325 62.5 192.5C62.5 189.475 63.9875 185.9875 66.2375 183.7375C69.9125 180.0625 70.3625 180 93.75 180C117.1375 180 117.5875 180.0625 121.2625 183.7375C126.15 188.625 126.15 196.375 121.2625 201.2625C117.575 204.95 117.1625 205 93.5375 204.9625C76.0625 204.925 72.4 204.8 70.5375 204.1375M183.0375 204.1375C178.625 202.5875 175 197.325 175 192.5C175 191.4875 176.55 185.5125 178.4375 179.2125L181.875 167.75L139.3125 167.5L96.75 167.25L94.375 166.075C89.5875 163.725 89.25 162.9875 83.2625 141.95L79.9 130.1375L73.325 129.8625C56.2625 129.175 42.775 123.3375 30.975 111.525C21.7125 102.2625 16.425 92.475 13.6625 79.5C12.4125 73.6125 12.4125 61.3875 13.6625 55.5C16.4125 42.5625 21.7625 32.675 30.975 23.4875C40.275 14.225 50.0875 8.9125 63 6.1625C68.8875 4.9125 81.1125 4.9125 87 6.1625C99.1125 8.7375 109.15 13.95 117.8 22.125C123.4625 27.4875 127.475 32.9875 131.0375 40.25C140.9625 60.5 139.3375 83.35 126.6 102.75C123.4375 107.5625 114.65 116.2375 109.75 119.375C107.55 120.7875 105.3375 122.2375 104.8375 122.6C103.9625 123.225 104.05 123.7 106.6375 132.75L109.3625 142.25L149.4125 142.375L189.45 142.5L190.4625 139.125C191.025 137.275 192.3625 132.825 193.45 129.25C195.1625 123.6 195.325 122.6875 194.6625 122.25C194.25 121.975 192.1875 120.6375 190.075 119.2875C185.325 116.2125 176.4875 107.45 173.35 102.6875C165.9125 91.4 162.7625 80.9125 162.7625 67.5C162.7625 61.925 163.0125 58.5625 163.6625 55.5C166.4125 42.5625 171.7625 32.675 180.975 23.4875C190.275 14.225 200.0875 8.9125 213 6.1625C218.8875 4.9125 231.1125 4.9125 237 6.1625C249.1125 8.7375 259.15 13.95 267.8 22.125C273.4625 27.4875 277.475 32.9875 281.0375 40.25C290.9625000000001 60.5 289.3375 83.35 276.6 102.75C273.5 107.4625 264.6625 116.2125 259.75 119.4375C249.3625 126.2375 239.2625 129.3875 226.2500000000001 129.875L219.25 130.125L212.075 154.075C208.125 167.2375 204.7875 178.4625 204.6375 179.0125C204.3875 179.9875 204.6875 180 224.8125 180C244.2 180 245.3375 179.95 246.85 179.025C248.6625 177.9125 250 175.675 250 173.75C250 171.825 248.6625 169.5875 246.85 168.475C245.5625 167.6875 244.325 167.5 240.4625 167.5C234.45 167.5 231.55 166.575 228.7375 163.7625C223.85 158.875 223.85 151.125 228.7375 146.2375C231.6625 143.3125 234.4 142.5 241.2125 142.5125C251.8875 142.525 259.2875 145.3 265.6625 151.675C277.9625 163.975 278.0125 183.5375 265.775 195.775C261.6 199.95 255.8875 203.075 250.25 204.25C244.9125 205.3625 186.25 205.275 183.0375 204.1375M72.5 104.625C72.5 104.4125 70.25 96.375 67.5 86.75C64.75 77.125 62.5 68.45 62.5 67.4625C62.5 64.475 64 60.975 66.2375 58.7375C71.15 53.825 78.875 53.85 83.8 58.775C86.25 61.225 86.2375 61.2 92.5375 83.35C96.0625 95.775 96.8 97.875 97.4625 97.5125C99.0125 96.675 104.1625 91.1875 106.1625 88.2625C114.5125 75.9625 114.5125 59.0125 106.1625 46.7375C92.7375 27.025 65.3 24.325 48.5625 41.0625C29.7875 59.8375 35.95 91.5875 60.3875 101.9875C64.9125 103.9125 72.5 105.5625 72.5 104.625M232.4 104.2125C247.175 101.175 258.675 89.675 261.7125000000001 74.9C267.05 48.85 243.625 25.4375 217.6 30.8C191.45 36.175 179.025 66.45 193.95 88.425C196.0125 91.4625 201.7375 97.5 202.55 97.5C202.7625 97.5 203.5 95.65 204.1875 93.375C204.8625 91.1 207.2625 83.175 209.4875 75.7625C211.725 68.3375 214.0125 61.525 214.575 60.625C216.5375 57.45 221.075 55 224.975 55C231.6 55 237.5 60.9 237.5 67.5C237.5 68.5125 235.2375 76.85 232.4875 86.0375C229.725 95.2375 227.3375 103.2625 227.175 103.875C226.825 105.25 227.2 105.275 232.4 104.2125" />
    <glyph glyph-name="bitcoin-fill"
      unicode="&#xF135;"
      horiz-adv-x="300" d="M139.5 254.6625C131.3 253.8625 126.85 253.2625 121.3 252.1875C92.3 246.575 65.2 232.1375 44.025 211.025C20.8625 187.9125 6.4125 158.875 1.45 125.5C0.5 119.1 0.3 115.6125 0.275 105.5C0.25 92.15 0.725 86.9 3 75.475C12.525 27.7375 45.4125 -13.1 89.8125 -32.325C116.825 -44.025 145.8875 -47.6625 174.5 -42.9375C224.275 -34.725 267.3625 -1.2125 287.3375 44.8125C312.1500000000001 102.0125 299.6375 167.525 255.5125 211.5C230.6125 236.3125 197.9125 251.3375 162 254.4875C156.65 254.95 143.5125 255.0625 139.5 254.6625M167 186L167.25 172.25L171 171.8875C180.8 170.95 191.125 167.95 196.3625 164.525C204.9 158.9625 208.975 150.9125 208.9875 139.575C209.0125 129.75 205.3875 122.45 198.0375 117.45C196.65 116.5125 195.525 115.625 195.5125 115.475C195.5 115.3125 196.6875 114.8875 198.125 114.525C204.1375 113.0125 210.5625 109.0875 213.9125 104.875C218.1625 99.525 219.675 94.3625 219.7125 85C219.75 76.9125 218.8125 72.2 215.9625 66.075C214.3875 62.6875 213.275 61.1625 210.1375 58.075C208 55.975 204.9875 53.5125 203.4375 52.6C197.3 49.0125 186.7125 46.1125 175.2625 44.9L169.35 44.2625L169.7 30.1375L170.0625 16L161.5875 16L153.1125 16L152.75 29.75L152.375 43.5L145.6125 43.5L138.85 43.5L139.2 29.5L139.55 15.5L131.0875 15.5L122.6125 15.5L122.25 29.575L121.875 43.6625L104.9375 43.3125C88.9 42.9875 88 43.025 88.0125 43.8625C88.025 44.35 88.65 48.9125 89.4125 54L90.8 63.25L98.05 63.5C106.175 63.775 107.525 64.25 108.775 67.2375C109.8375 69.7875 108.425 145.7375 107.275 147.9625C105.0875 152.1875 101.85 153.2625 92.475 152.875L86.1 152.625L85.7375 161.2625C85.55 166.0125 85.5375 170.15 85.725 170.45C85.95 170.825 90.225 171 99.2 171C106.4375 171 114.0125 171.1375 116.05 171.3125L119.75 171.625L119.6 185.5625L119.45 199.5L127.675 199.5C134.7125 199.5 135.9375 199.3875 136.2 198.7125C136.3625 198.275 136.5 192.2 136.5 185.2125L136.5 172.5L143.25 172.5L150 172.5L150 186.2625L150 200.025L158.375 199.8875L166.75 199.75L167 186M137.6625 139.725C137.85 132.6375 138 124.9625 138 122.675L138 118.5L143.525 118.5C161.7125 118.5 172.6125 122.3375 176.1875 130C177.625 133.075 177.6125 138.8375 176.1625 142C174.15 146.4125 169.9375 149.4375 163.25 151.3C161 151.925 157.3625 152.2 148.7875 152.375L137.3375 152.6125L137.6625 139.725M144.375 101.625L138.5 101.4625L138.5 93.3125C138.5 88.825 138.65 80.3625 138.8375 74.5L139.1625 63.85L148.4625 64.175C163.825 64.7 173.1375 66.6625 179.0625 70.625C183.9875 73.9125 186 77.7125 186 83.7C185.9875 91.9125 180.5375 97.4375 169.875 100.0125C166.4375 100.85 152.45 102.2125 150.75 101.8875C150.475 101.825 147.6 101.7125 144.375 101.625" />
    <glyph glyph-name="block"
      unicode="&#xF136;"
      horiz-adv-x="300" d="M139.5 242.1875C116.2625 240 95.1875 233.0125 76.85 221.4125C60.275 210.9125 44.0875 194.725 33.5875 178.15C23.3625 161.975 16.625 143.4375 13.6625 123.25C13.0125 118.8 12.7875 114.0875 12.7875 105C12.7875 95.9125 13.0125 91.2 13.6625 86.75C18.2375 55.6375 30.9625 30.0375 52.7375 8.225C61.3125 -0.3875 65.9 -4.1625 75 -10.1375C91.9625 -21.275 110.65 -28.25 131.75 -31.325C140.1375 -32.55 159.8625 -32.55 168.25 -31.325C192.5625 -27.7875 213.6375 -19.075 232.9625 -4.625C239.6250000000001 0.375 253.15 13.625 258.075 20C273.425 39.8625 282.675 61.7375 286.325 86.75C286.975 91.1875 287.2 95.95 287.2 105C287.2 114.05 286.975 118.8125 286.325 123.25C282.675 148.25 273.475 170.025 258.0875 190C253.2375 196.2875 239.6625 209.5875 232.9625 214.6125C214.05 228.7875 193.2 237.525 170 241.025C163.4375 242.0125 145.1125 242.7125 139.5 242.1875M160.7875 216.9625C173.9875 215.6875 187.7375 211.7625 199.5375 205.925C206.1125 202.675 217.3 195.6625 219.1125 193.6625C219.9375 192.75 217.125 189.875 141.05 113.8L62.15 34.9L60.3875 37.075C56.9625 41.2875 52.35 48.825 48.9625 55.75C29.825 94.8375 35.025 141.2875 62.3375 175.3875C85.9125 204.8125 123.325 220.6125 160.7875 216.9625M243.6125 167.275C281.3125 110.8875 260.4125 33.9375 199.25 3.9625C168.075 -11.325 131.8 -11.275 100.525 4.1C93.9 7.35 83.9 13.5625 81.1 16.15L79.9625 17.2125L158.8375 96.0875C234.875 172.125 237.75 174.9375 238.6625 174.1125C239.1875000000001 173.6375 241.4125 170.5625 243.6125 167.275" />
    <glyph glyph-name="bluetooth"
      unicode="&#xF137;"
      horiz-adv-x="300" d="M133.2375 241.7C130.3625 240.6875 127.775 238.375 126.425 235.625L125.25 233.25L125 182.6125L124.75 131.975L96.8125 155.2125C67.8375 179.3125 66.8875 180 62.5 180C55.4625 180 49.45 173.4625 50.1125 166.525C50.6375 161.0125 49.825 161.8125 85.0375 132.4625C102.8875 117.5875 117.5 105.225 117.5 105C117.5 104.775 102.8875 92.4125 85.0375 77.5375C49.825 48.1875 50.6375 48.9875 50.1125 43.475C49.45 36.5375 55.4625 30 62.5 30C66.9125 30 67.8375 30.675 96.825 54.8L124.75 78.025L125 27.3875L125.25 -23.25L126.425 -25.625C128.4 -29.65 132.9875 -32.5 137.5 -32.5C142.05 -32.5 142.2875 -32.325 183.1625 1.7375C226.9375 38.2 224.75 36.0625 224.75 42.5C224.75 48.875 226.2 47.4125 189.925 77.6375C172.0875 92.5 157.5 104.8125 157.5 105C157.5 105.1875 172.0875 117.5 189.925 132.3625C226.2 162.5875 224.75 161.125 224.75 167.5C224.75 173.9375 226.9375 171.8 183.1625 208.2625C152.7 233.6375 143.4625 241.0875 141.65 241.7125C138.8375 242.6625 135.9375 242.6625 133.2375 241.7M171.875 185.1C183.225 175.65 192.5 167.725 192.5 167.5C192.5 167.1375 152.225 133.3 150.625 132.325C150.125 132.025 150 139.1875 150 167.5C150 195.8125 150.125 202.975 150.625 202.675C150.975 202.4625 160.5375 194.5625 171.875 185.1M171.875 60.1C183.225 50.65 192.5 42.725 192.5 42.5C192.5 42.1375 152.225 8.3 150.625 7.325C150.125 7.025 150 14.1875 150 42.5C150 70.8125 150.125 77.975 150.625 77.675C150.975 77.4625 160.5375 69.5625 171.875 60.1" />
    <glyph glyph-name="book"
      unicode="&#xF138;"
      horiz-adv-x="300" d="M78 217.1875C59.7125 215.525 44.1 210.2625 30.3625 201.175C25.1 197.675 17.875 191.1375 14.5625 186.8375L12.5 184.1625L12.5 93.6625C12.5 -7.95 12.1875 0.2875 16.25 -3.775C18.7875 -6.3125 22.55 -7.7125 25.9375 -7.3875C27.2875 -7.2625 30.2625 -6.2125 33.0125 -4.9C49.275 2.8875 74.975 6.425 101.25 4.475C118.575 3.1875 131.5 0.1875 142.2375 -5.0625C149.0625 -8.4 150.9375 -8.4 157.7625 -5.0625C168.5 0.1875 181.425 3.1875 198.75 4.475C225.025 6.425 250.725 2.8875 266.9875 -4.9C269.7375 -6.2125 272.7125 -7.2625 274.0625 -7.3875C277.4500000000001 -7.7125 281.2125 -6.3125 283.75 -3.775C287.8125 0.2875 287.5 -7.8125 287.5 92.5C287.5 174.4875 287.4375 182.025 286.6625 184.2625C286.05 186.075 284.7375 187.85 281.5875000000001 191.1125C268.9125 204.2625 250.8375 213 229.45 216.325C221.4875 217.5625 203.5125 217.5625 195.55 216.325C180.1375 213.9375 167.0375 208.9625 155.1 200.9625L149.9375 197.5125L146.1 200.2C134.3375 208.3875 120.3125 213.8625 104.9875 216.2375C99.9375 217.0125 82.7375 217.625 78 217.1875M102.75 191.275C115.2375 189.05 126.2875 184.3 134.5875 177.6L137.5 175.25L137.5 99.45L137.5 23.6625L131.9875 25.05C120.625 27.9125 108.675 29.375 93 29.825C75.675 30.325 58.1125 28.6875 44.125 25.2625L37.5 23.6375L37.5 99.45L37.5 175.25L40.4125 177.6C49.6875 185.1 62.7875 190.25 77 191.975C82.375 192.6375 97.425 192.225 102.75 191.275M227.75 191.275C240.2375 189.05 251.2875 184.3 259.5875 177.6L262.5 175.25L262.5 99.45L262.5 23.6625L256.9875 25.05C245.625 27.9125 233.675 29.375 218 29.825C200.675 30.325 183.1125 28.6875 169.125 25.2625L162.5 23.6375L162.5 99.45L162.5 175.25L165.4125 177.6C174.6875 185.1 187.7875 190.25 202 191.975C207.375 192.6375 222.425 192.225 227.75 191.275" />
    <glyph glyph-name="bootstrap-fill"
      unicode="&#xF139;"
      horiz-adv-x="300" d="M55.825 229.2125C51 228.0375 46.7125 225.6875 42.9625 222.15C38.875 218.2875 36.5875 214.7125 34.7 209.25C33.3375 205.2875 33.3125 205.0625 32.9625 188.25C32.425 162.1125 30.125 149.1625 23.7125 136.175C18.6875 125.9875 11.5875 120.3 1.375 118.25L0 117.975L0 110.5L0 103.025L1.375 102.725C6.05 101.75 7.5375 101.2625 10.075 99.925C21.3875 93.9 28.5125 79.35 31.8 55.625C32.325 51.7875 32.725 43.85 32.9625 32.75L33.3 15.75L34.8125 11.475C38.35 1.3875 46.225 -5.9125 56.025 -8.225C58.85 -8.8875 70.5625 -8.9875 150 -8.9875C249.7625 -8.9875 243.6 -9.175 250.3625 -5.95C254.275 -4.075 259.8375 1.0375 262.2125 4.9375C263.15 6.4875 264.55 9.5625 265.3 11.75C266.6625 15.7 266.6875 15.975 267.05 32.5C267.4375 50.5 267.85 55.3125 269.8125 64.95C273.5250000000001 83.1875 280.1625 94.7125 289.925 99.925C292.4625 101.2625 293.95 101.75 298.625 102.725L300 103.025L300 110.5L300 117.975L298.625 118.275C288 120.575 281.525 125.7625 276.3625 136.0875C270 148.8 267.6 162.275 267.025 188.5C266.6875 203.85 266.5625 205.5375 265.5375 208.75C263.925 213.8125 261.05 218.3625 257.1375000000001 222.0375C253.0125 225.925 249.8375 227.7 244.7125000000001 229.0125C240.925 229.975 238.9375 230 149.8 229.9625C73 229.925 58.2875 229.8 55.825 229.2125M171.75 172.6125C178.4 170.775 184.5 167.4625 188.4125 163.5625C197.8375 154.125 199.625 139.4375 192.7625 127.7375C189.5125 122.175 181.2625 116.0375 175.9125 115.175C174.8625 115.0125 174 114.7 174 114.475C174 114.125 178.2375 113 179.5625 113C180.875 113 187.075 110.15 190.1 108.1625C195.9125 104.3375 199.3875 99.7625 201.825 92.7C203.0125 89.25 203.1875 87.9875 203.175 82.75C203.175 78.6375 202.9 75.725 202.3 73.5C199.275 62.2 191.2375 54.05 179.15 50.0125C170.8125 47.2375 167.6125 47 137.3375 47L109.925 47L108.4625 48.4625L107 49.925L107 110.5L107 171.075L108.4875 172.5625L109.975 174.05L138.8625 173.8875C166.8125 173.7125 167.875 173.675 171.75 172.6125M127 138.95L127 119.9L142.625 120.1375C155.4 120.325 158.7875 120.525 161.225 121.225C170.1625 123.8 175.3875 129.0875 176.4375 136.6125C177.7125 145.7 173.6875 152.9875 165.775 155.95C161.1875 157.6625 157.35 157.9875 141.875 158L127 158L127 138.95M127 84L127 62.9125L144.875 63.125C161.125 63.3125 163.1 63.425 166.5875 64.3875C168.6875 64.9625 171.375 65.925 172.525 66.5125C175.7 68.125 179.15 71.6125 180.7875 74.8625C182.175 77.6 182.25 78.075 182.2375 84C182.225 89.35 182.075 90.5875 181.1375 92.6125C178.6875 97.9 173.75 101.5125 166.075 103.6125C162.625 104.5625 160.5375 104.675 144.625 104.875L127 105.1L127 84" />
    <glyph glyph-name="box"
      unicode="&#xF13A;"
      horiz-adv-x="300" d="M78.25 229.275C54.825 225.5 35.6375 209.4375 28.325 187.5C25.075 177.775 25.25 182.425 25.25 105C25.25 38.95 25.3 34.5 26.1625 30.5C28.9375 17.525 34.275 7.6625 43.475 -1.5125C52.7625 -10.775 62.55 -16.0625 75.5 -18.8375C79.5 -19.7 83.95 -19.75 150 -19.75C216.05 -19.75 220.5 -19.7 224.5 -18.8375C236.65 -16.2375 246.6625 -11.05 255.3 -2.875C265.8875 7.15 272.725 20.7 274.4875 35.125C274.9000000000001 38.425 275.0125 59.25 274.8875 108C274.725 171.3875 274.6375 176.5125 273.8125 180C270.7 193.125 265.5625 202.4875 256.525 211.5375C247.4625 220.6125 238.225 225.6625 225 228.8125C221.5125 229.65 216.5 229.7125 151.75 229.8125C97.025 229.8875 81.4 229.775 78.25 229.275M219.9 204.2125C234.675 201.175 246.175 189.675 249.2125 174.9C249.9125 171.5 250 163.2375 250 105C250 32.675 250.1 35.2625 247.0625 27.9875C243.4375000000001 19.3375 235.6625 11.5625 227.0125 7.9375C219.7375 4.9 222.325 5 150 5C77.4625 5 80.2375 4.8875 72.8875 8.0125C64.1625 11.725 56.5625 19.3375 52.9375 27.9875C49.9 35.2625 50 32.675 50 105C50 163.2375 50.0875 171.5 50.7875 174.9C53.275 187.025 61.55 197.1625 72.8875 201.9875C80.0375 205.025 77.05 204.9125 149.65 204.9625C208.3125 205 216.4875 204.9125 219.9 204.2125" />
    </font>
</defs>
</svg>
