<?xml version="1.0" standalone="no"?>
<!DOCTYPE svg PUBLIC "-//W3C//DTD SVG 1.1//EN" "http://www.w3.org/Graphics/SVG/1.1/DTD/svg11.dtd" >
<!--
2017-12-18: Created with FontForge (http://fontforge.org)
-->
<svg xmlns="http://www.w3.org/2000/svg" xmlns:xlink="http://www.w3.org/1999/xlink" version="1.1">
<metadata>
Created by FontForge 20170103 at Mon Dec 18 14:25:19 2017
 By debora herrera
Copyright (c) 2017, debora herrera
</metadata>
<defs>
<font id="icono-arg" horiz-adv-x="286" >
  <font-face 
    font-family="icono-arg"
    font-weight="400"
    font-stretch="normal"
    units-per-em="512"
    panose-1="2 0 5 3 0 0 0 0 0 0"
    ascent="448"
    descent="-64"
    bbox="-0.441012 -47 495 435"
    underline-thickness="38.4"
    underline-position="-76.8"
    unicode-range="U+0020-F45B"
  />
    <missing-glyph />
    <glyph glyph-name="space" unicode=" " horiz-adv-x="200" 
 />
    <glyph glyph-name="uniF41C" unicode="&#xf41c;" horiz-adv-x="329" 
d="M140 146v-5h-56v5c0 27 20 60 43 73l3 2l28 -47l-4 -2c-8 -5 -14 -17 -14 -26v0v0zM211 219c23 -13 43 -46 43 -73v-4h-55v4v0v1c0 9 -7 20 -15 25l-3 2l27 47zM184 120l3 2l28 -48l-4 -2c-11 -6 -29 -12 -42 -12s-32 6 -43 12l-3 2l28 48l4 -2c4 -2 10 -4 14 -4
s11 2 15 4zM156 146c0 7 6 13 13 13s14 -6 14 -13s-7 -13 -14 -13s-13 6 -13 13zM328 60c1 -2 1 -4 1 -6c0 -6 -4 -14 -9 -17c-26 -18 -79 -31 -127 -34h-4c-5 -1 -10 -1 -18 -1s-20 0 -35 1c-38 1 -98 15 -127 35c-5 3 -9 10 -9 16c0 2 0 4 1 6c0 1 29 84 53 172
c6 20 11 52 11 73c0 5 -1 13 -1 18c-1 9 -3 23 -6 31c-1 2 -2 5 -2 8s0 7 2 10c3 5 11 10 17 10v0v0h74h2h2h22h2h3h73v0h1c6 0 13 -5 16 -10c2 -3 3 -7 3 -10s-1 -7 -2 -9c-3 -8 -6 -21 -7 -30v-18c0 -21 4 -53 10 -73c24 -88 54 -171 54 -172zM192 23c44 2 93 15 117 31
c0 0 -28 82 -53 172s-2 136 -2 136h-74h-5v0h-21v0h-5h-73s23 -46 -2 -136s-54 -172 -54 -172c24 -16 78 -30 117 -31c16 -1 27 -1 34 -1c10 0 14 1 21 1z" />
    <glyph glyph-name="uniF3C9" unicode="&#xf3c9;" horiz-adv-x="360" 
d="M308 170c-2 -8 -8 -10 -20 -7s-18 5 -18 13s8 20 25 12c7 -3 13 -11 13 -18zM0 279c0 27 13 26 37 25c28 2 71 13 96 24c20 12 31 19 44 -5s41 -111 13 -162c-21 -39 -48 -52 -51 -53s-27 -10 -75 22s-64 122 -64 149zM130 268h1c-8 -3 -14 -11 -14 -19v-4
c4 -10 14 -6 25 -1s19 10 16 17c-4 5 -12 9 -18 9c-3 0 -8 -1 -10 -2zM120 171v-1c-2 0 -29 -5 -42 0c0 0 -7 5 -3 -4c8 -11 25 -20 39 -20c3 0 7 1 10 2c18 4 34 20 37 38c0 10 4 9 -5 2s-25 -14 -36 -17zM69 251v0c-12 0 -23 -9 -23 -17s10 -9 22 -9s23 -1 22 10
c-2 9 -11 16 -20 16h-1zM248 182c-3 -7 -10 -8 -22 -6c-4 0 -10 2 -13 4c1 5 2 12 3 17c3 2 9 4 13 4c19 1 22 -12 19 -19zM241 45c-3 0 -28 1 -61 49c-3 4 -7 11 -9 16c5 5 13 14 17 20c2 -7 6 -18 10 -24c7 -12 23 -27 34 -35c3 -2 7 -3 10 -4c4 0 9 2 13 3
c12 4 30 13 40 21c8 6 18 19 22 28c5 11 11 29 14 41c4 16 7 41 7 57v9c-1 2 -1 3 -1 4c-4 0 -9 -1 -13 -2v0h-14c-12 0 -32 2 -44 4c-14 2 -37 8 -50 13c-1 9 -2 17 -4 25c3 -1 8 -3 12 -5c24 -8 64 -14 90 -14h7c23 3 36 4 39 -23s-6 -117 -51 -153
c-12 -10 -33 -21 -48 -26c-5 -2 -14 -4 -20 -4zM213 111c0 0 -6 -4 -2 3c6 10 20 18 32 18c2 0 6 -1 8 -1c14 -3 28 -17 31 -31c1 -8 4 -8 -4 -2s-23 12 -32 14c-4 1 -9 1 -13 1c-6 0 -15 -1 -20 -2z" />
    <glyph glyph-name="uniF391" unicode="&#xf391;" horiz-adv-x="342" 
d="M186 291h72c3 0 5 -3 5 -6v-159c0 -3 -2 -5 -5 -5h-193c-3 0 -5 2 -5 5v159c0 3 2 6 5 6v0h72l23 22s0 1 1 1s2 -1 2 -1zM162 307l-17 -16h33zM252 132v147h-181v-147h181zM244 272v-132h-165v132h165zM144 199v0c8 -3 21 -7 29 -8v0l2 4c2 3 4 5 6 8c-3 5 -11 9 -17 9
h-1h-1c-7 0 -15 -6 -18 -13zM238 145v37c-5 3 -10 9 -13 14c-5 9 -11 15 -21 16s-18 -11 -24 -21c-2 -3 -6 -7 -8 -10c-13 -12 -37 -26 -54 -29h-1v0c-1 0 -3 1 -3 2v1c0 1 1 3 2 3h1c16 3 39 15 51 26l1 2c-8 1 -21 5 -28 8c-3 1 -7 3 -13 5c-19 7 -40 -16 -43 -20v-34h153
zM191 27c5 -5 13 -12 20 -14l8 -2h-177c-23 0 -42 18 -42 41v301c0 23 19 42 42 42h237c23 0 42 -19 42 -42v-276l-17 12v264v0c0 14 -11 25 -25 25h-238c-14 0 -24 -11 -24 -25v0v-301v0c0 -14 10 -24 24 -24h1h149v-1zM342 32l-60 -43v21v0c0 2 -3 4 -5 4
c-46 2 -71 24 -77 65l-1 5l3 -4c24 -30 50 -29 75 -29v0c1 0 2 0 3 1s2 2 2 3v20z" />
    <glyph glyph-name="uniF3BE" unicode="&#xf3be;" horiz-adv-x="323" 
d="M161 286c56 0 102 -45 102 -101s-46 -102 -102 -102s-101 46 -101 102s45 101 101 101zM161 99v0c47 0 85 38 85 85v0c0 47 -38 85 -85 85s-85 -38 -85 -85s38 -85 85 -85zM150 258h20l7 -93h-6l-68 3v20l44 4zM321 311l2 -269v0c0 -23 -20 -43 -43 -43h-237
c-24 0 -43 19 -43 43v300c0 24 19 43 43 43h210v-1l68 -73v0zM289 315l-28 32v-32h28zM303 41l1 253h-54v0c-6 0 -11 5 -11 11v61h-196c-13 0 -24 -11 -24 -24v-301c0 -13 11 -24 24 -24h237c13 0 23 11 23 24z" />
    <glyph glyph-name="uniF3FE" unicode="&#xf3fe;" horiz-adv-x="366" 
d="M170 283c-4 0 -7 2 -7 6s3 7 7 7c23 0 34 -9 36 -32v-1c0 -3 -3 -6 -6 -6h-1v0c-3 0 -6 2 -6 5c-2 17 -7 21 -23 21zM156 291v0c0 -4 -3 -7 -7 -7v0h-3c-4 0 -6 3 -6 7s2 6 6 6h3c4 0 7 -2 7 -6zM197 103h-1c4 0 7 -3 7 -7s-3 -6 -7 -6c-23 0 -33 9 -35 32v1c0 3 3 6 6 6
v0c3 0 7 -3 7 -6c2 -17 7 -20 23 -20zM220 102c4 0 7 -3 7 -7s-3 -6 -7 -6h-3c-4 0 -6 2 -6 6s2 7 6 7h3zM341 183c14 0 25 -12 25 -26v-95v0c0 -14 -11 -25 -25 -25v0h-3c-14 0 -25 11 -25 25v1h-130c-27 0 -49 21 -49 48v54v0c-14 0 -25 12 -25 26v2c0 14 11 26 25 26h1v7
h-82c-1 -13 -12 -25 -25 -25h-3c-14 0 -25 12 -25 26v95c0 14 11 25 25 25h3c13 0 24 -11 25 -24h130c27 0 49 -22 49 -49v-56c13 -1 23 -11 23 -24v-3c0 -13 -10 -24 -23 -25v-6h82c1 12 12 23 24 23h3zM39 227v95c0 6 -5 11 -11 11h-3c-6 0 -11 -5 -11 -11v-95
c0 -6 5 -11 11 -11h3c6 0 11 5 11 11zM53 242h98v-23h65v55c0 18 -15 33 -33 33h-130v-65zM123 191v0c0 -6 5 -11 11 -11v0h95c6 0 11 5 11 11v3c0 6 -5 11 -11 11v0h-95c-6 0 -11 -5 -11 -11v-3zM183 79h130v65h-98v22h-65v-54v-1c0 -18 15 -32 33 -32v0zM352 62v95
c0 6 -5 11 -11 11v0h-3c-6 0 -11 -5 -11 -11v-95c0 -6 5 -11 11 -11v0h3c6 0 11 5 11 11z" />
    <glyph glyph-name="uniF3B9" unicode="&#xf3b9;" horiz-adv-x="390" 
d="M195 420c108 0 195 -87 195 -195v0c0 -58 -25 -105 -67 -147l-108 -106c-5 -5 -13 -8 -20 -8v0c-7 0 -15 3 -20 8l-108 106c-42 42 -67 88 -67 147v0c0 108 87 195 195 195v0v0zM195 57v0c92 0 168 76 168 168v0c0 93 -75 168 -168 168s-168 -75 -168 -168
s75 -168 168 -168v0zM91 297c9 0 17 -8 17 -17s-8 -17 -17 -17h-15v0v-24c0 -1 -2 -2 -3 -2s-2 1 -2 2v56v0c0 1 1 2 2 2v0h18zM91 268v0c9 0 14 4 14 12s-5 12 -14 12h-15v0v-24v0h15zM162 258c0 -1 1 -2 1 -3c0 -10 -9 -19 -19 -19h-2h-2c-10 0 -19 9 -19 19v3v37
c0 1 2 2 3 2s3 -1 3 -2v-37c0 -11 5 -17 15 -17s15 6 15 17v37c0 1 2 2 3 2s2 -1 2 -2v-37zM217 237c-2 0 -3 0 -4 2l-29 48v0v-48c0 -1 -2 -2 -3 -2s-2 1 -2 2v55v1c0 2 1 3 3 3v0c2 0 2 -1 3 -3l30 -48v0v48v0c0 1 1 3 2 3v0v0c1 0 3 -2 3 -3v0v-55v-1c0 -2 -1 -2 -3 -2v0
zM232 292v0c-1 0 -2 2 -2 3s1 2 2 2h38h1c1 0 2 -1 2 -2s-1 -3 -2 -3h-1h-16c-1 0 0 0 0 0v-53c0 -1 -2 -2 -3 -2s-2 1 -2 2v53c0 1 -1 0 -1 0h-16zM319 250c-2 -8 -12 -15 -20 -15s-17 7 -19 15c-1 4 -2 10 -2 14v3v4c0 4 1 10 2 14c2 8 11 14 19 14s18 -6 20 -14
c1 -4 2 -10 2 -14v-4v-4c0 -4 -1 -9 -2 -13zM285 251c2 -6 8 -10 14 -10s13 4 15 10c1 4 2 9 2 13c0 1 -1 2 -1 3s1 2 1 3c0 4 -1 9 -2 13c-2 6 -9 10 -15 10s-12 -4 -14 -10c-1 -3 -2 -9 -2 -13v-3v-3c0 -4 1 -10 2 -13zM87 213c11 0 17 -4 20 -12c1 -3 2 -8 2 -11v-2v-3
c0 -3 -1 -8 -2 -11c-3 -8 -10 -11 -20 -11h-12v0c-2 0 -5 2 -5 4v1v40v1c0 2 3 4 5 4v0h12zM96 178c0 2 1 6 1 8v1v2c0 2 0 6 -1 8c-2 4 -5 6 -10 6h-5v0v-30h5c5 0 9 1 10 5zM122 213v0c3 0 5 -2 5 -5v0v-40c0 -3 -2 -5 -5 -5s-6 2 -6 5v40v0c0 3 3 5 6 5v0zM170 191h1
c2 0 3 -2 3 -4v-1v0v-2c0 -3 0 -7 -1 -10c-2 -7 -10 -12 -17 -12h-1h-2c-7 0 -14 5 -16 12c-1 3 -2 9 -2 12v2v3c0 3 0 8 1 11c2 7 10 12 17 12h2h1c5 0 12 -4 15 -8c1 -1 1 -2 1 -3v0c0 -3 -2 -5 -5 -5v0v0c-2 0 -4 2 -5 3c-1 2 -5 3 -7 3v0h-1c-3 0 -6 -2 -7 -5
c0 -2 -1 -6 -1 -8v-3v-2c0 -2 1 -6 1 -8c1 -3 4 -6 7 -6h1v0c3 0 7 2 8 5v5v0h-3c-2 0 -4 3 -4 5s2 4 4 4h10zM188 213v0c3 0 5 -2 5 -5v0v-40c0 -3 -2 -5 -5 -5s-5 2 -5 5v40v0c0 3 2 5 5 5v0zM238 208c0 -3 -2 -5 -5 -5v0h-9v0v-34c0 -3 -3 -6 -6 -6s-5 3 -5 6v34v0h-9v0
c-3 0 -5 2 -5 5v0c0 3 2 5 5 5v0h29v0c3 0 5 -2 5 -5v0zM265 207l14 -37v-1v-1v0c0 -3 -2 -5 -5 -5v0v0c-2 0 -4 2 -5 4l-2 6h-18l-2 -6c-1 -2 -3 -4 -5 -4v0v0c-3 0 -5 2 -5 5v0v1v1l13 37c1 4 4 6 8 6s6 -2 7 -6zM252 182h12l-7 17v0zM315 173v-1v0c3 0 5 -1 5 -4
s-2 -5 -5 -5v0h-23h-1c-3 0 -5 2 -5 5v0v39c0 3 3 6 6 6s5 -3 5 -6v-34h18z" />
    <glyph glyph-name="uniF44D" unicode="&#xf44d;" horiz-adv-x="420" 
d="M415 345c3 -3 5 -8 5 -12v-1v-237c0 -10 -9 -18 -19 -18v0h-113v-21h40c6 0 12 -6 12 -12s-6 -11 -12 -11h-237c-6 0 -11 5 -11 11s5 12 11 12h41v21h-113v0c-10 0 -19 8 -19 18v238c0 10 9 18 19 18h382v0c4 0 11 -3 14 -6zM265 77h-111v-21h111v21zM397 328h-374v-229
h374v229z" />
    <glyph glyph-name="uniF393" unicode="&#xf393;" horiz-adv-x="321" 
d="M320 311l1 -269c0 -23 -19 -42 -42 -42v0h-237c-23 0 -42 19 -42 42v300c0 23 19 42 42 42h210v0l68 -73v0zM291 314l-32 35v-35h32zM304 42l-1 253h-54v0c-5 0 -10 4 -10 9v63h-197v0c-13 0 -25 -12 -25 -25v-300c0 -14 11 -25 25 -25v0h238c14 0 24 11 24 25zM241 187
v-1h8v-2c0 -21 -17 -38 -38 -39v0c-21 0 -38 18 -38 39v0v1h8l24 48c-8 3 -22 9 -30 13c-1 -2 -4 -3 -6 -4v-103c1 0 3 -1 4 -2c5 -3 9 -9 11 -14h11c3 0 5 -2 5 -5s-2 -5 -5 -5h-63c-3 0 -5 2 -5 5s2 5 5 5h10c1 5 6 11 11 14c1 1 4 2 5 2v103c-2 1 -5 2 -6 4
c-8 -4 -22 -10 -30 -13l23 -48h9v-1v0c0 -21 -17 -39 -38 -39h-1c-21 1 -38 18 -38 39v1h8l1 2c4 9 11 24 21 47c-5 3 -11 9 -14 14c0 1 -1 2 -1 3c0 2 1 3 2 4c1 0 2 1 3 1h1c1 0 2 -1 3 -2l3 -3l3 -4l2 -1c1 1 4 2 6 2c3 0 6 -2 7 -4c6 2 16 7 26 12c0 8 7 15 15 15v0v0
c8 0 15 -7 15 -15c10 -5 20 -10 26 -12c1 2 4 4 7 4c2 0 5 -1 6 -2l2 1l3 4l3 3c1 1 2 2 3 2h1h3c1 -1 2 -3 2 -4v-1c0 -1 -1 -2 -1 -3c-3 -5 -9 -11 -14 -14c11 -23 18 -38 22 -47zM134 185l-20 40l-8 -19c-3 -8 -7 -16 -10 -21h38zM193 185l37 1c-2 5 -5 12 -9 20l-9 20z
" />
    <glyph glyph-name="uniF420" unicode="&#xf420;" horiz-adv-x="406" 
d="M287 384c65 -1 119 -55 119 -120v-1c0 -4 -1 -15 -2 -21v-1v-1v-1v-1c-4 -17 -16 -41 -28 -54c-4 -4 -149 -170 -150 -172l-1 -1c-5 -5 -15 -10 -22 -10v0c-7 0 -17 5 -22 10l-1 1c-1 1 -145 166 -150 172c-17 19 -30 55 -30 80c0 66 53 119 119 119c23 0 57 -11 75 -26
c3 -3 6 -5 9 -8c19 19 57 35 84 35zM383 264c0 0 0 -52 0 1s-42 95 -95 95c-26 0 -60 -17 -76 -37c-2 -2 -6 -4 -9 -4v0v0v0c-3 0 -7 2 -9 4c-4 5 -10 11 -15 15c-14 11 -41 20 -59 20c-53 0 -95 -42 -95 -95c0 -20 10 -48 23 -63c6 -6 142 -163 150 -172c1 -1 3 -3 5 -3v0
c2 0 5 2 6 3c8 9 146 169 149 172c9 10 20 30 23 44v0c1 3 2 17 2 20zM203 306c56 0 102 -46 102 -102s-46 -101 -102 -101s-101 45 -101 101s45 102 101 102zM203 127v0c43 0 78 35 78 78s-35 77 -78 77s-78 -34 -78 -77s35 -78 78 -78zM189 240c3 -2 6 -6 6 -10
c0 -2 0 -4 -1 -5l-14 -26c-2 -4 -6 -6 -10 -6c-7 0 -12 5 -12 12c0 2 0 5 1 6l14 25c2 3 6 6 10 6c2 0 5 -1 6 -2zM233 236l14 -25c1 -1 1 -3 1 -5c0 -7 -5 -12 -12 -12c-4 0 -8 3 -10 6l-13 25c0 1 -1 3 -1 4c0 7 5 12 12 12c3 0 7 -2 9 -5zM203 200c7 0 12 -5 12 -12v-25
c0 -7 -5 -12 -12 -12s-12 5 -12 12v25c0 7 5 12 12 12z" />
    <glyph glyph-name="uniF3F6" unicode="&#xf3f6;" horiz-adv-x="337" 
d="M65 170h-1l-54 -13c-6 0 -10 5 -10 11c0 3 3 7 6 9l55 13h2c4 0 9 -4 10 -8v-2c0 -4 -4 -9 -8 -10v0zM24 283v1c-1 2 -2 5 -2 7c0 6 4 10 10 10c1 0 2 -1 3 -1l48 -30c2 -2 4 -5 4 -8c0 -1 0 -4 -1 -5v-1c-2 -3 -5 -4 -8 -4c-1 0 -4 0 -5 1l-1 1l-48 29v0zM136 308
l-13 54v3c0 4 4 8 8 9h2c4 0 9 -3 10 -7l12 -55v-1c0 -6 -4 -10 -10 -10c-3 0 -7 2 -9 5v1v1zM222 286c-3 2 -4 6 -4 9c0 1 0 4 1 5l1 1l30 47c2 3 5 5 8 5c5 0 10 -5 10 -10c0 -1 -1 -4 -2 -5l-30 -49c-2 -2 -5 -4 -8 -4c-1 0 -5 0 -6 1zM101 171c-2 4 -4 11 -5 16
s-2 11 -2 16c0 41 34 75 75 75c19 0 45 -11 57 -26zM334 152c0 -1 1 -1 1 -2c0 -4 -4 -8 -8 -9l-36 -9l3 -2c11 -6 29 -18 39 -26c1 -1 1 -4 1 -5c0 -6 -4 -10 -10 -10c-1 0 -4 0 -5 1l-36 23l-3 2l7 -37v-2c0 -4 -4 -8 -8 -9l-1 -1c-4 0 -9 4 -10 8l-10 56l-67 43v-80
l41 -39c2 -2 3 -5 3 -7s-1 -5 -3 -7s-5 -3 -7 -3s-5 1 -7 3l-27 26v-4v-19c0 -8 0 -19 -1 -27c-1 -2 -3 -5 -5 -6c-1 0 -2 -1 -3 -1s-3 1 -4 1c-4 1 -7 5 -7 9v1v42v4l-27 -26c-2 -3 -6 -4 -9 -4c-6 0 -10 4 -10 10c0 3 2 7 5 9l41 38v0v79l-3 -2l-63 -40h-1l-10 -56v0
c0 -6 -4 -11 -10 -11s-10 5 -10 11c0 1 0 3 1 4l7 37l-3 -2l-36 -23c-1 -1 -4 -1 -5 -1c-6 0 -10 4 -10 10c0 1 0 4 1 5c1 2 10 7 231 149l59 39c1 1 3 1 5 1c3 0 7 -2 9 -4c1 -1 1 -4 1 -6c0 -3 -2 -6 -4 -8l-39 -25l36 -9v0c6 0 10 -4 10 -10s-4 -11 -10 -11
c-1 0 -3 1 -4 2l-54 13h-1l-69 -45l2 -1l67 -43v0l55 14h2c4 0 8 -4 9 -8v0z" />
    <glyph glyph-name="uniF450" unicode="&#xf450;" horiz-adv-x="277" 
d="M237 58c58 0 58 -40 -32 -43c-73 -3 -188 -6 -203 15c-13 18 44 29 78 30c55 2 46 10 21 22c-19 9 38 16 37 16c-43 -20 88 -6 92 -23c2 -8 -51 -17 7 -17zM115 238c0 2 0 5 2 6c-2 3 -4 9 -4 13c1 13 13 23 26 23s25 -10 26 -23c0 -4 -3 -10 -5 -13c2 -1 3 -4 3 -6
c0 -4 -2 -7 -6 -8v-3c0 -5 -5 -9 -10 -9h-16c-5 0 -10 4 -10 9v3c-4 1 -6 4 -6 8zM150 262v0c-4 0 -7 -3 -7 -7s3 -7 7 -7s7 3 7 7s-3 7 -7 7zM139 246l-6 -11l7 3l7 -3zM128 262h-1c-4 0 -7 -3 -7 -7s3 -7 7 -7s7 3 7 7s-2 7 -6 7zM114 194v0l13 5l-14 6s1 2 0 0
s-3 -4 -6 -4c-4 0 -6 2 -6 6c0 1 1 2 1 3c1 2 2 4 4 4v3v2c1 2 4 4 6 4c4 0 7 -2 7 -6c0 -1 -1 -2 -1 -3v0l21 -10l21 10v0c0 1 -1 1 -1 2c0 4 3 6 7 6c2 0 4 -1 5 -3c0 -1 1 -2 1 -3s-1 -2 -1 -3c2 0 4 -2 5 -4v-2c0 -4 -2 -6 -6 -6c-2 0 -5 1 -6 3v0l-13 -4l13 -6
s-1 -2 0 0s4 3 6 3c4 0 6 -2 6 -6v-3c-1 -2 -3 -3 -5 -3c0 -1 1 -2 1 -3c0 -4 -2 -6 -6 -6s-7 2 -7 6c0 1 1 2 1 3v0l-21 9l-21 -9v0c0 -1 1 -1 1 -2c0 -4 -2 -7 -6 -7c-2 0 -5 2 -6 4c0 1 -1 2 -1 3s1 2 1 3c-2 0 -4 1 -5 3v3c0 4 2 6 6 6c2 0 5 -2 6 -4zM32 125
c0 3 3 6 6 7v19c-3 1 -6 5 -6 9v0c0 3 3 6 6 7v139c-3 1 -6 5 -6 9v0c0 3 3 6 6 7v20c-3 1 -6 5 -6 9c0 9 10 13 36 16c19 2 48 4 67 4h4h3c19 0 49 -2 68 -4c26 -3 35 -7 35 -16c0 -4 -3 -8 -6 -9v-20c3 -1 6 -4 6 -7v0c0 -4 -3 -8 -6 -9v-138c3 -1 6 -5 6 -8v0
c0 -4 -3 -8 -6 -9v-19c3 -1 6 -4 6 -7v0c0 -9 -9 -14 -35 -17c-19 -2 -49 -4 -68 -4h-3h-4c-19 0 -48 2 -67 4c-26 3 -36 8 -36 17zM139 357h-9c-20 0 -53 -3 -73 -6c20 -3 53 -6 73 -6h9h9c20 0 53 3 73 6c-20 3 -53 6 -73 6h-9zM68 334v0c-6 1 -11 1 -15 2v-20
c20 -4 53 -6 73 -6h13h10c21 0 55 3 76 7v20c-4 -1 -9 -2 -15 -3c-19 -2 -48 -4 -67 -4h-4h-4c-19 0 -48 2 -67 4zM68 299v-1c-6 1 -11 2 -15 3v-140c21 -4 54 -7 75 -7h11h10c21 0 55 3 76 7v140c-4 -1 -9 -1 -15 -2c-19 -2 -48 -4 -67 -4h-4h-4c-19 0 -48 2 -67 4zM68 144
v0c-6 1 -11 2 -15 3v-21c21 -4 54 -7 75 -7h11h10c21 0 55 3 76 7v21c-4 -1 -9 -2 -15 -3c-19 -2 -48 -4 -67 -4h-4h-4c-19 0 -48 2 -67 4z" />
    <glyph glyph-name="uniF3B3" unicode="&#xf3b3;" horiz-adv-x="334" 
d="M53 82h229c1 0 4 0 5 -1c2 -1 4 -3 5 -5s2 -5 2 -7s-1 -5 -2 -7s-3 -3 -5 -4c-1 -1 -4 -1 -5 -1h-229c-1 0 -4 0 -5 1c-2 1 -4 2 -5 4s-2 5 -2 7s1 5 2 7s3 4 5 5c1 1 4 1 5 1zM305 262c-1 -1 -1 -3 -2 -4c-3 -3 -10 -6 -15 -6v0h-242h-1c-6 0 -13 4 -16 10
c-1 1 -1 5 -1 6c0 3 1 6 3 8l4 4l121 82c3 2 8 4 11 4s9 -2 12 -4l120 -82c2 -2 5 -5 6 -8c0 -1 1 -4 1 -5s-1 -4 -1 -5zM167 283c12 0 22 10 22 22s-10 21 -22 21s-21 -9 -21 -21s9 -22 21 -22v0zM80 96v139h32v-139h-32zM151 96v139h32v-139h-32zM223 96v139h31v-139h-31z
M0 31v0c0 7 6 12 13 12v0h309c7 0 12 -5 12 -12s-5 -13 -12 -13h-309v0c-7 0 -13 6 -13 13v0z" />
    <glyph glyph-name="uniF411" unicode="&#xf411;" horiz-adv-x="359" 
d="M179 13c-99 0 -179 80 -179 179s80 179 179 179s180 -80 180 -179s-81 -179 -180 -179zM179 351c-88 0 -159 -71 -159 -159s71 -159 159 -159s160 71 160 159v0c0 88 -72 159 -160 159v0zM120 85c-3 0 -5 3 -5 6c0 1 1 3 2 4c15 10 43 18 61 18h1c18 0 46 -8 62 -18
c1 -1 3 -2 3 -4c0 -3 -2 -6 -5 -6c-1 0 -2 1 -3 1c-14 9 -40 16 -57 17v0c-17 0 -42 -8 -56 -17c-1 -1 -2 -1 -3 -1zM305 127c0 -11 -9 -20 -20 -20s-19 9 -19 20s18 34 19 34s20 -23 20 -34zM65 214l-1 -1c-3 0 -5 3 -5 6s3 5 5 5c15 4 34 17 44 29c1 1 2 3 4 3
c3 0 5 -2 5 -5c0 -1 0 -3 -1 -4c-11 -14 -33 -28 -50 -33h-1zM294 214h-1c-17 5 -39 19 -50 33c-1 1 -1 2 -1 3c0 3 2 5 5 5c2 0 3 -1 4 -2c10 -12 29 -26 44 -30c2 0 5 -2 5 -5s-2 -5 -5 -5h-1v1zM83 181c0 10 4 18 10 18s11 -8 11 -18s-5 -18 -11 -18s-10 8 -10 18z
M255 181c0 10 5 18 11 18s10 -8 10 -18s-4 -18 -10 -18s-11 8 -11 18z" />
    <glyph glyph-name="uniF3CD" unicode="&#xf3cd;" horiz-adv-x="384" 
d="M145 23c33 0 61 0 83 14c3 -6 5 -11 8 -16c-24 -14 -55 -16 -91 -16c-86 0 -142 11 -143 162c-1 8 -2 21 -2 29c0 5 1 13 1 18c1 8 0 17 0 25c0 57 44 117 98 136v9c0 5 4 9 9 9s9 -4 9 -9v-4c5 1 14 3 19 3v25c0 5 4 10 9 10s9 -5 9 -10v-25c5 0 15 -2 20 -3v4
c0 5 4 9 9 9s9 -4 9 -9v-9c54 -19 97 -79 97 -136v-18v-9c-5 -1 -13 -3 -18 -5v14v18c0 47 -36 100 -80 117v-22c0 -5 -4 -9 -9 -9s-9 4 -9 9v28c-5 1 -14 2 -19 2v-46c0 -5 -4 -9 -9 -9s-9 4 -9 9v46c-5 0 -15 -1 -20 -2v-28c0 -5 -4 -9 -9 -9s-9 4 -9 9v22
c-43 -18 -78 -70 -78 -117v-1c0 -9 -1 -17 -1 -25v-17c0 -7 0 -17 1 -24v0v-4c1 -9 7 -22 13 -29c17 -18 54 -27 112 -27h4c16 0 41 2 56 5v-4c0 -4 0 -10 1 -14c-16 -3 -41 -5 -57 -5h-4c-63 0 -102 11 -123 31c11 -101 59 -102 123 -102zM307 192c42 0 77 -36 77 -78v-1
c0 -54 -73 -139 -76 -143l-3 -3s-1 -1 -2 -1v0c-1 0 -2 1 -2 1l-2 3c-3 4 -71 88 -71 145v1c0 17 10 41 22 53c13 12 37 23 55 23h2zM331 87c7 6 12 18 12 27c0 20 -17 38 -37 38v0h-1c-21 0 -37 -17 -37 -38s17 -37 37 -37v0h1c8 0 19 4 25 10z" />
    <glyph glyph-name="uniF44E" unicode="&#xf44e;" horiz-adv-x="252" 
d="M212 407c18 -5 40 -14 40 -29v-372c0 -12 -13 -22 -39 -29c-22 -5 -59 -10 -82 -10h-5h-6c-23 0 -59 5 -81 10c-26 7 -39 17 -39 29v373c0 12 13 21 39 28c22 5 58 10 81 10h6h4c23 0 60 -5 82 -10zM229 376v0c-6 4 -16 8 -23 9c-21 5 -55 9 -76 9h-4
c-65 0 -97 -13 -103 -18v-368c6 -5 38 -18 103 -18s97 13 103 18v368zM126 237c-24 0 -44 20 -44 44s20 44 44 44s44 -20 44 -44s-20 -44 -44 -44zM97 281v0v0c0 -16 13 -28 29 -28s28 12 28 28s-12 29 -28 29s-29 -13 -29 -29zM190 101h1c4 0 7 -3 7 -7v-1v-52
c0 -4 -4 -8 -8 -8h-129c-4 0 -7 4 -7 8v52c0 4 3 8 7 8h129zM183 86h-114v-37h114v37zM124 274v0c-2 1 -3 3 -3 5v2l8 16c1 2 3 3 5 3c1 0 2 -1 3 -1l2 -1c2 -1 3 -3 3 -5c0 -1 -1 -2 -1 -3l-8 -15c-1 -1 -2 -3 -3 -3h-2v0c-1 0 -2 1 -3 1z" />
    <glyph glyph-name="uniF44A" unicode="&#xf44a;" horiz-adv-x="265" 
d="M242 366c13 0 23 -10 23 -23v-302c0 -13 -10 -23 -23 -23v0h-219c-13 0 -23 10 -23 23v302c0 13 10 23 23 23h219zM23 350c-4 0 -7 -3 -7 -7v0v-50h233v50c0 4 -3 7 -7 7h-219zM242 34c4 0 7 3 7 7v1v238h-234v-238v0c0 -4 4 -8 8 -8h219zM158 306v0c-8 0 -16 7 -16 15v1
c0 9 7 15 16 15s16 -6 16 -15s-7 -16 -16 -16v0zM158 327v1v0c-3 0 -6 -2 -6 -5l1 -1c0 -3 2 -6 5 -6s5 3 5 6s-2 5 -5 5v0zM209 306c-9 0 -16 7 -16 16s7 15 16 15s16 -6 16 -15s-7 -16 -16 -16v0zM209 327v1c-3 0 -5 -3 -5 -6v0c0 -3 2 -6 5 -6s6 3 6 6s-3 5 -6 5v0z
M130 255c42 0 77 -36 77 -78c0 -43 -34 -77 -77 -77s-77 34 -77 77s34 78 77 78zM130 116v0c34 0 62 28 62 62v0c0 34 -28 62 -62 62s-62 -28 -62 -62s28 -62 62 -62v0zM79 176c6 8 18 15 28 15c19 0 41 -15 74 -15h1c0 -28 -23 -51 -51 -51s-52 23 -52 51z" />
    <glyph glyph-name="uniF43B" unicode="&#xf43b;" horiz-adv-x="396" 
d="M278 143c-2 -2 -24 -36 -60 -45c4 -3 8 -5 8 -5v0c1 -1 3 -4 3 -6c0 -1 -1 -3 -2 -4c-1 -2 -26 -39 -65 -45c-30 -5 -58 12 -70 20l-64 -76c-1 -1 -3 -2 -5 -2c-4 0 -8 3 -8 7c0 2 1 4 2 5l63 77c-7 7 -35 34 -35 69c-1 39 34 71 35 72s3 2 5 2s4 -1 5 -2v0s2 -3 6 -7
c2 37 34 65 35 66s3 2 5 2s4 -1 5 -2v0c3 -2 7 -6 9 -9c0 39 33 70 34 71s3 2 5 2s4 -1 5 -2v0c11 -10 25 -28 31 -41c2 5 7 13 10 17c25 30 71 32 73 32v0c4 0 6 -2 7 -6c0 -2 7 -48 -18 -78c-4 -5 -13 -12 -18 -15c16 -3 39 -14 51 -24v0c2 -1 3 -4 3 -6c0 -1 0 -3 -1 -4
c-1 -2 -26 -39 -65 -45c3 -2 7 -6 10 -8v0c2 -1 3 -4 3 -6c0 -1 -1 -3 -2 -4zM145 117c-7 2 -16 8 -19 15c-1 -8 -3 -19 -6 -26c6 4 18 9 25 11zM201 178v-1c-8 4 -19 13 -24 20c0 -9 -3 -23 -7 -31c8 5 22 11 31 12zM264 175v0c24 3 43 23 51 33c-11 7 -34 21 -58 17
s-43 -23 -51 -33c11 -7 34 -21 58 -17zM301 323v0c-13 -2 -39 -7 -55 -26s-16 -46 -15 -59c13 2 38 7 54 26s17 46 16 59zM189 315h1c-9 -10 -25 -32 -25 -56s17 -45 26 -55c9 10 25 32 25 56s-18 46 -27 55zM112 197c0 -6 2 -15 4 -21c1 -3 3 -8 5 -11c4 -7 12 -17 17 -23
c9 10 24 31 24 55s-17 46 -26 55c-9 -9 -24 -31 -24 -55zM87 83c9 9 25 30 25 55c0 6 -3 15 -5 21c-1 3 -3 8 -5 11c-4 7 -12 17 -17 23c-9 -9 -24 -32 -24 -56s17 -45 26 -54zM160 52c24 4 43 24 51 33c-6 4 -18 10 -25 13c-4 2 -8 3 -12 4s-9 1 -13 1h-8
c-24 -4 -43 -24 -51 -34c11 -7 34 -21 58 -17zM211 112v0c24 3 43 23 51 33c-11 7 -35 21 -59 17s-42 -23 -50 -33c6 -4 18 -10 25 -13c3 -1 8 -2 11 -3c4 -1 10 -1 14 -1h8zM324 348c-2 1 -3 4 -3 6s1 4 2 5l51 60c1 1 4 2 6 2c4 0 7 -3 7 -7c0 -2 -1 -5 -2 -6l-50 -59
c-1 -1 -4 -3 -6 -3c-1 0 -4 1 -5 2zM284 350c-2 1 -3 4 -3 6s1 4 2 5l51 59c1 1 3 3 5 3c4 0 8 -4 8 -8c0 -2 -1 -4 -2 -5l-51 -59c-1 -1 -3 -3 -5 -3c-1 0 -4 1 -5 2zM324 249c-2 1 -3 4 -3 6s0 4 1 5l51 59c1 1 4 3 6 3c4 0 7 -4 7 -8c0 -2 -1 -4 -2 -5l-50 -60
c-1 -1 -4 -2 -6 -2c-1 0 -3 1 -4 2zM226 331c-1 1 -2 4 -2 6s1 4 2 5l51 59c1 2 3 4 6 4c4 0 8 -3 8 -7c0 -2 -2 -5 -4 -6l-50 -60c-1 -1 -4 -2 -6 -2c-1 0 -4 0 -5 1zM333 308c-2 1 -3 5 -3 7s0 3 1 4l51 60c1 1 4 3 6 3c4 0 8 -4 8 -8c0 -2 -1 -4 -2 -5l-51 -60
c-1 -1 -4 -2 -6 -2c-1 0 -3 0 -4 1zM1 -34c-2 4 0 8 4 10s8 0 10 -4s0 -8 -4 -10s-8 0 -10 4z" />
    <glyph glyph-name="uniF3D3" unicode="&#xf3d3;" horiz-adv-x="388" 
d="M200 347l146 -106c2 -2 4 -5 4 -8v-211c0 -6 -4 -10 -10 -10h-291c-6 0 -11 4 -11 10v211c0 3 2 6 4 8l146 106c1 1 4 1 6 1s5 0 6 -1zM240 31l1 130h-94v-130h93zM330 31v197l-136 98l-136 -98v-197h70v140c0 6 4 10 10 10h112c6 0 10 -4 10 -10v-140h70zM383 269v0
c3 -2 5 -7 5 -10c0 -6 -5 -10 -11 -10c-2 0 -5 1 -7 2l-176 128l-176 -128c-2 -1 -5 -2 -7 -2c-6 0 -11 4 -11 10c0 3 2 8 5 10l75 54v3v66c0 6 5 11 11 11s10 -5 10 -11v-54l87 63c2 1 4 2 6 2s4 -1 6 -2z" />
    <glyph glyph-name="uniF455" unicode="&#xf455;" horiz-adv-x="461" 
d="M361 147c-4 1 -11 2 -16 2v101l-114 83l-115 -83v-101c-5 0 -12 -2 -16 -3v109v0c0 2 2 6 4 7l122 88c1 1 4 2 5 2s4 -1 5 -2l122 -88c2 -1 3 -5 3 -7v0v-108zM83 271v0c-1 0 -3 -1 -4 -1c-5 0 -9 4 -9 9c0 2 1 5 2 6l64 45v59c0 5 4 9 9 9s9 -4 9 -9v-45l72 52
c1 1 3 2 5 2s4 -1 5 -2l153 -111c1 -1 2 -4 2 -6c0 -5 -4 -9 -9 -9c-1 0 -2 1 -3 1l-148 107zM285 134c-4 3 -11 6 -15 8v77h-77v-77c-4 -2 -10 -6 -14 -8l-1 -1v93c0 4 4 8 8 8h92c4 0 7 -4 7 -8v-92zM13 110v1c-1 -1 -3 -1 -4 -1c-5 0 -8 3 -8 8c0 3 1 7 4 8
c5 3 15 6 21 6h2c8 0 21 -4 27 -10l3 -3c4 -3 10 -5 15 -5s11 2 15 5c9 7 26 13 37 13h1h1c12 0 29 -5 38 -12c4 -3 10 -6 15 -6v0v0c5 0 12 2 15 5c9 7 25 13 36 13h2h1c11 0 28 -6 37 -13c4 -3 10 -5 15 -5s11 2 15 5c9 7 26 13 38 13s29 -6 38 -13c3 -3 10 -5 15 -5v0
c4 0 9 2 12 5l3 1l1 1c7 6 20 10 29 10h1c5 -1 14 -3 19 -5c3 -1 4 -5 4 -8c0 -5 -3 -9 -8 -9c-1 0 -3 1 -4 1l-12 4c-6 0 -15 -3 -19 -7l-2 -1l-2 -2c-5 -4 -15 -8 -22 -8v0v0c-8 0 -18 4 -24 9c-7 5 -20 9 -29 9s-22 -4 -29 -9c-6 -5 -16 -9 -24 -9s-19 4 -25 9
c-7 5 -19 9 -28 9s-22 -4 -29 -9c-6 -5 -16 -9 -24 -9h-1v0c-7 0 -18 5 -24 9c-7 5 -20 9 -29 9v0h-1c-8 0 -20 -4 -27 -9c-6 -5 -17 -9 -25 -9s-19 4 -25 9c-2 1 -3 2 -4 3c-4 3 -11 6 -16 6h-3c-4 0 -9 -2 -12 -4zM456 69h1c3 -1 4 -5 4 -8c0 -5 -3 -9 -8 -9
c-1 0 -3 1 -4 1l-12 4c-6 0 -15 -4 -19 -8h-2l-2 -2c-5 -4 -15 -8 -22 -8v0v0c-8 0 -18 4 -24 9c-7 5 -20 9 -29 9s-22 -4 -29 -9c-6 -5 -16 -9 -24 -9s-19 4 -25 9c-7 5 -19 9 -28 9s-22 -4 -29 -9c-6 -5 -16 -9 -24 -9h-1v0c-7 0 -18 5 -24 9c-7 5 -20 9 -29 9v0h-1
c-8 0 -20 -4 -27 -9c-6 -5 -17 -9 -25 -9s-19 4 -25 9c-2 1 -3 2 -4 3c-4 3 -11 6 -16 6h-3c-4 0 -9 -1 -12 -3c-1 -1 -3 -1 -4 -1c-5 0 -9 4 -9 9c0 3 2 6 5 7c5 3 14 6 20 6h2c8 0 21 -4 27 -10l4 -3c4 -3 9 -5 14 -5s11 2 15 5c9 7 26 13 37 13h2v0c12 0 29 -6 38 -13
c4 -3 10 -5 15 -5v0v0c5 0 12 2 15 5c9 7 26 13 37 13h2h1c11 0 28 -6 37 -13c4 -3 10 -5 15 -5s11 2 15 5c9 7 26 13 38 13s29 -6 38 -13c3 -3 10 -5 15 -5v0c4 0 9 2 12 5l3 1l1 1c7 6 20 10 29 10h1c5 -1 13 -3 18 -5zM456 12c3 -1 5 -5 5 -8c0 -5 -3 -9 -8 -9
c-1 0 -3 1 -4 1l-12 4c-6 0 -15 -4 -19 -8l-2 -1l-2 -1c-5 -4 -15 -8 -22 -8v0v0c-8 0 -18 4 -24 9c-7 5 -20 9 -29 9s-22 -4 -29 -9c-6 -5 -16 -9 -24 -9s-19 4 -25 9c-7 5 -19 9 -28 9s-22 -4 -29 -9c-6 -5 -16 -9 -24 -9h-1v0c-7 0 -18 5 -24 9c-7 5 -20 9 -29 9v0h-1
c-8 0 -20 -4 -27 -9c-6 -5 -17 -9 -25 -9s-19 4 -25 9c-2 1 -3 2 -4 3c-4 3 -11 6 -16 6h-3c-4 0 -9 -2 -12 -4c-1 -1 -3 -1 -4 -1c-5 0 -9 4 -9 9c0 3 2 7 5 8c5 3 15 6 21 6h2c8 0 21 -4 27 -10l3 -3c4 -3 10 -5 15 -5s11 2 15 5c9 7 26 13 37 13h1h1c12 0 29 -5 38 -12
c4 -3 10 -6 15 -6v0v0c5 0 11 2 14 5c9 7 26 13 37 13h2h1c11 0 28 -6 37 -13c4 -3 10 -5 15 -5s11 2 15 5c9 7 26 13 38 13s29 -6 38 -13c3 -3 10 -5 15 -5v0c4 0 9 1 12 4l3 2l1 1c7 6 20 10 29 10h1c5 -1 13 -3 18 -5z" />
    <glyph glyph-name="uniF40C" unicode="&#xf40c;" horiz-adv-x="419" 
d="M122 244c-41 0 -76 34 -77 75c-3 8 -19 65 39 88c7 3 18 5 25 5c16 0 38 -9 49 -20c2 0 6 1 8 1c11 0 24 -8 30 -17c5 -8 9 -22 9 -31c0 -7 -3 -18 -6 -25c-1 -42 -35 -76 -77 -76zM152 370c-20 -23 -59 -47 -89 -54c3 -30 30 -55 60 -55c33 0 59 27 59 60v1v0v1
c-11 11 -24 32 -30 47zM342 129c57 -28 80 -106 76 -117v0v0c-31 -21 -87 -40 -125 -40c-37 1 -93 19 -124 40v0v1c-4 11 19 88 76 116l2 1l1 -1c11 -8 31 -14 45 -14s34 6 46 14l1 1zM401 21c-3 17 -22 67 -60 90c-12 -7 -34 -13 -48 -13s-35 6 -47 13
c-38 -23 -58 -72 -61 -89c27 -17 76 -32 108 -33c32 0 81 15 108 32zM186 144c14 17 25 50 25 72v13c-2 27 2 47 14 59c7 7 20 13 30 13h1h1l1 1c10 9 30 17 43 17h2c17 0 40 -10 52 -23s21 -38 21 -56v-8c0 -3 -1 -9 -1 -12c0 -23 12 -58 26 -76l3 -4l-68 -1
c-11 -7 -30 -13 -43 -13s-31 6 -42 13l-69 1zM233 203v0c0 -33 27 -60 60 -60s60 27 60 60c-29 6 -68 30 -86 54c-19 -9 -34 -33 -34 -54zM196 103c-1 0 -2 -1 -3 -1c-18 -6 -48 -11 -67 -11c-38 1 -94 19 -125 40h-1v1c-4 11 20 88 77 116l2 1l1 -1c12 -8 32 -15 46 -15
s34 7 45 15h1h2c9 -5 23 -15 30 -23c1 -1 2 -4 2 -6s-1 -6 -3 -7v0c-1 -1 -3 -1 -5 -1s-5 1 -6 2c-4 5 -12 12 -18 16c-12 -7 -34 -13 -48 -13s-36 6 -48 13c-38 -23 -57 -72 -60 -89c28 -17 76 -31 108 -32c18 0 45 5 62 11h1v0h4c3 0 6 -2 7 -5c0 -1 1 -2 1 -3
c0 -3 -2 -7 -5 -8z" />
    <glyph glyph-name="uniF40D" unicode="&#xf40d;" horiz-adv-x="441" 
d="M389 372c32 -27 52 -31 52 -31s-29 -18 -35 -31c-7 -16 -18 -33 -52 -52c-17 -10 -14 -45 -19 -70c-7 -38 -18 -72 -56 -92c-17 -9 -47 -16 -66 -16v0c-20 0 -39 1 -56 1h-1c-12 0 -29 -3 -39 -8c-56 -28 -33 -85 -33 -85s-42 8 -71 63s-2 112 -2 112s26 -28 55 -27
c7 0 16 2 22 6c3 2 8 7 11 10c-1 1 -4 2 -5 3c-10 7 -23 22 -29 32c-62 103 25 195 26 196c4 4 11 10 15 13c0 0 -2 -15 -2 -20c0 -1 -1 -3 -1 -4c0 -10 6 -24 13 -32c12 -12 30 -19 57 -18h2c35 1 61 -7 78 -23v0l1 -1c5 9 12 26 15 36c12 38 41 56 70 57h1
c16 0 37 -9 49 -19zM389 318v0c3 6 10 15 16 20c-8 5 -20 14 -27 20c-9 8 -26 14 -38 14h-1c-25 -1 -44 -17 -52 -44c-3 -14 -13 -34 -21 -46c2 -5 5 -13 5 -18c0 -4 -4 -9 -8 -9v0c-5 0 -9 4 -9 9c-1 8 -5 18 -11 23c-13 13 -38 19 -68 18h-1c-32 -1 -55 6 -70 23
c-5 6 -11 19 -13 27c-20 -29 -53 -91 -11 -159c45 -75 145 -31 146 -31c1 1 3 1 4 1c5 0 8 -3 8 -8c0 -3 -2 -7 -5 -8c-18 -7 -49 -13 -68 -14h-4c-13 0 -32 4 -44 8c-5 -5 -14 -13 -20 -17c-8 -5 -22 -10 -31 -10c-13 0 -34 6 -45 14c-1 -6 -2 -17 -2 -24
c0 -14 5 -35 11 -48s20 -30 31 -39c1 27 22 58 47 69c13 6 35 10 49 10v0c9 0 18 1 27 0s19 -1 28 -1h1c17 0 42 6 57 14c30 16 40 41 47 79c1 6 1 13 2 20c2 24 6 51 27 63c29 16 36 30 43 44zM339 350h2c2 0 5 -1 6 -3c3 -4 5 -13 5 -18c0 -3 -1 -6 -2 -8
c-2 -4 -7 -10 -12 -11c-1 -1 -3 -1 -5 -1v0c-3 0 -7 2 -9 3c-6 5 -13 15 -14 23v1c0 3 3 6 6 6s5 -2 6 -5c1 -5 4 -12 8 -15c1 0 1 -1 2 -1s2 1 3 1c4 1 5 2 5 3c1 2 1 7 -4 17v2c0 2 1 5 3 6z" />
    <glyph glyph-name="uniF3A1" unicode="&#xf3a1;" horiz-adv-x="314" 
d="M193 176h-1v0c21 0 38 -17 38 -38c0 -8 -4 -20 -10 -26c-6 -7 -63 -73 -63 -73v-1v1s-57 66 -63 73c-6 6 -10 18 -10 26c0 21 17 38 38 38c15 0 30 -11 35 -25c5 14 22 25 36 25zM311 69c2 -6 3 -16 3 -22c0 -11 -4 -27 -9 -36c-7 -11 -24 -20 -37 -21h-222
c-13 1 -29 10 -36 21c-5 9 -10 25 -10 36c0 6 2 16 4 22c7 17 71 193 83 216v100h-6h-3v0c-1 0 -2 1 -3 1v0c-1 0 -1 1 -1 2v0c0 1 -1 2 -1 3v0v0v0c0 1 1 2 1 3v1c0 1 0 1 1 1v0c1 0 2 1 3 1v0h3h152h3h1c1 0 1 0 2 -1v0c1 0 2 -1 2 -2v0v-3v0v0v0v-3v-1c0 -1 -1 -2 -2 -2
v0h-2h-1h-3h-5v-101c2 -3 4 -9 7 -17v0v0c21 -51 70 -183 76 -198zM289 21c4 7 7 18 7 26c0 4 -1 11 -2 15c-2 5 -8 22 -17 45c-18 47 -48 130 -61 160h-117c-13 -30 -43 -113 -61 -160c-9 -23 -15 -40 -17 -45c-1 -4 -2 -11 -2 -15c0 -8 2 -19 6 -26s14 -13 22 -14h221
c8 1 17 7 21 14z" />
    <glyph glyph-name="uniF423" unicode="&#xf423;" horiz-adv-x="367" 
d="M184 376c101 0 183 -83 183 -184s-82 -184 -183 -184s-184 83 -184 184s83 184 184 184zM184 28c91 0 164 73 164 164s-73 164 -164 164s-165 -73 -165 -164s74 -164 165 -164zM130 193v-1h-77c0 41 30 91 66 112l37 -64c-15 -9 -26 -30 -26 -47zM248 304l-36 -64
c15 -9 27 -30 27 -47s0 -1 0 -1h75c0 42 -30 92 -66 112zM184 139c8 0 19 3 26 7l38 -66c-17 -10 -46 -18 -65 -18s-48 8 -65 18l39 66c7 -4 19 -7 27 -7zM153 193c0 17 14 31 31 31s31 -14 31 -31s-14 -31 -31 -31s-31 14 -31 31z" />
    <glyph glyph-name="uniF37D" unicode="&#xf37d;" horiz-adv-x="447" 
d="M338 167c35 0 64 -28 64 -63s-29 -63 -64 -63s-63 28 -63 63s28 63 63 63zM338 59h1c25 0 45 20 45 45v0c0 25 -20 45 -45 45s-46 -20 -46 -45s20 -45 45 -45zM109 167c35 0 63 -28 63 -63s-28 -63 -63 -63s-63 28 -63 63s28 63 63 63zM109 59c25 0 45 20 45 45
s-20 45 -45 45s-45 -20 -45 -45s20 -45 45 -45zM257 118v0c6 0 10 -4 10 -10s-4 -10 -10 -10h-66c-6 0 -10 4 -10 10s4 10 10 10h66zM445 198c2 -11 2 -42 2 -43v-4c0 -16 -11 -34 -25 -42c-1 -1 -3 -2 -5 -2c-6 0 -10 4 -10 10c0 3 2 7 5 9c8 5 14 17 14 26v3
c0 8 -1 35 -2 39v2v1c-1 13 -20 135 -158 125c-67 -5 -99 -37 -127 -65c-17 -17 -34 -32 -55 -39c-29 -9 -48 -23 -57 -43c-4 -9 -7 -24 -7 -33c0 -7 2 -17 4 -24h2c6 0 10 -4 10 -10s-4 -11 -10 -11h-10c-4 0 -8 4 -9 7c-4 10 -7 27 -7 38c0 12 3 30 8 41
c12 25 36 44 70 54c16 5 30 19 46 35c29 30 65 66 140 71c130 9 175 -91 181 -145v0zM300 232v0c-4 0 -8 4 -8 8v0v53c0 4 4 8 8 8h1c52 -7 73 -36 83 -58c0 -1 1 -2 1 -3c0 -4 -5 -8 -9 -8v0h-76zM255 231h-92c-5 0 -8 4 -4 9c29 30 53 53 91 60h2c5 0 9 -4 9 -9v-53v0
c0 -4 -2 -7 -6 -7z" />
    <glyph glyph-name="uniF440" unicode="&#xf440;" horiz-adv-x="386" 
d="M126 114h1c1 1 4 2 6 2c5 0 9 -4 9 -9c0 -2 -2 -5 -3 -6c-10 -8 -27 -15 -39 -15c-13 0 -32 8 -41 18l-1 1c-16 16 -27 28 -47 26h-2c-5 0 -9 4 -9 9v3c1 3 24 69 91 71c30 1 66 -20 71 -56v-2c0 -5 -4 -10 -9 -10s-9 4 -9 9c-4 27 -33 42 -53 41c-39 -1 -59 -31 -68 -48
c20 -3 34 -17 48 -31v0c6 -7 20 -13 29 -13c2 0 6 0 8 1c6 1 13 5 18 9zM386 223v0v-3c0 -5 -4 -9 -9 -9h-1c-20 2 -32 -10 -48 -26l-1 -1c-9 -10 -28 -18 -41 -18c-12 0 -29 7 -39 15c-1 1 -3 4 -3 6c0 5 5 9 10 9c2 0 4 -1 5 -2c5 -4 12 -8 18 -9c2 -1 7 -1 9 -1
c9 0 22 6 28 13l1 1c14 14 28 28 48 31c-11 24 -42 45 -68 47c-20 1 -49 -12 -53 -40c-1 -4 -5 -7 -9 -7c-5 0 -9 4 -9 9v0c5 36 41 58 71 57c67 -2 90 -69 91 -72zM302 230c-15 -2 -37 -11 -49 -21c-33 -25 -50 -71 -51 -132v-87c0 -5 -4 -8 -9 -8s-9 3 -9 8v14
c-1 62 -19 100 -52 125c-12 10 -33 18 -48 20h-1c-5 0 -9 4 -9 9s4 10 9 10l1 -1c18 -2 45 -12 59 -23c15 -12 34 -36 41 -53v183c-19 4 -34 23 -34 42v23h-4c-7 0 -12 5 -12 12s5 12 12 12h16v30c0 4 5 8 9 8s9 -4 9 -8v-30h25v30c0 4 5 8 9 8s9 -4 9 -8v-30h16
c7 0 12 -5 12 -12s-5 -12 -12 -12h-3v-23v0c0 -19 -15 -38 -34 -42v-102c7 17 26 41 41 53c15 11 41 21 59 23c5 0 8 -4 8 -9s-3 -9 -8 -9zM173 316c0 -11 9 -19 20 -19s19 8 19 19v23h-39v-23z" />
    <glyph glyph-name="uniF42A" unicode="&#xf42a;" horiz-adv-x="150" 
d="M137 204v1c7 0 13 -7 13 -14s-6 -13 -13 -13h-9h-2c-4 0 -9 -2 -11 -5c-3 -4 -4 -12 -4 -17v-2h10c9 0 16 -8 16 -17v0v-34c0 -28 -23 -51 -51 -51h-22c-28 0 -51 23 -51 51v34c0 9 8 17 17 17v0h10v2c0 5 -2 13 -5 17c-2 3 -7 5 -11 5h-2h-9c-7 0 -13 6 -13 13
s6 13 13 13h124zM84 154v1c0 7 2 17 4 23h-26c2 -6 4 -16 4 -23v-1h18zM137 247c7 0 13 -7 13 -14s-6 -13 -13 -13h-124c-7 0 -13 6 -13 13s6 14 13 14h124zM137 289c7 0 13 -6 13 -13s-6 -13 -13 -13h-124c-7 0 -13 6 -13 13s6 13 13 13h124zM13 305c-7 0 -13 6 -13 13
s6 14 13 14h124c7 0 13 -7 13 -14s-6 -13 -13 -13h-124zM53 348c-7 0 -14 6 -14 13s7 13 14 13h44c7 0 13 -6 13 -13s-6 -13 -13 -13h-44zM89 35v0c7 0 12 -6 12 -13s-5 -12 -12 -12h-27c-7 0 -13 5 -13 12s6 13 13 13h27z" />
    <glyph glyph-name="uniF3EF" unicode="&#xf3ef;" horiz-adv-x="237" 
d="M111 98v0c2 -1 4 -4 4 -6c0 -4 -2 -7 -6 -7c-1 0 -2 1 -3 1l-5 2c-2 1 -4 4 -4 6c0 4 3 6 7 6h2zM67 158c0 -15 10 -35 22 -45c1 -1 2 -3 2 -5c0 -4 -3 -7 -7 -7c-1 0 -3 1 -4 2c-14 12 -26 37 -26 55c0 4 3 6 7 6s6 -2 6 -6zM193 266c29 -49 44 -90 44 -121
c0 -65 -53 -118 -118 -118s-119 53 -119 118c0 31 15 72 44 121c15 25 43 63 61 85c3 3 9 6 14 6s11 -3 14 -6c18 -22 45 -60 60 -85zM119 45c55 0 100 45 100 100c0 28 -14 65 -42 111c-15 24 -41 61 -59 83c-18 -22 -43 -59 -58 -83c-28 -46 -42 -83 -42 -111
c0 -55 46 -100 101 -100z" />
    <glyph glyph-name="uniF39B" unicode="&#xf39b;" horiz-adv-x="392" 
d="M207 387v-27h-24v27c0 6 6 11 12 11s12 -5 12 -11zM136 349h117v-101l-41 28c-5 3 -12 5 -18 5s-14 -2 -19 -5l-39 -27v100zM222 335h-54c-6 0 -11 -5 -11 -11s5 -12 11 -12h54c6 0 12 6 12 12s-6 11 -12 11zM237 49c-8 9 -23 18 -35 20v187l52 -35l5 -4l6 -4l41 -28
c3 -2 5 -6 5 -9c0 -1 -1 -3 -1 -4l-5 -13l-22 -51l-7 -15l-5 -13l-5 -11l-3 -7v0c-5 -3 -11 -9 -15 -13l-5 -5h-1zM234 180c0 0 -1 5 -1 0s4 -9 9 -9s9 4 9 9v0s-3 9 -8 9s-9 -4 -9 -9zM144 49c-5 5 -15 13 -21 16l-1 4l-5 11l-6 13l-6 16l-22 50l-5 13c0 1 -1 3 -1 4
c0 3 2 7 5 9l43 30l5 3l6 4l50 34v-188c-10 -2 -25 -11 -32 -19c-1 -1 -3 -4 -4 -5h-2c-1 1 -3 4 -4 5zM133 180v0c0 -5 4 -9 9 -9s9 4 9 9v0s-4 9 -9 9s-9 -4 -9 -9v0zM105 52c9 -1 20 -7 26 -14l2 -2c-5 -1 -11 -5 -15 -8c-1 1 -4 3 -5 4c-3 2 -7 4 -11 4v0
c-7 0 -12 -4 -18 -10v-1c-4 3 -10 7 -14 9l3 3c6 8 19 15 29 15h3zM272 26l-1 1c-3 3 -10 6 -14 8l3 3c5 6 15 13 23 15h7c10 0 23 -7 29 -15l2 -2c-5 -1 -11 -5 -15 -8c-3 5 -10 9 -16 9c-7 0 -12 -4 -18 -10v-1zM9 36h-1c-5 0 -8 4 -8 9s3 8 8 8c10 0 24 -7 30 -15l3 -4
c-4 -3 -7 -10 -7 -15v-1v0l-8 8c-6 7 -9 10 -17 10zM354 38c6 8 20 15 30 15c5 0 8 -3 8 -8s-3 -8 -8 -8c-7 0 -12 -4 -18 -10c-3 -3 -9 -9 -13 -11c0 1 1 2 1 3c0 4 -3 10 -6 13c2 1 5 4 6 6zM128 -1v0c-3 -4 -10 -8 -14 -10v0h-1c-1 0 -4 -2 -5 -2h-2h-6v0v0
c-9 0 -21 5 -27 12v0l-3 3c-2 2 -5 5 -8 7v0c-2 1 -6 3 -9 3v0v0h-1h-1c-1 0 -1 1 -2 1c-2 1 -4 4 -4 6c0 5 4 9 9 9v0v0c2 0 6 0 8 -1c4 -1 12 -5 15 -8l6 -6c1 -2 3 -5 5 -6c3 -3 8 -4 12 -4h1v0v0h5l1 1c2 1 6 3 8 5c1 1 1 2 3 4l5 5l4 3c5 4 14 7 20 7v0v0v0
c2 0 5 -1 7 -1c5 -1 12 -5 16 -8c2 -2 4 -5 6 -7s4 -3 5 -4l1 -1v0c3 -3 7 -4 11 -4h1v0c1 0 1 -1 2 -1s1 1 2 1c3 1 7 3 9 5l1 1l3 3c2 2 6 6 9 8c2 2 6 4 9 5s8 2 11 2h1v0v0c7 0 18 -4 23 -9l1 -1l5 -5c1 -2 4 -4 6 -5v0c3 -3 7 -5 11 -5h1v0h2h2c2 0 5 3 7 4
c1 1 2 1 3 2l3 4c2 3 6 7 8 9c5 4 15 7 21 7v0v0c5 0 8 -4 8 -9c0 -1 0 -3 -1 -4c0 -1 -1 -2 -1 -2s-1 -1 -2 -1c-1 -1 -3 -1 -4 -1c-7 0 -11 -4 -17 -10l-2 -2c-6 -7 -18 -13 -28 -13v0v0c-7 0 -17 4 -22 8c-1 1 -4 3 -5 4l-2 3c-2 2 -6 5 -9 7c-2 1 -6 3 -8 3h-1v0
c-1 0 -4 -1 -5 -1s-4 -2 -5 -3c-2 -2 -5 -4 -7 -6l-1 -2v0c-6 -7 -18 -13 -28 -13h-1c-9 0 -20 5 -26 12l-3 3l-7 7s-7 3 -10 3v0v0c-1 0 -4 -1 -5 -1s-3 -1 -4 -2c-3 -2 -7 -5 -9 -7zM178 26c-1 1 -4 3 -5 4c-3 2 -7 4 -10 5l3 2c4 5 13 12 20 14c3 1 7 1 10 1h3h3
c8 -2 18 -8 23 -14l2 -2c-4 -1 -10 -4 -13 -6l-2 -2l-2 2c-3 4 -9 7 -14 7s-11 -3 -14 -7l-4 -3v-1z" />
    <glyph glyph-name="uniF3A8" unicode="&#xf3a8;" horiz-adv-x="343" 
d="M62 110v126h29v-126h-29zM126 110v126h28v-126h-28zM189 110v126h29v-126h-29zM252 110v126h29v-126h-29zM44 92c1 1 3 0 4 0v0h247v0c1 0 4 1 5 0c2 -1 4 -3 5 -5s2 -4 2 -6s-1 -4 -2 -6s-3 -4 -5 -5c-1 -1 -4 0 -5 0v0h-247v0c-1 0 -3 -1 -4 0c-1 0 -3 2 -4 3
c0 0 -2 1 -2 2c-1 2 -2 4 -2 6s1 4 2 6c0 1 2 2 2 2c1 1 3 3 4 3zM332 52c6 0 11 -5 11 -11s-5 -12 -11 -12h-321c-6 0 -11 6 -11 12s5 11 11 11h321zM36 265c-7 0 -12 5 -12 12c0 4 2 10 6 12l136 64c2 1 4 2 6 2s4 -1 6 -2l135 -64c4 -2 6 -8 6 -12c0 -7 -5 -12 -12 -12
h-8v-11h-255v11h-8z" />
    <glyph glyph-name="uniF385" unicode="&#xf385;" horiz-adv-x="386" 
d="M306 383c44 0 80 -36 80 -80v-222c0 -44 -36 -80 -80 -80h-226c-44 0 -80 36 -80 80v222c0 44 36 80 80 80h226zM364 81v222c0 32 -26 58 -58 58h-226c-32 0 -58 -26 -58 -58v-222c0 -32 26 -58 58 -58h226c32 0 58 26 58 58zM105 322v0c10 0 18 -7 18 -17v0v-24
c0 -10 -8 -18 -18 -18h-24c-10 0 -17 8 -17 18v24c0 10 7 17 17 17h24zM113 281v24c0 4 -4 7 -8 7h-24c-4 0 -7 -3 -7 -7v-24c0 -4 3 -8 7 -8h24c4 0 8 4 8 8zM105 222v0c10 0 18 -8 18 -18v0v-24c0 -10 -8 -18 -18 -18h-24c-10 0 -17 8 -17 18v24c0 10 7 18 17 18h24z
M113 180v24c0 4 -4 8 -8 8h-24c-4 0 -7 -4 -7 -8v-24c0 -4 3 -7 7 -7h24c4 0 8 3 8 7zM105 121v0c10 0 18 -8 18 -18v0v-24c0 -10 -8 -18 -18 -18h-24c-10 0 -17 8 -17 18v24v0c0 10 7 18 17 18v0h24zM113 79v24c0 4 -4 8 -8 8h-24c-4 0 -7 -4 -7 -8v-24c0 -4 3 -7 7 -7h24
c4 0 8 3 8 7zM305 322v0c10 0 18 -7 18 -17v0v-24v0c0 -10 -8 -18 -18 -18v0h-24c-10 0 -18 8 -18 18v24c0 10 8 17 18 17h24zM313 281v24c0 4 -4 7 -8 7h-24c-4 0 -8 -3 -8 -7v-24c0 -4 4 -8 8 -8h24c4 0 8 4 8 8zM305 222v0c10 0 18 -8 18 -18v0v-24c0 -10 -8 -18 -18 -18
h-24c-10 0 -18 8 -18 18v24c0 10 8 18 18 18h24zM312 180l1 24c0 4 -4 8 -8 8h-24c-4 0 -8 -4 -8 -8v-24c0 -4 4 -7 8 -7h24c4 0 7 3 7 7zM305 121v0c10 0 18 -8 18 -18v0v-24v0c0 -10 -8 -18 -18 -18v0h-24c-10 0 -18 8 -18 18v24v0c0 10 8 18 18 18v0h24zM313 79v24
c0 4 -4 8 -8 8h-24c-4 0 -8 -4 -8 -8v-24c0 -4 4 -7 8 -7h24c4 0 8 3 8 7zM181 263v0c-10 0 -18 8 -18 18v24c0 10 8 17 18 17h24c10 0 18 -7 18 -17v-24c0 -10 -8 -18 -18 -18h-24zM174 305v-24c0 -4 3 -8 7 -8h24c4 0 8 4 8 8v24c0 4 -4 7 -8 7h-24c-4 0 -7 -3 -7 -7z
M205 121v0c10 0 18 -8 18 -18v0v-24c0 -10 -8 -18 -18 -18h-24c-10 0 -18 8 -18 18v24v0c0 10 8 18 18 18v0h24zM213 79v24c0 4 -4 8 -8 8h-24c-4 0 -7 -4 -7 -8v-24c0 -4 3 -7 7 -7h24c4 0 8 3 8 7zM187 186l46 40l8 -8l-53 -60l-30 37l10 10z" />
    <glyph glyph-name="uniF38B" unicode="&#xf38b;" horiz-adv-x="333" 
d="M230 232c23 0 43 -19 43 -42v-184c0 -23 -20 -43 -43 -43h-188c-23 0 -42 20 -42 43v0v184c0 23 19 42 42 42h46c3 -5 8 -11 12 -15h-58c-15 0 -27 -12 -27 -27v-184c0 -15 12 -27 27 -27h188c15 0 28 12 28 27v184c0 15 -13 27 -28 27h-59c4 4 9 10 12 15h47zM168 193
c4 0 7 -4 7 -8s-3 -7 -7 -7h-66c-4 0 -7 3 -7 7s3 8 7 8h66zM68 3v1c0 3 2 5 5 5h1h16c-11 8 -20 26 -20 40v0c0 30 25 54 55 55v26c0 3 2 5 5 5h28c3 0 5 -2 5 -5v-52h3c3 0 6 -2 6 -5v-24c0 -3 -3 -6 -6 -6h-44c-3 0 -6 3 -6 6v24c0 3 3 5 6 5h2v15
c-24 -1 -43 -20 -43 -44c0 -26 24 -40 47 -40h53c3 0 6 -2 6 -5s-3 -6 -6 -6h-108c-3 0 -5 2 -5 5zM136 124v-46h16v46h-16zM128 67v-13h32v13h-32zM130 30h28c3 0 5 -3 5 -6s-2 -6 -5 -6h-28c-3 0 -5 3 -5 6s2 6 5 6zM333 421c0 0 -2 -45 -1 -62c0 -2 -24 15 -35 -2
s-36 -45 -66 -50s-50 -12 -64 -22c6 -7 11 -19 11 -28c0 -24 -19 -43 -43 -43s-43 19 -43 43c0 15 11 32 24 38c-7 8 -24 28 -21 42c0 1 3 7 3 8c-46 -29 -69 -50 -86 -38l-2 2c26 30 76 68 112 85c50 25 113 4 168 17c15 3 39 8 43 10zM135 227v1c16 0 30 14 30 30
c0 6 -3 15 -7 20l-1 -1c-1 -1 -3 -2 -4 -2s-3 1 -4 2c-1 2 -2 6 -3 9c-3 1 -8 2 -11 2c-17 0 -30 -13 -30 -30s13 -31 30 -31zM198 332c1 6 -6 14 -17 19c-5 2 -37 10 -46 -11c-4 -10 5 -33 7 -40c1 0 4 -2 5 -2c1 2 2 5 3 6c15 20 46 17 48 28zM136 260c2 -1 6 -2 8 -4
c1 -1 3 -4 3 -6v-1v0c0 -2 -2 -5 -3 -6c-2 -1 -5 -3 -7 -3v-5h-3v5c-2 0 -6 1 -8 3s-2 5 -2 7v1h6v-1c0 -1 1 -3 2 -4s2 -1 3 -1v0h1c1 0 2 0 3 1s1 2 1 3v0v0c0 1 0 2 -1 3s-3 3 -4 3c-2 1 -6 2 -8 4c-1 1 -3 4 -3 6v0v0c0 2 2 6 3 7c2 1 5 3 7 3v5h4v-6c2 0 5 -1 6 -3
s2 -5 2 -7v0h-6v0c0 1 0 3 -1 4s-2 2 -3 2h-1v0c-1 0 -2 -1 -3 -2s-1 -1 -1 -2v-1v0c0 -1 0 -2 1 -3s3 -2 4 -2z" />
    <glyph glyph-name="uniF3C7" unicode="&#xf3c7;" horiz-adv-x="437" 
d="M212 101v0c3 3 9 6 13 6c9 0 17 -8 17 -17c0 -4 -2 -9 -5 -12l-12 -12c-3 -3 -7 -6 -11 -6h-1v0c-4 0 -9 3 -12 5v0c-3 3 -5 8 -5 12s3 9 5 12zM221 124v0c0 -4 -2 -9 -5 -12l-26 -28c-3 -3 -7 -5 -11 -5h-1v0c-9 0 -17 8 -17 17c0 4 2 8 5 11l26 28c3 3 8 5 12 5
c9 0 17 -7 17 -16zM187 142v-1c0 -4 -3 -8 -5 -11l-23 -24c-3 -3 -8 -5 -12 -5v0v0c-9 0 -17 7 -17 16c0 4 1 9 4 12l24 24c3 3 8 5 12 5c9 0 17 -7 17 -16zM137 136l-5 -5c-3 -3 -7 -5 -11 -5h-1v0c-9 0 -17 8 -17 17c0 4 2 8 5 11l4 5c3 3 8 5 12 5c9 0 17 -8 17 -17
c0 -3 -2 -8 -4 -11zM325 286l51 -96v-1v-2l-42 -42c0 -1 -1 -1 -2 -1v0v0v0c-1 0 -2 0 -2 1c-1 1 -54 58 -78 85l-8 9s-1 1 -1 2c-12 12 -20 8 -27 4v0l-47 -26c-3 -2 -7 -3 -10 -3c-10 0 -18 8 -18 18c0 5 2 11 6 14l35 26c3 2 43 29 57 32c3 1 7 1 10 1c6 0 14 -2 19 -5
c6 -2 15 -7 20 -11s14 -7 20 -8c4 1 10 2 14 4h1c1 0 2 0 2 -1zM437 209v-1c0 -1 -1 -3 -2 -4l-36 -17h-2c-1 0 -2 1 -3 2l-58 108v2c0 1 1 2 2 3l36 20s1 1 2 1s2 -1 3 -2zM89 307c1 -1 2 -2 2 -3l-1 -1l-45 -115c0 -1 -2 -2 -3 -2h-2l-38 14c-1 0 -2 2 -2 3v1l46 117
c0 1 2 3 3 3l2 -1zM338 141v0c2 0 4 -1 5 -3v-4c0 -12 -10 -22 -22 -22c-2 0 -7 1 -9 2v-2c0 -12 -10 -22 -22 -22c-4 0 -10 2 -13 4c0 -12 -10 -21 -22 -21c-3 0 -7 1 -10 2h-1v1c0 3 2 6 5 7v0v0c2 -1 4 -1 6 -1c3 0 7 1 9 3s4 6 4 9s-2 7 -4 9l-10 11c-3 3 -20 21 -21 22
v3s0 3 1 4s3 2 5 2h3l39 -41c2 -2 6 -4 9 -4c7 0 13 6 13 13c0 3 -1 6 -3 8l-37 39v1c0 2 1 5 2 6s3 1 4 1s1 -1 2 -1l41 -41c2 -2 6 -4 9 -4c7 0 13 5 13 12v3v0c0 2 2 3 4 4zM107 160h-1v0c0 -3 -1 -5 -4 -5c-1 0 -3 0 -4 1l-35 32c-1 1 -2 3 -2 4s1 2 1 2l40 99
c1 2 3 3 5 3h2c6 -3 15 -6 22 -7h3c10 0 25 6 33 12l3 2c5 3 15 6 21 6c5 0 14 -2 19 -4c1 -1 2 -3 2 -5c0 -3 -2 -5 -5 -5c-1 0 -2 0 -3 1c-3 2 -9 3 -13 3c-5 0 -12 -2 -16 -5l-3 -2c-9 -7 -26 -13 -38 -13h-3c-6 1 -16 4 -22 6l-37 -92l33 -30c1 -1 2 -2 2 -3z" />
    <glyph glyph-name="uniF3FC" unicode="&#xf3fc;" horiz-adv-x="412" 
d="M202 187c0 3 3 6 6 6s6 -3 6 -6s-3 -6 -6 -6s-6 3 -6 6zM199 223c0 5 4 8 9 8s8 -3 8 -8s-3 -8 -8 -8s-9 3 -9 8zM198 262c0 5 5 10 10 10s9 -5 9 -10s-4 -10 -9 -10s-10 5 -10 10zM196 314c0 6 5 12 12 12c6 0 11 -6 11 -12c0 -7 -5 -12 -11 -12c-7 0 -12 5 -12 12z
M193 376c0 8 7 14 15 14s14 -6 14 -14s-6 -14 -14 -14s-15 6 -15 14zM169 179c0 3 3 6 6 6s6 -3 6 -6s-3 -6 -6 -6s-6 3 -6 6zM151 214c0 5 4 8 9 8s8 -3 8 -8s-3 -9 -8 -9s-9 4 -9 9zM133 246c-2 5 0 11 5 13s11 -1 13 -6s-1 -11 -6 -13s-10 1 -12 6zM104 291
c0 7 6 11 12 11c7 0 12 -4 12 -11c0 -6 -5 -12 -12 -12c-6 0 -12 6 -12 12zM63 332c0 8 6 14 14 14s14 -6 14 -14s-6 -15 -14 -15s-14 7 -14 15zM149 154c-1 3 1 6 4 7s6 -1 7 -4s-1 -7 -4 -8s-6 2 -7 5zM122 165c-1 4 2 9 6 10s9 -2 10 -6s-2 -9 -6 -10s-9 2 -10 6zM90 178
c-1 5 3 11 8 12s11 -2 12 -7s-3 -11 -8 -12s-11 2 -12 7zM52 186c-2 6 2 12 8 14s13 -2 15 -8s-3 -13 -9 -15s-12 3 -14 9zM0 177c-2 8 3 15 11 17s15 -3 17 -11s-3 -15 -11 -17s-15 3 -17 11zM231 179c0 3 3 6 6 6s6 -3 6 -6s-3 -6 -6 -6s-6 3 -6 6zM244 214c0 5 4 8 9 8
s8 -3 8 -8s-3 -9 -8 -9s-9 4 -9 9zM266 241c-5 2 -7 7 -5 12s7 8 12 6s8 -7 6 -12s-8 -8 -13 -6zM284 291c0 7 5 11 12 11c6 0 12 -4 12 -11c0 -6 -6 -12 -12 -12c-7 0 -12 6 -12 12zM321 332c0 8 6 14 14 14s14 -6 14 -14s-6 -15 -14 -15s-14 7 -14 15zM256 149
c-3 1 -5 5 -4 8s4 5 7 4s6 -4 5 -7s-5 -6 -8 -5zM280 159c-4 1 -7 6 -6 10s6 7 10 6s7 -6 6 -10s-6 -7 -10 -6zM310 171c-5 1 -8 7 -7 12s6 8 11 7s9 -7 8 -12s-7 -8 -12 -7zM346 177c-6 2 -10 9 -8 15s8 10 14 8s10 -8 8 -14s-8 -11 -14 -9zM395 166c-8 2 -13 9 -11 17
s9 13 17 11s13 -9 11 -17s-9 -13 -17 -11zM209 155c18 0 33 -5 35 -23h-69c2 18 16 23 34 23zM364 12c5 0 9 -4 9 -9s-4 -10 -9 -10h-310c-5 0 -9 5 -9 10s4 9 9 9h146v54h-29c-8 0 -14 6 -14 14v27c0 8 6 14 14 14v0h76c8 0 14 -6 14 -14v-27c0 -8 -6 -14 -14 -14v0h-29
v-54h146z" />
    <glyph glyph-name="uniF43E" unicode="&#xf43e;" horiz-adv-x="318" 
d="M150 113c3 2 6 3 9 3v-8c-3 1 -7 3 -9 5zM143 288v-116c-13 -4 -34 -9 -47 -11v127h47zM179 197c-4 -7 -13 -15 -20 -18v142h47v-129c-2 3 -7 9 -10 11s-9 5 -12 7c-1 -4 -3 -9 -5 -13zM159 117c15 3 36 16 46 28l1 2v-41c-6 -1 -14 -2 -20 -2v0h-1c-7 0 -19 2 -26 5v8v0
zM268 153c-7 -13 -24 -29 -37 -36c-3 -2 -7 -5 -10 -6v249h47v-207zM5 74c9 34 38 65 89 74s87 20 95 44c5 -5 10 -15 10 -22c0 -5 -3 -13 -6 -17c-18 -25 -55 -23 -58 -36c-4 -20 54 -41 103 -11c65 40 43 85 70 93h10s4 -111 -89 -158c-66 -33 -160 17 -227 -17
c0 0 -6 16 3 50z" />
    <glyph glyph-name="uniF374" unicode="&#xf374;" horiz-adv-x="376" 
d="M154 23v1h149c13 0 25 11 25 24l-1 263l18 9v-272c0 -23 -19 -41 -42 -41h-178l8 2c7 2 16 9 21 14zM24 73v276c0 23 19 42 42 42h181l-12 -16v-1h-169c-14 0 -25 -11 -25 -25v-263zM54 58v-19c0 -1 0 -2 1 -3s2 -1 3 -1v0c23 0 47 0 68 27l2 3v-4
c-5 -37 -28 -56 -70 -58c-2 0 -4 -2 -4 -4v0v-19l-54 39l52 38zM257 323l7 67l13 -13c1 0 2 -1 3 -1s2 1 3 2v0c29 30 59 34 90 13l3 -2h-4c-34 2 -50 -16 -65 -33c-1 -1 -1 -2 -1 -3v0c0 -1 1 -2 2 -3l14 -12zM153 223c-4 3 -8 9 -9 14c-1 2 -2 6 -2 8c0 8 6 15 13 18
c1 0 3 1 4 1c3 0 8 -2 10 -4c4 -3 8 -8 9 -13c1 -2 2 -6 2 -8c0 -8 -6 -16 -13 -19h-4c-3 0 -8 1 -10 3zM115 216c3 2 8 4 12 4c5 0 13 -3 16 -7c3 -3 6 -10 7 -15c0 -1 1 -1 1 -2c0 -4 -2 -9 -5 -12c-3 -2 -8 -4 -11 -4v0h-3c-11 2 -20 11 -22 22v3c0 4 2 8 5 11zM158 141
h-1c-4 0 -10 2 -13 5c-2 2 -4 7 -4 10v4c1 5 7 12 11 15c5 4 10 12 11 19c1 11 11 20 22 20s21 -9 22 -20c1 -7 7 -15 12 -19c4 -3 9 -10 10 -15v-4c0 -3 -2 -8 -4 -10c-3 -3 -9 -5 -13 -5c-1 0 -4 1 -5 1c-6 1 -16 2 -22 2s-15 -1 -21 -2c-1 0 -4 -1 -5 -1v0zM204 220
c-4 1 -9 6 -11 10c-1 2 -1 6 -1 9c0 7 4 17 10 21c2 2 7 4 10 4c1 0 3 -1 4 -1c7 -3 13 -10 13 -18c0 -2 -1 -6 -2 -8c-1 -5 -5 -11 -9 -14c-2 -2 -7 -3 -10 -3h-4zM237 180h-3v0c-3 0 -8 2 -11 4c-3 3 -5 8 -5 12v2c2 11 11 20 22 22c1 0 2 1 3 1c9 0 16 -7 16 -16v-3
c-2 -11 -11 -20 -22 -22z" />
    <glyph glyph-name="uniF376" unicode="&#xf376;" horiz-adv-x="319" 
d="M78 271c-5 0 -9 3 -9 8s4 8 9 8h77c5 0 8 -3 8 -8s-3 -8 -8 -8h-77zM78 224c-5 0 -9 3 -9 8s4 9 9 9h163c5 0 8 -4 8 -9s-3 -8 -8 -8h-163zM78 178c-5 0 -9 3 -9 8s4 8 9 8h163c5 0 8 -3 8 -8s-3 -8 -8 -8h-163zM318 311l1 -269c0 -22 -19 -41 -41 -41h-237
c-22 0 -41 19 -41 41v300c0 22 19 41 41 41h209zM293 313l-36 40v-40h36zM304 42v254h-26h-30v0c-5 0 -8 3 -8 8v1v63h-199c-14 0 -26 -12 -26 -26v-300v0c0 -14 12 -26 26 -26h237c14 0 26 12 26 26zM100 133c23 0 42 -20 42 -43s-19 -42 -42 -42s-43 19 -43 42
s20 43 43 43zM100 62v-1v0c16 0 29 13 29 29v1c0 16 -13 28 -29 28s-29 -12 -29 -28s13 -29 29 -29zM239 86c8 -2 18 -9 22 -17c0 -1 1 -2 1 -3c0 -3 -3 -6 -6 -6c-2 0 -5 2 -6 4c-2 4 -7 8 -12 9h-3c-3 0 -6 -1 -8 -3l-2 -1c-4 -5 -13 -10 -20 -10c-8 1 -18 5 -23 11
c-2 2 -6 3 -9 3h-1c-4 -1 -8 -3 -11 -6c-1 -1 -3 -3 -5 -3c-4 0 -7 3 -7 7c0 1 1 3 2 4c4 5 13 10 20 11h2c6 0 13 -3 17 -7c14 -12 19 -8 26 -1l2 2c4 4 11 6 16 6h5zM239 122c8 -2 18 -9 22 -17c0 -1 1 -1 1 -2c0 -3 -4 -7 -7 -7c-2 0 -4 2 -5 4c-2 4 -7 8 -12 9
c-1 0 -2 1 -3 1c-3 0 -6 -2 -8 -4l-2 -1c-4 -5 -13 -10 -20 -10c-8 1 -18 5 -23 11c-2 2 -6 4 -9 4h-1c-4 -1 -8 -4 -11 -7c-1 -1 -3 -3 -5 -3c-4 0 -7 3 -7 7c0 1 1 3 2 4c4 5 13 10 20 11h2c6 0 13 -3 17 -7c14 -12 19 -8 26 -1l2 2c4 4 11 7 16 7c1 0 4 -1 5 -1z" />
    <glyph glyph-name="uniF3D6" unicode="&#xf3d6;" horiz-adv-x="306" 
d="M301 202v0c2 -1 5 -5 5 -8c0 -1 -1 -3 -2 -4l-27 -47c-1 -2 -4 -5 -7 -5c-1 0 -4 1 -5 2l-102 59v-121h23c4 22 26 40 48 40c27 0 50 -22 50 -49s-23 -50 -50 -50c-22 0 -44 18 -48 40h-23v-55c0 -5 -5 -10 -10 -10s-10 5 -10 10v55h-23c-4 -22 -26 -40 -48 -40
c-27 0 -50 23 -50 50s23 49 50 49c22 0 44 -18 48 -40h23v121l-102 -59c-1 -1 -4 -2 -5 -2c-3 0 -6 3 -7 5l-28 47c-1 1 -1 3 -1 4c0 3 2 7 4 8l77 44l-77 44c-2 1 -4 5 -4 8c0 1 0 3 1 4l28 47c1 2 4 5 7 5c1 0 3 -1 4 -2l103 -59v29c-14 4 -25 18 -25 33c0 19 16 35 35 35
s35 -16 35 -35c0 -15 -12 -29 -26 -33v-29l103 59c1 1 3 2 4 2c3 0 7 -3 8 -5l27 -47c1 -1 1 -3 1 -4c0 -3 -2 -7 -4 -8l-76 -44zM71 38c17 0 31 14 31 31s-14 30 -31 30s-30 -13 -30 -30s13 -31 30 -31zM234 99v0v0c-17 0 -31 -14 -31 -31v0c0 -17 14 -30 31 -30
s30 13 30 30s-13 31 -30 31zM135 355c0 -10 8 -17 18 -17s17 7 17 17s-7 17 -17 17s-18 -7 -18 -17zM21 301l77 -45l37 22l-96 55zM39 159l245 142l-18 32l-245 -142zM266 159l19 32l-78 45l-36 -21z" />
    <glyph glyph-name="uniF3B2" unicode="&#xf3b2;" horiz-adv-x="367" 
d="M253 352v0c12 -9 58 -63 114 -58c-6 -12 -20 -21 -33 -21c-2 0 -6 1 -8 1c-6 -5 -17 -10 -25 -10c-5 0 -13 2 -17 4c-5 -4 -13 -6 -19 -6c-5 0 -13 2 -17 5c-4 -3 -12 -6 -18 -6c-4 0 -11 2 -15 4c-5 -3 -12 -6 -18 -6v-62h2c4 1 18 5 35 10c19 5 40 13 43 17l-1 1
c-2 1 -6 2 -8 2c-7 1 -19 3 -26 3h-12h-11c-5 0 -14 2 -14 10v0c0 6 4 10 10 10h1h15c18 -1 70 4 77 -24v-1v-1c-2 -25 -52 -36 -89 -44c10 -7 20 -22 22 -34c2 -15 -11 -30 -39 -46c22 -15 36 -30 35 -47c-4 -18 -21 -38 -38 -45v0s17 27 18 41c-1 11 -10 24 -19 30v-50
c0 -7 -5 -13 -12 -13s-12 6 -12 13v0v53c-1 -1 -3 -2 -4 -3c-15 -13 -18 -24 -17 -31c1 -15 18 -40 18 -40v0c-17 7 -34 26 -39 44c-1 17 12 32 34 46c-28 16 -40 31 -39 46c2 12 11 27 21 34c-37 7 -88 18 -90 42v1v1c6 28 60 25 77 26h8h7c5 -1 11 -2 11 -11
s-12 -9 -14 -9c-3 0 -8 1 -11 1s-9 -1 -12 -1c-7 0 -19 -2 -26 -3c-2 0 -6 -1 -8 -2l-1 -1c3 -4 23 -12 43 -17s29 -7 39 -9h1v63h-3c-5 0 -12 2 -16 5c-4 -2 -11 -4 -16 -4s-14 2 -18 5c-4 -3 -12 -5 -17 -5c-6 0 -13 3 -18 6c-5 -2 -13 -5 -18 -5c-8 0 -18 5 -24 10
c-2 -1 -7 -1 -9 -1c-13 0 -27 9 -33 20c56 -4 102 50 113 60s19 7 31 -13c4 -8 16 -15 25 -15h2v1c-9 4 -15 15 -15 25c0 15 13 28 28 28s28 -13 28 -28c0 -10 -7 -21 -16 -25v-1h1c9 0 21 8 25 16c11 21 19 23 31 14zM173 118v50c-24 -10 -22 -19 -22 -24c0 -6 4 -14 9 -18
c3 -2 9 -6 13 -8zM217 143v0c0 5 1 15 -19 24v-47c3 2 7 5 9 7c5 3 9 10 10 16zM217 143z" />
    <glyph glyph-name="uniF441" unicode="&#xf441;" horiz-adv-x="356" 
d="M77 230c0 13 0 13 13 13v0c13 0 13 0 13 -13v-135c0 -13 0 -13 -13 -13v0c-13 0 -13 0 -13 13v135zM252 230c0 13 0 13 13 13v0c13 0 14 0 14 -13v-135c0 -13 -1 -13 -14 -13v0c-13 0 -13 0 -13 13v135zM135 230c0 13 1 13 14 13v0c13 0 13 0 13 -13v-135
c0 -13 0 -13 -13 -13v0c-13 0 -14 0 -14 13v135zM194 230c0 13 0 13 13 13v0c13 0 13 0 13 -13v-135c0 -13 0 -13 -13 -13v0c-13 0 -13 0 -13 13v135zM45 64c1 1 4 1 5 1v0h256v0c1 0 3 0 4 -1c2 -1 5 -3 6 -5s2 -4 2 -6s-1 -5 -2 -7s-4 -3 -6 -4c-1 -1 -3 -1 -4 -1v0h-256
v0c-1 0 -4 0 -5 1s-3 1 -4 2c0 0 -1 1 -1 2c-1 2 -2 5 -2 7s1 4 2 6c0 1 1 2 1 2c1 1 3 3 4 3zM344 23c7 0 12 -5 12 -12s-5 -12 -12 -12h-332c-7 0 -12 5 -12 12s5 12 12 12h332zM24 268v0c-9 0 -16 7 -16 16c0 5 4 12 9 14l154 85c2 1 5 2 7 2s6 -1 8 -2l153 -85
c5 -2 8 -9 8 -14c0 -9 -6 -16 -15 -16h-1h-28v-13h-250v13h-29zM155 303v-1v-2c0 -11 8 -19 19 -20v-9h10v9c4 0 9 3 12 6s5 8 5 12v1v0c0 2 -1 5 -2 7s-2 5 -3 6s-4 3 -6 4s-7 3 -9 4s-5 3 -7 4c-1 1 -1 3 -1 4v0v1c0 1 1 3 2 4s3 1 4 1v0v0c2 0 4 -1 5 -2c1 -2 2 -4 2 -6
v-1v-1h14v1v1c0 4 -1 11 -4 14s-8 6 -12 7v10h-9v-10c-4 0 -9 -3 -12 -6s-5 -8 -5 -12v-1v0c0 -2 1 -5 2 -7s3 -5 4 -6c2 -1 4 -3 6 -4l8 -4s5 -2 6 -3s2 -4 2 -5v0v0c0 -2 -1 -4 -2 -5s-4 -1 -5 -1h-1v0c-2 0 -5 1 -6 2c-1 2 -2 4 -2 6v1v1h-15z" />
    <glyph glyph-name="uniF380" unicode="&#xf380;" horiz-adv-x="481" 
d="M476 130l5 -5l-4 -5l-14 -15l-6 -7l-3 -4c1 -3 1 -7 1 -10c0 -29 -24 -53 -53 -53s-52 24 -52 53s23 52 52 52v0h1c11 0 25 -5 33 -12l4 3l5 4l2 2c-4 3 -10 9 -15 11v178c0 7 -6 13 -13 13h-387c-7 0 -14 -6 -14 -13v-255c0 -7 7 -13 14 -13h310c3 -6 9 -14 13 -18h-323
c-17 0 -32 14 -32 31v255c0 17 15 31 32 31h387c17 0 31 -14 31 -31v-186l6 5l5 4l4 -5zM458 110l14 15l-12 10l-10 -10l-6 -4l-42 -38l-25 25l-14 -12l39 -49v0l50 55zM240 263c71 4 78 -59 78 -69v-1c1 -15 1 -40 1 -40h-10c-3 -15 -17 -26 -32 -26c-7 0 -17 4 -22 9
c-3 3 -7 8 -8 12h-51c-1 -4 -4 -9 -7 -12c-5 -5 -16 -9 -23 -9s-17 4 -22 9c-3 3 -7 8 -8 12h-10s-19 45 27 61c24 8 35 51 87 54zM178 147c3 2 4 7 4 11v0v0c0 9 -6 16 -15 16s-16 -7 -16 -16s7 -15 16 -15c3 0 8 2 11 4zM240 206v42c-27 -2 -43 -20 -62 -42h62zM289 147v0
c3 2 4 7 4 11v0c0 9 -6 16 -15 16s-16 -7 -16 -16s7 -15 16 -15c4 0 8 2 11 4zM250 206h49c-4 22 -25 41 -48 41h-1v-41z" />
    <glyph glyph-name="uniF3A9" unicode="&#xf3a9;" horiz-adv-x="342" 
d="M247 -8l1 90l18 26v-117c0 -8 -6 -17 -13 -21c-3 -2 -8 -2 -11 -2v0c-4 0 -11 2 -14 4l-53 37c-1 1 -2 1 -3 1s-3 0 -4 -1l-54 -37c-3 -2 -9 -4 -13 -4c-13 0 -25 12 -25 25v0v116l18 -28v-88v0c0 -2 1 -4 3 -5c1 0 2 -1 3 -1s2 1 3 1l54 36c3 2 10 5 14 5s11 -3 14 -5
l53 -37c1 -1 3 -1 4 -1c3 0 5 3 5 6v0zM321 284c11 -5 20 -20 21 -32c-1 -12 -10 -26 -21 -31c-7 -4 -12 -13 -12 -21c0 -3 1 -7 2 -10c3 -5 5 -13 5 -18s-2 -14 -5 -19c-6 -9 -20 -16 -31 -16c-2 0 -4 1 -6 1h-2c-11 0 -22 -9 -24 -19c-5 -24 -20 -32 -33 -32
c-9 0 -22 6 -28 12c-4 3 -10 6 -15 6s-12 -3 -16 -6c-6 -6 -19 -12 -28 -12c-13 0 -28 9 -33 32c-2 10 -12 19 -23 19h-3c-2 0 -5 -1 -7 -1c-11 0 -24 7 -30 16c-3 5 -5 13 -5 19c0 5 2 13 5 18c1 3 2 6 2 9c0 8 -6 17 -13 21c-11 5 -20 20 -21 32c1 12 10 27 21 32
c7 4 12 13 12 21c0 3 -1 7 -2 9c-3 5 -4 13 -4 18c0 6 2 14 5 19c6 9 19 16 30 16c2 0 5 -1 7 -1h2c11 0 22 9 24 19c5 23 20 31 33 31c9 0 21 -6 27 -12c4 -3 11 -5 16 -5s12 2 16 5c6 6 18 12 27 12c13 0 29 -8 34 -31c2 -10 12 -19 23 -19h3c2 0 5 1 7 1
c11 0 24 -7 30 -16c3 -5 5 -13 5 -18s-2 -14 -5 -19c-1 -2 -2 -6 -2 -9c0 -8 5 -17 12 -21zM312 237v0c6 2 10 9 11 15c-1 6 -5 13 -11 15c-12 7 -22 24 -22 38c0 5 2 12 4 17c2 3 3 7 3 10s-1 7 -2 9c-3 4 -10 7 -15 7c-1 0 -3 -1 -4 -1h-5c-19 0 -38 15 -42 34
c-2 10 -8 16 -15 16c-5 0 -11 -4 -14 -7c-7 -6 -20 -11 -29 -11s-21 5 -28 11c-3 3 -10 7 -15 7c-8 0 -13 -6 -15 -16c-4 -19 -23 -34 -42 -34h-5s-3 1 -4 1c-5 0 -12 -3 -15 -7c-1 -2 -2 -6 -2 -9s1 -7 3 -10c2 -5 4 -12 4 -17c0 -14 -10 -30 -22 -37
c-6 -2 -11 -10 -12 -16c1 -6 6 -13 12 -15c12 -7 22 -24 22 -38c0 -5 -2 -12 -4 -17c-2 -3 -3 -7 -3 -10s1 -7 2 -9c3 -4 10 -7 15 -7c1 0 3 1 4 1h5c19 0 38 -15 42 -34c2 -10 8 -16 15 -16c5 0 11 3 14 7c7 6 20 11 29 11s21 -5 28 -11c3 -4 11 -7 16 -7c7 0 13 6 15 16
c4 19 23 34 42 34h4s3 -1 4 -1c5 0 12 3 15 7c1 2 2 6 2 9s-1 7 -3 10c-2 5 -3 12 -3 17c0 14 9 31 21 38zM171 357c58 0 105 -47 105 -105v0c0 -58 -47 -105 -105 -105s-105 47 -105 105s47 105 105 105zM171 166v0c47 0 86 39 86 86s-39 86 -86 86s-86 -39 -86 -86
s39 -86 86 -86zM185 227c3 3 6 9 7 14l17 -5c-2 -7 -7 -16 -13 -21c-5 -4 -15 -7 -22 -7h-2h-1c-9 0 -21 4 -27 11s-11 21 -11 30v2v3c0 10 5 24 11 31s19 12 28 12h2h1c8 0 18 -5 24 -10c4 -4 8 -10 9 -15l-17 -5c-1 8 -9 15 -17 15h-1h-1c-5 0 -12 -3 -15 -7
c-3 -5 -6 -13 -6 -19v-3v-4c0 -6 3 -15 6 -20c3 -4 10 -6 15 -6h1v0c4 0 9 2 12 4z" />
    <glyph glyph-name="uniF377" unicode="&#xf377;" horiz-adv-x="447" 
d="M370 285c-16 5 -25 21 -20 37s22 25 38 20s24 -22 19 -38s-21 -24 -37 -19zM444 66v0c2 -2 3 -5 3 -8c0 -7 -6 -12 -13 -12c-3 0 -7 1 -9 3l-38 52c-3 9 -6 24 -7 34l-20 -27l-5 -55v0c0 -7 -5 -12 -12 -12h-3c-6 1 -10 6 -10 12l5 60c1 4 3 10 6 13l33 46l-3 59l-15 -19
c-1 -2 -4 -3 -6 -4l-33 -12h-3c-7 0 -13 6 -13 13c0 5 4 9 9 11l29 11l34 40c2 2 7 5 10 5c1 0 1 -1 2 -1c2 0 6 -1 7 -3v0l18 -20l24 -24c1 -1 3 -4 3 -6l4 -30v-2c0 -7 -5 -13 -12 -13c-5 0 -11 4 -12 9l-4 27l-16 17l2 -60l10 -57zM40 304c-5 16 4 33 20 38s32 -4 37 -20
s-3 -32 -19 -37s-33 3 -38 19zM138 220h-1c5 -2 9 -6 9 -11c0 -7 -6 -13 -13 -13h-3l-33 12c-2 1 -5 1 -6 3l-15 19l-2 -58l33 -46c3 -3 5 -9 6 -13l5 -60c0 -6 -4 -11 -10 -12h-3c-7 0 -12 5 -12 12v0l-5 55l-20 28c-1 -10 -5 -26 -8 -35l-38 -52c-2 -2 -6 -4 -9 -4
c-7 0 -13 5 -13 12c0 3 2 7 4 9l34 47l10 57l3 60l-17 -17l-3 -27c-1 -5 -8 -9 -13 -9c-7 0 -12 6 -12 13v2l4 30c0 2 3 5 4 6l23 24l19 20v0c1 2 4 3 6 3c1 0 1 1 2 1c3 0 8 -3 10 -5l34 -40zM328 262v-4c0 -5 -4 -10 -8 -12l-28 -11c-1 0 -3 -1 -4 -1s-2 1 -3 1l-31 8
v-190c0 -6 -4 -11 -10 -12h-3c-7 0 -12 6 -12 13v0l-1 94c0 2 -2 4 -4 4s-4 -2 -4 -4v-94v0c0 -7 -6 -13 -13 -13h-2c-6 1 -10 6 -10 12v190l-31 -8c-1 0 -3 -1 -4 -1s-2 1 -3 1l-29 11c-4 2 -8 7 -8 12c0 7 6 13 13 13c1 0 1 -1 2 -1l26 -10l43 13c5 1 14 3 19 3h1h1
c5 0 14 -2 19 -3l43 -13l25 11h4c5 0 10 -4 12 -9zM214 285c-16 5 -24 22 -19 38s22 24 38 19s24 -22 19 -38s-22 -24 -38 -19z" />
    <glyph glyph-name="uniF408" unicode="&#xf408;" horiz-adv-x="313" 
d="M312 250l-2 -1v0s-1 -2 -2 -2h-1v0l-191 -69c-1 -2 -3 -4 -4 -6c-3 -3 -8 -9 -12 -11l16 -11c2 -1 3 -5 4 -7c0 -1 1 -2 1 -3s0 -3 -1 -4s-2 -1 -29 -15h-2c-2 0 -4 1 -5 2s-1 2 -2 3s-2 4 -2 6v21c-3 -1 -6 -1 -9 -1c-22 -2 -39 -11 -44 -24s-1 -30 13 -47
c2 -2 4 -5 6 -8l14 17c1 2 4 3 6 4h3s3 0 4 -1c2 -1 2 -1 15 -29c0 -1 1 -1 1 -2c0 -2 -2 -4 -3 -5s-2 -2 -3 -2c-1 -1 -3 -2 -5 -2v0l-23 1c2 -5 3 -12 3 -17c0 -20 -16 -41 -34 -47l-1 -1h-2c-3 0 -8 3 -9 6c-1 1 -1 3 -1 5c0 4 3 7 6 8c10 3 19 14 22 24c0 2 1 5 1 7
s-1 4 -1 6l-10 -12l-4 -4c-1 0 -3 -1 -4 -1h-2c-2 0 -4 1 -5 3c-14 27 -14 28 -14 29c0 2 2 5 4 6s5 3 7 3h18c-1 1 -1 2 -2 3c-18 22 -24 46 -16 65s30 32 59 34v0l-14 10c-1 1 -3 4 -4 5s-1 2 -1 3v2c0 2 1 4 2 5c27 14 28 14 29 14c2 0 5 -1 6 -3s3 -5 3 -7l1 -22
c4 2 8 7 10 11v1l52 200v0l1 1c0 1 1 2 1 2v0v0s1 1 2 1l1 1h2h2v0l125 -7c4 0 7 -4 8 -8l17 -124v0v-2v-1c0 -1 0 -2 -1 -3zM281 357l-34 -37l45 -40zM267 370l-79 5l45 -42zM221 319l-54 49l-38 -149zM143 207l143 52l-52 48z" />
    <glyph glyph-name="uniF3AD" unicode="&#xf3ad;" horiz-adv-x="373" 
d="M144 208c-45 0 -82 37 -82 82s37 83 82 83s82 -38 82 -83s-37 -82 -82 -82zM81 290h-1c0 -35 28 -63 63 -63h1c35 0 63 28 63 63s-28 63 -63 63s-63 -28 -63 -63zM232 29v0v-1v-1l-2 -1c-21 -8 -57 -14 -80 -14v0h-10h-1c-43 0 -105 20 -139 46v0v1v0v0
c-4 12 23 102 89 135h1v0h1v0c11 -8 32 -16 46 -17h3h4h5h3c14 1 35 9 46 17v0h1v0h1l4 -2l2 -2l1 -1v-1v-1c-2 -4 -3 -8 -5 -13v0l-1 -1v0c-12 -7 -33 -14 -47 -15h-1h-3h-5h-5h-3c-14 1 -35 7 -47 14c-43 -26 -66 -82 -70 -104c30 -21 84 -38 120 -38v0h10
c19 0 49 6 67 12h1v0h1v-1c3 -3 9 -8 12 -11zM323 209l-2 29h45l2 -29h-45zM277 209h-45l2 29h45zM324 192h45l4 -82v-3c0 -40 -33 -74 -73 -76c-40 2 -73 36 -73 76v3l4 82h45l-4 -82v-2c0 -16 12 -28 28 -28s28 12 28 28v2zM328 360l-14 -46h30l-45 -64l17 49h-31z" />
    <glyph glyph-name="uniF3B6" unicode="&#xf3b6;" horiz-adv-x="448" 
d="M301 198c0 -51 -41 -92 -92 -92s-92 41 -92 92s41 92 92 92s92 -41 92 -92zM235 156v0c4 4 7 12 7 18v1v1c0 6 -3 14 -7 18c-5 5 -15 11 -22 13c-3 1 -8 3 -10 5c-1 1 -2 4 -2 6v1v0c0 2 1 5 2 7c1 1 4 2 6 2h1v0c2 0 5 -1 6 -3c2 -2 3 -7 3 -10v0v-1c0 -1 1 -2 2 -2v0
h19c1 0 2 0 2 1v1v1v1c0 6 -3 15 -7 20c-4 4 -11 9 -17 10v12c0 1 -1 2 -2 2v0h-10c-1 0 -3 -1 -3 -2v-12c-6 -1 -13 -4 -17 -8s-8 -12 -8 -18v-1v-2c0 -6 4 -14 8 -18c5 -4 14 -9 21 -11c3 -1 8 -4 10 -6c1 -2 2 -4 2 -6v-1v0c0 -2 -1 -5 -2 -6c-2 -1 -5 -3 -7 -3v0h-1
c-2 0 -6 1 -8 3s-3 6 -3 9v2c0 1 -1 2 -2 2v0h-18c-1 0 -3 -1 -3 -2v0v-1v-2c0 -6 4 -16 8 -21c4 -4 13 -7 19 -8v-10c0 -1 1 -3 2 -3v0h11c1 0 2 2 2 3v10c6 1 14 4 18 8zM443 130l5 -6l-5 -5l-13 -15l-7 -7l-3 -3c1 -3 2 -8 2 -11c0 -7 -4 -19 -7 -25
c-4 -8 -14 -17 -22 -21c-6 -3 -17 -6 -24 -6c-6 0 -16 2 -22 5c-7 3 -16 11 -21 18s-10 21 -10 30c0 29 24 52 53 52c11 0 26 -5 34 -12l3 3l5 4l3 2c-4 3 -10 9 -15 11v189c0 7 -7 14 -14 14v0h-353v0c-7 0 -14 -7 -14 -14v-266c0 -7 7 -14 14 -14h277c3 -6 9 -14 13 -18
h-290c-17 0 -32 15 -32 32v266c0 17 15 32 32 32h353c17 0 32 -15 32 -32v-198l5 5l5 5l5 -5zM424 109l14 15l-11 11l-11 -10l-5 -4l-43 -38l-25 24l-14 -12l39 -48v0l50 55z" />
    <glyph glyph-name="uniF405" unicode="&#xf405;" horiz-adv-x="432" 
d="M147 99v0c23 0 43 -20 43 -43s-20 -42 -43 -42s-42 19 -42 42s19 43 42 43zM147 34c12 0 23 10 23 22s-11 23 -23 23s-23 -11 -23 -23s11 -22 23 -22zM278 99c23 0 42 -20 42 -43s-19 -42 -42 -42s-43 19 -43 42s20 43 43 43zM278 34c12 0 22 10 22 22s-10 23 -22 23
s-23 -11 -23 -23s11 -22 23 -22v0zM432 300c-1 -34 -29 -63 -62 -66l-12 -49c-1 -4 -5 -8 -9 -8l-229 -18l-18 -30h238c6 0 10 -4 10 -10s-4 -11 -10 -11h-255c-5 0 -9 6 -9 11c0 1 0 3 1 4l27 45l-61 182h-33c-6 0 -10 4 -10 10s4 10 10 10h40c4 0 9 -3 10 -7l17 -52h221
c5 31 35 57 67 57c37 0 67 -30 67 -67v-1zM275 291v-47h52c-14 9 -27 30 -29 47h-23zM183 183v48h-79l17 -53zM183 244v47h-99l15 -47h84zM261 189v42h-65v-47zM261 244v47h-65v-47h65zM341 195l9 36h-75v-41zM365 246v1v0c29 0 53 24 53 53c0 30 -23 53 -53 53
s-54 -23 -54 -53s24 -54 54 -54zM398 310v1c6 0 10 -5 10 -11s-4 -10 -10 -10h-23v-23c0 -6 -4 -11 -10 -11s-10 5 -10 11v23h-24c-6 0 -10 4 -10 10s4 10 10 10h23v23c0 6 4 10 10 10s11 -4 11 -10v-23h23z" />
    <glyph glyph-name="uniF40B" unicode="&#xf40b;" horiz-adv-x="412" 
d="M409 378c1 -2 3 -6 3 -8c0 -1 -1 -2 -1 -3l-11 -43c-1 -5 -7 -9 -12 -9c-7 0 -12 5 -12 12v3l2 9l-74 -54s-1 -1 -2 -1c9 -14 16 -40 16 -57c0 -55 -45 -104 -99 -110v-44h22c7 0 12 -6 12 -13s-5 -12 -12 -12h-22v-35c0 -7 -5 -12 -12 -12s-12 5 -12 12v35h-22
c-7 0 -12 5 -12 12s5 13 12 13h22v44c-54 6 -99 55 -99 110c0 16 7 41 15 55l-29 21l-12 -16c-2 -3 -6 -5 -10 -5c-7 0 -13 5 -13 12c0 2 1 6 3 8l13 15l-30 22l2 -9c0 -1 1 -2 1 -3c0 -7 -5 -12 -12 -12c-5 0 -11 4 -12 9l-12 43v3c0 7 5 12 12 12l45 1v0c7 0 12 -5 12 -12
s-5 -12 -12 -12h-10l30 -22l12 16c2 3 6 5 10 5c7 0 12 -5 12 -12c0 -2 0 -6 -2 -8l-12 -15l29 -22c18 20 54 37 81 37s63 -17 81 -36c0 1 1 2 2 2l74 55h-10c-7 0 -12 5 -12 12s5 12 12 12v0l46 -1c3 0 7 -1 9 -4zM207 141c48 0 86 38 86 86s-38 86 -86 86s-86 -38 -86 -86
s38 -86 86 -86v0z" />
    <glyph glyph-name="uniF43D" unicode="&#xf43d;" horiz-adv-x="446" 
d="M271 96v0c3 0 6 1 8 3s3 5 3 7v0v1c0 2 0 5 -2 7s-7 5 -10 6s-8 3 -11 5c-2 1 -7 3 -9 5s-4 6 -5 8c-1 3 -2 7 -2 10v0v1c0 5 3 12 7 16s11 8 17 8v13h10v-14c6 -1 13 -5 17 -9c3 -4 6 -12 6 -18v-1h-17v1c0 3 -1 8 -3 10s-5 4 -8 4h-1v0c-2 0 -5 -1 -7 -3s-3 -5 -3 -7
v-1v-1c0 -2 2 -4 3 -6c2 -2 7 -5 10 -6s9 -4 12 -6c2 -1 6 -3 8 -5s4 -6 5 -8s1 -6 1 -9v-1v-1c0 -5 -2 -12 -6 -16s-12 -7 -18 -7v-13h-10v12c-6 0 -15 4 -19 9c-4 4 -7 13 -7 19v2h17v-2c0 -3 2 -8 4 -10s6 -4 9 -4zM439 289c4 -3 7 -8 7 -12s-3 -10 -7 -13l-84 -57
c-2 -1 -5 -3 -8 -3c-9 0 -16 7 -16 16v18h-59c-1 -3 -2 -9 -3 -12h1c54 0 99 -45 99 -99s-45 -98 -99 -98c-27 0 -62 17 -78 39h-77v-18c0 -8 -8 -15 -16 -15c-3 0 -6 1 -8 2l-84 58c-4 3 -7 8 -7 12s3 10 7 13l84 57c2 1 5 3 8 3c9 0 16 -7 16 -16v0v-17h58c1 3 2 8 3 11v0
c-54 0 -99 45 -99 99s45 98 99 98c27 0 62 -17 78 -39h77v18c0 8 8 15 16 15c3 0 6 -1 8 -2zM111 84l70 -1c-6 11 -10 31 -10 44v0v4h-60c-7 0 -12 5 -12 12v21l-84 -57l84 -57v21v0c0 7 5 13 12 13v0zM353 127c0 46 -37 84 -83 84s-83 -38 -83 -84s37 -83 83 -83
s83 37 83 83zM183 174c12 23 43 46 69 51c4 9 7 23 7 32c0 46 -37 83 -83 83s-83 -37 -83 -83s37 -83 83 -83h7zM347 220l84 57l-84 57v-21c0 -7 -5 -13 -12 -13h-71c6 -11 10 -30 10 -43v0v-4h60c7 0 13 -5 13 -12v-21zM188 286c-1 0 -2 1 -3 1c-10 0 -19 -9 -20 -19h21v-9
h-21v-4h21v-10h-21c2 -10 12 -18 22 -18h1c3 0 8 1 11 2l2 -15c-4 -1 -12 -2 -16 -2v0h-2c-8 0 -18 3 -24 8s-12 17 -13 25h-11v10h11v4h-11v9h11c1 8 7 20 14 25c6 5 17 9 25 9l2 -1c4 0 11 0 15 -1l-3 -16c-3 1 -8 2 -11 2z" />
    <glyph glyph-name="uniF38A" unicode="&#xf38a;" horiz-adv-x="277" 
d="M158 83c6 9 11 27 11 38v2c8 -4 15 -7 22 -10c-3 -38 -36 -74 -73 -82c-3 -1 -5 -2 -8 -2h-12c-54 0 -98 44 -98 98c0 15 6 38 14 51c6 10 19 22 29 28c6 -6 12 -11 19 -16c-10 -5 -22 -16 -28 -25c-6 -10 -11 -27 -11 -38c0 -42 34 -76 76 -76c4 0 10 1 14 2
c16 3 36 16 45 30zM144 259c0 9 -2 23 -3 32v5c0 17 11 39 25 49c9 6 24 10 35 10c19 0 42 -13 52 -29c5 -8 9 -22 9 -31c0 -24 -19 -50 -42 -58c-9 -2 -23 -7 -32 -11c-7 -4 -17 -12 -22 -19c-2 -3 -4 -8 -6 -10s-2 -3 -5 -3c-9 0 -32 12 -28 24c1 3 6 7 8 10s4 8 5 11
c2 5 4 14 4 20zM191 215c58 -41 94 -84 84 -101c-12 -19 -81 3 -155 49s-123 99 -111 118c11 16 61 3 122 -30c-1 -6 -5 -16 -9 -21l-2 -3v0l-2 -2c-2 -2 -3 -5 -3 -8v-2s1 -3 1 -4c2 -7 10 -16 16 -20h1l1 -1c5 -3 15 -6 21 -6h4h1h2c3 1 8 4 9 7c0 1 1 2 1 3v0l1 3
c4 6 12 14 18 18z" />
    <glyph glyph-name="uniF3F7" unicode="&#xf3f7;" horiz-adv-x="495" 
d="M226 218c0 9 8 18 17 18s18 -9 18 -18s-9 -17 -18 -17s-17 8 -17 17zM495 228c0 -35 -28 -65 -63 -68v-77c2 -1 4 -3 6 -4c6 -5 12 -17 13 -25v-6v-6h14c4 0 8 -4 8 -8s-4 -7 -8 -7h-436c-4 0 -8 3 -8 7s4 8 8 8h12c-1 2 -1 7 -1 9v3c1 13 11 26 23 30v86h-14
c-2 0 -4 1 -5 2l-9 15v0h-3v0c-18 0 -32 13 -32 31s14 32 32 32s32 -14 32 -32c0 -11 -9 -23 -19 -28l7 -10h33l6 10c-10 5 -18 18 -18 29c0 18 14 32 32 32s32 -14 32 -32s-14 -32 -32 -32v0h-3v0l-10 -15c-1 -1 -2 -2 -4 -2h-15v-83h3h2c3 0 9 -3 12 -4c8 17 28 31 47 31
c3 0 7 -1 10 -1v123c0 2 1 5 3 6l86 63c1 1 3 2 5 2s4 -1 5 -2l86 -63c2 -1 4 -4 4 -6v-125c1 0 1 1 2 1c4 1 11 2 15 2c19 0 40 -14 48 -31c3 1 8 3 11 3c1 0 3 1 4 1s2 -1 3 -1v74c-35 3 -63 34 -63 69c0 38 32 69 70 69s69 -31 69 -69v-1zM83 218v1v-1
c0 -12 10 -21 22 -21v0c12 0 22 9 22 21s-10 22 -22 22s-22 -10 -22 -22zM32 197c12 0 21 10 21 22v0c0 12 -9 21 -21 21s-22 -9 -22 -21s10 -22 22 -22v0zM147 42v61c-3 1 -6 1 -9 1c-17 0 -35 -14 -40 -30l-2 -6l-6 4c-4 3 -11 4 -15 4c-13 0 -24 -10 -25 -23v-2
c0 -3 0 -7 1 -9h96zM246 42c-1 20 0 47 0 66h-5v-66h5zM319 42v189l-77 57l-78 -57v-189h58c1 34 4 128 1 122s-5 -18 -5 -25v-7c1 -11 -16 -11 -17 0c-3 25 6 58 35 61c2 0 5 1 7 1s4 -1 6 -1c30 -2 40 -35 37 -61c-1 -11 -18 -11 -17 0c0 2 1 6 1 8c0 8 -3 19 -6 26
c0 -11 0 -91 1 -124h54zM432 71v-1c-4 3 -11 6 -16 6h-2c-4 0 -9 -3 -12 -5l-6 -4l-2 7c-5 16 -23 30 -40 30c-3 0 -9 -1 -12 -2c-2 -1 -5 -1 -6 -2v-58h105v6v5c-1 6 -5 14 -9 18zM426 235v0c3 0 6 -3 6 -6v-1v-29c7 3 12 12 12 19v0c0 3 4 6 7 6s6 -3 6 -6v0
c0 -14 -11 -29 -25 -32v-16c29 3 53 29 53 58c0 32 -27 59 -59 59s-59 -27 -59 -59c0 -29 24 -55 53 -58v16c-14 3 -25 18 -25 32v0c0 3 3 6 6 6s6 -3 6 -6v0c0 -7 6 -16 13 -19v30c0 3 3 6 6 6zM141 256c-2 0 -5 2 -6 3s-1 4 -1 6s1 6 3 7l35 26v41c0 5 4 9 9 9s9 -4 9 -9
v-27l47 34c1 1 3 2 5 2s4 -1 5 -2l101 -74c2 -1 4 -4 4 -7c0 -2 -1 -4 -2 -5c-2 -2 -4 -4 -7 -4c-2 0 -4 1 -5 2l-96 70l-95 -70c-1 -1 -3 -2 -5 -2v0h-1z" />
    <glyph glyph-name="uniF3F2" unicode="&#xf3f2;" horiz-adv-x="314" 
d="M294 294c6 0 11 -5 11 -11v-85v-1c0 -6 -5 -12 -11 -12s-12 6 -12 12v1h-166c-19 0 -34 -16 -34 -35v-50c0 -5 -4 -9 -9 -9h-64c-5 0 -9 4 -9 9v50c0 64 52 116 116 116h76v45h-38c-6 -7 -19 -12 -28 -12c-22 0 -39 17 -39 39s17 39 39 39c12 0 27 -8 33 -18h83
c6 10 21 18 33 18c22 0 39 -17 39 -39s-17 -39 -39 -39c-9 0 -22 5 -28 12h-38v-45h73v4c0 6 6 11 12 11v0zM275 373c-12 0 -22 -10 -22 -22s10 -22 22 -22s22 10 22 22s-10 22 -22 22zM126 329c12 0 22 10 22 22s-10 22 -22 22s-22 -10 -22 -22s10 -22 22 -22zM164 341h73
c-1 3 -1 7 -1 10v2v2h-71v-2v-2c0 -3 0 -7 -1 -10zM282 215v47h-166c-54 0 -99 -45 -99 -99v-42h48v42c0 28 23 52 51 52h166zM62 58v0c5 -8 10 -21 11 -31c-1 -17 -15 -31 -32 -31s-32 14 -33 31c1 10 6 23 11 31c4 6 11 15 15 21c1 2 5 3 7 3v0c2 0 5 -1 6 -3
c4 -6 11 -15 15 -21zM41 11v0c9 0 15 7 15 16v0c-1 7 -5 16 -9 22c-2 3 -4 8 -6 11c-3 -3 -5 -8 -7 -11c-4 -6 -8 -15 -9 -22v0c0 -9 7 -16 16 -16z" />
    <glyph glyph-name="uniF41E" unicode="&#xf41e;" horiz-adv-x="300" 
d="M289 154v0c6 -6 11 -18 11 -26s-5 -20 -11 -26l-49 -49c-6 -6 -18 -11 -26 -11s-20 5 -26 11l-43 43l-38 -38c-5 -5 -14 -9 -21 -9s-16 4 -21 9l-49 49c-5 5 -9 14 -9 21s4 16 9 21l37 38l-42 43c-6 6 -11 18 -11 26s5 20 11 26l49 49c6 6 18 11 26 11s20 -5 26 -11
l43 -43l38 38c5 5 14 9 21 9s16 -4 21 -9l49 -49c5 -5 9 -14 9 -21s-4 -16 -9 -21l-38 -39zM206 313l-38 -37l65 -66l38 38c2 2 4 5 4 8s-2 6 -4 8l-49 49c-2 2 -5 4 -8 4s-6 -2 -8 -4zM94 71l38 37l-66 66l-38 -38c-2 -2 -3 -5 -3 -8s1 -6 3 -8l49 -49c2 -2 6 -4 9 -4
s6 2 8 4zM276 115v0c3 3 5 9 5 13s-2 10 -5 13l-177 177c-3 3 -9 6 -13 6s-10 -3 -13 -6l-49 -49c-3 -3 -6 -9 -6 -13s3 -10 6 -13l177 -177c3 -3 9 -5 13 -5s10 2 13 5zM106 221v0c3 0 8 -2 10 -4s4 -7 4 -10c0 -8 -6 -14 -14 -14s-14 6 -14 14c0 7 7 14 14 14zM135 250v0
c3 0 8 -2 10 -4s4 -7 4 -10c0 -8 -6 -14 -14 -14s-13 6 -13 14c0 7 6 14 13 14zM135 191v0c3 0 8 -2 10 -4s4 -7 4 -10c0 -8 -6 -14 -14 -14s-13 6 -13 14c0 7 6 14 13 14zM165 221v0c3 0 8 -2 10 -4s4 -7 4 -10c0 -8 -6 -14 -14 -14s-14 6 -14 14c0 7 7 14 14 14zM165 162
v0c3 0 8 -2 10 -4s4 -7 4 -10c0 -8 -6 -14 -14 -14s-14 6 -14 14c0 7 7 14 14 14zM194 191v0c3 0 8 -2 10 -4s4 -7 4 -10c0 -8 -6 -14 -14 -14s-13 6 -13 14c0 7 6 14 13 14z" />
    <glyph glyph-name="uniF384" unicode="&#xf384;" horiz-adv-x="319" 
d="M277 403v0c23 0 42 -19 42 -42s-19 -42 -42 -42h-36v-211c0 -14 -11 -25 -25 -25h-63c-8 -9 -16 -15 -22 -23c-17 -20 -4 -76 -7 -77c-20 -4 -81 0 -81 0c1 5 8 45 11 64c2 16 -41 96 -34 135c5 26 36 70 58 98v39h-36c-23 0 -42 19 -42 42s19 42 42 42h235zM277 335
c14 0 26 12 26 26s-12 26 -26 26h-235c-14 0 -26 -12 -26 -26s12 -26 26 -26h36v28h20v-155v-2c0 -5 2 -14 3 -19v-1c0 -10 7 -17 17 -17c2 0 4 0 6 1c12 6 -1 52 18 76c1 2 3 4 5 5c3 3 11 6 15 6h3c3 0 7 0 9 -1s4 -4 4 -6c0 -1 0 -2 -1 -3l-1 -2c-2 -4 -5 -10 -6 -14
c-8 -20 -10 -46 0 -85c1 -4 2 -9 2 -13v-1l-3 -17c-1 -3 -2 -8 -3 -11h51c3 0 4 1 4 4v255h21v-28h35z" />
    <glyph glyph-name="uniF421" unicode="&#xf421;" horiz-adv-x="392" 
d="M288 399c57 0 104 -47 104 -104v0v-1c0 -4 -1 -14 -2 -19v-1v0v0v-1v0c-3 -15 -14 -37 -24 -48l-21 -23c-2 -2 -6 -4 -9 -4c-7 0 -12 5 -12 12c0 2 1 6 3 8l20 24c8 9 16 25 19 36v0c1 2 2 15 2 17c0 1 0 -43 0 1s-36 80 -80 80c-21 0 -50 -14 -63 -31c-2 -3 -6 -5 -9 -5
s-7 2 -9 5c-3 4 -9 9 -13 12c-12 11 -36 20 -52 20c-44 0 -80 -36 -80 -80c0 -18 10 -43 22 -56c5 -5 122 -140 129 -148c1 -1 2 -2 3 -2s2 1 3 2l6 7l31 36c3 4 27 32 57 33c16 0 37 -10 46 -23c8 -9 14 -25 14 -37c0 -3 0 -8 -1 -11c-6 -33 -41 -67 -94 -95
c-18 -10 -48 -19 -68 -19c-57 0 -96 42 -124 72l-5 6c-3 -1 -9 -2 -13 -2h-3c-9 1 -20 6 -26 13l-14 17l-4 -3c-2 -1 -5 -3 -7 -3c-6 0 -10 5 -10 11c0 3 2 6 4 8l11 10l-18 22c0 1 -1 3 -1 4c0 5 3 8 8 8c2 0 4 -1 5 -2l18 -21l17 14l-18 22c0 1 -1 2 -1 3c0 5 4 8 9 8
c2 0 4 0 5 -1l18 -22l11 11c2 1 5 2 7 2c6 0 11 -5 11 -11c0 -3 -2 -6 -4 -8l-3 -2l14 -17c5 -6 9 -16 9 -24c0 -6 -4 -16 -7 -21l5 -5c46 -49 89 -87 163 -48c46 24 76 53 81 78c0 2 1 4 1 6c0 7 -4 17 -9 22c-5 8 -17 15 -27 15c-20 -1 -38 -24 -38 -24v0l-26 -31l-1 -1
l-11 -12v-1c-5 -5 -14 -9 -21 -9v0c-7 0 -15 4 -20 9l-1 1c-1 1 -124 142 -128 147c-14 16 -25 47 -25 69c0 57 46 104 103 104c20 0 48 -10 64 -22c2 -2 5 -4 7 -6c17 16 49 29 72 29zM66 80v0h2c10 0 18 9 18 19c0 4 -2 9 -4 12l-14 16l-28 -24l14 -16c3 -3 8 -7 12 -7z
" />
    <glyph glyph-name="uniF39F" unicode="&#xf39f;" horiz-adv-x="293" 
d="M293 375v-335c0 -21 -16 -38 -37 -38v0h-219c-21 0 -37 17 -37 38v342h293v-7zM280 40v328h-267v-328c0 -13 11 -24 24 -24h219v0c13 0 24 11 24 24v0zM61 38v0c-14 0 -24 10 -24 24v0v175c0 2 2 4 4 4v0h214c2 0 4 -2 4 -4v-175v0c0 -14 -10 -24 -24 -24v0h-174zM252 89
v99h-55v-99h55zM197 234v-2v0v-1v-35h55v38h-55zM197 46v-1h37c9 0 17 8 17 17v20h-54v-35v-1v0zM107 234v-38h82v38h-82zM107 188v-143h82v143h-82zM44 234v-38h55v38h-55zM44 188v-126v0c0 -9 8 -17 17 -17v0h38v143h-55zM146 267c-23 0 -42 20 -42 43c0 24 19 43 43 43
s43 -19 43 -43s-19 -43 -43 -43h-1zM146 345c-19 0 -35 -16 -35 -35s16 -35 35 -35s36 16 36 35s-17 35 -36 35v0zM147 288h-1c-4 0 -10 3 -13 6s-5 9 -5 14v2v1v1c0 4 2 11 5 14s9 6 13 6h1h1c4 0 9 -3 12 -5c3 -3 5 -7 5 -11v-1h-11v0c0 2 -1 5 -2 6s-3 2 -5 2
s-5 -1 -6 -3s-2 -6 -2 -8v-1v-2v-1c0 -2 1 -6 2 -8s4 -3 6 -3v0h1c1 0 3 1 4 2s2 4 2 5v0h10c0 -2 -1 -6 -2 -8s-4 -5 -6 -6s-7 -2 -9 -2v0z" />
    <glyph glyph-name="uniF404" unicode="&#xf404;" horiz-adv-x="387" 
d="M385 307c1 -2 2 -4 2 -6v-2l-29 -114c-1 -4 -5 -8 -9 -8l-229 -18l-18 -30h238c6 0 10 -4 10 -10s-4 -11 -10 -11h-255c-5 0 -9 6 -9 11c0 1 0 3 1 4l27 45l-61 182h-33c-6 0 -10 4 -10 10s4 10 10 10h40c4 0 8 -3 9 -7l18 -52h300c3 0 6 -2 8 -4zM353 244l12 47h-91v-47
h79zM121 178l62 5v48h-80zM196 231v-47l65 5v42h-65zM196 244h65v47h-65v-47zM183 291h-100l16 -47h84v47zM341 195l9 36h-76v-41zM147 99v0c23 0 43 -20 43 -43s-20 -42 -43 -42s-42 19 -42 42s19 43 42 43zM147 34c12 0 23 10 23 22s-11 23 -23 23s-23 -11 -23 -23
s11 -22 23 -22zM278 99c23 0 42 -20 42 -43s-19 -42 -42 -42s-43 19 -43 42s20 43 43 43zM278 34c12 0 22 10 22 22s-10 23 -22 23s-23 -11 -23 -23s11 -22 23 -22v0z" />
    <glyph glyph-name="uniF390" unicode="&#xf390;" horiz-adv-x="370" 
d="M10 16c-6 0 -10 5 -10 11v288c0 6 4 10 10 10h131l41 41c1 1 2 1 3 1s3 0 4 -1l41 -41h130c6 0 10 -4 10 -10v-288c0 -6 -4 -11 -10 -11h-350zM185 355l-30 -30h60zM20 305v-268h329v268h-329zM36 51v240h299v-240h-299zM46 281l1 -144c15 16 47 44 81 32
c6 -2 12 -4 16 -6c7 16 26 29 43 29h2v0c13 0 30 -8 38 -18c7 11 23 19 36 20c22 -1 35 -19 46 -35c4 -6 11 -14 16 -19v141h-279zM220 166c-6 9 -20 16 -31 16h-1h-2c-13 0 -29 -11 -34 -23v0c14 -6 38 -12 53 -15h1l4 7c3 5 6 10 10 15zM46 122v-61h279v67
c-9 5 -20 16 -25 25c-10 15 -21 30 -38 31s-31 -21 -43 -39c-3 -6 -10 -14 -14 -19c-30 -34 -79 -47 -99 -51h-2v0c-2 0 -4 1 -5 3v2c0 2 1 4 3 5h2c15 3 64 16 93 48l2 2c-14 3 -37 9 -51 15c-6 2 -13 5 -24 9c-35 12 -72 -29 -78 -37z" />
    <glyph glyph-name="uniF3BD" unicode="&#xf3bd;" horiz-adv-x="323" 
d="M321 311l2 -269v0c0 -23 -20 -43 -43 -43h-237c-24 0 -43 19 -43 43v300c0 24 19 43 43 43h210v-1l68 -73v0zM289 315l-28 32v-32h28zM303 41l1 253h-54v0c-6 0 -11 5 -11 11v61h-196c-13 0 -24 -11 -24 -24v-301c0 -13 11 -24 24 -24h237c13 0 23 11 23 24zM159 128h1
c4 0 11 -3 14 -6s5 -9 5 -13s-2 -10 -5 -13s-11 -5 -15 -5s-11 2 -14 5s-5 9 -5 13s2 10 5 13s9 6 13 6h1zM162 271h2c12 0 28 -6 37 -13c8 -7 14 -22 14 -33v-2v0c0 -6 -1 -15 -4 -20c-4 -6 -12 -15 -17 -20l-10 -9c-5 -5 -9 -14 -10 -21v-7h-31v3c0 7 2 17 4 24
c3 7 10 15 15 20c5 4 12 11 15 16c2 3 4 9 4 13c0 14 -6 21 -19 21h-1c-4 0 -11 -3 -14 -6s-5 -10 -5 -15v0h-36v2c0 11 7 26 15 34c9 7 25 13 37 13h4z" />
    <glyph glyph-name="uniF371" unicode="&#xf371;" horiz-adv-x="401" 
d="M294 7v0c-59 0 -108 49 -108 108s49 107 108 107s107 -48 107 -107v-13c-6 -53 -54 -95 -107 -95v0zM294 204c-49 0 -89 -40 -89 -89c0 -50 39 -90 89 -90c49 0 90 40 90 89v0c0 50 -40 90 -90 90v0zM85 12v0c-47 0 -85 37 -85 84s38 85 85 85s84 -38 84 -85
c0 -8 -2 -19 -4 -26c-11 -32 -46 -58 -80 -58v0zM85 164c-37 0 -67 -30 -67 -67s30 -67 67 -67s67 30 67 67s-30 66 -67 66v1zM12 166v0c-5 0 -9 4 -9 9c-1 52 20 86 58 94v39c0 9 9 15 24 15s24 -6 24 -15v-37h19c8 25 40 106 105 106h102c27 0 38 -10 42 -37l18 -137v-1
c0 -5 -4 -9 -9 -9c-4 0 -8 4 -9 8l-18 136c-3 18 -6 22 -24 22h-102c-61 0 -89 -99 -89 -100c-1 -4 -5 -6 -9 -6v0h-35v0c-5 0 -9 4 -9 9v42c-2 0 -4 1 -6 1s-3 -1 -5 -1v-43v0c0 -5 -4 -9 -9 -9c-45 -4 -50 -51 -50 -77v0c0 -5 -4 -9 -9 -9v0zM320 260l-125 1
c-6 0 -11 5 -11 11c0 1 0 4 1 5c9 20 27 52 57 52h65c15 0 19 -5 21 -19l4 -37v-1c0 -6 -6 -12 -12 -12v0zM294 164c-27 0 -50 -23 -50 -50s23 -49 50 -49s50 22 50 49s-23 50 -50 50zM294 172v0c32 0 58 -26 58 -58s-26 -57 -58 -57s-58 25 -58 57s26 58 58 58zM85 132
c20 0 36 -16 36 -36v0c0 -6 -3 -14 -6 -19c-6 -9 -19 -17 -30 -17c-20 0 -37 16 -37 36s17 36 37 36v0zM85 140v1c24 0 44 -20 44 -44v-1c0 -7 -3 -17 -7 -23c-7 -11 -24 -21 -38 -21c-24 0 -44 20 -44 44s20 44 44 44h1z" />
    <glyph glyph-name="uniF414" unicode="&#xf414;" horiz-adv-x="473" 
d="M269 331c-4 4 -4 12 0 16s13 4 17 0s4 -12 0 -16s-13 -4 -17 0zM144 299c-3 0 -5 2 -5 4v11c0 2 2 4 5 4h4c3 0 5 -2 5 -4v-11c0 -2 -2 -4 -5 -4h-4zM170 299c-3 0 -6 2 -6 4v11c0 2 3 4 6 4h4c3 0 5 -2 5 -4v-11c0 -2 -2 -4 -5 -4h-4zM139 271v12c0 2 2 4 5 4h4
c3 0 5 -2 5 -4v-12c0 -2 -2 -4 -5 -4h-4c-3 0 -5 2 -5 4zM164 272v11c0 2 3 4 6 4h4c3 0 5 -2 5 -4v-11c0 -2 -2 -4 -5 -4h-4c-3 0 -6 2 -6 4zM43 173v-86c-5 -2 -14 -8 -18 -12v98c0 15 13 27 28 27h54v123c0 15 11 26 26 26h51v0c15 0 27 -11 27 -26v0v-11h24v49v0
c0 1 0 4 1 5l35 49c1 2 4 4 7 4v0c3 0 6 -2 7 -4l33 -50c1 -1 1 -4 1 -5v-48h34c5 0 9 -4 9 -9v-66h59c15 0 27 -12 27 -27v-130c-4 3 -13 7 -18 9v122c0 5 -4 9 -9 9h-59v-81c0 -5 -4 -9 -9 -9s-9 4 -9 9v155h-34c-5 0 -8 4 -8 9v54l-25 37l-24 -36v-55c0 -5 -4 -9 -9 -9v0
h-33v-85c0 -5 -4 -8 -9 -8s-9 3 -9 8v114c0 5 -4 9 -9 9v0h-50c-5 0 -9 -4 -9 -9v-216c0 -5 -4 -9 -9 -9s-9 4 -9 9v76h-54c-6 0 -10 -4 -10 -10zM381 187c-3 0 -5 2 -5 4v11c0 2 2 4 5 4h4c3 0 5 -2 5 -4v-11c0 -2 -2 -4 -5 -4h-4zM407 187c-3 0 -5 2 -5 4v11c0 2 2 4 5 4
h4c3 0 5 -2 5 -4v-11c0 -2 -2 -4 -5 -4h-4zM376 159v12c0 2 2 4 5 4h4c3 0 5 -2 5 -4v-12c0 -2 -2 -4 -5 -4h-4c-3 0 -5 2 -5 4zM401 160l1 11c0 2 2 4 5 4h4c3 0 5 -2 5 -4v-11c0 -2 -2 -4 -5 -4h-4c-3 0 -6 2 -6 4zM60 150c-3 0 -5 2 -5 4v12c0 2 2 3 5 3h4c3 0 6 -1 6 -3
v-12c0 -2 -3 -4 -6 -4h-4zM86 150c-3 0 -6 2 -6 4v12c0 2 3 3 6 3h4c3 0 5 -1 5 -3v-12c0 -2 -2 -4 -5 -4h-4zM55 122v12c0 2 2 4 5 4h4c3 0 6 -2 6 -4v-12c0 -2 -3 -3 -6 -3h-4c-3 0 -5 1 -5 3zM80 123v11c0 2 3 4 6 4h4c3 0 5 -2 5 -4v-11c0 -2 -2 -4 -5 -4h-4
c-3 0 -6 2 -6 4zM33 52c7 10 24 18 36 18h3c11 -1 26 -9 33 -18l2 -2c-6 -2 -14 -6 -18 -10c-1 1 -4 4 -6 5c-3 3 -9 5 -13 5h-1c-9 0 -14 -4 -21 -12l-1 -1c-4 4 -12 9 -17 11zM161 38v-1c-4 4 -13 9 -18 11l3 3c7 10 24 19 36 19v0v0c2 0 5 -1 7 -1c1 0 4 -1 5 -1h2
c7 -3 17 -10 22 -16l2 -2c-5 -1 -12 -5 -16 -8l-2 -2v0v0c-1 1 -4 4 -6 5c-2 2 -7 4 -10 5h-1h-3h-3h-2c-4 -1 -9 -5 -12 -8l-4 -4v0v0zM370 48l4 5c6 8 19 15 28 17c2 0 6 1 8 1c12 0 28 -8 35 -18l2 -2c-6 -2 -14 -6 -18 -10c-4 5 -12 10 -19 10c-10 0 -15 -4 -22 -12v-1
h-1c-4 4 -12 8 -17 10zM464 39c5 0 9 -5 9 -10v-1c0 -2 0 -4 -1 -5c0 -1 -1 -2 -2 -2c-1 -1 -1 -2 -2 -2c-1 -1 -4 -1 -5 -1c-9 0 -14 -4 -21 -12l-1 -2c-7 -9 -23 -16 -35 -16v0c-8 0 -20 4 -26 10c-2 1 -4 3 -6 5l-3 3c-2 3 -7 8 -10 10s-8 2 -11 2h-4h-2
c-5 -2 -11 -7 -14 -11l-2 -2c-7 -9 -22 -17 -34 -17h-1v0c-11 0 -25 8 -32 16l-3 3c-2 2 -6 6 -9 8s-8 4 -12 4v0v0c-2 0 -5 0 -7 -1s-5 -2 -6 -3c-3 -2 -6 -6 -8 -8l-2 -2c-7 -9 -22 -16 -34 -16h-1h-1v0c-11 0 -25 7 -32 15l-3 3c-2 3 -7 7 -10 9v0v0c-1 1 -4 2 -5 2h-3
h-1h-2v0h-5c-1 0 -4 -1 -5 -2c-3 -2 -8 -7 -10 -10l-2 -1v0c-4 -4 -11 -10 -16 -13v0l-2 -1c-1 0 -3 -1 -4 -1h-3c-2 0 -6 -1 -8 -1v0v0c-11 0 -26 7 -33 15v0l-3 3c-2 3 -7 7 -10 9v0c-3 2 -7 3 -10 3h-1h-1h-1h-1c-1 0 -1 2 -2 2c-2 2 -5 5 -5 8c0 6 4 10 10 10
c3 0 7 -1 10 -2c5 -1 14 -5 18 -9l7 -7l7 -7c3 -3 9 -5 14 -5v0h1h5l3 1c3 1 7 4 9 6l4 4l6 6l4 4c6 5 17 8 25 8v0h1h3h3h2c6 -1 15 -6 19 -10l8 -8l5 -5l2 -1v0c3 -3 10 -6 14 -6v0v0c2 0 4 1 6 1l2 1c3 1 7 4 9 6l4 4s5 6 6 7s3 2 4 3c6 5 17 8 25 8h1v0h1
c8 0 21 -4 27 -10l2 -2l6 -6s5 -4 7 -6c3 -3 9 -6 14 -6v0h2h3c4 1 8 3 11 6l1 1l4 4c3 3 7 8 10 11c3 2 8 5 11 6c4 1 10 2 14 2v0h2c8 0 20 -4 26 -10l2 -2l6 -6s5 -4 7 -6c3 -3 9 -6 14 -6v0h1c1 0 4 1 5 1c3 1 6 2 8 4c1 1 3 2 4 3l4 4l10 10c6 5 16 9 24 9h1v0zM260 52
c5 7 16 14 24 17c3 1 8 2 11 2v0v0c12 0 29 -9 36 -19l2 -2c-6 -2 -15 -6 -19 -10v0v0l-2 2c-3 3 -8 7 -12 8v0h-2h-2c-9 0 -14 -4 -21 -12l-1 -1v0v0c-1 1 -3 4 -5 5c-3 2 -8 5 -12 6z" />
    <glyph glyph-name="uniF43C" unicode="&#xf43c;" horiz-adv-x="301" 
d="M295 62c3 -3 6 -9 6 -14c0 -11 -8 -19 -19 -19c-5 0 -12 4 -15 8l-70 76c10 6 22 18 28 27zM154 272c41 -2 73 -37 73 -78v-3c-2 -41 -36 -74 -77 -74c-43 0 -78 34 -78 77s35 78 78 78h4zM208 191v0v3c0 30 -25 56 -55 58h-3c-32 0 -58 -26 -58 -58s26 -58 58 -58
c30 0 56 25 58 55zM152 233v0v0c3 0 6 -3 6 -6s-3 -7 -6 -7h-1h-1c-14 0 -25 -10 -26 -24v-1c0 -3 -4 -6 -7 -6s-6 3 -6 6v1c1 20 19 37 39 37h2zM247 19c2 -2 4 -5 6 -6h-214c-22 0 -39 17 -39 39v279c0 22 17 40 39 40h195v-1l64 -68v0l1 -207l-17 19v172h-50
c-6 0 -10 4 -10 10v57h-183c-12 0 -22 -10 -22 -22v-279c0 -12 10 -21 22 -21h197zM269 306l-28 30v-30h28z" />
    <glyph glyph-name="uniF37C" unicode="&#xf37c;" horiz-adv-x="481" 
d="M97 233h2h1l38 -29c1 0 1 -1 1 -2v-59c0 -2 -1 -3 -3 -3h-75c-2 0 -2 1 -2 3v59c0 1 0 2 1 2zM150 221c-2 0 -5 0 -6 1l-45 35l-44 -33c-1 -1 -4 -2 -6 -2c-5 0 -8 4 -8 9c0 2 1 6 3 7l50 38c1 1 3 1 5 1s4 0 5 -1l51 -39c2 -1 3 -4 3 -6l1 -2c0 -5 -4 -8 -9 -8zM194 241
c-5 0 -8 3 -8 8s3 8 8 8h77c5 0 8 -3 8 -8s-3 -8 -8 -8h-77zM194 194c-5 0 -8 4 -8 9s3 8 8 8h163c5 0 9 -3 9 -8s-4 -9 -9 -9h-163zM194 148c-5 0 -8 3 -8 8s3 8 8 8h163c5 0 9 -3 9 -8s-4 -8 -9 -8h-163zM476 130l5 -5l-4 -5l-14 -15l-6 -7l-3 -4c1 -3 1 -8 1 -11
c0 -7 -2 -19 -6 -25c-4 -8 -14 -17 -22 -21c-6 -3 -17 -6 -24 -6c-6 0 -17 2 -23 5c-7 3 -16 11 -21 18s-9 21 -9 30c0 29 23 52 52 52c11 0 26 -5 34 -12l4 3l5 4l2 2c-4 3 -10 9 -15 11v178c0 7 -6 13 -13 13h-387c-7 0 -14 -6 -14 -13v-255c0 -7 7 -13 14 -13h310
c3 -6 9 -14 13 -18h-323c-17 0 -32 14 -32 31v255c0 17 15 31 32 31h387c17 0 31 -14 31 -31v-186l6 5l5 4l4 -5zM458 110l14 15l-12 10l-10 -10l-6 -4l-42 -38l-25 25l-14 -12l39 -49l50 55z" />
    <glyph glyph-name="uniF3B5" unicode="&#xf3b5;" horiz-adv-x="370" 
d="M286 248c48 -11 84 -30 84 -56s-35 -45 -84 -56c17 -47 19 -87 -3 -101c-4 -2 -11 -5 -16 -5v0c-15 0 -34 10 -56 28c-8 6 -19 18 -26 25c-7 -7 -18 -19 -26 -25c-22 -18 -40 -28 -55 -28h-1c-5 0 -12 3 -16 5c-22 14 -19 54 -2 101c-49 11 -85 30 -85 56s36 45 84 56
c-3 9 -6 18 -8 27c-9 38 -6 64 11 74s42 2 72 -23c8 -6 19 -18 26 -25c7 7 18 19 26 25c30 25 55 33 72 23s20 -36 11 -74c-2 -9 -5 -18 -8 -27zM222 313c-8 -6 -19 -18 -26 -25c8 -10 17 -20 25 -31c13 -1 35 -4 48 -6c3 7 7 19 9 27c7 29 5 51 -4 57c-2 1 -5 1 -7 1v0
c-11 0 -27 -8 -45 -23zM119 174c-4 -9 -9 -17 -12 -25c9 -2 20 -3 30 -4c-3 4 -5 8 -8 12c-4 6 -7 11 -10 17zM119 210v0c3 6 7 11 10 17c3 4 5 8 8 12c-10 -1 -21 -2 -30 -4c3 -8 8 -16 12 -25zM128 192v0c5 -9 10 -18 15 -26s10 -15 15 -22c9 -1 18 -1 27 -1s18 1 27 1
c5 7 10 13 15 22s10 17 15 26c-5 9 -10 18 -15 26s-10 16 -15 23c-9 1 -18 0 -27 0h-27c-5 -7 -10 -14 -15 -23s-10 -17 -15 -26zM241 157c-3 -4 -4 -8 -7 -12c10 1 20 2 29 4c-3 8 -8 16 -12 25c-3 -6 -6 -11 -10 -17zM241 227v0c4 -6 7 -11 10 -17c4 9 9 17 12 25
c-9 2 -20 3 -30 4c3 -4 5 -8 8 -12zM199 258c-5 6 -9 12 -14 18c-5 -6 -9 -12 -14 -18h14h14zM96 335c-9 -6 -10 -27 -3 -56c2 -8 5 -21 8 -28c13 2 35 5 48 6c8 11 17 22 25 32c-7 7 -19 18 -26 24c-18 15 -35 24 -45 24v0c-2 0 -5 -1 -7 -2zM17 192c0 -15 28 -30 73 -40
c5 13 12 26 19 39c-7 14 -14 28 -19 41c-45 -10 -73 -25 -73 -40zM149 70l-1 1c8 6 19 17 26 24c-8 10 -17 21 -25 32c-13 1 -35 3 -48 5c-16 -43 -17 -75 -5 -83c9 -6 30 2 53 21zM171 126v0c5 -6 9 -12 14 -18l15 18h-15h-14zM274 49c12 8 11 40 -5 84
c-13 -2 -35 -5 -48 -6c-8 -11 -17 -22 -25 -32c7 -7 19 -18 26 -24c23 -19 43 -28 52 -22zM280 152c45 10 73 25 73 40s-28 30 -73 40c-5 -13 -12 -26 -19 -40c7 -13 14 -27 19 -40zM153 190c0 17 14 30 31 30s30 -13 30 -30s-13 -31 -30 -31s-31 14 -31 31z" />
    <glyph glyph-name="uniF3D2" unicode="&#xf3d2;" horiz-adv-x="448" 
d="M443 124l5 -5l-5 -5l-13 -15l-7 -7l-3 -4c1 -3 2 -8 2 -11c0 -7 -3 -19 -7 -25c-4 -8 -14 -17 -22 -21c-6 -3 -17 -6 -24 -6c-6 0 -16 2 -22 5c-7 3 -16 11 -21 18s-10 21 -10 30c0 29 24 52 53 52c11 0 26 -5 34 -12l3 3l5 4l3 3c-4 3 -10 8 -15 10v190
c0 7 -7 13 -14 13h-353c-7 0 -14 -6 -14 -13v-267c0 -7 7 -13 14 -13h277c3 -6 9 -14 13 -18h-290c-17 0 -32 14 -32 31v267c0 17 15 31 32 31h353c17 0 32 -14 32 -31v-198l5 5l5 4l5 -4zM424 104l14 15l-11 10l-11 -9l-5 -5l-43 -38l-25 25l-13 -12l39 -48v0l49 55z
M184 117c-4 0 -8 4 -8 8c-1 4 2 8 5 11l5 5l9 8c2 2 4 4 7 4h3c3 -1 6 -6 6 -9v-2c-1 -3 -5 -6 -7 -8v0c-4 -4 -8 -9 -12 -13c-2 -2 -5 -4 -8 -4v0zM310 179c-4 -4 -11 -8 -17 -8c-3 0 -8 1 -10 2c-8 3 -18 11 -23 18c-7 8 -13 15 -20 23l-9 9c-2 3 -6 7 -9 8h-4
c-3 0 -8 -1 -10 -3l-8 -5l-12 -7l-11 -5c-2 -1 -4 -2 -6 -2s-4 0 -5 1c-3 2 -5 6 -5 9c0 1 1 1 1 2c2 5 6 7 10 10l13 11c5 4 11 8 15 10s8 5 12 7s10 5 14 6c2 1 5 1 7 1c3 0 7 -1 10 -2c4 -2 9 -5 13 -7c3 -3 9 -6 13 -7h3h4l3 1c1 0 2 1 3 1s1 0 1 -1v0l1 -3l6 -12
l24 -46c1 -1 0 -5 -1 -6c-1 -2 -2 -4 -3 -5zM164 133h-1c-4 0 -8 4 -9 8c-1 6 5 9 9 13l5 6c1 2 5 5 7 6c1 0 2 1 3 1c3 0 8 -2 9 -5v-4c0 -2 -1 -4 -3 -6l-13 -14c-2 -2 -5 -5 -7 -5zM286 142c-1 0 -4 -1 -5 -1c-3 0 -8 2 -10 3c0 -1 1 -3 1 -4s-1 -3 -1 -4
c-1 -3 -3 -6 -5 -8c-2 -1 -5 -1 -7 -1h-4c-2 1 -5 4 -7 5v-4c0 -3 -2 -7 -3 -9c-2 -3 -6 -5 -9 -5c-1 0 -2 1 -3 1c1 2 1 4 1 6c0 9 -7 17 -15 18c1 2 1 4 1 6c0 10 -8 18 -18 18c-2 0 -4 0 -6 -1c-1 8 -10 15 -18 15c-2 0 -4 0 -6 -1c-3 -1 -7 -5 -9 -7c-1 2 -2 5 -4 7
c-3 3 -9 6 -13 6h-1c-5 0 -11 -3 -14 -7l-1 -1s1 0 0 0s-1 0 -2 1l-8 7l-7 6c-1 1 -3 2 -3 3s1 2 1 3l2 5l15 35l6 16l2 5s0 2 1 2s3 -1 4 -1l3 -1c2 -1 7 -2 10 -2h2c5 0 12 2 16 4c4 3 11 6 15 8c2 1 5 1 7 1c3 0 7 -1 10 -2c-14 -8 -26 -18 -39 -27l-4 -3
c-4 -3 -7 -9 -8 -13v-1c0 -9 8 -18 17 -19c6 0 14 3 19 7l16 9l5 3c3 1 6 4 9 3c2 -1 6 -4 7 -6l6 -7c4 -4 8 -9 12 -13c6 -7 16 -17 22 -23c3 -3 9 -7 13 -9c2 -1 7 -2 9 -3s3 -4 4 -6v0v0v-3c0 -4 -2 -9 -6 -11zM213 104c-1 -1 -4 -1 -5 -1c-4 0 -8 4 -8 8c-1 5 3 9 6 12
s6 7 11 7s8 -4 8 -9c0 -1 0 -4 -1 -5c-1 -2 -4 -4 -6 -6c-1 -2 -3 -5 -5 -6zM137 154c-9 10 9 26 17 15c1 -1 1 -3 1 -5v-3c-1 -2 -2 -5 -4 -6c-2 -2 -5 -3 -8 -3c-2 0 -5 0 -6 2zM154 168zM154 168v1v-1zM331 191l-10 19l-23 43l-4 7v2c-1 1 -1 0 0 1s2 2 3 2
c2 1 20 11 20 11v0l1 -1l22 -43l12 -23l4 -6v-1s-4 -2 -4 -2l-10 -5l-7 -3c-1 0 -3 -2 -4 -2s0 1 0 1zM124 266c-2 -5 -5 -11 -7 -16l-20 -51l-2 -5l-1 -1s0 -3 -1 -3s1 0 0 0s-2 1 -3 1l-14 4c-1 0 -8 2 -8 3s1 4 2 5l1 3l5 13l16 41l5 14s0 3 1 3s2 -1 4 -2s22 -9 22 -9z
" />
    <glyph glyph-name="uniF413" unicode="&#xf413;" horiz-adv-x="271" 
d="M271 86v-1c0 -14 -9 -33 -19 -43v-20c-1 -12 -9 -26 -19 -31c-22 -11 -62 -20 -87 -20h-7h-9h-7c-25 0 -64 9 -86 20c-10 5 -18 19 -19 31v20c-10 10 -18 29 -18 43v2v39v130c0 31 25 63 55 71v60v1v1c5 24 72 25 80 25s23 -1 31 -2c16 -2 36 -6 45 -15h1l1 -3
c1 -2 2 -6 2 -8v0v-1v-4v-4v-50c30 -8 56 -40 56 -71v-131v-39zM135 396c-34 0 -55 -6 -61 -10c14 -6 39 -10 54 -10h7c35 0 56 6 61 10c-9 4 -22 8 -32 9c-8 1 -20 1 -28 1h-1zM135 358v0h-2c-17 0 -45 5 -61 10v-46c8 -9 31 -15 63 -15s55 6 63 15v45
c-16 -5 -42 -9 -59 -9h-4zM224 6c6 3 11 10 11 16v7c-23 -13 -64 -24 -91 -24h-4h-11h-4c-27 0 -67 11 -90 24v-7c0 -6 5 -13 11 -16c14 -8 41 -18 85 -18h8c45 0 70 10 85 18zM239 53c8 7 14 21 14 32v1v38v131v1c0 24 -19 48 -43 54c-15 -16 -48 -20 -75 -20s-61 4 -76 20
c-23 -6 -42 -31 -42 -55v0v-131v-38v-1c0 -11 6 -25 14 -32c24 -20 59 -30 100 -30h8c41 0 76 10 100 30zM114 328c-9 0 -13 4 -13 9s4 10 13 10l17 -1h8l17 1c9 0 13 -5 13 -10s-4 -9 -13 -9l-17 -1h-7zM135 212c37 0 66 -29 66 -66s-29 -66 -66 -66s-66 29 -66 66
s29 66 66 66zM127 108v0v2v5c0 2 -1 4 -2 6s-2 4 -3 5l-1 1v0v0v0v0v0v0v0v0l-2 2c0 1 -1 1 -1 2s-1 2 -1 3v1v1v1v0v1s1 3 1 4c-2 0 -5 -2 -7 -4v0c-1 -1 -2 -1 -2 -2c-1 -1 -2 -4 -2 -5v-3v-3c0 -2 2 -4 3 -6c0 -1 0 -1 1 -2l1 -1v0v0v0v0v0l2 -3l3 -2c0 -1 1 -1 1 -2v-2
v-2v-1v-1v0v0c0 -1 0 -4 -1 -5c2 0 4 1 5 2v0v0v0l3 3s2 4 2 5zM162 118c1 2 1 7 1 9v6c0 4 -2 9 -4 13c-2 3 -5 8 -7 11l-2 3l-1 1h-1v0v1v0v0l-1 1v0c-1 2 -3 4 -4 5s-2 3 -3 4s-2 3 -2 5v6v3v3v3s1 2 1 3c-3 0 -8 -2 -10 -4l-2 -1l-3 -2l-1 -1v0v0v0c-1 -1 -1 -3 -2 -4
c-2 -3 -4 -7 -5 -10v-7v-7c1 -4 4 -10 6 -13c1 -2 2 -4 3 -5l2 -2v0l1 -1v0v0c2 -2 4 -4 5 -6s2 -3 3 -5c1 -1 1 -4 2 -5c1 -2 2 -3 2 -5v-4v-3v-2v0v-3l-3 -6c3 0 8 2 11 4l2 1h1h1v0l2 1v0l3 3c2 3 4 7 5 10z" />
    <glyph glyph-name="uniF3D7" unicode="&#xf3d7;" horiz-adv-x="192" 
d="M156 2h-120c-20 0 -36 17 -36 37v306c0 20 16 37 36 37h120c20 0 36 -17 36 -37v-306v0c0 -20 -16 -37 -36 -37zM36 364c-10 0 -18 -9 -18 -19v-306c0 -10 8 -19 18 -19h120v0c10 0 19 9 19 19v0v306c0 10 -9 19 -19 19h-120zM96 338c-21 0 -37 -16 -37 -37
s16 -38 37 -38s37 17 37 38s-16 37 -37 37v0zM96 351c28 0 51 -22 51 -50s-23 -51 -51 -51s-51 23 -51 51s23 50 51 50zM77 305c-2 0 -4 2 -4 4c0 1 1 1 1 1c4 7 13 14 21 14h1c2 0 3 -2 3 -4s-1 -4 -3 -4h-1c-5 0 -12 -4 -14 -9c-1 -1 -3 -2 -4 -2v0zM75 292h-1
c-2 0 -3 2 -3 4v0v1v0c0 2 2 3 4 3v0c2 0 4 -2 4 -4v0v0v-1c0 -2 -2 -3 -4 -3v0zM96 229c-21 0 -37 -16 -37 -37s16 -37 37 -37s37 16 37 37s-16 37 -37 37v0zM96 243c28 0 51 -23 51 -51s-23 -51 -51 -51s-51 23 -51 51s23 51 51 51zM77 196c-2 0 -4 2 -4 4c0 1 1 2 1 2
c4 7 13 13 21 13h1c2 0 3 -2 3 -4s-1 -4 -3 -4h-1c-5 0 -12 -4 -14 -9c-1 -1 -2 -2 -3 -2h-1zM75 183h-1c-2 0 -3 2 -3 4v0v1v0c0 2 2 4 4 4v-1c2 0 4 -2 4 -4v0v0v0c0 -2 -2 -4 -4 -4v0zM96 120c-21 0 -37 -16 -37 -37s16 -37 37 -37s37 16 37 37s-16 37 -37 37v0zM96 134
c28 0 51 -23 51 -51s-23 -51 -51 -51s-51 23 -51 51s23 51 51 51zM77 87c-2 0 -4 2 -4 4l1 2c4 7 13 13 21 13h1c2 0 3 -2 3 -4s-1 -4 -3 -4h-1c-5 0 -12 -4 -14 -9c-1 -1 -3 -2 -4 -2zM75 75h-1c-2 0 -3 2 -3 4v0v0v1c0 2 2 3 4 3v0c2 0 4 -2 4 -4v0v-1v0c0 -2 -2 -3 -4 -3
v0z" />
    <glyph glyph-name="uniF412" unicode="&#xf412;" horiz-adv-x="373" 
d="M80 88v0c3 0 6 -2 6 -5v-34c0 -3 -3 -6 -6 -6v0h-12c-15 0 -27 12 -27 27v12c0 3 3 6 6 6v0h33zM74 55v21h-21v-6c0 -8 7 -15 15 -15h6zM203 157c2 0 5 -2 6 -4l10 -34v-1c0 -3 -3 -6 -6 -6v0h-24c-3 0 -6 3 -6 6v33c0 3 3 6 6 6h14zM195 123h10l-7 22h-3v-22zM305 149v0
c0 1 -1 1 -1 2c0 3 3 6 6 6v0h27c3 0 5 -3 5 -6v-59v0c0 -3 -1 -5 -4 -6h-1c-2 0 -5 1 -6 3zM331 145h-11l11 -25v25zM80 157c3 0 6 -3 6 -6v-33c0 -3 -3 -6 -6 -6v0h-33c-3 0 -6 3 -6 6v33c0 3 3 6 6 6v0h33zM74 123v22h-22v-22h22zM244 300v0c-3 0 -5 3 -5 6v30
c0 3 2 6 5 6h80c3 0 5 -3 5 -6v-30c0 -3 -2 -6 -5 -6v0h-80zM250 330v-18h68v18h-68zM183 81c0 3 3 5 6 5v0h36v0c2 0 4 -1 5 -3l15 -31s1 0 1 -1c0 -3 -3 -6 -6 -6h-51c-3 0 -6 3 -6 6v30zM195 75v-19h36l-10 19h-26zM80 342v0c3 0 6 -3 6 -6v-85c0 -3 -3 -6 -6 -6v0h-29
c-3 0 -6 3 -6 6v85c0 3 3 6 6 6v0h29zM74 257v73h-18v-73h18zM209 249v0c-13 0 -24 11 -24 24v50c0 3 3 6 6 6h30c3 0 6 -3 6 -6v-34h98v0c3 0 6 -3 6 -6v-28c0 -3 -3 -6 -6 -6h-116zM197 318v-45c0 -7 5 -13 12 -13v0h110v17h-98v0c-3 0 -6 3 -6 6v35h-18zM315 379
c32 0 58 -27 58 -59v-256c0 -32 -26 -59 -58 -59h-257c-32 0 -58 27 -58 59v256c0 32 26 59 58 59h257zM168 361v-118c0 -6 4 -10 10 -10h176v98c-4 17 -22 30 -39 30v0h-147zM18 320v-87h76c6 0 11 4 11 10v118h-47c-22 0 -40 -19 -40 -41zM105 23l-1 138c0 6 -4 10 -10 10
h-76v-107c0 -22 18 -41 40 -41h47zM168 23h109l-59 142c-1 4 -6 6 -10 6v0h-30c-6 0 -10 -4 -10 -10v-138zM356 64v108h-74l54 -122c1 -3 6 -6 9 -6c4 0 8 3 9 7c1 3 2 9 2 13zM356 189v26h-178c-16 0 -28 12 -28 28v0v118h-28v-118c0 -16 -12 -28 -28 -28v0h-76v-26h76
c16 0 28 -12 28 -28v-138h28v138c0 16 12 28 28 28v0h30v0c10 0 22 -7 26 -17l62 -149h19c4 0 10 1 13 2l-64 143c-1 2 -2 4 -2 6c0 8 7 15 15 15h79z" />
    <glyph glyph-name="uniF3A3" unicode="&#xf3a3;" horiz-adv-x="185" 
d="M78 262l3 -2c-12 -6 -29 -19 -39 -28h101c-4 4 -10 9 -14 12c-10 7 -26 17 -37 22l-8 5l-16 9l-7 4c-10 6 -25 19 -32 28c-14 19 -27 52 -29 75v2c0 6 6 11 12 11s12 -5 12 -11v0c1 -7 3 -19 5 -26h127c2 7 4 19 5 26c0 6 6 11 12 11c7 0 12 -5 12 -12v-1
c0 -3 -5 -68 -57 -101c-8 5 -16 9 -24 13l8 5c5 3 13 9 17 13h-73l6 -6c3 -2 7 -5 10 -7c6 -4 13 -7 20 -11l3 -1c7 -4 15 -8 22 -12c15 -8 36 -24 47 -36s20 -36 20 -52v0c0 -38 -26 -62 -56 -81c-7 4 -14 8 -22 12l-2 1c12 6 29 19 39 28h-101c5 -5 13 -11 18 -15
c9 -6 23 -14 32 -19l9 -5l16 -9l7 -4c11 -7 26 -20 34 -31c12 -18 24 -50 26 -72l1 -1c0 -6 -5 -12 -11 -12h-1c-6 0 -12 5 -12 11c-1 6 -2 16 -4 22h-129c-2 -6 -4 -16 -5 -22c0 -6 -5 -11 -11 -11h-1c-6 0 -11 6 -11 12v0c0 3 5 69 57 102c8 -5 16 -9 24 -13l-9 -5
c-6 -4 -15 -11 -20 -17h81l-6 6c-4 4 -11 8 -15 11c-6 4 -13 7 -20 11l-2 1c-7 4 -15 8 -22 12c-14 7 -34 22 -45 33c-13 13 -23 37 -23 55c0 38 27 62 57 81c7 -4 14 -7 21 -11zM153 28v0c-3 7 -8 18 -12 24h-97c-4 -6 -10 -17 -13 -24h122zM33 352c3 -7 9 -18 13 -24h93
c4 6 10 17 13 24h-119zM152 163c4 6 8 17 9 24h-137c1 -7 5 -18 9 -24h119zM152 221h-119c-4 -6 -8 -17 -9 -24h136c-1 7 -4 18 -8 24z" />
    <glyph glyph-name="uniF415" unicode="&#xf415;" horiz-adv-x="394" 
d="M255 378c15 0 27 -12 27 -27v-62h-176v62c0 15 12 27 27 27h122zM263 307l1 44c0 5 -4 9 -9 9h-122c-5 0 -8 -4 -8 -9v-44h138zM394 329v-92v-1v-184c0 -15 -11 -26 -26 -26s-27 11 -27 26v150v2c0 2 -1 6 -2 8c0 1 -2 2 -6 2h-9v-200h27c20 0 37 -17 37 -37v-12h-388v12
c0 20 17 37 37 37h27v349c0 31 25 56 56 56h148c31 0 56 -25 56 -56v-131h9h1c6 0 15 -3 19 -8s7 -14 7 -20v-3v-149c0 -4 4 -8 8 -8s8 4 8 8v177c-13 6 -31 21 -31 31v46c0 11 19 25 31 30v3c0 3 -12 13 -20 20l-12 10c-2 2 -3 5 -3 7c0 5 4 9 9 9c2 0 5 -1 6 -2l12 -10
c16 -14 26 -22 26 -34v-10zM82 363v-349h224v349c0 21 -17 37 -38 37h-148c-21 0 -38 -16 -38 -37zM351 -5h-314v0c-7 0 -14 -5 -17 -11h348c-3 6 -10 11 -17 11v0zM376 251v64c-4 -2 -10 -7 -13 -10v-43c3 -4 9 -8 13 -11zM194 235c37 0 66 -29 66 -66s-29 -66 -66 -66
s-66 29 -66 66s29 66 66 66zM194 126c17 0 30 13 30 30c-1 10 -6 24 -12 32c-4 7 -11 18 -16 24c0 0 -1 1 -2 1s-2 -1 -2 -1c-5 -6 -12 -17 -16 -24c-6 -8 -11 -22 -12 -32c0 -17 13 -30 30 -30zM184 142c0 2 2 4 4 4s3 -2 3 -4s-1 -3 -3 -3s-4 1 -4 3zM181 172
c0 -1 -8 -13 1 -22c0 0 1 -1 1 -2c0 -2 -2 -3 -4 -3c-1 0 -2 1 -2 1c-3 4 -6 11 -6 16c0 4 2 10 4 13c1 1 2 2 3 2c2 0 3 -2 3 -4v-1z" />
    <glyph glyph-name="uniF395" unicode="&#xf395;" horiz-adv-x="400" 
d="M56 108c-7 0 -15 0 -23 1h-1c-6 0 -10 4 -10 10c0 5 3 9 8 10c9 4 23 12 31 18c-38 20 -61 51 -61 86c0 58 64 106 143 106s144 -48 144 -106s-64 -106 -143 -106h-10c-18 -11 -51 -19 -72 -19h-6zM144 317c-67 0 -122 -37 -122 -84c0 -29 21 -56 58 -72c3 -1 7 -5 7 -8
v-1c0 -8 -6 -18 -13 -22c15 1 37 8 50 16c2 1 5 3 7 3h1h12c67 0 122 37 122 84s-55 85 -122 85v-1zM373 58v0c2 -1 4 -3 4 -5c0 -3 -3 -6 -6 -6c-8 -1 -15 -1 -22 -1c-45 0 -69 15 -76 20h-11h-4c-29 0 -72 14 -96 31c-1 1 -2 3 -2 4c0 3 2 5 5 6c86 10 151 64 151 130
c0 4 0 9 -1 13v1c0 3 3 6 6 6h2c47 -17 77 -52 77 -91c0 -32 -21 -62 -57 -81c-2 -1 -3 -3 -3 -5s1 -4 2 -5c8 -6 22 -13 31 -17z" />
    <glyph glyph-name="uniF43F" unicode="&#xf43f;" horiz-adv-x="448" 
d="M361 141c-29 0 -53 24 -54 53c-3 10 -12 43 13 62c7 7 20 12 30 12c2 0 4 -1 6 -1c11 -3 24 -12 30 -22c3 1 8 2 11 2c7 0 16 -5 20 -10c9 -13 3 -33 -2 -43c0 -29 -25 -53 -54 -53v0zM318 192v0c2 -22 21 -40 43 -40c24 0 42 19 42 43v0v1v1c-8 8 -17 24 -21 35v0
c-14 -17 -43 -35 -64 -40zM88 141c-29 0 -53 24 -54 53c-3 10 -13 43 12 62c7 7 21 12 31 12c2 0 4 -1 6 -1c11 -3 24 -12 30 -22c3 1 7 2 10 2c7 0 16 -5 20 -10c9 -13 4 -33 -1 -43c0 -29 -25 -53 -54 -53zM45 192v0c2 -22 21 -40 43 -40c24 0 43 19 43 43v1v0v1
c-8 8 -18 24 -22 35v0c-14 -17 -43 -35 -64 -40zM134 112c11 19 19 52 19 74v5c-1 48 21 64 41 63c7 5 19 10 28 11c27 5 77 -13 76 -75v-5c0 -21 9 -54 19 -73l-56 -1c-9 -6 -25 -11 -36 -11s-27 5 -36 11zM203 214v0c-18 -8 -32 -30 -32 -49c0 -30 24 -54 54 -54
s54 24 54 54v0c0 1 26 -4 0 1s-60 27 -76 48zM395 142c40 -20 56 -73 53 -82v0v0c-22 -15 -61 -28 -87 -28c-6 0 -15 1 -21 2h-1v0c-1 4 -2 8 -4 11l-1 1h2c7 -1 18 -2 25 -2c23 0 57 10 76 22c-5 22 -24 51 -42 64c-9 -5 -24 -9 -34 -9s-25 4 -34 9c-2 -1 -5 -3 -7 -5
l-1 -1l-1 1c-1 2 -3 5 -4 7l-1 1l1 1c3 3 9 6 13 8v0h1c8 -5 23 -10 33 -10s24 5 32 10h1h1zM88 44c7 0 18 1 25 3h2v-2c-1 -3 -4 -6 -5 -9v-1h-1c-6 -1 -16 -1 -22 -1c-26 1 -65 12 -87 27v0v0c-3 8 14 62 54 82h1v0c8 -5 23 -11 33 -11s25 6 33 11v0h1c4 -2 10 -7 14 -10
l1 -1v0c-1 -2 -4 -6 -5 -8v-2l-1 1c-2 2 -6 5 -9 7c-9 -5 -24 -9 -34 -9s-25 4 -34 9c-18 -13 -38 -41 -43 -63c19 -12 54 -22 77 -23zM267 102c49 -24 70 -91 66 -100v0v0c-27 -19 -75 -35 -108 -35c-33 1 -81 17 -108 35v0v0c-3 9 17 76 66 100h1v0c10 -7 29 -13 41 -13
s30 6 40 13h1h1zM320 8c-3 15 -20 59 -54 79c-11 -6 -29 -11 -41 -11s-31 5 -42 11c-34 -20 -51 -64 -54 -79c24 -15 68 -27 96 -28c29 0 71 13 95 28zM278 326c1 0 1 0 1 -1v-1l-8 -19c0 -1 0 -1 -1 -1h-1l-12 5c-1 -2 -3 -4 -5 -5l5 -12v-1c0 -1 0 -1 -1 -1l-19 -8h-1h-1
v1l-5 11h-4h-4l-5 -11c0 -1 0 -1 -1 -1h-1l-19 8c-1 0 -1 1 -1 2v0l5 12c-2 1 -4 3 -5 5l-12 -5h-1v0l-1 1l-8 19v1c0 1 0 1 1 1l11 5v3v4l-12 5c-1 0 -1 0 -1 1v1l8 19c0 1 1 1 2 1v0l12 -5c1 2 4 4 6 5l-5 12v1c0 1 0 1 1 1l19 8h1c1 0 1 0 1 -1l5 -11h4h3l5 11
c0 1 1 1 2 1v0l20 -8c1 0 1 0 1 -1v-1l-5 -11c2 -1 4 -3 5 -5l12 4v1c1 0 2 0 2 -1l8 -20v0c0 -1 0 -2 -1 -2l-12 -4v-4v-4zM217 313v0c2 -1 6 -2 9 -2c9 0 19 7 22 15c1 2 1 6 1 9c0 9 -6 18 -14 21c-2 1 -6 2 -9 2c-9 0 -18 -6 -21 -14c-1 -2 -2 -6 -2 -9
c0 -9 6 -19 14 -22zM188 380v0l-7 -7v0h-1l-4 4c-1 0 -2 -1 -3 -1v-6l-1 -1v0h-10h-1v6c-1 0 -2 1 -3 1l-4 -4h-1v0l-7 7v0v1l4 4c0 1 -2 2 -2 3h-6v0v10v1v0h6c0 1 2 2 2 3l-5 4v1v0l7 8v0h1l4 -4c1 0 2 1 3 1v6l1 1v0h10h1v-1v-5c1 0 2 -2 3 -2l4 5h1v0l8 -7v-1v0l-4 -4
c0 -1 1 -3 1 -4h6h1v-10v-1h-1h-6c0 -1 -1 -3 -1 -4zM159 385v0c2 -2 6 -3 8 -3s6 1 8 3s3 6 3 8s-1 5 -3 7s-6 3 -8 3s-6 -1 -8 -3s-3 -5 -3 -7s1 -6 3 -8z" />
    <glyph glyph-name="uniF379" unicode="&#xf379;" horiz-adv-x="360" 
d="M351 343c5 0 9 -4 9 -9v0v-316v-2c0 -17 -14 -33 -31 -34h-298c-17 1 -31 17 -31 34v2v316c0 5 4 9 9 9v0h95c7 0 12 -6 12 -13v0v-30c0 -6 3 -11 6 -11h116c3 0 6 6 6 11v30v0c0 7 5 13 12 13h95zM342 18v307h-80v-25l1 -2c0 -13 -12 -25 -25 -26h-116
c-13 1 -24 13 -24 26v2v25h-80v-307c0 -10 6 -18 13 -18h298c7 0 13 8 13 18zM70 356c-4 0 -8 4 -8 8v30c0 4 4 8 8 8v0h220c4 0 8 -4 8 -8v-30c0 -4 -4 -8 -8 -8s-8 4 -8 8v22h-204v-22c0 -4 -4 -8 -8 -8v0zM178 76h1c4 0 11 -2 14 -5s5 -9 5 -13s-2 -10 -5 -13
s-11 -6 -15 -6s-11 3 -14 6s-5 9 -5 13s2 10 5 13s10 5 14 5v0zM180 220h5c11 0 27 -5 36 -12c7 -7 13 -22 13 -32v-4v-1c0 -6 -2 -14 -5 -19c-4 -6 -11 -15 -16 -20l-10 -10c-5 -5 -9 -13 -10 -20v-7h-31v2c0 7 2 18 4 25c3 7 10 15 15 20c5 4 12 11 15 16c2 3 3 9 3 13
c0 14 -6 20 -19 20h-1c-4 0 -10 -2 -13 -5s-6 -10 -6 -15v0h-35v2c0 11 7 26 15 34c9 7 25 13 37 13h3z" />
    <glyph glyph-name="uniF3B4" unicode="&#xf3b4;" horiz-adv-x="427" 
d="M268 230c-8 20 1 43 21 51s43 -1 51 -21s-1 -43 -21 -51s-43 1 -51 21zM78 243l-2 2c-2 3 -4 7 -4 10s2 8 4 11c21 24 43 35 66 34c44 -2 83 -50 136 -124v0l-1 1c-11 13 -33 26 -49 29c-3 1 -9 1 -12 1c-6 0 -15 -1 -21 -3c-2 -1 -6 -2 -8 -3l19 16
c-25 29 -47 48 -66 49c-12 1 -25 -6 -39 -22c-3 -3 -8 -5 -12 -5c-3 0 -8 2 -11 4zM57 143l-1 -1c-5 5 -14 10 -20 13l4 4c9 12 27 21 42 21h3c13 -1 31 -10 39 -21l2 -2c-7 -2 -16 -8 -21 -12c-2 2 -4 5 -6 6c-4 3 -12 6 -17 6v0c-11 0 -16 -5 -25 -14zM308 159
c7 9 21 18 32 21c3 0 7 1 10 1c15 0 33 -10 42 -22l3 -2c-7 -2 -17 -8 -22 -12c-5 6 -14 12 -22 12c-11 0 -16 -5 -25 -14l-1 -1l-1 1c-5 4 -14 10 -20 12zM414 144h1c6 0 12 -6 12 -12v0c0 -2 -1 -4 -2 -6c0 -1 -1 -2 -2 -3s-1 -2 -2 -2c-1 -1 -4 -1 -6 -1
c-11 0 -16 -5 -25 -14l-1 -2c-9 -11 -27 -20 -41 -20v0v0h-1c-10 0 -24 6 -31 12c-2 2 -5 4 -7 6l-3 4c-3 3 -9 9 -13 11c-3 2 -8 3 -12 3v0h-1c-2 0 -5 0 -7 -1s-5 -3 -7 -4c-3 -2 -7 -6 -10 -9l-2 -2v0c-9 -11 -27 -20 -41 -20v0c-13 0 -30 8 -38 18l-4 4c-3 3 -7 7 -10 9
c-3 3 -10 5 -14 5h-1v0c-2 0 -5 -1 -7 -1s-4 -1 -5 -2c-4 -3 -10 -8 -13 -11l-2 -2v0c-5 -5 -13 -12 -19 -15v0l-2 -1c-2 -1 -4 -2 -6 -2h-3c-3 -1 -7 -1 -10 -1v0c-13 0 -31 8 -39 18v0l-3 4c-3 3 -8 8 -12 10v0c-3 2 -9 3 -13 3v0h-1h-1h-2c-1 0 -2 1 -3 2
c-3 2 -5 6 -5 10v0c0 6 6 12 12 12v0v0c4 0 9 -1 12 -2c6 -2 16 -7 21 -11c3 -2 7 -6 9 -9l8 -8c4 -4 12 -6 17 -6v0v0v0c2 0 5 0 7 1c1 0 1 1 2 1c3 2 8 4 11 7c2 1 3 3 5 5s5 6 7 7s3 4 5 5c7 6 20 10 29 10h1v0c3 0 7 0 10 -1c7 -1 18 -7 23 -12c3 -2 7 -6 9 -9l6 -6
l2 -1v0c4 -4 11 -7 16 -7h1v0v0h6c4 1 10 5 13 8l1 1l5 5c3 3 8 9 12 12c3 2 9 6 13 7c4 2 11 3 16 3h1v0h1c10 0 25 -6 32 -13l2 -1c3 -2 5 -6 7 -8l7 -7v0c4 -4 12 -7 17 -7h1v0v0h6c3 1 8 3 10 5l4 4l5 5c3 3 8 8 12 11c7 6 21 11 30 11v0v0zM224 180
c11 -2 27 -12 34 -21l2 -2c-6 -2 -13 -6 -18 -9l-3 -3l-3 3c-4 5 -13 9 -20 9s-16 -4 -20 -9l-5 -5l-1 -1c-2 2 -4 4 -6 5c-4 3 -10 6 -14 8l4 4c6 8 19 17 28 20c4 1 10 2 14 2v0v0c2 0 6 -1 8 -1z" />
    <glyph glyph-name="uniF3F1" unicode="&#xf3f1;" horiz-adv-x="390" 
d="M294 366c0 0 70 -58 72 -61h-193c2 3 66 56 72 61s17 8 25 8s18 -3 24 -8zM109 158h-58c-3 0 -5 2 -5 5v4c0 2 1 5 3 7l30 30c2 2 4 3 6 3h24c3 0 5 -2 5 -5v-39c0 -3 -2 -5 -5 -5zM86 108c27 0 49 -22 49 -49s-22 -49 -49 -49s-50 22 -50 49s23 49 50 49zM86 24
c19 0 35 16 35 35s-16 35 -35 35s-35 -16 -35 -35s16 -35 35 -35v0zM293 108c27 0 50 -22 50 -49s-23 -49 -50 -49s-49 22 -49 49s22 49 49 49zM293 24c19 0 35 16 35 35s-16 35 -35 35s-35 -16 -35 -35s16 -35 35 -35zM383 139h-213v0c-4 0 -7 3 -7 7v108h-58
c-4 0 -7 3 -7 7v23c0 4 3 7 7 7h277v0c4 0 7 -3 7 -7l1 -138v0c0 -4 -3 -7 -7 -7v0v0zM177 153h199l-1 124h-263v-10h58v0c4 0 7 -3 7 -7v-107zM196 166v0c-4 0 -7 2 -7 6c0 1 1 2 1 3l38 85c1 2 4 4 6 4c4 0 7 -2 7 -6c0 -1 -1 -2 -1 -3l-38 -85c-1 -2 -4 -4 -6 -4v0z
M315 166v0c-4 0 -6 2 -6 6v3l38 85c1 2 4 4 6 4c4 0 7 -3 7 -7c0 -1 -1 -1 -1 -2l-37 -85c-1 -2 -5 -4 -7 -4v0zM236 166v0c-4 0 -7 2 -7 6c0 1 1 2 1 3l37 85c1 2 5 4 7 4c4 0 6 -2 6 -6v-3l-38 -85c-1 -2 -4 -4 -6 -4v0zM276 166v0c-4 0 -7 2 -7 6v3l38 85c1 3 4 6 7 6
c4 0 7 -3 7 -7c0 -1 0 -3 -1 -4l-38 -85c-1 -2 -3 -4 -6 -4zM383 63h-26c-4 0 -7 3 -7 7s3 7 7 7h19v36h-232v0c-4 0 -7 3 -7 7v108h-58l-51 -51v-80v0c0 -3 -2 -6 -5 -7c-2 0 -9 -3 -9 -7c0 -5 7 -6 12 -6c4 0 7 -3 7 -7s-3 -7 -7 -7c-16 0 -26 8 -26 20c1 8 7 15 14 18v78
c0 2 1 4 2 5l55 56c1 1 3 2 5 2v0h68v0c4 0 7 -3 7 -7v-108h232v0c4 0 7 -3 7 -7v-50c0 -3 -4 -7 -7 -7v0zM230 63h-76c-4 0 -7 3 -7 7s3 7 7 7h76c4 0 7 -3 7 -7s-3 -7 -7 -7z" />
    <glyph glyph-name="uniF449" unicode="&#xf449;" horiz-adv-x="237" 
d="M209 411c15 0 28 -14 28 -29v-380v0c0 -16 -12 -29 -28 -29h-180c-16 0 -29 13 -29 29v380c0 16 13 29 29 29v0h180zM29 392h-1c-5 0 -9 -4 -9 -9v-1v-109h199v109c0 5 -4 10 -9 10h-180zM209 -8c5 0 9 5 9 10v252h-199v-252c0 -5 5 -10 10 -10h180zM49 293
c-4 0 -8 4 -8 8s4 7 8 7h48c4 0 7 -3 7 -7s-3 -8 -7 -8h-48zM97 235c4 0 7 -4 7 -8s-3 -7 -7 -7h-48c-4 0 -8 3 -8 7s4 8 8 8h48z" />
    <glyph glyph-name="uniF409" unicode="&#xf409;" horiz-adv-x="401" 
d="M46 95v0c-13 0 -23 11 -23 24v216c0 13 10 23 23 23h67c6 0 11 -4 11 -10s-5 -10 -11 -10h-67c-2 0 -3 -2 -3 -4v-193h316v193c0 2 -2 4 -4 4v0h-113c-6 0 -10 4 -10 10s4 10 10 10h113c13 0 24 -11 24 -24v-215c0 -13 -11 -24 -24 -24h-309zM394 40c4 -5 7 -13 7 -19
c0 -3 -1 -8 -2 -11c-2 -7 -9 -13 -16 -13h-364c-7 0 -15 5 -17 12c-1 3 -2 9 -2 12c0 6 4 14 8 19l26 25c3 3 8 5 12 5h310c4 0 8 -2 11 -5zM161 292h1c1 0 1 -1 1 -1l6 -18v-1c0 -1 0 -1 -1 -1l-11 -4v0c0 -2 -1 -5 -1 -7l11 -5v-1v-1l-8 -17l-2 -1v0l-11 6
c-1 -1 -3 -4 -5 -5l4 -11v0c0 -1 0 -2 -1 -2l-18 -6h-1c-1 0 -1 0 -1 1l-4 11h-1c-2 0 -4 1 -6 1l-5 -10l-1 -1h-1l-17 9l-1 1v1l6 10c-1 1 -4 3 -5 5l-11 -4h-1c-1 0 -1 0 -1 1l-6 18v1c0 1 0 1 1 1l11 4v1c0 2 1 4 1 6l-11 5v1v1l8 17l2 1v0l11 -6c1 1 3 4 5 5l-4 11v0
c0 1 0 2 1 2l18 6h1c1 0 1 0 1 -1l4 -11h1c2 0 4 -1 6 -1l5 10l1 1h1l17 -9l1 -1v-1l-6 -10c1 -1 4 -3 5 -5zM126 246c8 3 15 11 15 20c0 2 0 5 -1 7c-3 8 -11 15 -20 15c-12 0 -22 -10 -22 -22s10 -21 22 -21c2 0 4 0 6 1zM305 231c1 0 1 0 1 -1v-1l-9 -22c0 -1 0 -2 -1 -2
l-1 1l-14 5c-2 -2 -4 -5 -6 -7l6 -13l1 -1c0 -1 0 -2 -1 -2l-23 -10v0c-1 0 -2 0 -2 1l-6 14c-1 0 -3 -1 -4 -1s-4 1 -5 1l-5 -14c0 -1 -1 -1 -2 -1h-1l-22 8c-1 0 -1 1 -1 2v1l5 14l-6 6l-14 -6l-1 -1c-1 0 -2 0 -2 1l-10 23v0c0 1 0 2 1 2l14 6c0 1 -1 4 -1 5s1 3 1 4
l-14 5c-1 0 -1 1 -1 2v1l8 22c0 1 1 2 2 2l1 -1l14 -5c2 2 4 5 6 7l-6 13l-1 1c0 1 1 1 2 1l22 11h1c1 0 1 0 1 -1l6 -14h5h4l5 14c0 1 1 1 2 1h1l22 -9c1 0 2 0 2 -1l-1 -1l-5 -14c2 -2 5 -4 7 -6l13 6h1c1 0 1 0 1 -1l11 -22v-1c0 -1 0 -2 -1 -2l-14 -6v-4v-4zM234 215v0
c3 -1 7 -2 10 -2c10 0 21 7 25 17c1 3 2 7 2 10c0 15 -12 27 -27 27s-27 -12 -27 -27c0 -10 8 -21 17 -25zM216 356l1 -1v0v-16c0 -1 0 -1 -1 -1h-10c0 -2 -1 -4 -2 -5l7 -7v-1v0l-12 -12v0h-1l-7 7c-1 -1 -3 -2 -5 -2v-9c0 -1 0 -2 -1 -2h-16c-1 0 -1 1 -1 2v9
c-2 0 -4 1 -5 2l-7 -7h-1h-1l-11 12v0v1l7 7c-1 1 -2 3 -2 5h-10c-1 0 -1 0 -1 1v16c0 1 0 1 1 1h10c0 2 1 5 2 6l-7 6v1v1l11 11h1h1l7 -7c1 1 3 2 5 2v10c0 1 0 1 1 1h16v0c1 0 1 0 1 -1v0v-10c2 0 4 -1 5 -2l7 7h1h1l11 -11v-1v-1l-7 -7c1 -1 2 -3 2 -5h10zM177 329v0
c9 0 18 9 18 18v0c0 10 -8 17 -18 17s-17 -7 -17 -17s7 -18 17 -18z" />
    <glyph glyph-name="uniF37A" unicode="&#xf37a;" horiz-adv-x="357" 
d="M60 55v2c0 23 19 44 42 45c23 -1 43 -22 43 -45c0 -1 -1 -1 -1 -2v0h-84v0zM78 134c0 14 10 25 24 25s25 -11 25 -25s-11 -24 -25 -24s-24 10 -24 24zM32 21h186c3 -6 9 -14 13 -18h-199c-17 0 -32 15 -32 32v319c0 17 14 32 31 32h173c-6 -3 -13 -11 -15 -18h-158
c-7 0 -13 -7 -13 -14v-319v0c0 -7 6 -14 13 -14h1zM352 97l5 -4l-5 -5l-13 -15l-6 -7l-3 -4v-9v-2c0 -29 -23 -53 -52 -53s-53 24 -53 53s24 53 53 53v0v0c11 0 26 -6 34 -13l3 3l6 5l2 2c-4 3 -10 8 -15 10v199c5 2 13 6 18 10v-216l5 5l5 4l5 -5zM334 77l13 15l-11 11
l-10 -10l-5 -4l-43 -38l-25 24l-14 -12l39 -48l49 55zM267 306l-70 -10l13 69l13 -14c1 -1 3 -1 4 -1s3 0 4 1c43 37 75 26 99 7c-38 5 -57 -13 -76 -31c-1 -1 -1 -3 -1 -4v0c0 -1 0 -3 1 -4zM64 290c-5 0 -8 3 -8 8s3 8 8 8h77c5 0 8 -3 8 -8s-3 -8 -8 -8h-77zM227 260
c5 0 8 -4 8 -9s-3 -8 -8 -8h-163c-5 0 -8 3 -8 8s3 9 8 9h163zM236 204v0c0 -5 -4 -8 -9 -8v0h-163c-5 0 -8 3 -8 8s3 9 8 9h163c5 0 9 -4 9 -9z" />
    <glyph glyph-name="uniF39A" unicode="&#xf39a;" horiz-adv-x="199" 
d="M139 250c74 -6 59 -163 59 -163h-80v-93c-2 -9 -10 -17 -19 -17s-18 8 -20 17v92h-46l20 100l-46 26c-4 2 -7 8 -7 13c0 3 2 8 4 10l75 73c10 10 28 2 29 2c54 -23 31 -60 31 -60zM58 215l9 44l-29 -31zM54 366c0 24 21 44 45 44s44 -20 44 -44s-20 -44 -44 -44
s-45 20 -45 44z" />
    </font>
</defs>
</svg>
