<?xml version="1.0" standalone="no"?> <!DOCTYPE svg PUBLIC "-//W3C//DTD SVG 1.0//EN" "http://www.w3.org/TR/2001/REC-SVG-20010904/DTD/svg10.dtd" > <svg xmlns="http://www.w3.org/2000/svg" width="100%" height="100%">
<defs >
<font id="firamono-bold" horiz-adv-x="586" ><font-face
    font-family="Fira Mono"
    units-per-em="1000"
    panose-1="2 11 8 9 5 0 0 2 0 4"
    ascent="1050"
    descent="-500"
    alphabetic="0" />
<missing-glyph horiz-adv-x="600" d="M510 -500H90V1050H510V-500ZM145 998V-448H456V998H145ZM307 162T300 156T282 149Q272 149 265 155T257 173V257Q310 260 329 276T348 334Q348 367 335 385T287 403Q258 403 235 392Q228 389 222 389Q211 389 205 395T198
412Q198 431 227 441T291 451Q351 451 376 419T402 336Q402 283 380 254T307 218V173Q307 162 300 156ZM247 100T257 110T282 120Q297 120 307 110T317 85Q317 69 307 59T282 48Q267 48 257 58T247 85Q247 100 257 110Z" />
<glyph unicode=" " glyph-name="space" horiz-adv-x="600" />
<glyph unicode="!" glyph-name="exclam" horiz-adv-x="600" d="M237 255L216 693H384L364 255H237ZM338 164T364 138T390 73Q390 36 364 10T300 -17Q263 -17 237 9T210 73Q210 111 236 137T300 164Q338 164 364 138Z" />
<glyph unicode="&quot;" glyph-name="quotedbl" horiz-adv-x="600" d="M279 742L260 463H148L129 742H279ZM471 742L452 463H339L320 742H471Z" />
<glyph unicode="#" glyph-name="numbersign" horiz-adv-x="600" d="M528 249V145H452L433 0H303L322 145H226L207 0H77L95 145H36V249H109L135 446H73V551H149L167 693H298L279 551H375L394 693H524L505 551H565V446H491L466 249H528ZM361 446H265L239 249H335L361 446Z" />
<glyph unicode="$" glyph-name="dollar" horiz-adv-x="600" d="M463 698T546 629L469 549Q416 592 349 597V422Q457 387 507 339T558 204Q558 118 503 59T349 -13V-162H268V-16Q198 -11 140 15T42 79L118 167Q153 136 189 120T268 100V308Q161 344 114 392T67
512Q67 593 121 645T268 707V856H349V708Q463 698 546 629ZM239 591T224 573T208 530Q208 503 219 487T268 453V596Q239 591 224 573ZM411 117T411 185Q411 216 398 237T349 276V103Q411 117 411 185Z" />
<glyph unicode="%" glyph-name="percent" horiz-adv-x="600" d="M167 -29L84 6L425 716L510 681L167 -29ZM213 711T251 668T289 554Q289 482 251 440T147 397Q80 397 42 439T3 554Q3 623 42 667T147 711Q213 711 251 668ZM123 633T115 614T107 554Q107 515 115
495T147 475Q170 475 178 494T187 554Q187 596 179 614T147 633Q123 633 115 614ZM520 307T558 265T596 150Q596 78 558 36T453 -6Q386 -6 348 36T310 150Q310 220 348 263T453 307Q520 307 558 265ZM430 230T422 211T414 150Q414 111 422 91T453 71Q477 71 485
90T493 150Q493 194 485 212T453 230Q430 230 422 211Z" />
<glyph unicode="&amp;" glyph-name="bar" horiz-adv-x="600" d="M226 -105V810H373V-105H226Z" />
<glyph unicode="&apos;" glyph-name="quotesingle" horiz-adv-x="600" d="M374 742L355 463H244L225 742H374Z" />
<glyph unicode="(" glyph-name="parenleft" horiz-adv-x="600" d="M301 218T339 119T460 -89L359 -157Q288 -76 243 -8T169 148T141 350Q141 463 169 551T242 708T359 857L460 789Q377 681 339 582T301 350Q301 218 339 119Z" />
<glyph unicode=")" glyph-name="parenright" horiz-adv-x="600" d="M299 482T261 581T140 789L241 857Q312 776 357 708T431 552T459 350Q459 237 431 149T358 -8T241 -157L140 -89Q223 19 261 118T299 350Q299 482 261 581Z" />
<glyph unicode="*" glyph-name="asterisk" horiz-adv-x="600" d="M482 444L522 320L374 293L480 183L372 104L299 238L230 103L121 182L225 293L78 320L117 444L254 380L232 531H367L345 379L482 444Z" />
<glyph unicode="+" glyph-name="plus" horiz-adv-x="600" d="M517 373V252H365V96H234V252H83V373H234V529H365V373H517Z" />
<glyph unicode="," glyph-name="comma" horiz-adv-x="600" d="M347 206T378 175T409 98Q409 71 400 45T366 -40L294 -203H189L239 9Q217 23 205 46T192 99Q192 144 223 175T300 206Q347 206 378 175Z" />
<glyph unicode="-" glyph-name="hyphen" horiz-adv-x="600" d="M492 374V252H109V374H492Z" />
<glyph unicode="." glyph-name="period" horiz-adv-x="600" d="M189 140T221 173T300 206Q346 206 378 173T411 94Q411 49 379 16T300 -17Q254 -17 222 16T189 94Q189 140 221 173Z" />
<glyph unicode="/" glyph-name="slash" horiz-adv-x="600" d="M449 817L571 761L152 -112L29 -56L449 817Z" />
<glyph unicode="0" glyph-name="zero" horiz-adv-x="600" d="M422 711T486 616T550 348Q550 174 486 79T300 -17Q177 -17 114 78T50 348Q50 521 113 616T300 711Q422 711 486 616ZM250 596T227 539T203 348Q203 210 226 154T300 97Q351 97 373 154T396 348Q396
483 373 539T300 596Q250 596 227 539ZM327 410T346 391T365 345Q365 317 346 298T299 279Q271 279 253 298T234 345Q234 372 252 391T299 410Q327 410 346 391Z" />
<glyph unicode="1" glyph-name="one" horiz-adv-x="600" d="M551 0H101V119H268V538L125 449L58 557L282 693H422V119H551V0Z" />
<glyph unicode="2" glyph-name="two" horiz-adv-x="600" d="M352 711T406 684T487 612T515 512Q515 455 489 402T404 284T235 121H531L514 0H54V112Q176 231 238 297T327 410T354 498Q354 541 330 565T261 589Q222 589 193 573T136 519L40 592Q81 649 138 680T276
711Q352 711 406 684Z" />
<glyph unicode="3" glyph-name="three" horiz-adv-x="600" d="M344 711T397 687T479 623T508 533Q508 469 471 428T366 367Q530 345 530 195Q530 136 498 88T404 11T262 -17Q186 -17 124 10T18 87L107 170Q164 104 251 104Q304 104 336 131T368 206Q368 310 251
310H188L206 418H250Q298 418 326 441T355 509Q355 548 327 570T254 593Q179 593 116 533L35 617Q132 711 272 711Q344 711 397 687Z" />
<glyph unicode="4" glyph-name="four" horiz-adv-x="600" d="M484 146V0H333L332 146H45V250L237 711L371 661L208 264H333L350 431H484V264H553V146H484Z" />
<glyph unicode="5" glyph-name="five" horiz-adv-x="600" d="M244 580V430Q291 452 346 452Q400 452 444 425T515 347T541 228Q541 158 507 102T411 15T269 -17Q196 -17 138 10T39 87L130 170Q155 138 187 121T257 104Q312 104 345 137T378 225Q378 344 284 344Q241
344 200 321H93V693H515L497 580H244Z" />
<glyph unicode="6" glyph-name="six" horiz-adv-x="600" d="M415 465T459 438T528 359T554 235Q554 165 524 108T438 17T308 -17Q178 -17 114 76T50 313Q50 430 86 520T191 660T351 711Q436 711 501 666L441 570Q401 598 353 598Q295 598 257 546T214 401Q245
432 283 448T360 465Q415 465 459 438ZM353 96T374 132T396 226Q396 295 377 325T319 356Q291 356 264 342T214 301Q216 194 237 145T310 96Q353 96 374 132Z" />
<glyph unicode="7" glyph-name="seven" horiz-adv-x="600" d="M372 574H68V693H532V586L264 -16L114 31L372 574Z" />
<glyph unicode="8" glyph-name="eight" horiz-adv-x="600" d="M530 479T505 444T423 377Q557 309 557 188Q557 133 527 86T439 11T297 -17Q216 -17 159 10T72 83T43 184Q43 242 76 286T170 357Q115 392 93 427T70 519Q70 577 100 620T182 687T301 711Q368 711
420 689T501 625T530 527Q530 479 505 444ZM220 483T244 459T321 415Q354 439 367 463T380 518Q380 557 360 580T301 603Q262 603 241 582T220 519Q220 483 244 459ZM399 223T386 244T345 281T267 315Q201 273 201 194Q201 149 226 123T301 96Q350 96 374 122T399
189Q399 223 386 244Z" />
<glyph unicode="9" glyph-name="nine" horiz-adv-x="600" d="M420 711T485 636T551 434Q551 301 506 209T369 59T129 -30L96 81Q220 112 289 163T381 296Q349 268 315 254T240 239Q186 239 141 267T70 345T44 461Q44 535 77 591T167 679T296 711Q420 711 485 636ZM203
406T226 378T289 350Q340 350 388 390Q389 465 382 509T354 575T295 598Q251 598 227 566T203 466Q203 406 226 378Z" />
<glyph unicode=":" glyph-name="colon" horiz-adv-x="600" d="M195 477T225 508T300 539Q344 539 374 508T404 434Q404 391 374 361T300 330Q256 330 226 360T195 434Q195 477 225 508ZM195 131T225 161T300 192Q344 192 374 162T404 88Q404 45 374 14T300 -17Q256
-17 226 14T195 88Q195 131 225 161Z" />
<glyph unicode=";" glyph-name="semicolon" horiz-adv-x="600" d="M344 539T374 508T404 434Q404 391 374 361T300 330Q256 330 226 360T195 434Q195 477 225 508T300 539Q344 539 374 508ZM345 197T374 167T404 93Q404 67 395 40T363 -40L294 -197H191L240 7Q219
21 207 44T195 94Q195 138 225 167T300 197Q345 197 374 167Z" />
<glyph unicode="&lt;" glyph-name="less" horiz-adv-x="600" d="M206 314L530 128L459 16L70 257V370L461 612L530 504L206 314Z" />
<glyph unicode="=" glyph-name="equal" horiz-adv-x="600" d="M73 354V478H527V354H73ZM73 145V268H527V145H73Z" />
<glyph unicode="&gt;" glyph-name="greater" horiz-adv-x="600" d="M530 257L141 16L70 123L394 314L70 499L140 612L530 371V257Z" />
<glyph unicode="?" glyph-name="question" horiz-adv-x="600" d="M369 711T421 688T499 627T526 543Q526 502 512 473T476 426T421 384Q380 357 360 335T340 276V255H196V281Q196 328 211 360T247 411T300 453Q332 475 346 490T361 529Q361 556 339 571T281 586Q247
586 215 571T156 525L56 603Q148 711 296 711Q369 711 421 688ZM308 164T334 138T361 73Q361 36 334 10T270 -17Q233 -17 207 9T180 73Q180 111 206 137T270 164Q308 164 334 138Z" />
<glyph unicode="@" glyph-name="musicalnotedbl" horiz-adv-x="600" d="M536 108T520 87T476 52T412 38Q363 38 335 56T307 108Q307 146 343 172T432 198Q464 198 488 185V496L253 437V78Q253 58 237 37T193 2T129 -12Q80 -12 52 6T24 58Q24 96 60 122T149 148Q181
148 205 135V491L536 577V128Q536 108 520 87Z" />
<glyph unicode="A" glyph-name="A" horiz-adv-x="600" d="M160 0H-11L201 693H400L612 0H437L400 150H197L160 0ZM298 575L223 268H373L298 575Z" />
<glyph unicode="B" glyph-name="B" horiz-adv-x="600" d="M571 92T493 46T286 0H56V693H276Q395 693 468 652T541 516Q541 457 505 419T414 367Q480 356 525 318T571 203Q571 92 493 46ZM376 540T351 558T270 577H220V416H276Q328 416 352 435T376 499Q376 540
351 558ZM402 262T373 284T287 307H220V120H281Q337 120 369 139T402 210Q402 262 373 284Z" />
<glyph unicode="C" glyph-name="C" horiz-adv-x="600" d="M430 711T482 692T580 635L500 538Q437 589 362 589Q291 589 247 529T203 348Q203 228 246 169T365 110Q411 110 444 125T515 171L589 77Q497 -17 356 -17Q261 -17 189 25T75 149T34 348Q34 461 76 543T192
668T358 711Q430 711 482 692Z" />
<glyph unicode="D" glyph-name="D" horiz-adv-x="600" d="M574 0T239 0H52V693H227Q384 693 479 620T574 350Q574 0 239 0ZM405 439T386 488T333 556T251 574H216V119H251Q326 119 365 170T405 350Q405 439 386 488Z" />
<glyph unicode="E" glyph-name="E" horiz-adv-x="600" d="M497 409V295H257V118H546V0H93V693H546L529 576H257V409H497Z" />
<glyph unicode="F" glyph-name="F" horiz-adv-x="600" d="M515 393V275H273V0H108V693H563L547 576H273V393H515Z" />
<glyph unicode="G" glyph-name="G" horiz-adv-x="600" d="M178 -17T101 76T23 348Q23 463 65 545T180 669T345 711Q416 711 468 689T565 625L479 536Q446 565 417 578T352 591Q278 591 235 532T191 347Q191 214 223 159T327 103Q374 103 413 124V283H326L310 397H568V53Q454
-17 326 -17Q178 -17 101 76Z" />
<glyph unicode="H" glyph-name="H" horiz-adv-x="600" d="M216 290V0H52V693H216V429H384V693H548V0H384V290H216Z" />
<glyph unicode="I" glyph-name="I" horiz-adv-x="600" d="M382 573V120H525V0H75V120H218V573H75V693H525V573H382Z" />
<glyph unicode="J" glyph-name="J" horiz-adv-x="600" d="M527 127T454 56T248 -15Q184 -15 136 1T39 50L101 151Q137 127 168 117T239 107Q294 107 328 142T363 248V573H151V693H527V249Q527 127 454 56Z" />
<glyph unicode="K" glyph-name="K" horiz-adv-x="600" d="M59 693H223V0H59V693ZM589 693L393 382L608 0H419L228 370L418 693H589Z" />
<glyph unicode="L" glyph-name="L" horiz-adv-x="600" d="M257 693V129H557L541 0H93V693H257Z" />
<glyph unicode="M" glyph-name="M" horiz-adv-x="600" d="M439 0L431 297Q430 319 430 358Q430 436 440 539H436L361 118H238L157 539H153Q164 445 164 347L163 294L158 0H17L56 693H225L302 245L375 693H544L583 0H439Z" />
<glyph unicode="N" glyph-name="N" horiz-adv-x="600" d="M167 540Q175 496 183 419T191 262V0H52V693H256L429 152H433Q424 198 417 270T409 427V693H548V0H349L171 540H167Z" />
<glyph unicode="O" glyph-name="O" horiz-adv-x="600" d="M577 178T506 81T300 -17Q165 -17 94 79T23 347Q23 516 94 613T300 711Q435 711 506 615T577 347Q577 178 506 81ZM410 475T384 533T300 591Q242 591 216 533T190 347Q190 219 216 161T300 103Q359 103
384 161T410 347Q410 475 384 533Z" />
<glyph unicode="P" glyph-name="P" horiz-adv-x="600" d="M576 350T503 291T302 231H226V0H63V693H280Q424 693 500 637T576 467Q576 350 503 291ZM408 576T283 576H226V349H291Q347 349 377 378T408 467Q408 576 283 576Z" />
<glyph unicode="Q" glyph-name="Q" horiz-adv-x="600" d="M574 115T432 40Q514 26 560 -10T634 -127L500 -173Q476 -116 451 -83T388 -32T290 -14Q162 -14 97 80T32 347Q32 517 101 614T303 711Q436 711 505 615T574 347Q574 115 432 40ZM404 435T395 487T364
565T303 590Q264 590 242 565T211 487T202 347Q202 259 211 207T243 129T303 103Q343 103 364 128T395 206T404 347Q404 435 395 487Z" />
<glyph unicode="R" glyph-name="R" horiz-adv-x="600" d="M561 412T523 365T422 292L604 0H419L268 265H222V0H58V693H276Q419 693 490 641T561 482Q561 412 523 365ZM393 532T364 555T276 578H222V378H283Q337 378 365 403T393 482Q393 532 364 555Z" />
<glyph unicode="S" glyph-name="S" horiz-adv-x="600" d="M568 138T534 88T437 11T286 -17Q114 -17 12 83L95 175Q174 105 282 105Q335 105 366 127T398 190Q398 227 371 249T272 293Q151 330 100 380T48 509Q48 571 82 617T176 687T309 711Q462 711 557 621L480
532Q445 561 405 575T321 590Q273 590 245 573T217 522Q217 500 229 485T271 457T359 426Q466 393 517 343T568 203Q568 138 534 88Z" />
<glyph unicode="T" glyph-name="T" horiz-adv-x="600" d="M217 0V567H23V693H583L567 567H381V0H217Z" />
<glyph unicode="U" glyph-name="U" horiz-adv-x="600" d="M558 160T529 104T442 15T300 -17Q174 -17 108 50T42 232V693H207V293Q207 225 214 186T241 126T300 105Q339 105 359 125T386 185T393 293V693H558V232Q558 160 529 104Z" />
<glyph unicode="V" glyph-name="V" horiz-adv-x="600" d="M601 693L401 0H199L0 693H173L303 128L434 693H601Z" />
<glyph unicode="W" glyph-name="W" horiz-adv-x="600" d="M352 0L302 487H298L245 0H72L-3 693H150L171 150H175L232 613H372L425 151H429L461 693H603L522 0H352Z" />
<glyph unicode="X" glyph-name="X" horiz-adv-x="600" d="M300 471L407 693H580L396 375L597 0H421L298 264L177 0H4L200 368L19 693H196L300 471Z" />
<glyph unicode="Y" glyph-name="Y" horiz-adv-x="600" d="M218 0V259L-8 693H171L303 394L436 693H608L382 260V0H218Z" />
<glyph unicode="Z" glyph-name="Z" horiz-adv-x="600" d="M545 0H39V122L368 566H75V693H554V569L232 130H562L545 0Z" />
<glyph unicode="[" glyph-name="bracketleft" horiz-adv-x="600" d="M444 823V705H305V-6H444V-123H156V823H444Z" />
<glyph unicode="\" glyph-name="backslash" horiz-adv-x="600" d="M571 -56L448 -112L29 761L152 817L571 -56Z" />
<glyph unicode="]" glyph-name="bracketright" horiz-adv-x="600" d="M156 -123V-5H295V705H156V823H444V-123H156Z" />
<glyph unicode="^" glyph-name="estimated" horiz-adv-x="600" d="M429 701T497 637T583 468V334H151V73Q208 26 305 26Q373 26 422 51T498 123H547Q515 61 456 25T304 -12Q181 -12 111 49T21 214V468Q38 572 106 636T302 701Q429 701 497 637ZM205 662T151 620V373H450V619Q426
638 387 650T303 662Q205 662 151 620Z" />
<glyph unicode="_" glyph-name="underscore" horiz-adv-x="600" d="M573 -62V-186H27V-62H573Z" />
<glyph unicode="`" glyph-name="circumflex" horiz-adv-x="600" d="M252 815H348L489 676L433 612L300 705L167 612L110 676L252 815Z" />
<glyph unicode="a" glyph-name="a" horiz-adv-x="600" d="M517 124T525 110T552 89L519 -15Q471 -10 439 6T389 55Q360 20 314 2T215 -17Q133 -17 84 29T35 150Q35 236 103 283T294 331H365V350Q365 432 260 432Q233 432 193 425T115 404L78 509Q129 528 184 538T285
549Q517 549 517 361V153Q517 124 525 110ZM296 96T323 111T365 154V241H326Q198 241 198 161Q198 130 216 113T269 96Q296 96 323 111Z" />
<glyph unicode="b" glyph-name="b" horiz-adv-x="600" d="M253 510T288 529T364 549Q463 549 511 475T560 267Q560 184 535 120T462 20T347 -17Q307 -17 273 0T216 48L210 0H70V742L228 759V476Q253 510 288 529ZM397 98T397 265Q397 358 376 395T314 432Q265
432 228 370V146Q259 98 306 98Q397 98 397 265Z" />
<glyph unicode="c" glyph-name="c" horiz-adv-x="600" d="M382 108T410 119T470 153L540 53Q502 21 452 2T343 -17Q258 -17 197 18T102 116T69 262Q69 345 103 410T199 512T346 549Q405 549 452 533T540 482L472 387Q414 427 353 427Q233 427 233 262Q233 179
264 144T352 108Q382 108 410 119Z" />
<glyph unicode="d" glyph-name="d" horiz-adv-x="600" d="M530 0H390L382 58Q358 24 321 4T235 -17Q139 -17 90 59T40 267Q40 349 66 413T140 513T252 549Q324 549 372 499V759L530 742V0ZM203 433T203 266Q203 174 224 137T285 99Q335 99 372 160V389Q355 411
337 422T294 433Q203 433 203 266Z" />
<glyph unicode="e" glyph-name="e" horiz-adv-x="600" d="M222 98T335 98Q408 98 468 146L534 56Q495 22 441 3T322 -17Q233 -17 171 18T78 117T46 265Q46 345 76 409T165 511T303 549Q419 549 486 477T554 276Q554 243 551 219H207Q222 98 335 98ZM215 443T205
315H400Q398 443 305 443Q215 443 205 315Z" />
<glyph unicode="f" glyph-name="f" horiz-adv-x="600" d="M510 759T590 725L546 622Q495 642 432 642Q386 642 366 625T345 569V498H518L500 388H345V0H188V388H77V498H188V575Q188 628 213 669T288 735T408 759Q510 759 590 725Z" />
<glyph unicode="g" glyph-name="g" horiz-adv-x="600" d="M526 479T425 479Q477 456 502 424T528 342Q528 291 500 251T421 187T303 164Q268 164 241 171Q224 160 224 140Q224 125 235 117T282 108H370Q430 108 476 88T547 33T572 -46Q572 -129 500 -175T288 -222Q189
-222 133 -202T54 -144T31 -51H171Q171 -76 180 -90T216 -111T292 -118Q362 -118 388 -102T415 -57Q415 -32 396 -18T338 -4H254Q172 -4 131 26T90 102Q90 131 106 157T150 202Q100 229 78 265T55 354Q55 413 85 457T169 524T292 548Q372 546 428 563T542 616L578
500Q526 479 425 479ZM258 445T236 421T214 356Q214 313 236 289T296 265Q377 265 377 358Q377 403 357 424T296 445Q258 445 236 421Z" />
<glyph unicode="h" glyph-name="h" horiz-adv-x="600" d="M295 549T384 549Q454 549 492 508T530 390V0H372V346Q372 394 361 413T321 432Q297 432 275 416T228 368V0H70V742L228 758V478Q295 549 384 549Z" />
<glyph unicode="i" glyph-name="i" horiz-adv-x="600" d="M530 108V0H86V108H236V423H91V531H394V108H530ZM595 809T621 784T648 720Q648 682 622 657T555 631Q514 631 488 656T461 720Q461 758 487 783T555 809Q595 809 621 784Z" />
<glyph unicode="j" glyph-name="j" horiz-adv-x="600" d="M472 41T430 -33T306 -152T94 -222L70 -101Q156 -82 208 -55T287 20T314 144V423H124V531H472V154Q472 41 430 -33ZM410 809T436 784T463 720Q463 682 437 657T370 631Q329 631 303 656T276 720Q276 758
302 783T370 809Q410 809 436 784Z" />
<glyph unicode="k" glyph-name="k" horiz-adv-x="600" d="M70 0V742L228 759V0H70ZM588 0H409L234 291L409 531H574L399 296L588 0Z" />
<glyph unicode="l" glyph-name="l" horiz-adv-x="600" d="M347 108T415 108Q452 108 491 124L528 18Q462 -17 375 -17Q282 -17 236 36T189 186V634H33V742H347V167Q347 108 415 108Z" />
<glyph unicode="m" glyph-name="m" horiz-adv-x="600" d="M520 549T546 512T573 393V0H438V375Q438 404 433 415T412 426Q385 426 356 392V0H245V375Q245 404 240 415T219 426Q191 426 164 392V0H27V531H142L153 480Q179 515 204 532T264 549Q327 549 346 485Q398
549 463 549Q520 549 546 512Z" />
<glyph unicode="n" glyph-name="n" horiz-adv-x="600" d="M208 531L219 470Q289 549 384 549Q454 549 492 508T530 390V0H372V344Q372 394 361 413T321 432Q297 432 275 416T228 368V0H70V531H208Z" />
<glyph unicode="o" glyph-name="o" horiz-adv-x="600" d="M421 549T489 473T558 267Q558 133 490 58T300 -17Q178 -17 110 57T42 266Q42 351 72 414T161 513T300 549Q421 549 489 473ZM251 432T228 393T205 266Q205 178 228 139T300 99Q349 99 372 139T395 267Q395
353 372 392T300 432Q251 432 228 393Z" />
<glyph unicode="p" glyph-name="p" horiz-adv-x="600" d="M464 549T511 476T558 267Q558 185 534 121T463 20T354 -17Q277 -17 228 38V-205L70 -222V531H210L217 471Q248 511 286 530T364 549Q464 549 511 476ZM265 432T228 370V146Q245 121 263 110T306 99Q350
99 372 138T395 265Q395 359 375 395T315 432Q265 432 228 370Z" />
<glyph unicode="q" glyph-name="q" horiz-adv-x="600" d="M294 549T327 534T385 488L392 531H530V-222L372 -205V45Q320 -17 236 -17Q137 -17 90 58T42 267Q42 349 67 413T140 513T255 549Q294 549 327 534ZM251 433T228 394T205 266Q205 173 225 137T286 100Q337
100 372 160V389Q355 411 338 422T296 433Q251 433 228 394Z" />
<glyph unicode="r" glyph-name="r" horiz-adv-x="600" d="M75 108H185V423H75V531H325L338 432Q356 485 395 516T484 547Q516 547 550 538L524 385Q494 393 463 393Q416 393 387 359T343 268V108H478V0H75V108Z" />
<glyph unicode="s" glyph-name="s" horiz-adv-x="600" d="M324 96T347 108T371 146Q371 164 362 175T326 196T245 222Q165 243 123 280T81 384Q81 457 141 503T311 549Q437 549 526 484L463 391Q390 436 316 436Q277 436 259 426T240 395Q240 381 249 372T285
352T365 326Q422 310 458 291T515 240T535 159Q535 103 501 63T410 3T284 -17Q140 -17 48 63L127 152Q199 96 283 96Q324 96 347 108Z" />
<glyph unicode="t" glyph-name="t" horiz-adv-x="600" d="M473 -17T374 -17Q272 -17 221 35T169 181V422H58V531H169V646L327 665V531H498L482 422H327V181Q327 142 345 125T402 108Q453 108 496 132L548 31Q473 -17 374 -17Z" />
<glyph unicode="u" glyph-name="u" horiz-adv-x="600" d="M228 131T241 116T282 100Q307 100 331 115T372 157V531H530V0H392L385 62Q359 24 315 4T222 -17Q147 -17 109 26T70 148V531H228V168Q228 131 241 116Z" />
<glyph unicode="v" glyph-name="v" horiz-adv-x="600" d="M208 0L29 531H199L303 121L411 531H571L394 0H208Z" />
<glyph unicode="w" glyph-name="w" horiz-adv-x="600" d="M303 339H299L253 0H82L3 531H148L180 115H184L239 464H371L419 117H423L457 531H597L521 0H347L303 339Z" />
<glyph unicode="x" glyph-name="x" horiz-adv-x="600" d="M204 279L39 531H216L301 361L383 531H551L395 285L578 0H399L294 199L193 0H22L204 279Z" />
<glyph unicode="y" glyph-name="y" horiz-adv-x="600" d="M359 -107T288 -161T98 -223L80 -111Q156 -101 192 -77T251 0H197L28 531H195L298 101L410 531H572L395 0Q359 -107 288 -161Z" />
<glyph unicode="z" glyph-name="z" horiz-adv-x="600" d="M509 0H72V112L336 412H94V531H519V420L258 120H524L509 0Z" />
<glyph unicode="{" glyph-name="braceleft" horiz-adv-x="600" d="M418 730T397 717T376 667V519Q376 437 343 400T231 350Q286 342 317 324T362 272T376 181V33Q376 -3 397 -16T467 -30V-140Q375 -140 323 -122T250 -65T228 44V188Q228 243 206 264T133 286V414Q183
414 205 435T228 512V655Q228 725 249 764T322 822T467 840V730Q418 730 397 717Z" />
<glyph unicode="|" glyph-name="diamond" horiz-adv-x="600" d="M300 -12L104 266L300 539L496 266L300 -12Z" />
<glyph unicode="}" glyph-name="braceright" horiz-adv-x="600" d="M226 840T277 822T350 765T372 655V512Q372 457 394 436T467 414V286Q417 286 395 265T372 188V44Q372 -25 351 -64T277 -122T133 -140V-30Q181 -30 202 -17T224 33V181Q224 238 238 272T284
324T367 349Q291 361 258 399T224 519V667Q224 703 203 716T133 730V840Q226 840 277 822Z" />
<glyph unicode="~" glyph-name="asciitilde" horiz-adv-x="600" d="M240 430T267 415T327 371Q350 350 366 340T401 330Q428 330 448 348T490 408L578 369Q543 292 501 252T397 211Q361 211 335 226T274 270Q249 291 233 301T199 311Q172 311 152 292T110 232L22
272Q58 346 99 388T203 430Q240 430 267 415Z" />
</font>
</defs>
</svg>
