<?xml version="1.0" standalone="no"?> <!DOCTYPE svg PUBLIC "-//W3C//DTD SVG 1.0//EN" "http://www.w3.org/TR/2001/REC-SVG-20010904/DTD/svg10.dtd" > <svg xmlns="http://www.w3.org/2000/svg" width="100%" height="100%">
<defs >
<font id="firamono-medium" horiz-adv-x="600" ><font-face
    font-family="Fira Mono Medium"
    units-per-em="1000"
    panose-1="2 11 6 9 5 0 0 2 0 4"
    ascent="1050"
    descent="-500"
    alphabetic="0" />
<missing-glyph horiz-adv-x="1000" />
<glyph unicode=" " glyph-name="space" />
<glyph unicode="!" glyph-name="exclam" d="M251 238L237 690H360L347 238H251ZM332 138T354 116T376 63Q376 31 354 9T299 -13Q268 -13 246 9T224 63Q224 94 246 116T299 138Q332 138 354 116Z" />
<glyph unicode="&quot;" glyph-name="quotedbl" d="M273 740L256 473H167L150 740H273ZM450 740L433 473H344L327 740H450Z" />
<glyph unicode="#" glyph-name="numbersign" d="M517 240V160H432L412 0H317L339 160H212L191 0H97L118 160H46V240H128L157 452H83V533H168L188 690H283L261 533H388L409 690H503L482 533H554V452H471L443 240H517ZM378 452H251L223 240H349L378 452Z" />
<glyph unicode="$" glyph-name="dollar" d="M456 691T536 622L475 559Q418 608 347 616V409Q442 378 494 329T546 195Q546 116 494 60T347 -10V-156H274V-13Q207 -8 152 18T58 82L119 150Q190 83 274 76V326Q177 358 131 405T84 522Q84 592 134 642T274 701V851H347V702Q456
691 536 622ZM237 608T216 586T194 529Q194 497 210 476T274 434V615Q237 608 216 586ZM433 97T433 187Q433 225 414 251T347 300V80Q433 97 433 187Z" />
<glyph unicode="%" glyph-name="percent" d="M117 -23L52 12L474 710L540 675L117 -23ZM225 704T264 659T303 545Q303 476 264 431T159 385Q92 385 53 430T13 545Q13 613 52 658T159 704Q225 704 264 659ZM130 637T115 614T100 545Q100 501 115 477T159 452Q217
452 217 545Q217 637 159 637Q130 637 115 614ZM510 313T549 268T588 154Q588 85 549 40T443 -6Q376 -6 337 39T297 154Q297 222 336 267T443 313Q510 313 549 268ZM415 246T400 223T384 154Q384 109 399 85T443 60Q471 60 486 83T501 154Q501 246 443 246Q415
246 400 223Z" />
<glyph unicode="&amp;" glyph-name="bar" d="M48 -103V808H151V-103H48Z" />
<glyph unicode="&apos;" glyph-name="quotesingle" d="M361 740L344 473H256L239 740H361Z" />
<glyph unicode="(" glyph-name="parenleft" d="M271 252T292 177T349 40T446 -98L373 -147Q299 -59 256 4T184 153T155 350Q155 461 184 547T256 696T373 847L446 798Q386 722 350 661T292 524T271 350Q271 252 292 177Z" />
<glyph unicode=")" glyph-name="parenright" d="M329 448T308 524T251 661T154 798L227 847Q301 759 344 696T416 547T445 350Q445 239 416 153T344 4T227 -147L154 -98Q214 -22 250 39T308 176T329 350Q329 448 308 524Z" />
<glyph unicode="*" glyph-name="asterisk" d="M480 432L511 335L357 303L466 187L382 124L300 262L224 122L138 182L244 303L89 335L120 432L265 369L248 528H352L334 369L480 432Z" />
<glyph unicode="+" glyph-name="plus" d="M497 357V266H349V115H250V266H103V357H250V508H349V357H497Z" />
<glyph unicode="," glyph-name="comma" d="M339 180T365 154T392 90Q392 68 386 46T363 -12L286 -189H199L247 15Q229 27 219 47T209 90Q209 128 235 154T300 180Q339 180 365 154Z" />
<glyph unicode="-" glyph-name="hyphen" d="M482 359V267H119V359H482Z" />
<glyph unicode="." glyph-name="period" d="M203 124T231 152T299 180Q340 180 368 152T397 84Q397 43 369 15T299 -13Q259 -13 231 15T203 84Q203 124 231 152Z" />
<glyph unicode="/" glyph-name="slash" d="M468 812L557 771L133 -106L43 -66L468 812Z" />
<glyph unicode="0" glyph-name="zero" d="M415 704T475 612T535 346Q535 173 475 80T300 -13Q185 -13 125 80T65 346Q65 519 125 611T300 704Q415 704 475 612ZM240 618T209 553T178 346Q178 202 209 137T300 72Q360 72 391 137T422 346Q422 489 391 553T300 618Q240
618 209 553ZM328 410T347 391T366 345Q366 317 347 298T300 279Q272 279 254 298T235 345Q235 372 253 391T300 410Q328 410 347 391Z" />
<glyph unicode="1" glyph-name="one" d="M530 0H113V88H281V575L129 481L81 560L293 690H392V88H530V0Z" />
<glyph unicode="2" glyph-name="two" d="M340 704T390 678T466 608T492 509Q492 448 464 391T372 264T194 91H508L495 0H66V85Q196 210 259 280T349 400T375 502Q375 554 346 584T264 614Q219 614 188 598T124 542L52 598Q93 651 146 677T272 704Q340 704 390 678Z" />
<glyph unicode="3" glyph-name="three" d="M336 704T386 681T464 617T491 530Q491 468 453 425T354 367Q424 360 468 317T513 197Q513 138 482 90T394 15T263 -13Q196 -13 137 11T39 83L108 143Q136 110 175 93T257 76Q322 76 359 109T396 201Q396 322 263 322H204L217
404H259Q311 404 345 432T380 513Q380 562 347 589T261 617Q219 617 185 602T118 555L59 619Q147 704 270 704Q336 704 386 681Z" />
<glyph unicode="4" glyph-name="four" d="M456 159V0H348V159H62V237L260 704L355 667L179 246H349L360 430H456V246H538V159H456Z" />
<glyph unicode="5" glyph-name="five" d="M218 606V414Q271 441 331 441Q386 441 429 415T497 340T522 222Q522 153 491 100T404 17T274 -13Q147 -13 62 77L129 140Q187 76 269 76Q333 76 369 114T405 222Q405 358 292 358Q267 358 244 353T194 335H111V690H498L483
606H218Z" />
<glyph unicode="6" glyph-name="six" d="M396 455T440 430T510 354T536 233Q536 161 507 105T426 18T308 -13Q184 -13 126 76T68 321Q68 436 100 522T195 656T341 704Q420 704 483 662L440 590Q394 619 341 619Q271 619 230 554T183 374Q245 455 341 455Q396 455
440 430ZM364 72T393 114T422 228Q422 304 395 337T318 370Q278 370 244 349T184 291Q186 177 215 125T309 72Q364 72 393 114Z" />
<glyph unicode="7" glyph-name="seven" d="M402 602H86V690H516V610L243 -12L138 21L402 602Z" />
<glyph unicode="8" glyph-name="eight" d="M516 477T488 441T401 372Q470 341 506 294T543 186Q543 130 514 85T429 13T298 -13Q222 -13 168 13T85 83T57 183Q57 301 191 361Q135 390 110 426T84 520Q84 579 115 620T195 683T300 704Q359 704 408 684T486 623T516
526Q516 477 488 441ZM193 486T208 465T250 431T325 400Q369 427 388 454T407 520Q407 567 379 594T300 622Q249 622 221 595T193 519Q193 486 208 465ZM428 225T409 250T358 292T264 329Q172 282 172 187Q172 133 204 103T299 72Q360 72 394 104T428 185Q428 225
409 250Z" />
<glyph unicode="9" glyph-name="nine" d="M408 703T468 631T528 433Q528 293 488 205T365 64T140 -24L115 58Q253 93 326 155T410 321Q346 248 254 247Q198 247 154 274T84 351T58 468Q58 541 88 594T172 675T292 703Q408 703 468 631ZM322 332T353 350T412 402Q414
519 387 568T292 618Q234 618 204 580T173 468Q173 398 202 365T283 331Q322 332 353 350Z" />
<glyph unicode=":" glyph-name="colon" d="M209 469T235 495T299 522Q338 522 364 496T390 432Q390 395 364 369T299 342Q262 342 236 368T209 432Q209 469 235 495ZM209 114T235 140T299 166Q338 166 364 140T390 77Q390 39 364 13T299 -13Q262 -13 236 13T209
77Q209 114 235 140Z" />
<glyph unicode=";" glyph-name="semicolon" d="M338 522T364 496T390 432Q390 395 364 369T299 342Q262 342 236 368T209 432Q209 469 235 495T299 522Q338 522 364 496ZM338 178T364 152T390 88Q390 67 384 45T362 -12L285 -187H199L247 14Q230 26 220 46T209
88Q209 126 235 152T299 178Q338 178 364 152Z" />
<glyph unicode="&lt;" glyph-name="less" d="M178 313L520 107L465 26L81 265V362L468 601L520 520L178 313Z" />
<glyph unicode="=" glyph-name="equal" d="M93 364V456H507V364H93ZM93 166V258H507V166H93Z" />
<glyph unicode="&gt;" glyph-name="greater" d="M520 265L136 26L81 106L423 313L81 518L133 601L520 362V265Z" />
<glyph unicode="?" glyph-name="question" d="M363 704T410 682T483 623T508 544Q508 505 495 478T462 433T411 392Q382 371 366 356T338 319T326 267V238H218V272Q218 315 232 346T267 396T320 440Q356 466 373 486T391 536Q391 572 362 592T287 613Q251 613
216 596T152 544L77 602Q164 704 298 704Q363 704 410 682ZM306 138T328 116T351 63Q351 31 329 9T274 -13Q243 -13 221 9T199 63Q199 94 221 116T274 138Q306 138 328 116Z" />
<glyph unicode="@" glyph-name="musicalnotedbl" d="M517 108T501 87T457 52T393 38Q344 38 316 56T288 108Q288 146 324 172T413 198Q445 198 469 185V496L234 437V78Q234 58 218 37T174 2T110 -12Q61 -12 33 6T5 58Q5 96 41 122T130 148Q162 148 186 135V491L517
577V128Q517 108 501 87Z" />
<glyph unicode="A" glyph-name="A" d="M127 0H8L228 690H372L592 0H469L421 166H175L127 0ZM298 600L199 256H397L298 600Z" />
<glyph unicode="B" glyph-name="B" d="M552 92T476 46T283 0H81V690H270Q380 690 451 650T522 515Q522 454 486 416T394 366Q462 354 507 316T552 199Q552 92 476 46ZM404 556T373 579T280 603H197V404H287Q346 404 375 428T404 506Q404 556 373 579ZM430 264T394
290T295 317H197V90H291Q430 90 430 200Q430 264 394 290Z" />
<glyph unicode="C" glyph-name="C" d="M426 704T474 687T566 634L506 562Q443 613 363 613Q279 613 226 549T173 346Q173 210 225 146T364 81Q413 81 449 96T520 140L576 69Q492 -13 360 -13Q271 -13 201 28T92 151T52 346Q52 458 92 539T202 662T358 704Q426
704 474 687Z" />
<glyph unicode="D" glyph-name="D" d="M561 153T470 77T240 0H71V690H229Q379 690 470 618T561 349Q561 153 470 77ZM439 497T388 549T251 601H188V89H252Q336 89 387 146T439 349Q439 497 388 549Z" />
<glyph unicode="E" glyph-name="E" d="M479 395V307H229V88H534V0H113V690H528L515 602H229V395H479Z" />
<glyph unicode="F" glyph-name="F" d="M503 382V294H243V0H127V690H551L539 602H243V382H503Z" />
<glyph unicode="G" glyph-name="G" d="M184 -13T111 78T37 346Q37 460 77 541T186 663T338 704Q405 704 453 684T544 624L478 557Q446 586 414 599T341 613Q261 613 210 549T159 346Q159 204 199 141T324 77Q382 77 437 106V296H320L308 385H550V50Q497 20 442
4T318 -13Q184 -13 111 78Z" />
<glyph unicode="H" glyph-name="H" d="M188 313V0H71V690H188V410H412V690H529V0H412V313H188Z" />
<glyph unicode="I" glyph-name="I" d="M359 601V89H508V0H92V89H241V601H92V690H508V601H359Z" />
<glyph unicode="J" glyph-name="J" d="M508 128T446 58T256 -13Q147 -13 60 51L107 125Q146 99 180 89T252 79Q317 79 354 121T392 239V601H185V690H508V237Q508 128 446 58Z" />
<glyph unicode="K" glyph-name="K" d="M87 690H204V0H87V690ZM576 690L335 376L595 0H456L209 369L448 690H576Z" />
<glyph unicode="L" glyph-name="L" d="M236 690V97H545L532 0H119V690H236Z" />
<glyph unicode="M" glyph-name="M" d="M468 0L452 336Q449 402 449 461Q449 537 452 570H448L350 122H249L145 570H141Q145 522 145 446Q145 411 143 335L130 0H25L64 690H204L302 228L396 690H536L575 0H468Z" />
<glyph unicode="N" glyph-name="N" d="M158 570Q163 542 169 464T175 313V0H71V690H222L438 118H442Q437 147 431 220T425 376V690H529V0H377L162 570H158Z" />
<glyph unicode="O" glyph-name="O" d="M563 181T495 84T300 -13Q173 -13 105 82T37 344Q37 452 67 533T156 659T300 704Q427 704 495 608T563 345Q563 181 495 84ZM442 481T409 547T300 613Q225 613 192 547T158 344Q158 209 192 143T300 77Q375 77 408 143T442
345Q442 481 409 547Z" />
<glyph unicode="P" glyph-name="P" d="M564 357T492 302T295 246H212V0H95V690H287Q420 690 492 636T564 473Q564 357 492 302ZM442 603T295 603H212V335H296Q366 335 404 367T442 473Q442 603 295 603Z" />
<glyph unicode="Q" glyph-name="Q" d="M562 109T422 32Q497 17 539 -19T608 -133L501 -173Q478 -116 452 -82T387 -29T290 -11Q169 -11 105 83T40 344Q40 509 107 606T301 704Q428 704 495 608T562 345Q562 109 422 32ZM441 482T409 547T301 613Q226 613 194 547T161
344Q161 208 194 143T301 77Q376 77 408 142T441 345Q441 482 409 547Z" />
<glyph unicode="R" glyph-name="R" d="M547 418T504 370T390 300L585 0H450L276 284H201V0H85V690H277Q547 690 547 490Q547 418 504 370ZM425 549T391 576T284 604H201V369H287Q355 369 390 398T425 490Q425 549 391 576Z" />
<glyph unicode="S" glyph-name="S" d="M549 133T518 86T427 13T285 -13Q126 -13 31 79L95 150Q173 78 285 78Q347 78 387 107T428 189Q428 220 416 241T373 278T286 312Q172 346 118 393T64 517Q64 572 94 614T179 680T301 704Q441 704 532 621L471 552Q436 583
394 598T308 613Q253 613 218 590T183 524Q183 497 197 479T246 444T345 409Q445 379 497 332T549 195Q549 133 518 86Z" />
<glyph unicode="T" glyph-name="T" d="M241 0V596H33V690H569L557 596H357V0H241Z" />
<glyph unicode="U" glyph-name="U" d="M539 156T511 102T428 18T299 -13Q186 -13 124 52T61 226V690H177V248Q177 163 206 121T299 79Q363 79 392 121T422 248V690H539V226Q539 156 511 102Z" />
<glyph unicode="V" glyph-name="V" d="M585 690L367 0H233L15 690H139L302 110L467 690H585Z" />
<glyph unicode="W" glyph-name="W" d="M367 0L301 498H297L229 0H90L2 690H114L165 122H169L242 610H361L428 124H432L494 690H598L503 0H367Z" />
<glyph unicode="X" glyph-name="X" d="M300 442L435 690H559L368 373L580 0H450L298 293L145 0H20L229 367L38 690H167L300 442Z" />
<glyph unicode="Y" glyph-name="Y" d="M241 0V263L11 690H139L302 363L467 690H589L359 264V0H241Z" />
<glyph unicode="Z" glyph-name="Z" d="M528 0H59V90L409 596H95V690H538V599L192 96H541L528 0Z" />
<glyph unicode="[" glyph-name="bracketleft" d="M426 818V729H279V-30H426V-118H173V818H426Z" />
<glyph unicode="\" glyph-name="backslash" d="M557 -66L467 -106L43 771L132 812L557 -66Z" />
<glyph unicode="]" glyph-name="bracketright" d="M174 -118V-29H321V729H174V818H427V-118H174Z" />
<glyph unicode="^" glyph-name="estimated" d="M468 701T536 637T622 468V334H190V73Q247 26 344 26Q412 26 461 51T537 123H586Q554 61 495 25T343 -12Q220 -12 150 49T60 214V468Q77 572 145 636T341 701Q468 701 536 637ZM244 662T190 620V373H489V619Q465
638 426 650T342 662Q244 662 190 620Z" />
<glyph unicode="_" glyph-name="underscore" d="M594 -90V-183H6V-90H594Z" />
<glyph unicode="`" glyph-name="circumflex" d="M312 799H384L521 673L476 622L349 714L221 622L175 673L312 799Z" />
<glyph unicode="a" glyph-name="a" d="M493 99T502 85T533 63L507 -13Q424 -3 398 60Q369 24 325 6T229 -13Q149 -13 103 32T56 151Q56 234 121 279T307 324H382V358Q382 408 352 431T265 454Q237 454 200 447T125 427L97 506Q192 542 282 542Q387 542 440 496T493
365V130Q493 99 502 85ZM298 69T330 87T382 138V254H320Q244 254 209 229T174 155Q174 113 196 91T263 69Q298 69 330 87Z" />
<glyph unicode="b" glyph-name="b" d="M228 502T265 522T346 542Q447 542 495 469T543 265Q543 141 488 64T333 -13Q244 -13 194 52L188 0H89V740L201 753V465Q228 502 265 522ZM363 72T393 119T424 264Q424 364 397 410T315 456Q281 456 252 435T201 380V133Q220
104 246 88T305 72Q363 72 393 119Z" />
<glyph unicode="c" glyph-name="c" d="M409 79T474 127L526 52Q490 22 441 5T340 -13Q219 -13 151 61T83 261Q83 342 114 405T203 505T342 542Q447 542 525 479L473 406Q410 452 344 452Q278 452 240 405T202 261Q202 167 240 123T344 79Q409 79 474 127Z" />
<glyph unicode="d" glyph-name="d" d="M511 0H412L404 65Q378 27 340 7T256 -13Q157 -13 107 61T57 264Q57 345 82 408T154 506T266 542Q347 542 399 485V753L511 740V0ZM237 456T207 409T176 264Q176 165 204 119T286 73Q351 73 399 148V397Q358 456 295 456Q237
456 207 409Z" />
<glyph unicode="e" glyph-name="e" d="M187 151T226 113T326 74Q405 74 464 123L513 53Q476 22 426 5T321 -13Q200 -13 133 62T66 264Q66 343 95 406T178 506T304 542Q411 542 473 472T535 278Q535 248 532 228H182Q187 151 226 113ZM253 459T220 420T182 305H426Q424
380 394 419T306 459Q253 459 220 420Z" />
<glyph unicode="f" glyph-name="f" d="M496 753T568 722L534 644Q484 666 421 666Q369 666 344 646T319 583V490H496L484 407H319V0H207V407H87V490H207V585Q207 635 232 673T304 732T410 753Q496 753 568 722Z" />
<glyph unicode="g" glyph-name="g" d="M535 492T498 489T410 485Q458 463 482 430T506 350Q506 298 481 258T408 195T297 172Q252 172 225 181Q214 173 208 162T202 137Q202 119 216 109T268 98H360Q415 98 459 79T527 27T552 -49Q552 -129 484 -172T288 -216Q199
-216 147 -198T74 -144T52 -52H153Q153 -82 164 -99T205 -125T289 -134Q369 -134 404 -115T439 -57Q439 -25 412 -8T337 10H246Q175 10 139 38T102 111Q102 138 117 163T160 207Q113 232 91 267T69 355Q69 410 97 452T175 518T290 542Q376 541 426 554T534 595L564
502Q535 492 498 489ZM239 464T212 435T184 355Q184 304 212 275T293 245Q342 245 368 274T394 357Q394 464 291 464Q239 464 212 435Z" />
<glyph unicode="h" glyph-name="h" d="M233 502T275 522T365 542Q438 542 475 502T512 385V0H400V367Q400 415 382 435T324 456Q289 456 257 434T201 378V0H89V739L201 751V464Q233 502 275 522Z" />
<glyph unicode="i" glyph-name="i" d="M332 787T352 767T373 717Q373 686 353 666T300 645Q267 645 247 665T226 717Q226 747 246 767T300 787Q332 787 352 767ZM521 82V0H107V82H265V446H112V528H378V82H521Z" />
<glyph unicode="j" glyph-name="j" d="M401 787T421 767T442 717Q442 686 422 666T368 645Q336 645 316 665T295 717Q295 747 315 767T368 787Q401 787 421 767ZM456 -32T369 -108T104 -216L86 -129Q214 -105 278 -53T343 104V446H135V528H456V111Q456 -32 369 -108Z" />
<glyph unicode="k" glyph-name="k" d="M92 0V740L205 753V0H92ZM576 0H439L213 289L423 528H554L341 292L576 0Z" />
<glyph unicode="l" glyph-name="l" d="M321 78T401 78Q439 78 485 95L513 17Q458 -13 377 -13Q298 -13 254 31T209 154V658H50V740H321V144Q321 78 401 78Z" />
<glyph unicode="m" glyph-name="m" d="M503 542T531 508T559 392V0H459V377Q459 421 453 437T424 454Q382 454 346 402V0H255V377Q255 421 249 437T220 454Q178 454 142 402V0H41V528H126L134 471Q159 506 185 524T247 542Q317 542 337 475Q361 507 389 524T453
542Q503 542 531 508Z" />
<glyph unicode="n" glyph-name="n" d="M186 528L194 460Q227 499 272 520T365 542Q438 542 475 502T512 385V0H400V330Q400 378 394 404T372 443T325 456Q289 456 258 434T201 378V0H89V528H186Z" />
<glyph unicode="o" glyph-name="o" d="M415 542T477 468T539 265Q539 137 476 62T300 -13Q186 -13 124 60T61 264Q61 390 124 466T301 542Q415 542 477 468ZM240 455T210 408T179 264Q179 166 209 120T300 73Q361 73 391 120T421 265Q421 362 391 408T301 455Q240
455 210 408Z" />
<glyph unicode="p" glyph-name="p" d="M539 542T539 265Q539 140 486 64T335 -13Q252 -13 201 45V-203L89 -216V528H187L194 460Q224 500 263 521T347 542Q539 542 539 265ZM281 456T252 435T201 380V133Q241 74 305 74Q363 74 392 120T421 264Q421 365 395 410T316
456Q281 456 252 435Z" />
<glyph unicode="q" glyph-name="q" d="M355 542T407 476L414 528H511V-216L399 -203V58Q345 -13 255 -13Q155 -13 108 59T61 264Q61 388 115 465T267 542Q355 542 407 476ZM179 456T179 264Q179 165 205 120T285 74Q321 74 349 94T399 148V397Q359 456 295 456Q179
456 179 264Z" />
<glyph unicode="r" glyph-name="r" d="M87 82H204V446H87V528H303L315 428Q336 482 375 511T464 541Q500 541 532 533L512 423Q480 432 451 432Q402 432 367 393T317 296V82H460V0H87V82Z" />
<glyph unicode="s" glyph-name="s" d="M334 73T364 91T395 143Q395 166 386 180T350 207T269 234Q182 256 139 290T95 390Q95 459 152 500T306 542Q425 542 507 481L460 410Q425 432 389 444T309 457Q210 457 210 399Q210 379 221 366T260 342T344 315Q430 292
472 257T514 151Q514 70 447 29T281 -13Q149 -13 64 61L124 129Q194 73 281 73Q334 73 364 91Z" />
<glyph unicode="t" glyph-name="t" d="M501 9T461 -2T376 -13Q286 -13 237 33T188 160V446H71V528H188V646L301 659V528H479L466 446H301V161Q301 118 322 98T392 78Q444 78 490 102L530 28Q501 9 461 -2Z" />
<glyph unicode="u" glyph-name="u" d="M201 113T219 93T276 72Q312 72 345 93T399 146V528H511V0H414L407 68Q379 29 334 8T241 -13Q165 -13 127 28T89 145V528H201V159Q201 113 219 93Z" />
<glyph unicode="v" glyph-name="v" d="M234 0L48 528H169L302 93L437 528H552L366 0H234Z" />
<glyph unicode="w" glyph-name="w" d="M304 362H300L239 0H101L12 528H120L174 84H178L249 461H361L425 86H429L484 528H588L502 0H362L304 362Z" />
<glyph unicode="x" glyph-name="x" d="M232 278L64 528H193L301 342L409 528H532L367 283L557 0H425L296 216L167 0H43L232 278Z" />
<glyph unicode="y" glyph-name="y" d="M337 -99T276 -153T110 -216L96 -132Q148 -124 180 -108T230 -66T265 0H227L49 528H168L301 78L436 528H551L369 -2Q337 -99 276 -153Z" />
<glyph unicode="z" glyph-name="z" d="M496 0H91V82L372 438H113V528H505V446L226 90H508L496 0Z" />
<glyph unicode="{" glyph-name="braceleft" d="M402 754T374 738T346 681V498Q346 429 317 395T224 350Q289 339 317 307T346 202V19Q346 -22 374 -38T457 -54V-137Q347 -137 294 -100T240 30V202Q240 255 217 280T142 305V395Q192 395 216 420T240 498V670Q240
763 293 800T457 837V754Q402 754 374 738Z" />
<glyph unicode="|" glyph-name="diamond" d="M444 -12L248 266L444 539L640 266L444 -12Z" />
<glyph unicode="}" glyph-name="braceright" d="M254 837T307 800T360 670V498Q360 445 383 420T458 395V305Q408 305 384 280T360 202V30Q360 -62 307 -99T143 -137V-54Q198 -54 226 -38T254 19V202Q254 274 282 306T375 349Q313 361 284 395T254 498V681Q254
722 226 738T143 754V837Q254 837 307 800Z" />
<glyph unicode="~" glyph-name="asciitilde" d="M241 412T267 397T326 353Q351 331 366 322T399 312Q427 312 450 333T494 394L565 360Q533 295 495 258T396 221Q361 221 335 236T277 279Q253 300 237 310T201 321Q172 321 150 300T106 239L35 273Q67 337 105
374T204 412Q241 412 267 397Z" />
</font>
</defs>
</svg>
