<?xml version="1.0" standalone="no"?> <!DOCTYPE svg PUBLIC "-//W3C//DTD SVG 1.0//EN" "http://www.w3.org/TR/2001/REC-SVG-20010904/DTD/svg10.dtd" > <svg xmlns="http://www.w3.org/2000/svg" width="100%" height="100%">
<defs >
<font id="firamono-regular" horiz-adv-x="600" ><font-face
    font-family="Fira Mono"
    units-per-em="1000"
    panose-1="2 11 5 9 5 0 0 2 0 4"
    ascent="1050"
    descent="-500"
    alphabetic="0" />
<missing-glyph horiz-adv-x="1000" />
<glyph unicode=" " glyph-name="space" />
<glyph unicode="!" glyph-name="exclam" d="M261 227L251 688H344L336 227H261ZM327 122T346 103T366 56Q366 28 347 9T299 -11Q271 -11 252 8T233 56Q233 83 252 102T299 122Q327 122 346 103Z" />
<glyph unicode="&quot;" glyph-name="quotedbl" d="M269 739L253 479H180L164 739H269ZM436 739L420 479H347L331 739H436Z" />
<glyph unicode="#" glyph-name="numbersign" d="M510 234V170H419L398 0H327L349 170H203L181 0H110L133 170H53V234H141L171 456H90V521H180L202 688H273L249 521H397L419 688H490L466 521H547V456H458L428 234H510ZM388 456H241L212 234H358L388 456Z" />
<glyph unicode="$" glyph-name="dollar" d="M401 692T448 671T529 618L478 565Q422 618 346 629V400Q433 372 485 323T537 189Q537 114 488 60T346 -7V-153H278V-10Q213 -6 161 20T69 84L119 139Q190 67 278 60V338Q188 368 142 414T95 528Q95 569 115 606T177
667T278 698V848H346V698Q401 692 448 671ZM235 619T210 595T184 529Q184 493 204 469T278 422V627Q235 619 210 595ZM447 85T447 188Q447 232 425 262T346 315V64Q447 85 447 188Z" />
<glyph unicode="%" glyph-name="percent" d="M84 -20L32 15L506 707L559 672L84 -20ZM234 700T273 654T313 539Q313 496 296 459T245 400T166 378Q121 378 88 400T37 459T19 539Q19 607 59 653T166 700Q234 700 273 654ZM135 640T116 615T96 539Q96 491 115 464T166
436Q198 436 217 462T236 539Q236 591 217 615T166 640Q135 640 116 615ZM503 316T542 270T582 156Q582 113 565 76T514 17T436 -6Q391 -6 357 16T306 76T288 156Q288 223 328 269T436 316Q503 316 542 270ZM404 256T385 231T365 156Q365 108 385 81T436 53Q468
53 486 78T505 156Q505 208 487 232T436 256Q404 256 385 231Z" />
<glyph unicode="&amp;" glyph-name="bar" d="M54 -102V807H129V-102H54Z" />
<glyph unicode="&apos;" glyph-name="quotesingle" d="M352 739L337 479H263L248 739H352Z" />
<glyph unicode="(" glyph-name="parenleft" d="M252 247T275 170T335 35T436 -104L383 -140Q306 -47 265 12T194 155T165 350Q165 461 194 545T264 688T383 840L436 804Q371 723 335 666T275 531T252 350Q252 247 275 170Z" />
<glyph unicode=")" glyph-name="parenright" d="M348 453T325 530T266 665T164 804L217 840Q294 747 335 688T406 545T435 350Q435 239 406 155T336 12T217 -140L164 -104Q228 -23 265 35T325 170T348 350Q348 453 325 530Z" />
<glyph unicode="*" glyph-name="asterisk" d="M479 425L504 345L346 309L456 189L388 137L301 278L220 135L149 182L256 309L96 345L122 425L272 362L258 526H342L327 362L479 425Z" />
<glyph unicode="+" glyph-name="plus" d="M484 346V276H338V128H260V276H116V346H260V495H338V346H484Z" />
<glyph unicode="," glyph-name="comma" d="M334 164T357 141T381 84Q381 47 361 7L280 -179H205L253 18Q238 29 229 47T220 84Q220 117 243 140T300 164Q334 164 357 141Z" />
<glyph unicode="-" glyph-name="hyphen" d="M475 349V277H125V349H475Z" />
<glyph unicode="." glyph-name="period" d="M212 113T237 138T299 164Q337 164 362 139T387 77Q387 39 362 14T299 -11Q262 -11 237 14T212 77Q212 113 237 138Z" />
<glyph unicode="/" glyph-name="slash" d="M481 809L547 777L120 -103L53 -73L481 809Z" />
<glyph unicode="0" glyph-name="zero" d="M410 700T467 609T525 345Q525 172 468 81T300 -11Q190 -11 133 80T75 345Q75 517 132 608T300 700Q410 700 467 609ZM162 632T162 345Q162 56 300 56Q438 56 438 345Q438 632 300 632Q162 632 162 345ZM328 410T347 391T366
345Q366 317 347 298T300 279Q272 279 254 298T235 345Q235 372 253 391T300 410Q328 410 347 391Z" />
<glyph unicode="1" glyph-name="one" d="M517 0H120V68H290V598L132 503L96 562L300 688H373V68H517V0Z" />
<glyph unicode="2" glyph-name="two" d="M333 700T379 675T451 606T476 507Q476 444 447 384T352 252T168 71H492L482 0H73V68Q209 198 274 270T364 395T389 505Q389 563 357 596T266 630Q217 630 184 614T117 557L59 601Q101 652 151 676T269 700Q333 700 379 675Z" />
<glyph unicode="3" glyph-name="three" d="M332 700T380 677T454 614T480 527Q480 467 441 423T345 367Q411 362 456 318T502 198Q502 139 472 92T388 17T263 -11Q202 -11 146 11T52 80L108 126Q136 92 177 75T261 57Q333 57 374 95T415 198Q415 329 272 329H214L224
395H265Q319 395 357 426T396 516Q396 571 359 602T265 633Q222 633 189 618T119 569L74 620Q157 700 269 700Q332 700 380 677Z" />
<glyph unicode="4" glyph-name="four" d="M439 168V0H358V168H72V228L275 700L344 670L160 234H359L366 430H439V234H528V168H439Z" />
<glyph unicode="5" glyph-name="five" d="M202 622V404Q232 421 260 427T321 434Q407 434 458 377T509 218Q509 150 481 98T400 18T277 -11Q162 -11 78 71L129 121Q161 88 197 73T278 57Q347 57 384 98T422 220Q422 299 389 333T298 368Q269 368 246 363T190 345H123V688H487L474
622H202Z" />
<glyph unicode="6" glyph-name="six" d="M384 448T428 424T498 352T524 232Q524 158 496 103T418 18T308 -11Q188 -11 134 76T80 325Q80 439 110 523T198 654T335 700Q410 700 471 659L439 603Q390 632 334 632Q255 632 210 558T163 355Q195 404 236 426T329 448Q384
448 428 424ZM372 56T405 101T439 229Q439 310 408 345T317 380Q269 380 231 354T164 282Q166 164 200 110T308 56Q372 56 405 101Z" />
<glyph unicode="7" glyph-name="seven" d="M421 619H98V688H505V625L230 -9L153 14L421 619Z" />
<glyph unicode="8" glyph-name="eight" d="M506 476T477 439T387 369Q456 340 495 293T534 185Q534 129 505 84T423 14T298 -11Q226 -11 174 14T94 84T66 183Q66 299 204 363Q148 389 121 426T94 520Q94 579 125 620T204 680T300 700Q353 700 400 681T476 623T506
525Q506 476 477 439ZM176 481T193 458T240 422T328 390Q379 419 401 447T424 521Q424 574 392 604T300 635Q241 635 209 605T176 519Q176 481 193 458ZM447 227T425 254T367 298T261 339Q212 317 183 280T153 183Q153 123 190 90T298 56Q368 56 407 91T447 183Q447
227 425 254Z" />
<glyph unicode="9" glyph-name="nine" d="M401 699T457 629T513 433Q513 287 476 202T362 67T147 -21L128 42Q275 82 350 150T426 338Q401 301 358 277T260 253Q204 253 160 279T92 356T67 472Q67 544 96 595T176 672T289 699Q401 699 457 629ZM324 319T360 343T428
414Q429 533 396 582T289 631Q222 631 188 590T153 469Q153 393 185 356T276 319Q324 319 360 343Z" />
<glyph unicode=":" glyph-name="colon" d="M219 464T242 487T299 511Q333 511 356 488T380 431Q380 397 357 373T299 349Q265 349 242 373T219 431Q219 464 242 487ZM219 103T242 126T299 150Q333 150 356 127T380 70Q380 36 357 13T299 -11Q265 -11 242 12T219
70Q219 103 242 126Z" />
<glyph unicode=";" glyph-name="semicolon" d="M333 511T356 488T380 431Q380 397 357 373T299 349Q265 349 242 373T219 431Q219 464 242 487T299 511Q333 511 356 488ZM333 165T356 142T380 85Q380 49 361 7L279 -180H203L251 18Q236 29 228 47T219 85Q219 118
242 141T299 165Q333 165 356 142Z" />
<glyph unicode="&lt;" glyph-name="less" d="M159 313L513 94L468 33L88 271V356L472 594L513 530L159 313Z" />
<glyph unicode="=" glyph-name="equal" d="M106 370V442H494V370H106ZM106 180V252H494V180H106Z" />
<glyph unicode="&gt;" glyph-name="greater" d="M513 271L133 33L88 95L442 313L88 531L129 594L513 356V271Z" />
<glyph unicode="?" glyph-name="question" d="M358 700T403 678T472 621T496 545Q496 507 484 481T453 437T403 397Q360 365 338 337T316 261V227H232V266Q232 307 246 337T280 386T333 430Q373 461 391 483T410 540Q410 582 377 606T291 630Q254 630 217 612T149
557L90 601Q174 700 299 700Q358 700 403 678ZM305 122T324 103T344 56Q344 28 325 9T277 -11Q249 -11 230 8T211 56Q211 83 230 102T277 122Q305 122 324 103Z" />
<glyph unicode="@" glyph-name="musicalnotedbl" d="M521 108T505 87T461 52T397 38Q348 38 320 56T292 108Q292 146 328 172T417 198Q449 198 473 185V496L238 437V78Q238 58 222 37T178 2T114 -12Q65 -12 37 6T9 58Q9 96 45 122T134 148Q166 148 190 135V491L521
577V128Q521 108 505 87Z" />
<glyph unicode="A" glyph-name="A" d="M105 0H21L245 688H355L579 0H489L434 176H161L105 0ZM298 616L183 247H412L298 616Z" />
<glyph unicode="B" glyph-name="B" d="M539 92T465 46T281 0H97V688H266Q370 688 439 648T509 515Q509 453 473 415T381 365Q539 338 539 196Q539 92 465 46ZM421 619T286 619H182V395H294Q421 395 421 510Q421 619 286 619ZM449 266T409 295T301 324H182V71H297Q360
71 404 97T449 193Q449 266 409 295Z" />
<glyph unicode="C" glyph-name="C" d="M423 700T468 684T557 633L509 577Q447 628 364 628Q270 628 212 561T153 345Q153 199 210 131T363 62Q415 62 452 77T523 120L567 63Q533 30 482 10T362 -11Q277 -11 210 30T103 152T64 345Q64 457 103 537T210 659T358
700Q423 700 468 684Z" />
<glyph unicode="D" glyph-name="D" d="M552 152T463 76T241 0H84V688H230Q374 688 463 616T552 348Q552 152 463 76ZM461 460T431 519T355 598T251 618H169V69H252Q342 69 401 130T461 348Q461 460 431 519Z" />
<glyph unicode="E" glyph-name="E" d="M467 385V314H212V69H525V0H126V688H516L506 618H212V385H467Z" />
<glyph unicode="F" glyph-name="F" d="M494 376V307H224V0H139V688H544L533 618H224V376H494Z" />
<glyph unicode="G" glyph-name="G" d="M189 -11T118 79T46 345Q46 459 86 539T192 659T334 700Q398 700 442 682T530 624L478 570Q446 599 412 613T334 627Q249 627 193 560T137 345Q137 197 183 129T321 61Q393 61 453 94V305H317L307 376H538V48Q484 19 433
4T314 -11Q189 -11 118 79Z" />
<glyph unicode="H" glyph-name="H" d="M169 328V0H84V688H169V397H431V688H516V0H431V328H169Z" />
<glyph unicode="I" glyph-name="I" d="M343 620V69H497V0H103V69H257V620H103V688H497V620H343Z" />
<glyph unicode="J" glyph-name="J" d="M496 128T441 58T262 -12Q211 -12 162 4T73 51L111 108Q187 60 261 60Q332 60 371 106T411 233V618H207V688H496V228Q496 128 441 58Z" />
<glyph unicode="K" glyph-name="K" d="M106 688H191V0H106V688ZM567 688L297 373L586 0H479L196 368L468 688H567Z" />
<glyph unicode="L" glyph-name="L" d="M222 688V77H536L526 0H136V688H222Z" />
<glyph unicode="M" glyph-name="M" d="M487 0L465 361Q459 475 459 590H457L343 124H256L138 590H134Q134 447 130 361L111 0H31L70 688H190L302 217L409 688H530L569 0H487Z" />
<glyph unicode="N" glyph-name="N" d="M152 589Q164 433 164 346V0H84V688H200L444 96H448Q436 240 436 343V688H516V0H396L156 589H152Z" />
<glyph unicode="O" glyph-name="O" d="M553 183T488 86T300 -11Q177 -11 112 84T47 342Q47 448 76 528T161 654T300 700Q422 700 487 604T553 344Q553 183 488 86ZM464 485T425 556T300 627Q214 627 175 556T136 342Q136 203 176 132T300 61Q385 61 424 132T464
344Q464 485 425 556Z" />
<glyph unicode="P" glyph-name="P" d="M557 362T486 309T291 256H202V0H117V688H291Q417 688 487 635T557 477Q557 362 486 309ZM465 620T302 620H202V325H299Q378 325 421 359T465 476Q465 620 302 620Z" />
<glyph unicode="Q" glyph-name="Q" d="M553 229T521 149T416 26Q485 12 526 -25T592 -137L501 -173Q467 -88 421 -49T290 -9Q173 -9 110 85T46 342Q46 448 75 528T161 654T300 700Q422 700 487 604T553 344Q553 229 521 149ZM464 485T425 556T300 628Q214 628
175 556T135 342Q135 203 175 132T300 61Q385 61 424 132T464 344Q464 485 425 556Z" />
<glyph unicode="R" glyph-name="R" d="M537 421T491 373T368 306L573 0H470L282 296H188V0H102V688H278Q406 688 471 640T537 496Q537 421 491 373ZM445 561T407 590T288 620H188V363H289Q366 363 405 394T445 496Q445 561 407 590Z" />
<glyph unicode="S" glyph-name="S" d="M536 131T507 86T420 15T285 -11Q211 -11 150 11T44 76L95 134Q133 98 179 80T287 61Q354 61 400 94T447 189Q447 224 434 247T389 288T296 324Q184 357 129 401T74 523Q74 574 102 614T181 677T297 700Q365 700 418 680T516
621L465 565Q395 628 299 628Q239 628 200 602T161 525Q161 495 177 474T230 435T335 398Q431 370 483 325T536 191Q536 131 507 86Z" />
<glyph unicode="T" glyph-name="T" d="M256 0V615H40V688H559L550 615H341V0H256Z" />
<glyph unicode="U" glyph-name="U" d="M527 153T499 100T420 18T299 -11Q230 -11 179 18T100 101T73 223V688H158V219Q158 141 194 102T299 63Q368 63 404 102T441 219V688H527V223Q527 153 499 100Z" />
<glyph unicode="V" glyph-name="V" d="M575 688L344 0H256L25 688H117L302 98L489 688H575Z" />
<glyph unicode="W" glyph-name="W" d="M377 0L300 505H296L218 0H102L5 688H91L162 103H166L248 608H354L430 107H434L516 688H595L490 0H377Z" />
<glyph unicode="X" glyph-name="X" d="M300 423L452 688H545L349 372L569 0H470L298 312L123 0H31L248 367L50 688H148L300 423Z" />
<glyph unicode="Y" glyph-name="Y" d="M257 0V265L24 688H119L302 343L487 688H576L343 266V0H257Z" />
<glyph unicode="Z" glyph-name="Z" d="M517 0H72V70L436 615H108V688H528V618L166 74H527L517 0Z" />
<glyph unicode="[" glyph-name="bracketleft" d="M414 815V744H263V-45H414V-115H184V815H414Z" />
<glyph unicode="\" glyph-name="backslash" d="M547 -73L480 -103L53 777L119 809L547 -73Z" />
<glyph unicode="]" glyph-name="bracketright" d="M186 -115V-45H337V744H186V815H416V-115H186Z" />
<glyph unicode="^" glyph-name="estimated" d="M482 701T550 637T636 468V334H204V73Q261 26 358 26Q426 26 475 51T551 123H600Q568 61 509 25T357 -12Q234 -12 164 49T74 214V468Q91 572 159 636T355 701Q482 701 550 637ZM258 662T204 620V373H503V619Q479
638 440 650T356 662Q258 662 204 620Z" />
<glyph unicode="_" glyph-name="underscore" d="M607 -109V-181H-7V-109H607Z" />
<glyph unicode="`" glyph-name="circumflex" d="M321 789H377L511 670L473 629L349 720L225 629L185 670L321 789Z" />
<glyph unicode="a" glyph-name="a" d="M477 84T487 69T520 47L500 -12Q425 -2 404 63Q376 27 334 8T239 -11Q160 -11 115 33T69 151Q69 232 132 276T316 320H393V364Q393 419 361 443T268 468Q205 468 131 442L109 504Q200 538 280 538Q376 538 426 493T477 368V114Q477
84 487 69ZM299 52T334 71T393 127V263H317Q233 263 196 235T158 152Q158 52 260 52Q299 52 334 71Z" />
<glyph unicode="b" glyph-name="b" d="M213 497T251 517T334 538Q436 538 484 466T532 264Q532 140 477 65T323 -11Q230 -11 180 55L174 0H101V739L184 749V458Q213 497 251 517ZM371 56T406 108T441 264Q441 367 410 419T316 471Q275 471 242 447T184 386V124Q205
92 236 74T304 56Q371 56 406 108Z" />
<glyph unicode="c" glyph-name="c" d="M413 60T476 110L516 52Q482 23 434 6T338 -11Q222 -11 157 62T92 261Q92 341 121 403T206 502T339 538Q439 538 515 476L473 419Q408 468 338 468Q267 468 225 415T182 261Q182 160 224 110T338 60Q413 60 476 110Z" />
<glyph unicode="d" glyph-name="d" d="M499 0H426L418 69Q361 -11 269 -11Q169 -11 119 62T68 262Q68 342 93 404T164 502T275 538Q362 538 416 475V749L499 739V0ZM229 471T194 419T159 263Q159 161 191 109T286 56Q362 56 416 139V403Q395 435 364 453T296 471Q229
471 194 419Z" />
<glyph unicode="e" glyph-name="e" d="M169 146T212 102T320 58Q400 58 461 107L500 50Q463 21 416 5T320 -11Q206 -11 143 63T79 263Q79 342 107 404T186 502T305 538Q407 538 464 469T522 279Q522 256 520 234H166Q169 146 212 102ZM247 469T209 426T166 298H442Q441
382 405 425T306 469Q247 469 209 426Z" />
<glyph unicode="f" glyph-name="f" d="M486 749T554 720L527 658Q478 681 414 681Q303 681 303 593V486H482L473 420H303V0H220V420H94V486H220V591Q220 662 274 705T411 749Q486 749 554 720Z" />
<glyph unicode="g" glyph-name="g" d="M523 494T487 491T400 488Q492 446 492 356Q492 276 439 226T294 176Q250 176 215 187Q203 178 196 164T188 135Q188 91 258 91H353Q405 91 447 72T514 21T539 -52Q539 -129 474 -170T288 -212Q205 -212 157 -195T87 -144T66
-53H141Q141 -86 153 -105T197 -134T287 -144Q373 -144 414 -123T455 -57Q455 -21 422 -1T336 19H242Q177 19 143 47T109 118Q109 143 124 167T167 210Q122 233 101 268T79 355Q79 408 105 449T179 514T289 538Q380 538 427 548T528 582L554 503Q523 494 487 491ZM227
477T196 444T164 355Q164 299 196 266T290 232Q346 232 375 264T405 356Q405 416 376 446T288 477Q227 477 196 444Z" />
<glyph unicode="h" glyph-name="h" d="M214 494T259 516T352 538Q500 538 500 382V0H417V381Q417 428 395 450T326 472Q284 472 246 446T184 384V0H101V737L184 747V454Q214 494 259 516Z" />
<glyph unicode="i" glyph-name="i" d="M515 66V0H121V66H284V461H126V526H367V66H515ZM253 773T270 756T287 714Q287 688 270 672T226 655Q199 655 183 671T166 714Q166 739 182 756T226 773Q253 773 270 756Z" />
<glyph unicode="j" glyph-name="j" d="M445 -44T360 -114T110 -212L96 -148Q223 -127 292 -75T362 78V461H142V526H445V83Q445 -44 360 -114ZM320 773T337 756T354 714Q354 688 337 672T293 655Q266 655 250 671T233 714Q233 739 249 756T293 773Q320 773 337 756Z" />
<glyph unicode="k" glyph-name="k" d="M106 0V739L189 749V0H106ZM569 0H459L199 288L433 526H541L303 289L569 0Z" />
<glyph unicode="l" glyph-name="l" d="M305 58T392 58Q434 58 481 76L503 16Q453 -11 378 -11Q308 -11 265 28T222 134V673H60V739H305V129Q305 58 392 58Z" />
<glyph unicode="m" glyph-name="m" d="M549 538T549 392V0H472V378Q472 433 465 453T431 473Q380 473 339 409V0H261V378Q261 433 254 453T220 473Q169 473 128 409V0H51V526H116L121 465Q146 500 172 519T236 538Q310 538 331 468Q355 502 382 520T447 538Q549
538 549 392Z" />
<glyph unicode="n" glyph-name="n" d="M172 526L178 453Q210 493 257 515T352 538Q500 538 500 382V0H417V320Q417 379 411 410T386 457T327 472Q284 472 246 446T184 384V0H101V526H172Z" />
<glyph unicode="o" glyph-name="o" d="M410 538T468 465T526 264Q526 140 467 65T300 -11Q191 -11 133 62T74 263Q74 388 133 463T301 538Q410 538 468 465ZM163 470T163 263Q163 159 197 108T300 57Q369 57 403 108T437 264Q437 470 301 470Q163 470 163 263Z" />
<glyph unicode="p" glyph-name="p" d="M436 538T481 467T526 264Q526 139 474 64T323 -11Q237 -11 184 49V-202L101 -212V526H171L178 453Q208 494 248 516T336 538Q436 538 481 467ZM275 471T242 447T184 386V124Q204 93 236 76T305 58Q371 58 404 108T437 264Q437
368 408 419T316 471Q275 471 242 447Z" />
<glyph unicode="q" glyph-name="q" d="M366 538T421 469L428 526H499V-212L416 -202V67Q360 -11 268 -11Q74 -11 74 262Q74 385 126 461T274 538Q366 538 421 469ZM163 471T163 263Q163 58 285 58Q326 58 359 80T416 139V403Q396 435 364 453T295 471Q163 471 163 263Z" />
<glyph unicode="r" glyph-name="r" d="M94 66H217V461H94V526H289L299 425Q322 480 362 509T451 538Q487 538 520 530L505 448Q471 457 444 457Q393 457 354 415T300 315V66H448V0H94V66Z" />
<glyph unicode="s" glyph-name="s" d="M340 57T375 80T411 141Q411 167 402 184T366 215T284 243Q192 266 148 298T104 394Q104 460 159 499T303 538Q415 538 494 479L457 423Q424 446 389 458T305 470Q245 470 218 452T190 401Q190 377 202 362T244 336T330 308Q416
285 458 250T501 145Q501 66 437 28T279 -11Q156 -11 74 60L121 114Q153 88 194 73T280 57Q340 57 375 80Z" />
<glyph unicode="t" glyph-name="t" d="M491 9T453 -1T377 -11Q294 -11 248 32T201 147V462H80V526H201V646L284 656V526H466L456 462H284V148Q284 103 308 81T385 58Q438 58 486 83L518 26Q491 9 453 -1Z" />
<glyph unicode="u" glyph-name="u" d="M184 102T205 79T273 55Q315 55 354 79T416 139V526H499V0H428L421 71Q391 32 346 11T253 -11Q178 -11 140 29T101 143V526H184V153Q184 102 205 79Z" />
<glyph unicode="v" glyph-name="v" d="M251 0L61 526H149L302 76L453 526H539L347 0H251Z" />
<glyph unicode="w" glyph-name="w" d="M304 378H300L229 0H114L18 526H103L171 64H175L255 459H354L429 66H433L501 526H582L490 0H372L304 378Z" />
<glyph unicode="x" glyph-name="x" d="M251 278L80 526H178L301 330L425 526H520L350 282L544 0H442L297 226L151 0H56L251 278Z" />
<glyph unicode="y" glyph-name="y" d="M321 -94T268 -148T119 -212L106 -145Q159 -136 190 -118T240 -73T274 0H246L62 526H151L303 63L452 526H538L353 -3Q321 -94 268 -148Z" />
<glyph unicode="z" glyph-name="z" d="M487 0H103V63L395 454H126V526H495V462L204 71H498L487 0Z" />
<glyph unicode="{" glyph-name="braceleft" d="M392 770T360 752T327 690V484Q327 423 300 392T220 350Q275 340 301 310T327 216V10Q327 -34 359 -52T451 -70V-135Q357 -135 303 -101T249 20V211Q249 317 148 317V383Q249 383 249 488V680Q249 766 303 800T451
835V770Q392 770 360 752Z" />
<glyph unicode="|" glyph-name="diamond" d="M458 -12L262 266L458 539L654 266L458 -12Z" />
<glyph unicode="}" glyph-name="braceright" d="M242 835T296 801T351 680V488Q351 383 452 383V317Q351 317 351 211V20Q351 -66 297 -100T149 -135V-70Q208 -70 240 -52T273 10V216Q273 280 299 310T381 349Q327 360 300 391T273 484V690Q273 733 241 751T149
770V835Q242 835 296 801Z" />
<glyph unicode="~" glyph-name="asciitilde" d="M243 400T269 385T326 341Q349 320 364 310T398 300Q450 300 497 385L556 354Q527 298 491 263T395 228Q361 228 337 242T279 285Q256 307 239 317T202 328Q172 328 149 306T103 243L44 273Q72 330 108 365T205
400Q243 400 269 385Z" />
</font>
</defs>
</svg>
