<?xml version="1.0" standalone="no"?>
<!DOCTYPE svg PUBLIC "-//W3C//DTD SVG 1.1//EN" "http://www.w3.org/Graphics/SVG/1.1/DTD/svg11.dtd" >
<!--
2013-9-30: Created.
-->
<svg>
<metadata>
Created by iconfont
</metadata>
<defs>

<font id="iconfont" horiz-adv-x="1024" >
  <font-face
    font-family="iconfont"
    font-weight="500"
    font-stretch="normal"
    units-per-em="1024"
    ascent="896"
    descent="-128"
  />
    <missing-glyph />
    
    <glyph glyph-name="arrow_double_right" unicode="&#59117;" d="M697.917 384L491.493 590.424c-12.497 12.497-12.497 32.758 0 45.255l2.828 2.828c12.497 12.497 32.758 12.497 45.255 0L765.714 412.37a32.306 32.306 0 0 0 3.1-2.728l2.828-2.829c10.44-10.44 12.158-26.301 5.153-38.525a32.026 32.026 0 0 0-5.288-6.967l-2.828-2.828a32.475 32.475 0 0 0-1.587-1.485L539.71 129.628c-12.497-12.497-32.758-12.497-45.255 0l-2.829 2.828c-12.496 12.497-12.496 32.758 0 45.255L697.917 384z m-241 0L250.493 590.424c-12.497 12.497-12.497 32.758 0 45.255l2.828 2.828c12.497 12.497 32.758 12.497 45.255 0L524.714 412.37a32.306 32.306 0 0 0 3.1-2.728l2.828-2.829c10.44-10.44 12.158-26.301 5.153-38.525a32.026 32.026 0 0 0-5.288-6.967l-2.828-2.828a32.475 32.475 0 0 0-1.587-1.485L298.71 129.628c-12.497-12.497-32.758-12.497-45.255 0l-2.829 2.828c-12.496 12.497-12.496 32.758 0 45.255L456.917 384z"  horiz-adv-x="1024" />

    
    <glyph glyph-name="arrow_double_down" unicode="&#59118;" d="M511 197.218l206.424 206.424c12.497 12.496 32.758 12.496 45.255 0l2.828-2.829c12.497-12.497 12.497-32.758 0-45.255L539.37 129.421a32.306 32.306 0 0 0-2.728-3.1l-2.829-2.828c-10.44-10.441-26.301-12.159-38.525-5.153a32.026 32.026 0 0 0-6.967 5.287l-2.828 2.829a32.475 32.475 0 0 0-1.485 1.587l-227.38 227.38c-12.497 12.498-12.497 32.759 0 45.256l2.828 2.828c12.497 12.497 32.758 12.497 45.255 0L511 197.217z m0 241l206.424 206.424c12.497 12.496 32.758 12.496 45.255 0l2.828-2.829c12.497-12.497 12.497-32.758 0-45.255L539.37 370.421a32.306 32.306 0 0 0-2.728-3.1l-2.829-2.828c-10.44-10.441-26.301-12.159-38.525-5.153a32.026 32.026 0 0 0-6.967 5.287l-2.828 2.829a32.475 32.475 0 0 0-1.485 1.587l-227.38 227.38c-12.497 12.498-12.497 32.759 0 45.256l2.828 2.828c12.497 12.497 32.758 12.497 45.255 0L511 438.217z"  horiz-adv-x="1024" />

    
    <glyph glyph-name="arrow_double_up" unicode="&#59119;" d="M511 570.917l206.424-206.424c12.497-12.497 32.758-12.497 45.255 0l2.828 2.828c12.497 12.497 12.497 32.758 0 45.255L539.37 638.714a32.306 32.306 0 0 1-2.728 3.1l-2.829 2.828c-10.44 10.44-26.301 12.158-38.525 5.153a32.026 32.026 0 0 1-6.967-5.288l-2.828-2.828a32.475 32.475 0 0 1-1.485-1.587L256.628 412.71c-12.497-12.497-12.497-32.758 0-45.255l2.828-2.829c12.497-12.496 32.758-12.496 45.255 0L511 570.917z m0-241l206.424-206.424c12.497-12.497 32.758-12.497 45.255 0l2.828 2.828c12.497 12.497 12.497 32.758 0 45.255L539.37 397.714a32.306 32.306 0 0 1-2.728 3.1l-2.829 2.828c-10.44 10.44-26.301 12.158-38.525 5.153a32.026 32.026 0 0 1-6.967-5.288l-2.828-2.828a32.475 32.475 0 0 1-1.485-1.587L256.628 171.71c-12.497-12.497-12.497-32.758 0-45.255l2.828-2.829c12.497-12.496 32.758-12.496 45.255 0L511 329.917z"  horiz-adv-x="1024" />

    
    <glyph glyph-name="arrow_double_left" unicode="&#59120;" d="M324.218 384l206.424 206.424c12.496 12.497 12.496 32.758 0 45.255l-2.829 2.828c-12.497 12.497-32.758 12.497-45.255 0L256.421 412.37a32.306 32.306 0 0 1-3.1-2.728l-2.828-2.829c-10.441-10.44-12.159-26.301-5.153-38.525a32.026 32.026 0 0 1 5.287-6.967l2.829-2.828a32.475 32.475 0 0 1 1.587-1.485l227.38-227.38c12.498-12.497 32.759-12.497 45.256 0l2.828 2.828c12.497 12.497 12.497 32.758 0 45.255L324.217 384z m241 0l206.424 206.424c12.496 12.497 12.496 32.758 0 45.255l-2.829 2.828c-12.497 12.497-32.758 12.497-45.255 0L497.421 412.37a32.306 32.306 0 0 1-3.1-2.728l-2.828-2.829c-10.441-10.44-12.159-26.301-5.153-38.525a32.026 32.026 0 0 1 5.287-6.967l2.829-2.828a32.475 32.475 0 0 1 1.587-1.485l227.38-227.38c12.498-12.497 32.759-12.497 45.256 0l2.828 2.828c12.497 12.497 12.497 32.758 0 45.255L565.217 384z"  horiz-adv-x="1024" />

    
    <glyph glyph-name="arrow_left_full" unicode="&#59121;" d="M300 384l314 241v-482z"  horiz-adv-x="1024" />

    
    <glyph glyph-name="arrow_down_full" unicode="&#59122;" d="M512 172l241 314H271z"  horiz-adv-x="1024" />

    
    <glyph glyph-name="arrow_right_full" unicode="&#59123;" d="M724 384L410 625v-482z"  horiz-adv-x="1024" />

    
    <glyph glyph-name="arrow_up_full" unicode="&#59124;" d="M512 596l241-314H271z"  horiz-adv-x="1024" />

    
    <glyph glyph-name="arrow_left" unicode="&#59125;" d="M444.56 383.476l206.447 206.448c12.497 12.497 12.497 32.758 0 45.255l-2.828 2.828c-12.497 12.497-32.758 12.497-45.255 0L374.979 410.063a32.53 32.53 0 0 1-1.158-1.103l-2.828-2.828c-6.256-6.256-9.38-14.457-9.373-22.656-0.007-8.198 3.117-16.4 9.373-22.655l2.828-2.828c0.38-0.38 0.765-0.747 1.158-1.103l227.945-227.944c12.497-12.497 32.758-12.497 45.255 0l2.828 2.828c12.497 12.497 12.497 32.758 0 45.255L444.56 383.476z"  horiz-adv-x="1024" />

    
    <glyph glyph-name="arrow_down" unicode="&#59126;" d="M511 317.083l206.424 206.424c12.497 12.497 32.758 12.497 45.255 0l2.828-2.828c12.497-12.497 12.497-32.758 0-45.255L539.37 249.286a32.306 32.306 0 0 0-2.728-3.1l-2.829-2.828c-10.44-10.44-26.301-12.158-38.525-5.153a32.026 32.026 0 0 0-6.967 5.288l-2.828 2.828a32.475 32.475 0 0 0-1.485 1.587L256.628 475.29c-12.497 12.497-12.497 32.758 0 45.255l2.828 2.829c12.497 12.496 32.758 12.496 45.255 0L511 317.083z"  horiz-adv-x="1024" />

    
    <glyph glyph-name="arrow_right" unicode="&#59127;" d="M577.44 383.476L370.993 589.924c-12.497 12.497-12.497 32.758 0 45.255l2.828 2.828c12.497 12.497 32.758 12.497 45.255 0l227.945-227.944c0.393-0.356 0.779-0.724 1.158-1.103l2.828-2.828c6.256-6.256 9.38-14.457 9.373-22.656 0.007-8.198-3.117-16.4-9.373-22.655l-2.828-2.828a32.53 32.53 0 0 0-1.158-1.103L419.076 128.946c-12.497-12.497-32.758-12.497-45.255 0l-2.828 2.828c-12.497 12.497-12.497 32.758 0 45.255L577.44 383.476z"  horiz-adv-x="1024" />

    
    <glyph glyph-name="arrow_up" unicode="&#59128;" d="M511 449.917l206.424-206.424c12.497-12.497 32.758-12.497 45.255 0l2.828 2.828c12.497 12.497 12.497 32.758 0 45.255L539.37 517.714a32.306 32.306 0 0 1-2.728 3.1l-2.829 2.828c-10.44 10.44-26.301 12.158-38.525 5.153a32.026 32.026 0 0 1-6.967-5.288l-2.828-2.828a32.475 32.475 0 0 1-1.485-1.587L256.628 291.71c-12.497-12.497-12.497-32.758 0-45.255l2.828-2.829c12.497-12.496 32.758-12.496 45.255 0L511 449.917z"  horiz-adv-x="1024" />

    
    <glyph glyph-name="add" unicode="&#59129;" d="M480 416V680c0 17.673 14.327 32 32 32 17.673 0 32-14.327 32-32v-264h264c17.673 0 32-14.327 32-32 0-17.673-14.327-32-32-32H544v-264c0-17.673-14.327-32-32-32-17.673 0-32 14.327-32 32V352H216c-17.673 0-32 14.327-32 32 0 17.673 14.327 32 32 32h264z"  horiz-adv-x="1024" />

    
    <glyph glyph-name="close" unicode="&#59130;" d="M463.659 384.258l-224.86 224.86c-12.497 12.497-12.497 32.758 0 45.255l2.828 2.828c12.497 12.497 32.758 12.497 45.255 0l224.86-224.86 224.86 224.86c12.497 12.497 32.758 12.497 45.255 0l2.828-2.828c12.497-12.497 12.497-32.758 0-45.255l-224.86-224.86 224.86-224.86c12.497-12.497 12.497-32.758 0-45.255l-2.828-2.828c-12.497-12.497-32.758-12.497-45.255 0l-224.86 224.86-224.86-224.86c-12.497-12.497-32.758-12.497-45.255 0l-2.828 2.828c-12.497 12.497-12.497 32.758 0 45.255l224.86 224.86z"  horiz-adv-x="1024" />

    
    <glyph glyph-name="errow_fill" unicode="&#59131;" d="M512 384m-448 0a448 448 0 1 1 896 0 448 448 0 1 1-896 0ZM463.917 384L284.312 563.605c-12.497 12.497-12.497 32.758 0 45.255l2.828 2.828c12.497 12.497 32.758 12.497 45.255 0L512 432.083l179.605 179.605c12.497 12.497 32.758 12.497 45.255 0l2.828-2.828c12.497-12.497 12.497-32.758 0-45.255L560.083 384l179.605-179.605c12.497-12.497 12.497-32.758 0-45.255l-2.828-2.828c-12.497-12.497-32.758-12.497-45.255 0L512 335.917 332.395 156.312c-12.497-12.497-32.758-12.497-45.255 0l-2.828 2.828c-12.497 12.497-12.497 32.758 0 45.255L463.917 384z"  horiz-adv-x="1024" />

    
    <glyph glyph-name="add_circle" unicode="&#59132;" d="M512 16c203.24 0 368 164.76 368 368S715.24 752 512 752 144 587.24 144 384s164.76-368 368-368z m0-64C273.413-48 80 145.413 80 384S273.413 816 512 816s432-193.413 432-432-193.413-432-432-432z m-32 462V616c0 17.673 14.327 32 32 32 17.673 0 32-14.327 32-32v-202h200c17.673 0 32-14.327 32-32v-4c0-17.673-14.327-32-32-32H544v-194c0-17.673-14.327-32-32-32-17.673 0-32 14.327-32 32V346H280c-17.673 0-32 14.327-32 32v4c0 17.673 14.327 32 32 32h200z"  horiz-adv-x="1024" />

    
    <glyph glyph-name="infomation_fill" unicode="&#59134;" d="M512 384m-448 0a448 448 0 1 1 896 0 448 448 0 1 1-896 0ZM544 488v-360c0-17.673-14.327-32-32-32-17.673 0-32 14.327-32 32V488c0 17.673 14.327 32 32 32 17.673 0 32-14.327 32-32z m-32 88c-22.091 0-40 17.909-40 40s17.909 40 40 40 40-17.909 40-40-17.909-40-40-40z"  horiz-adv-x="1024" />

    
    <glyph glyph-name="cloud_download" unicode="&#59136;" d="M740 491c-17.673 0-32 14.327-32 32 0 108.248-87.752 196-196 196s-196-87.752-196-196c0-17.673-14.327-32-32-32-81.738 0-148-66.262-148-148s66.262-148 148-148c17.673 0 32-14.327 32-32 0-17.673-14.327-32-32-32-117.084 0-212 94.916-212 212 0 106.795 78.966 195.146 181.695 209.85C268.5 682.386 378.5 783 512 783c133.5 0 243.499-100.614 258.305-230.15C873.034 538.146 952 449.795 952 343c0-117.084-94.916-212-212-212-17.673 0-32 14.327-32 32 0 17.673 14.327 32 32 32 81.738 0 148 66.262 148 148s-66.262 148-148 148zM478 106.382V384c0 17.673 14.327 32 32 32 17.673 0 32-14.327 32-32v-279.064l73.735 73.735c12.497 12.497 32.758 12.497 45.255 0l2.828-2.828c12.497-12.497 12.497-32.758 0-45.255L533.711 0.48c-6.34-6.34-14.679-9.463-22.988-9.37-8.31-0.093-16.648 3.03-22.988 9.37L357.627 130.588c-12.496 12.497-12.496 32.758 0 45.255l2.829 2.828c12.497 12.497 32.758 12.497 45.255 0L478 106.382z"  horiz-adv-x="1024" />

    
    <glyph glyph-name="cloud_upload" unicode="&#59137;" d="M740 491c-17.673 0-32 14.327-32 32 0 108.248-87.752 196-196 196s-196-87.752-196-196c0-17.673-14.327-32-32-32-81.738 0-148-66.262-148-148s66.262-148 148-148c17.673 0 32-14.327 32-32 0-17.673-14.327-32-32-32-117.084 0-212 94.916-212 212 0 106.795 78.966 195.146 181.695 209.85C268.5 682.386 378.5 783 512 783c133.5 0 243.499-100.614 258.305-230.15C873.034 538.146 952 449.795 952 343c0-117.084-94.916-212-212-212-17.673 0-32 14.327-32 32 0 17.673 14.327 32 32 32 81.738 0 148 66.262 148 148s-66.262 148-148 148zM478 300.726v-277.618c0-17.673 14.327-32 32-32 17.673 0 32 14.327 32 32V302.172l73.735-73.735c12.497-12.497 32.758-12.497 45.255 0l2.828 2.828c12.497 12.497 12.497 32.758 0 45.255L533.711 406.627c-6.34 6.34-14.679 9.464-22.988 9.371-8.31 0.093-16.648-3.03-22.988-9.37L357.627 276.52c-12.496-12.497-12.496-32.758 0-45.255l2.829-2.828c12.497-12.497 32.758-12.497 45.255 0L478 300.726z"  horiz-adv-x="1024" />

    
    <glyph glyph-name="collection_outline" unicode="&#59138;" d="M301.238 57.534L513 168.864l211.762-111.33-40.443 235.801L855.64 460.33 618.88 494.733 513 709.27 407.119 494.733 170.362 460.33 341.68 293.335l-40.443-235.8zM513 91.136L286.982-27.69c-21.02-11.051-47.02-2.97-58.07 18.05a43 43 0 0 0-4.321 27.28l43.165 251.675L84.904 447.553c-17.006 16.576-17.354 43.8-0.777 60.806a43 43 0 0 0 24.608 12.539l252.696 36.719 113.01 228.981c10.51 21.296 36.293 30.04 57.59 19.53a43 43 0 0 0 19.529-19.53l113.009-228.981 252.696-36.72c23.501-3.414 39.785-25.234 36.37-48.736a43 43 0 0 0-12.539-24.608L758.244 269.316l43.165-251.676c4.015-23.406-11.706-45.635-35.112-49.65a43 43 0 0 0-27.279 4.32L513 91.137z"  horiz-adv-x="1024" />

    
    <glyph glyph-name="collection_fill" unicode="&#59139;" d="M512.997 85.534L287.84-32.961c-21.386-11.254-47.836-3.024-59.079 18.383a43.831 43.831 0 0 0-4.395 27.781l43.001 250.976L85.211 441.922c-17.301 16.881-17.655 44.606-0.79 61.925a43.73 43.73 0 0 0 25.035 12.77l251.733 36.617 112.58 228.345c10.692 21.688 36.923 30.593 58.589 19.89a43.769 43.769 0 0 0 19.868-19.89l112.579-228.345 251.734-36.617c23.909-3.478 40.475-25.7 37-49.634a43.808 43.808 0 0 0-12.756-25.061L758.627 264.179l43.001-250.976c4.085-23.837-11.909-46.475-35.721-50.564a43.707 43.707 0 0 0-27.752 4.4L512.997 85.534z"  horiz-adv-x="1024" />

    
    <glyph glyph-name="remove" unicode="&#59140;" d="M184 416m32 0l592 0q32 0 32-32l0 0q0-32-32-32l-592 0q-32 0-32 32l0 0q0 32 32 32Z"  horiz-adv-x="1024" />

    
    <glyph glyph-name="refresh" unicode="&#59142;" d="M221.312 575.066C186.903 520.854 168 457.445 168 391c0-189.986 154.014-344 344-344a346.72 346.72 0 0 1 55.054 4.377c17.449 2.805 33.868-9.067 36.673-26.516 2.804-17.45-9.067-33.868-26.517-36.673A410.719 410.719 0 0 0 512-17c-225.332 0-408 182.668-408 408 0 83.689 25.339 163.41 71.121 230.256L105 691.378l214.96 28.284-28.284-214.96-70.364 70.364z m576.425-375.71C835.28 255.198 856 321.436 856 391c0 189.986-154.014 344-344 344a346.66 346.66 0 0 1-55.824-4.502c-17.443-2.844-33.89 8.99-36.733 26.433-2.845 17.443 8.99 33.889 26.432 36.733A410.66 410.66 0 0 0 512 799c225.332 0 408-182.668 408-408 0-87.578-27.748-170.813-77.64-239.497l70.48-75.58-215.816-20.765L732.793 269l64.944-69.644z"  horiz-adv-x="1024" />

    
    <glyph glyph-name="ture" unicode="&#59143;" d="M407.1 206.983l438.39 438.39c12.496 12.496 32.758 12.496 45.254 0l2.829-2.829c12.497-12.497 12.497-32.758 0-45.255L429.71 133.427c-12.497-12.497-32.758-12.497-45.255 0l-2.829 2.829a32.565 32.565 0 0 0-0.863 0.897L129.627 388.289c-12.496 12.497-12.496 32.758 0 45.255l2.829 2.829c12.497 12.496 32.758 12.496 45.255 0l229.39-229.39z"  horiz-adv-x="1024" />

    
    <glyph glyph-name="unfold_menu" unicode="&#59144;" d="M480 100V668c0 17.673 14.327 32 32 32 17.673 0 32-14.327 32-32v-568c0-17.673-14.327-32-32-32-17.673 0-32 14.327-32 32z m-224 0V668c0 17.673 14.327 32 32 32 17.673 0 32-14.327 32-32v-568c0-17.673-14.327-32-32-32-17.673 0-32 14.327-32 32z m448 0V668c0 17.673 14.327 32 32 32 17.673 0 32-14.327 32-32v-568c0-17.673-14.327-32-32-32-17.673 0-32 14.327-32 32z"  horiz-adv-x="1024" />

    
    <glyph glyph-name="search" unicode="&#59145;" d="M720.805 220.299C767.869 277.245 794 348.529 794 424c0 176.731-143.269 320-320 320S154 600.731 154 424s143.269-320 320-320c76.937 0 149.511 27.162 206.94 75.908l21.719 18.435 18.146 21.956z m147.39-188.38l-2.878-2.778a32.49 32.49 0 0 0 1.481 1.345c0.448 0.489 0.913 0.967 1.396 1.433z m45.247-0.79c12.277-12.712 11.923-32.97-0.79-45.247l-2.877-2.779c-12.713-12.277-32.971-11.923-45.248 0.79L722.356 131.115C655.4 74.283 568.704 40 474 40 261.923 40 90 211.923 90 424S261.923 808 474 808s384-171.923 384-384c0-92.883-32.978-178.064-87.863-244.473L913.442 31.13z"  horiz-adv-x="1024" />

    
    <glyph glyph-name="fold_menu" unicode="&#59146;" d="M228 416h568c17.673 0 32-14.327 32-32 0-17.673-14.327-32-32-32H228c-17.673 0-32 14.327-32 32 0 17.673 14.327 32 32 32z m0 224h568c17.673 0 32-14.327 32-32 0-17.673-14.327-32-32-32H228c-17.673 0-32 14.327-32 32 0 17.673 14.327 32 32 32z m0-448h568c17.673 0 32-14.327 32-32 0-17.673-14.327-32-32-32H228c-17.673 0-32 14.327-32 32 0 17.673 14.327 32 32 32z"  horiz-adv-x="1024" />

    
    <glyph glyph-name="upload" unicode="&#59147;" d="M176 48h672V222c0 17.673 14.327 32 32 32 17.673 0 32-14.327 32-32v-206c0-17.673-14.327-32-32-32H144c-17.673 0-32 14.327-32 32V222c0 17.673 14.327 32 32 32 17.673 0 32-14.327 32-32v-174z m366 599.902V159c0-17.673-14.327-32-32-32-17.673 0-32 14.327-32 32V648.917l-135.29-135.29c-12.496-12.496-32.757-12.496-45.254 0l-2.829 2.829c-12.496 12.497-12.496 32.758 0 45.255L486.96 754.044c12.497 12.496 32.759 12.496 45.255 0l2.829-2.829a32.403 32.403 0 0 0 1.997-2.188l187.66-187.66c12.496-12.496 12.496-32.758 0-45.254l-2.829-2.829c-12.497-12.497-32.758-12.497-45.255 0L542 647.902z"  horiz-adv-x="1024" />

    
    <glyph glyph-name="download" unicode="&#59148;" d="M880-16H144c-17.673 0-32 14.327-32 32V222c0 17.673 14.327 32 32 32 17.673 0 32-14.327 32-32v-174h672V222c0 17.673 14.327 32 32 32 17.673 0 32-14.327 32-32v-206c0-17.673-14.327-32-32-32zM542 256.098l134.617 134.618c12.497 12.497 32.758 12.497 45.255 0l2.829-2.829c12.496-12.496 12.496-32.758 0-45.255l-187.66-187.66a32.403 32.403 0 0 0-1.997-2.187l-2.829-2.829c-12.496-12.496-32.758-12.496-45.255 0L294.627 342.29c-12.496 12.497-12.496 32.758 0 45.255l2.829 2.829c12.497 12.496 32.758 12.496 45.255 0L478 255.083V745c0 17.673 14.327 32 32 32 17.673 0 32-14.327 32-32v-488.902z"  horiz-adv-x="1024" />

    
    <glyph glyph-name="mail" unicode="&#59149;" d="M128 638.413V86h768V637.82L533.657 354.727a33.856 33.856 0 0 0-21.277-7.207 33.856 33.856 0 0 0-21.278 7.207L128 638.413zM836.978 678H187.78L512.38 424.396 836.978 678zM96 742h832c17.673 0 32-14.327 32-32v-656c0-17.673-14.327-32-32-32H96c-17.673 0-32 14.327-32 32V710c0 17.673 14.327 32 32 32z"  horiz-adv-x="1024" />

    
    <glyph glyph-name="message" unicode="&#59150;" d="M573.983 180.963a36 36 0 0 0 20.923 6.704h40.428C779.296 187.667 896 304.372 896 448.334S779.296 709 635.334 709H388.666C244.704 709 128 592.296 128 448.334v-2.617c0-142.517 115.533-258.05 258.05-258.05h33.053a36 36 0 0 0 5.44-0.413c19.654-3.004 33.15-21.372 30.147-41.026l-8.66-56.654 127.953 91.389z m-187.485-57.296h-0.449C208.186 123.667 64 267.854 64 445.717v2.617C64 627.642 209.358 773 388.666 773h246.668C814.642 773 960 627.642 960 448.334c0-179.309-145.358-324.667-324.666-324.667h-31.455L436.963 4.45c-17.977-12.84-42.959-8.675-55.799 9.302a40 40 0 0 0-6.99 29.292l12.324 80.623zM320 448m-48 0a48 48 0 1 1 96 0 48 48 0 1 1-96 0ZM512 448m-48 0a48 48 0 1 1 96 0 48 48 0 1 1-96 0ZM704 448m-48 0a48 48 0 1 1 96 0 48 48 0 1 1-96 0Z"  horiz-adv-x="1024" />

    
    <glyph glyph-name="time" unicode="&#59152;" d="M512 16c203.24 0 368 164.76 368 368S715.24 752 512 752 144 587.24 144 384s164.76-368 368-368z m0-64C273.413-48 80 145.413 80 384S273.413 816 512 816s432-193.413 432-432-193.413-432-432-432z m32 466h248c17.673 0 32-14.327 32-32v-4c0-17.673-14.327-32-32-32H512c-17.673 0-32 14.327-32 32V662c0 17.673 14.327 32 32 32 17.673 0 32-14.327 32-32v-244z"  horiz-adv-x="1024" />

    
    <glyph glyph-name="filter" unicode="&#59153;" d="M569 492H457v-455.727l112 79.262V492z m-146.215 64h180.388l162.051 193H260.152l162.633-193zM633 492v-393.021a32 32 0 0 0-13.514-26.12l-176-124.556c-14.426-10.21-34.397-6.791-44.607 7.635A32 32 0 0 0 393-25.577V492.026L166.87 760.38c-11.388 13.514-9.664 33.702 3.85 45.09A32 32 0 0 0 191.342 813h642.536c17.673 0 32-14.327 32-32a32 32 0 0 0-7.493-20.577L633.004 492z"  horiz-adv-x="1024" />

    
    <glyph glyph-name="poweroff" unicode="&#59154;" d="M480 546V770c0 17.673 14.327 32 32 32 17.673 0 32-14.327 32-32v-224c0-17.673-14.327-32-32-32-17.673 0-32 14.327-32 32zM301.712 749.949c15.316 8.818 34.88 3.551 43.7-11.764 8.818-15.316 3.55-34.88-11.765-43.7C223.381 630.997 154 513.566 154 384c0-197.718 160.282-358 358-358s358 160.282 358 358c0 128.598-68.343 245.281-177.301 309.123-15.249 8.935-20.367 28.539-11.433 43.787 8.935 15.249 28.539 20.367 43.787 11.433C853.418 673.13 934 535.55 934 384c0-233.064-188.936-422-422-422S90 150.936 90 384c0 152.69 81.804 291.15 211.712 365.949z"  horiz-adv-x="1024" />

    
    <glyph glyph-name="notice" unicode="&#59155;" d="M640 75c0-70.692-57.308-128-128-128-70.692 0-128 57.308-128 128H185.475c-8.836 0-16 7.163-16 16a16 16 0 0 0 1.835 7.44L232 214V476c0 144.162 108.948 262.878 249 278.303V787c0 17.673 14.327 32 32 32 17.673 0 32-14.327 32-32v-32.924c139.088-16.33 247-134.6 247-278.076v-262l60.69-115.56a16 16 0 0 0 1.835-7.44c0-8.837-7.164-16-16-16H640z m-64 0H448c0-35.346 28.654-64 64-64 35.346 0 64 28.654 64 64zM296 214l-39.388-75h510.776L728 214V476c0 119.294-96.706 216-216 216s-216-96.706-216-216v-262z"  horiz-adv-x="1024" />

    
    <glyph glyph-name="my" unicode="&#59156;" d="M380.303 365.329C315.067 408.229 272 482.085 272 566c0 132.548 107.452 240 240 240s240-107.452 240-240c0-83.915-43.067-157.77-108.303-200.671C795.41 311.226 904 166.294 904-4c0-17.673-14.327-32-32-32-17.673 0-32 14.327-32 32 0 181.15-146.85 328-328 328S184 177.15 184-4c0-17.673-14.327-32-32-32-17.673 0-32 14.327-32 32 0 170.294 108.59 315.226 260.303 369.329zM512 390c97.202 0 176 78.798 176 176s-78.798 176-176 176-176-78.798-176-176 78.798-176 176-176z"  horiz-adv-x="1024" />

    
    <glyph glyph-name="link" unicode="&#59157;" d="M379.23 293.67L598.74 520.98c12.277 12.713 32.535 13.067 45.248 0.79l2.877-2.779c12.713-12.276 13.067-32.535 0.79-45.248L428.144 246.433c-12.277-12.713-32.535-13.067-45.248-0.79l-2.877 2.779c-12.713 12.277-13.067 32.535-0.79 45.248z m110.708 251.116c-13.277-13.278-34.805-13.278-48.083 0-13.278 13.278-13.278 34.806 0 48.083l146.098 146.099c77.324 77.323 202.69 77.323 280.015 0 77.323-77.324 77.323-202.69 0-280.015L721.914 312.9c-13.278-13.278-34.805-13.278-48.083 0-13.278 13.278-13.278 34.805 0 48.083l146.053 146.054c50.769 50.768 50.769 133.08 0 183.847-50.768 50.769-133.08 50.769-183.847 0L489.938 544.786z m45.9-321.796c13.278 13.278 34.805 13.278 48.083 0 13.278-13.278 13.278-34.805 0-48.083L438.047 29.032c-77.324-77.323-202.69-77.323-280.015 0-77.323 77.324-77.323 202.69 0 280.015L303.6 454.614c13.278 13.278 34.805 13.278 48.083 0 13.278-13.278 13.278-34.805 0-48.083L206.116 260.963c-50.769-50.768-50.769-133.08 0-183.847 50.768-50.769 133.08-50.769 183.847 0L535.838 222.99z"  horiz-adv-x="1024" />

    
    <glyph glyph-name="emoji" unicode="&#59158;" d="M512 16c203.24 0 368 164.76 368 368S715.24 752 512 752 144 587.24 144 384s164.76-368 368-368z m0-64C273.413-48 80 145.413 80 384S273.413 816 512 816s432-193.413 432-432-193.413-432-432-432zM320 342c0 17.673 14.327 32 32 32 17.673 0 32-14.327 32-32 0-70.692 57.308-128 128-128 70.692 0 128 57.308 128 128 0 17.673 14.327 32 32 32 17.673 0 32-14.327 32-32 0-106.039-85.961-192-192-192s-192 85.961-192 192z m-10 102c-28.719 0-52 23.281-52 52s23.281 52 52 52 52-23.281 52-52-23.281-52-52-52z m406 0c-28.719 0-52 23.281-52 52s23.281 52 52 52 52-23.281 52-52-23.281-52-52-52z"  horiz-adv-x="1024" />

    
    <glyph glyph-name="favor" unicode="&#59159;" d="M658.533 522H880.87c22.091 0 40-17.909 40-40a40 40 0 0 0-1.679-11.467l-0.192-0.643-156.937-454.237C756.726-0.8 741.382-12 724.015-12H410c-22.092 0-40 17.909-40 40V482c0 13.38 6.57 25.227 16.66 32.488a32.34 32.34 0 0 0 2.983 2.206c52.782 34.539 85.217 93.206 85.217 157.446 0 24.965-4.85 49.199-14.159 71.728-6.748 16.334 1.023 35.046 17.357 41.794a31.875 31.875 0 0 0 22.27 0.806c0.45-0.144 0.898-0.3 1.346-0.465C602.728 750.645 668.316 650.675 660.689 541.6A247.416 247.416 0 0 0 658.533 522z m-36.117-63.37a31.867 31.867 0 0 0-14.621 1.4c-16.74 5.67-25.714 23.835-20.045 40.575 4.932 14.561 8 29.794 9.095 45.458 3.96 56.633-18.822 109.951-58.627 146.193a255.19 255.19 0 0 0 0.642-18.116c0-81.612-39.126-156.6-103.432-203.57a32.162 32.162 0 0 0-1.428-1.737V52h272.907L847.18 458h-218.41c-2.175 0-4.3 0.217-6.353 0.63zM171.66 458l62.131-407h35.326l0.863 407h-98.32z m-27.941 64h150.312c22.091 0 40-17.909 40-40v-0.085l-0.965-455c-0.047-22.058-17.942-39.915-40-39.915h-79.889c-19.76 0-36.56 14.43-39.542 33.964l-69.458 455c-3.334 21.838 11.667 42.244 33.505 45.578a40 40 0 0 0 6.037 0.458z"  horiz-adv-x="1024" />

    
    <glyph glyph-name="edit-square" unicode="&#59160;" d="M864 500v-514c0-17.673-14.327-32-32-32H192c-17.673 0-32 14.327-32 32V719c0 17.673 14.327 32 32 32h400c17.673 0 32-14.327 32-32 0-17.673-14.327-32-32-32H224v-669h576V500c0 17.673 14.327 32 32 32 17.673 0 32-14.327 32-32z m-291.77-6.264L861.206 792.98c12.277 12.713 32.535 13.067 45.248 0.79l2.877-2.779c12.713-12.276 13.067-32.535 0.79-45.248L621.144 446.5c-12.277-12.713-32.535-13.067-45.248-0.79l-2.877 2.779c-12.713 12.277-13.067 32.535-0.79 45.248zM312 487h160c17.673 0 32-14.327 32-32 0-17.673-14.327-32-32-32H312c-17.673 0-32 14.327-32 32 0 17.673 14.327 32 32 32z m0-172h320c17.673 0 32-14.327 32-32 0-17.673-14.327-32-32-32H312c-17.673 0-32 14.327-32 32 0 17.673 14.327 32 32 32z"  horiz-adv-x="1024" />

    
    <glyph glyph-name="system" unicode="&#59161;" d="M873.73 601.882c24.59-15.975 38.43-39.173 37.91-63.596-0.49-23.779-14.576-45.66-38.614-59.922l-286.438-170.19c-18.925-11.262-43.453-17.444-69.084-17.444-29.06 0-56.834 7.65-78.239 21.575L150.867 499.848c-24.59 16.006-38.43 39.204-37.91 63.626 0.49 23.78 14.576 45.63 38.614 59.923l286.47 170.159C478.4 817.58 545.124 815.59 585.331 789.424L873.73 601.882z m-31.939-70.91c6.492 3.856 8.605 7.437 8.636 8.6 0.03 1.438-2.389 6.029-10.075 11.017L551.923 738.132c-11.39 7.406-27.743 11.66-44.83 11.66-14.546 0-28.326-3.214-37.788-8.814l-286.469-170.19c-6.46-3.856-8.604-7.437-8.635-8.57-0.03-1.468 2.388-6.059 10.105-11.078l288.398-187.542c21.13-13.741 62.071-15.027 82.65-2.816l286.437 170.19z m-0.643-170.738a30.637 30.637 0 0 0 30.824 0.636 30.601 30.601 0 0 0 15.755-26.485 30.6 30.6 0 0 0-15.283-26.76l-284.815-169.21c-19.72-11.721-44.188-17.505-68.9-17.505-27.682 0-55.67 7.253-77.78 21.637l-286.744 186.47c-13.912 9.323-17.747 28.087-8.61 42.116 9.138 14.029 27.858 18.117 42.018 9.177l286.745-186.47c22.048-14.354 60.386-15.64 81.975-2.816l284.815 169.21z m0-159.32a30.637 30.637 0 0 0 31.058 0.91 30.601 30.601 0 0 0 15.868-26.698 30.601 30.601 0 0 0-15.66-26.821l-284.816-169.21c-19.72-11.722-44.187-17.506-68.9-17.506-27.682 0-55.67 7.253-77.749 21.607L154.205 169.697c-13.912 9.323-17.747 28.086-8.61 42.115 9.138 14.03 27.858 18.118 42.018 9.178l286.745-186.502c22.048-14.292 60.325-15.577 81.975-2.785l284.815 169.21z"  horiz-adv-x="1024" />

    
    <glyph glyph-name="data_source" unicode="&#59163;" d="M224 744v-128h576V744H224z m-32 64h640c17.673 0 32-14.327 32-32v-192c0-17.673-14.327-32-32-32H192c-17.673 0-32 14.327-32 32V776c0 17.673 14.327 32 32 32z m32-360v-128h576V448H224z m-32 64h640c17.673 0 32-14.327 32-32v-192c0-17.673-14.327-32-32-32H192c-17.673 0-32 14.327-32 32V480c0 17.673 14.327 32 32 32z m32-360v-128h576V152H224z m-32 64h640c17.673 0 32-14.327 32-32v-192c0-17.673-14.327-32-32-32H192c-17.673 0-32 14.327-32 32V184c0 17.673 14.327 32 32 32z m368 496h188c8.837 0 16-7.163 16-16v-32c0-8.837-7.163-16-16-16H560c-8.837 0-16 7.163-16 16v32c0 8.837 7.163 16 16 16z m0-296h188c8.837 0 16-7.163 16-16v-32c0-8.837-7.163-16-16-16H560c-8.837 0-16 7.163-16 16v32c0 8.837 7.163 16 16 16z m0-296h188c8.837 0 16-7.163 16-16v-32c0-8.837-7.163-16-16-16H560c-8.837 0-16 7.163-16 16v32c0 8.837 7.163 16 16 16z"  horiz-adv-x="1024" />

    
    <glyph glyph-name="picture" unicode="&#59165;" d="M128 146.973l170.172 280.13c11.47 18.88 36.073 24.889 54.954 13.42a40 40 0 0 0 11.588-10.668L513.23 225.541l89.603 111.884c13.809 17.243 38.982 20.027 56.225 6.218a40 40 0 0 0 7.055-7.3L852.91 86H896V678H128v-531.027zM165.844 86h607.213L633.384 273.189l-89.854-112.2a40 40 0 0 0-7.703-7.35c-17.87-12.99-42.885-9.034-55.874 8.835L334.148 363.056 165.844 86zM96 742h832c17.673 0 32-14.327 32-32v-656c0-17.673-14.327-32-32-32H96c-17.673 0-32 14.327-32 32V710c0 17.673 14.327 32 32 32z m640-281c-44.735 0-81 36.265-81 81s36.265 81 81 81 81-36.265 81-81-36.265-81-81-81z"  horiz-adv-x="1024" />

    
    <glyph glyph-name="label" unicode="&#59167;" d="M490.003 87.038L226.959 350.082l-77.908-77.909L412.095 9.13l77.908 77.908z m48.083 48.083l348.025 348.025-17.034 246.01-246.01 17.034-348.024-348.025 263.043-263.044z m-148.619-199.53L75.512 249.546c-12.497 12.497-12.497 32.758 0 45.255L586.575 805.864a32 32 0 0 0 24.838 9.296l293.623-20.332c15.931-1.103 28.61-13.782 29.713-29.713l20.332-293.624a32 32 0 0 0-9.296-24.838L434.722-64.409c-12.497-12.497-32.758-12.497-45.255 0z m322.55 636.504c-18.024 18.025-47.247 18.025-65.272 0-18.024-18.024-18.024-47.247 0-65.271 18.025-18.024 47.248-18.024 65.272 0 18.024 18.024 18.024 47.247 0 65.271z m52.217 52.218c46.863-46.863 46.863-122.843 0-169.706-46.863-46.863-122.843-46.863-169.706 0-46.863 46.863-46.863 122.843 0 169.706 46.863 46.862 122.843 46.862 169.706 0z"  horiz-adv-x="1024" />

    
    <glyph glyph-name="question_fill" unicode="&#59166;" d="M512 384m-448 0a448 448 0 1 1 896 0 448 448 0 1 1-896 0ZM544 322.902V240c0-17.673-14.327-32-32-32-17.673 0-32 14.327-32 32V352c0 17.673 14.327 32 32 32 61.856 0 112 50.144 112 112s-50.144 112-112 112-112-50.144-112-112c0-17.673-14.327-32-32-32-17.673 0-32 14.327-32 32 0 97.202 78.798 176 176 176s176-78.798 176-176c0-86.274-62.076-158.05-144-173.098zM511 87c-22.091 0-40 17.909-40 40s17.909 40 40 40 40-17.909 40-40-17.909-40-40-40z"  horiz-adv-x="1024" />

    
    <glyph glyph-name="check_fill" unicode="&#59170;" d="M512 384m-448 0a448 448 0 1 1 896 0 448 448 0 1 1-896 0ZM450.19 248.288l285.564 285.565c12.497 12.497 32.758 12.497 45.255 0l3.536-3.536c12.497-12.496 12.497-32.758 0-45.255L473.418 173.935c-6.402-6.4-14.84-9.523-23.229-9.367-8.389-0.156-16.827 2.966-23.229 9.367L234.627 366.27c-12.496 12.496-12.496 32.758 0 45.254l3.536 3.536c12.497 12.497 32.758 12.497 45.255 0l166.771-166.771z"  horiz-adv-x="1024" />

    
    <glyph glyph-name="security" unicode="&#59171;" d="M225 289.171c0-59.191 22.376-110.887 69.394-158.195 47.415-47.707 119.652-90.467 216.93-127.22 98.586 42.664 172.007 88.776 220.282 137.349C778.887 188.677 801 237.22 801 289.17v322.07c-88.875 15.746-185.37 63.445-290.436 141.782C396.579 677.43 302.296 630.571 225 613.153v-323.982z m-64 380.27c78.16 0 195.493 54.187 352 162.559 135.69-108.372 253.023-162.558 352-162.558v-380.27C865 149.651 747.667 31.594 513-65c-234.667 83.09-352 201.148-352 354.171v380.27zM387 461v50c0 66.826 54.174 121 121 121h11c66.826 0 121-54.174 121-121v-50h22c17.673 0 32-14.327 32-32v-248c0-17.673-14.327-32-32-32H364c-17.673 0-32 14.327-32 32V429c0 17.673 14.327 32 32 32h23z m64 0h125v50c0 31.48-25.52 57-57 57h-11c-31.48 0-57-25.52-57-57v-50z m-55-64v-184h234V397H396z"  horiz-adv-x="1024" />

    
    <glyph glyph-name="setting" unicode="&#59162;" d="M915.075 272.915l-63.941 54.628a350.558 350.558 0 0 1 4.588 56.384c0 18.925-1.562 37.85-4.588 56.384l63.941 54.628c9.86 8.39 13.472 22.046 9.079 34.337l-0.879 2.537c-17.669 49.263-43.831 94.526-77.803 134.521l-1.757 2.049a31.373 31.373 0 0 1-34.265 9.267l-79.366-28.192c-29.286 23.997-61.989 42.922-97.327 56.189l-15.327 82.918c-2.343 12.779-12.398 22.729-25.186 25.07l-2.636 0.488c-50.86 9.17-104.356 9.17-155.216 0l-2.636-0.488c-12.788-2.341-22.843-12.291-25.186-25.07l-15.424-83.308c-35.046-13.267-67.554-32.094-96.645-55.994l-79.95 28.387c-12.203 4.292-25.87 0.683-34.266-9.267l-1.757-2.049c-33.972-40.093-60.134-85.356-77.803-134.521l-0.879-2.537c-4.393-12.193-0.78-25.85 9.079-34.337l64.722-55.214c-3.026-18.339-4.49-37.069-4.49-55.7 0-18.73 1.464-37.46 4.49-55.702l-64.722-55.213c-9.86-8.39-13.472-22.046-9.079-34.338l0.879-2.536c17.669-49.165 43.831-94.526 77.803-134.522l1.757-2.048a31.373 31.373 0 0 1 34.265-9.267l79.951 28.387c29.091-23.9 61.599-42.825 96.645-55.994l15.424-83.308c2.343-12.779 12.398-22.729 25.186-25.07l2.636-0.488A439.006 439.006 0 0 1 512-53c26.065 0 52.227 2.341 77.608 6.926l2.636 0.488c12.788 2.341 22.843 12.291 25.186 25.07l15.327 82.918c35.338 13.267 68.041 32.094 97.327 56.189l79.366-28.192c12.202-4.293 25.87-0.683 34.265 9.267l1.757 2.048c33.972 40.094 60.134 85.357 77.803 134.522l0.879 2.536c4.393 11.999 0.78 25.656-9.079 34.143zM780.483 429.97a274.942 274.942 0 0 0 3.706-44.874c0-15.087-1.268-30.175-3.706-44.874l-6.437-39.033 72.856-62.2c-11.02-25.406-24.968-49.352-41.548-71.643l-90.51 32.025-30.626-25.114c-23.31-19.079-49.254-34.07-77.343-44.582l-37.16-13.92-17.459-94.42c-27.406-3.115-55.398-3.115-82.902 0l-17.459 94.615-36.867 14.114c-27.797 10.513-53.643 25.504-76.758 44.485l-30.626 25.211-91.095-32.317c-16.58 22.291-30.43 46.334-41.549 71.643l73.637 62.784-6.34 38.936c-2.34 14.504-3.608 29.495-3.608 44.29 0 14.893 1.17 29.787 3.609 44.29l6.34 38.936L175 531.108c11.021 25.406 24.968 49.352 41.549 71.643l91.095-32.317 30.626 25.21c23.115 18.982 48.961 33.972 76.758 44.485l36.965 13.92 17.458 94.615c27.407 3.115 55.399 3.115 82.903 0l17.458-94.42 37.16-13.92c27.992-10.513 54.033-25.503 77.344-44.582l30.625-25.114 90.51 32.025c16.58-22.29 30.43-46.334 41.549-71.642l-72.857-62.2 6.34-38.84zM512 292c50.81 0 92 41.19 92 92s-41.19 92-92 92-92-41.19-92-92 41.19-92 92-92z m0-64c-86.156 0-156 69.844-156 156s69.844 156 156 156 156-69.844 156-156-69.844-156-156-156z"  horiz-adv-x="1024" />

    
    <glyph glyph-name="rollback" unicode="&#59172;" d="M302.5 560H698v-0.248C825.442 554.003 927 448.862 927 320c0-131.212-105.297-237.832-236-239.967V80H433c-17.673 0-32 14.327-32 32 0 17.673 14.327 32 32 32h254c97.202 0 176 78.798 176 176s-78.798 176-176 176H302.5v-126.5L96.5 528l206 158.5V560z"  horiz-adv-x="1024" />

    
    <glyph glyph-name="show" unicode="&#59173;" d="M513 295c-49.153 0-89 39.847-89 89s39.847 89 89 89 89-39.847 89-89-39.847-89-89-89z m-0.378-135c161.09 0 306.38 87.324 383.457 224-77.076 136.676-222.367 224-383.457 224S206.24 520.676 129.165 384c77.076-136.676 222.367-224 383.457-224z m0 512c201.057 0 374.618-117.724 455.509-288-80.891-170.276-254.452-288-455.51-288-201.056 0-374.617 117.724-455.508 288 80.891 170.276 254.452 288 455.509 288z"  horiz-adv-x="1024" />

    
    <glyph glyph-name="function" unicode="&#59164;" d="M164 732v-248h248V732H164z m-32 64h312c17.673 0 32-14.327 32-32v-312c0-17.673-14.327-32-32-32H132c-17.673 0-32 14.327-32 32V764c0 17.673 14.327 32 32 32z m32-512v-248h248V284H164z m-32 64h312c17.673 0 32-14.327 32-32v-312c0-17.673-14.327-32-32-32H132c-17.673 0-32 14.327-32 32V316c0 17.673 14.327 32 32 32z m480 384v-248h248V732H612z m-32 64h312c17.673 0 32-14.327 32-32v-312c0-17.673-14.327-32-32-32H580c-17.673 0-32 14.327-32 32V764c0 17.673 14.327 32 32 32z m32-512v-248h248V284H612z m-32 64h312c17.673 0 32-14.327 32-32v-312c0-17.673-14.327-32-32-32H580c-17.673 0-32 14.327-32 32V316c0 17.673 14.327 32 32 32z"  horiz-adv-x="1024" />

    
    <glyph glyph-name="fullscreen-exit" unicode="&#59168;" d="M427 254.49L277.045 99.206c-12.277-12.713-32.535-13.067-45.248-0.79l-2.877 2.778c-12.713 12.277-13.067 32.535-0.79 45.248L380.28 304H283c-17.673 0-32 14.327-32 32 0 17.673 14.327 32 32 32h176c17.673 0 32-14.327 32-32v-176c0-17.673-14.327-32-32-32-17.673 0-32 14.327-32 32v94.49zM599 513.698l149.955 155.283c12.277 12.713 32.535 13.067 45.248 0.79l2.877-2.779c12.713-12.276 13.067-32.535 0.79-45.248L645.538 464H743c17.673 0 32-14.327 32-32 0-17.673-14.327-32-32-32H567c-17.673 0-32 14.327-32 32V608c0 17.673 14.327 32 32 32 17.673 0 32-14.327 32-32v-94.302zM153 744v-720h720V744H153z m-32 64h784c17.673 0 32-14.327 32-32v-784c0-17.673-14.327-32-32-32H121c-17.673 0-32 14.327-32 32V776c0 17.673 14.327 32 32 32z"  horiz-adv-x="1024" />

    
    <glyph glyph-name="fullscreen" unicode="&#59169;" d="M315.538 140H413c17.673 0 32-14.327 32-32 0-17.673-14.327-32-32-32H237c-17.673 0-32 14.327-32 32V284c0 17.673 14.327 32 32 32 17.673 0 32-14.327 32-32v-94.302l149.955 155.283c12.277 12.713 32.535 13.067 45.248 0.79l2.877-2.779c12.713-12.276 13.067-32.535 0.79-45.248L315.538 140zM710.28 628H613c-17.673 0-32 14.327-32 32 0 17.673 14.327 32 32 32h176c17.673 0 32-14.327 32-32v-176c0-17.673-14.327-32-32-32-17.673 0-32 14.327-32 32v94.49L607.045 423.206c-12.277-12.713-32.535-13.067-45.248-0.79l-2.877 2.778c-12.713 12.277-13.067 32.535-0.79 45.248L710.28 628zM153 744v-720h720V744H153z m-32 64h784c17.673 0 32-14.327 32-32v-784c0-17.673-14.327-32-32-32H121c-17.673 0-32 14.327-32 32V776c0 17.673 14.327 32 32 32z"  horiz-adv-x="1024" />

    


  </font>
</defs>
</svg>
