<?xml version="1.0" standalone="no"?>
<!DOCTYPE svg PUBLIC "-//W3C//DTD SVG 1.1//EN" "http://www.w3.org/Graphics/SVG/1.1/DTD/svg11.dtd" >
<svg xmlns="http://www.w3.org/2000/svg">
<metadata>
Created by FontForge 20120731 at Fri Apr  7 19:03:00 2017
 By admin
</metadata>
<defs>
<font id="gfs-icon" horiz-adv-x="1024" >
  <font-face 
    font-family="gfs-icon"
    font-weight="500"
    font-stretch="normal"
    units-per-em="1024"
    panose-1="2 0 6 3 0 0 0 0 0 0"
    ascent="896"
    descent="-128"
    x-height="792"
    bbox="0 -127 1024 893.706"
    underline-thickness="0"
    underline-position="0"
    unicode-range="U+0078-E65B"
  />
<missing-glyph 
 />
    <glyph glyph-name=".notdef" 
 />
    <glyph glyph-name=".notdef" 
 />
    <glyph glyph-name=".null" horiz-adv-x="0" 
 />
    <glyph glyph-name="nonmarkingreturn" horiz-adv-x="341" 
 />
    <glyph glyph-name="x" unicode="x" horiz-adv-x="1001" 
d="M281 543q-27 -1 -53 -1h-83q-18 0 -36.5 -6t-32.5 -18.5t-23 -32t-9 -45.5v-76h912v41q0 16 -0.5 30t-0.5 18q0 13 -5 29t-17 29.5t-31.5 22.5t-49.5 9h-133v-97h-438v97zM955 310v-52q0 -23 0.5 -52t0.5 -58t-10.5 -47.5t-26 -30t-33 -16t-31.5 -4.5q-14 -1 -29.5 -0.5
t-29.5 0.5h-32l-45 128h-439l-44 -128h-29h-34q-20 0 -45 1q-25 0 -41 9.5t-25.5 23t-13.5 29.5t-4 30v167h911zM163 247q-12 0 -21 -8.5t-9 -21.5t9 -21.5t21 -8.5q13 0 22 8.5t9 21.5t-9 21.5t-22 8.5zM316 123q-8 -26 -14 -48q-5 -19 -10.5 -37t-7.5 -25t-3 -15t1 -14.5
t9.5 -10.5t21.5 -4h37h67h81h80h64h36q23 0 34 12t2 38q-5 13 -9.5 30.5t-9.5 34.5q-5 19 -11 39h-368zM336 498v228q0 11 2.5 23t10 21.5t20.5 15.5t34 6h188q31 0 51.5 -14.5t20.5 -52.5v-227h-327z" />
    <glyph glyph-name="zuoxuanzhuan" unicode="&#xe604;" 
d="M184 152q23 9 40 -10v0q62 -79 160 -108t197 6q61 21 108 64.5t72 98.5t30 118.5t-18 125.5q-22 61 -65.5 108t-98 72t-118 30t-125.5 -18q-2 -2 -8 -3.5t-9 -3.5q13 -36 18 -51q3 -8 7 -19l6 -16.5t3 -7.5v0q6 -8 1 -20q-9 -17 -27 -10v0h-1l-19 9l-131 62l-18 9l-15 7
q-9 4 -10 12q-3 8 1 15l8 15l8 18l62 131l8 20v2v0q3 7 11 9.5t15 -0.5q10 -4 12 -16v0q1 -2 3 -7.5l6 -16.5t6 -19q4 -9 10.5 -28t10.5 -29q9 5 16 7q77 28 155 22t145 -37t120.5 -89t80.5 -133q29 -76 22.5 -154t-37 -145t-88.5 -120.5t-133 -79.5q-121 -42 -239 -8
t-194 128q-8 7 -9 14q-6 14 0.5 28t20.5 18z" />
    <glyph glyph-name="more" unicode="&#xe608;" 
d="M224 288q-40 0 -68 28t-28 68t28 68t68 28t68 -28t28 -68t-28 -68t-68 -28zM512 288q-40 0 -68 28t-28 68t28 68t68 28t68 -28t28 -68t-28 -68t-68 -28zM800 288q-40 0 -68 28t-28 68t28 68t68 28t68 -28t28 -68t-28 -68t-68 -28z" />
    <glyph glyph-name="minus" unicode="&#xe609;" 
d="M864 352h-701q-13 0 -22.5 9.5t-9.5 22.5t9.5 22.5t22.5 9.5h701q13 0 22.5 -9.5t9.5 -22.5t-9.5 -22.5t-22.5 -9.5z" />
    <glyph glyph-name="menu" unicode="&#xe60a;" 
d="M133 599h758q14 0 24.5 11t10.5 25.5t-10.5 25t-24.5 10.5h-758q-15 0 -25.5 -10.5t-10.5 -25t10.5 -25.5t25.5 -11zM891 420h-758q-15 0 -25.5 -10.5t-10.5 -25.5t10.5 -25.5t25.5 -10.5h758q14 0 24.5 10.5t10.5 25.5t-10.5 25.5t-24.5 10.5zM891 169h-758
q-15 0 -25.5 -10.5t-10.5 -25.5t10.5 -25.5t25.5 -10.5h758q14 0 24.5 10.5t10.5 25.5t-10.5 25.5t-24.5 10.5z" />
    <glyph glyph-name="add" unicode="&#xe60b;" 
d="M863 415h-317v318q0 13 -9.5 22.5t-22.5 9.5t-22.5 -9.5t-9.5 -22.5v-318h-322q-14 0 -23 -9.5t-9.5 -22.5t9 -22.5t22.5 -9.5h323v-319q0 -14 9.5 -23t22.5 -9t22.5 9t9.5 23v319h317q13 0 22.5 9t9.5 22.5t-9 23t-23 9.5z" />
    <glyph glyph-name="camera-fill" unicode="&#xe60c;" 
d="M860 689h-351q0 39 -28 67t-67 28h-64q-40 0 -68 -28t-28 -67h-96q-39 0 -67 -28.5t-28 -67.5v-511q0 -39 28 -67.5t67 -28.5h702q40 0 68 28.5t28 67.5v511q0 39 -28 67.5t-68 28.5zM509.5 146q-79.5 0 -135.5 56t-56 135.5t56 135.5t135.5 56t135.5 -56t56 -135.5
t-56 -135.5t-135.5 -56zM812.5 465q-19.5 0 -33.5 14t-14 34t14 34t33.5 14t33.5 -14t14 -34t-14 -34t-33.5 -14z" />
    <glyph glyph-name="favorite-fill" unicode="&#xe60d;" 
d="M736 768q-102 0 -176 -71q-6 -5 -48 -47l-47 47q-74 71 -177 71q-106 0 -181 -75t-75 -181q0 -100 77 -182l317 -321q41 -41 86 -41t87 41l319 323q25 31 37.5 49.5t24.5 54t12 76.5q0 106 -75 181t-181 75z" />
    <glyph glyph-name="clock" unicode="&#xe60e;" 
d="M512 832q-91 0 -174 -35.5t-143 -95.5t-95.5 -143t-35.5 -174t35.5 -174t95.5 -143t143 -95.5t174 -35.5t174 35.5t143 95.5t95.5 143t35.5 174t-35.5 174t-95.5 143t-143 95.5t-174 35.5zM512 0q-104 0 -192.5 51.5t-140 140t-51.5 192.5t51.5 192.5t140 140t192.5 51.5
t192.5 -51.5t140 -140t51.5 -192.5t-51.5 -192.5t-140 -140t-192.5 -51.5zM672 384h-160v224q0 13 -9.5 22.5t-22.5 9.5t-22.5 -9.5t-9.5 -22.5v-256q0 -13 9.5 -22.5t22.5 -9.5h192q13 0 22.5 9.5t9.5 22.5t-9.5 22.5t-22.5 9.5z" />
    <glyph glyph-name="wifi" unicode="&#xe60f;" 
d="M243 288q-13 0 -22 9q-10 9 -10 22t9 23q58 60 134 92t160 32q82 0 157 -31t133 -89q9 -9 9 -22t-9 -22.5t-22.5 -9.5t-22.5 9q-102 101 -245 101q-146 0 -248 -104q-10 -10 -23 -10zM96 450q-13 0 -22.5 9.5t-9.5 22.5t9 23q88 88 202 135.5t239 47.5q123 0 235.5 -46
t200.5 -133q10 -9 10 -22.5t-9.5 -23t-22.5 -9.5t-23 9q-79 78 -180 119.5t-211 41.5q-112 0 -214 -42.5t-181 -122.5q-9 -9 -23 -9zM510 80q-13 0 -22 9l-95 88q-9 9 -10 22t8 22q47 56 119 56q75 0 123 -60q8 -10 7 -23t-11 -21l-98 -85q-9 -8 -21 -8zM463 199l47 -44
l50 42q-22 15 -48.5 15.5t-48.5 -13.5z" />
    <glyph glyph-name="camera" unicode="&#xe610;" 
d="M509.5 146q-79.5 0 -135.5 56t-56 135.5t56 135.5t135.5 56t135.5 -56t56 -135.5t-56 -135.5t-135.5 -56zM509.5 465q-52.5 0 -90 -37.5t-37.5 -90t37.5 -90t90 -37.5t90 37.5t37.5 90t-37.5 90t-90 37.5zM861 -14h-703q-39 0 -67 28.5t-28 67.5v511q0 39 28 67.5
t67 28.5h96q13 0 22.5 -9.5t9.5 -23t-9 -22.5t-23 -9h-96q-13 0 -22.5 -9.5t-9.5 -22.5v-511q0 -13 9.5 -22.5t22.5 -9.5h702q14 0 23 9.5t9 22.5v511q0 13 -9 22.5t-23 9.5h-350q-14 0 -23 9t-9 22.5t9 23t23 9.5h351q39 0 67 -28t28 -68v-511q0 -39 -28 -67.5t-67 -28.5z
M765 545q0 -20 14 -34t33.5 -14t33.5 14t14 33.5t-14 34t-33.5 14.5t-33.5 -14t-14 -34zM478 752q0 -13 -9.5 -22.5t-22.5 -9.5h-128q-13 0 -22.5 9.5t-9.5 22.5t9.5 22.5t22.5 9.5h128q13 0 22.5 -9.5t9.5 -22.5z" />
    <glyph glyph-name="place-fill" unicode="&#xe611;" 
d="M511.5 832q-95.5 0 -176.5 -47t-128 -128.5t-47 -176.5q0 -52 34 -127t76.5 -137t98 -131t79.5 -95t41 -44q9 -10 23 -10h1q14 0 23 11l109 125q219 268 219 408q0 95 -47 176.5t-128.5 128.5t-177 47zM512 320q-66 0 -113 47t-47 113t47 113t113 47t113 -47t47 -113
t-47 -113t-113 -47z" />
    <glyph glyph-name="favorite" unicode="&#xe612;" 
d="M512 -32q-45 0 -87 41l-319 323q-25 31 -37.5 49.5t-24.5 54t-12 76.5q0 106 75 181t181 75q81 0 147 -47q11 -7 13.5 -20t-5.5 -24t-21 -13.5t-24 5.5q-49 35 -110 35q-79 0 -135.5 -56.5t-56.5 -135.5q0 -42 13 -69.5t46 -69.5l316 -318q22 -23 41 -23t42 23l316 320
q58 63 58 137q0 80 -56 136t-136 56q-74 0 -129 -50l-134 -134q-10 -10 -23 -10t-22.5 9.5t-9.5 23t9 22.5l135 135q75 68 174 68q106 0 181 -75t75 -181q0 -100 -76 -181l-317 -321q-42 -42 -87 -42v0z" />
    <glyph glyph-name="home-fill" unicode="&#xe613;" 
d="M982 492l-409 320q-26 21 -62 21t-62 -21l-406 -321q-10 -8 -11.5 -21t6.5 -23.5t21 -12t24 6.5l13 11v-388q0 -40 34 -68t74 -28h640q37 0 60.5 26.5t23.5 69.5v389l14 -12q9 -7 20 -7q16 0 25 13q9 10 7 23t-12 22zM608 99v-67h-192v179q0 31 25 54t71 23t71 -23
t25 -54v-112z" />
    <glyph glyph-name="home" unicode="&#xe614;" 
d="M980 491l-406 321q-26 21 -62 21t-62 -21l-406 -321q-10 -8 -11.5 -21t6.5 -23.5t21 -12t23 6.5l13 11v-388q0 -40 34.5 -68t74.5 -28h640q37 0 60 26.5t23 69.5v386l12 -9q8 -7 20 -7q15 0 25 13q8 10 6.5 23t-11.5 21zM480 32v177q0 14 32 14t32 -14v-177h-64zM864 64
q0 -32 -19 -32h-236l-0.5 0.5l-0.5 0.5v176q0 31 -25 54.5t-71 23.5t-71 -23.5t-25 -54.5v-176l0.5 -0.5l0.5 -0.5h-212q-15 0 -30 10.5t-15 21.5v438l329 260q9 7 22.5 7t22.5 -7l330 -261v-437v0z" />
    <glyph glyph-name="radio-checked-fill" unicode="&#xe615;" 
d="M512 830q-91 0 -173.5 -35.5t-142 -95t-95 -142t-35.5 -173.5t35.5 -173.5t95 -142t142 -95t173.5 -35.5t173.5 35.5t142 95t95 142t35.5 173.5t-35.5 173.5t-95 142t-142 95t-173.5 35.5zM512 224q-66 0 -113 47t-47 113t47 113t113 47t113 -47t47 -113t-47 -113
t-113 -47z" />
    <glyph glyph-name="close" unicode="&#xe616;" 
d="M557 383l266 264q9 9 9 22t-9.5 22.5t-22.5 9.5t-23 -9l-265 -264l-263 264q-9 9 -22.5 9t-23 -9t-9.5 -22.5t10 -22.5l263 -264l-265 -264q-10 -9 -10 -22.5t9.5 -22.5t22.5 -9v0q13 0 23 9l265 264l265 -267q10 -9 23 -9v0q13 0 22.5 9.5t9.5 22.5t-9 23z" />
    <glyph glyph-name="check" unicode="&#xe617;" 
d="M888 598q-10 9 -23 8.5t-22 -10.5l-427 -454l-233 230q-10 9 -23 9t-22.5 -9.5t-9.5 -23t10 -22.5l256 -253h1v0q1 -1 7 -4q0 -1 1 -1.5t2 -1.5q6 -2 12 -2t12 3q1 0 2 1t2 1q5 3 7 5v0v0l449 479q9 9 9 22.5t-10 22.5z" />
    <glyph glyph-name="arrow-upward" unicode="&#xe618;" 
d="M201.5 393.5q9.5 -9.5 22.5 -9.5t23 9l233 234v-563q0 -13 9.5 -22.5t22.5 -9.5t22.5 9.5t9.5 22.5v563l233 -234q10 -9 23 -9t22.5 9.5t9.5 22.5t-9 23l-288 288q-5 4 -11 7q-6 2 -12 2t-12 -2.5t-11 -6.5l-288 -288q-9 -10 -9 -23t9.5 -22.5z" />
    <glyph glyph-name="checkbox-checked-fill" unicode="&#xe619;" 
d="M832 800h-640q-40 0 -68 -28t-28 -68v-640q0 -40 28 -68t68 -28h640q40 0 68 28t28 68v640q0 40 -28 68t-68 28zM727 458l-256 -259v-1v0q-2 -1 -7 -4q-1 -1 -2 -1.5t-2 -1.5q-6 -2 -12 -2t-12 2q-1 1 -2 1.5t-1 1.5q-6 3 -7 4v1h-1l-126 129q-9 10 -9 23t9.5 22.5t23 9
t22.5 -9.5l103 -106l234 236q9 9 22.5 9t22.5 -9.5t9.5 -22.5t-9.5 -22z" />
    <glyph glyph-name="checkbox-unchecked" unicode="&#xe61a;" 
d="M832 -32h-640q-40 0 -68 28t-28 68v640q0 40 28 68t68 28h640q40 0 68 -28t28 -68v-640q0 -40 -28 -68t-68 -28zM192 736q-13 0 -22.5 -9.5t-9.5 -22.5v-640q0 -13 9.5 -22.5t22.5 -9.5h640q13 0 22.5 9.5t9.5 22.5v640q0 13 -9.5 22.5t-22.5 9.5h-640z" />
    <glyph glyph-name="radio-checked" unicode="&#xe61b;" 
d="M512 830q-91 0 -173.5 -35.5t-142 -95t-95 -142t-35.5 -173.5t35.5 -173.5t95 -142t142 -95t173.5 -35.5t173.5 35.5t142 95t95 142t35.5 173.5t-35.5 173.5t-95 142t-142 95t-173.5 35.5zM512 2q-104 0 -192 51t-139 139t-51 192t51 192t139 139t192 51t192 -51
t139 -139t51 -192t-51 -192t-139 -139t-192 -51v0zM512 544q-66 0 -113 -47t-47 -113t47 -113t113 -47t113 47t47 113t-47 113t-113 47z" />
    <glyph glyph-name="checkbox-checked" unicode="&#xe61c;" 
d="M727 502.5q-9 9.5 -22.5 9.5t-22.5 -9l-234 -236l-103 106q-9 9 -22.5 9.5t-23 -9t-9.5 -22.5t9 -23l126 -129h1v-1q1 -1 7 -4q0 -1 1 -1.5t2 -1.5q6 -2 12 -2t12 2q1 1 2 1.5t2 1.5q5 3 7 4v0v1l256 259q10 9 9.5 22t-9.5 22.5zM832 -32h-640q-40 0 -68 28t-28 68v640
q0 40 28 68t68 28h640q40 0 68 -28t28 -68v-640q0 -40 -28 -68t-68 -28zM192 736q-13 0 -22.5 -9.5t-9.5 -22.5v-640q0 -13 9.5 -22.5t22.5 -9.5h640q13 0 22.5 9.5t9.5 22.5v640q0 13 -9.5 22.5t-22.5 9.5h-640z" />
    <glyph glyph-name="arrow-dropup" unicode="&#xe61d;" 
d="M861 157q32 0 45 31.5t-10 54.5l-349 349q-15 15 -35 15t-35 -15l-349 -349q-23 -24 -9.5 -55t44.5 -31h698z" />
    <glyph glyph-name="radio-unchecked" unicode="&#xe61e;" 
d="M512 -64q-185 0 -316.5 131.5t-131.5 316.5t131.5 316.5t316.5 131.5t316.5 -131.5t131.5 -316.5t-131.5 -316.5t-316.5 -131.5zM512 768q-159 0 -271.5 -112.5t-112.5 -271.5t112.5 -271.5t271.5 -112.5t271.5 112.5t112.5 271.5t-112.5 271.5t-271.5 112.5z" />
    <glyph glyph-name="chevron-left" unicode="&#xe61f;" 
d="M617 759l-350 -353l-0.5 -1l-0.5 -1h-1q-9 -10 -9 -23t10 -22l353 -350q9 -10 22.5 -10t22.5 9.5t9 22.5v0q0 14 -9 23l-331 328l330 332q9 10 9 23v0q0 13 -9.5 22.5t-23 9.5t-22.5 -10z" />
    <glyph glyph-name="expand-more" unicode="&#xe620;" 
d="M890.5 565q-9.5 9 -23 9t-22.5 -9l-328 -331l-332 329q-10 10 -23 10t-22.5 -9.5t-9.5 -23t10 -22.5l353 -350l1 -0.5l1 -0.5v-1q9 -9 23 -9v0q13 0 22 9l350 354q10 9 10 22.5t-9.5 22.5z" />
    <glyph glyph-name="arrow-dropdown" unicode="&#xe621;" 
d="M163 607q-31 0 -44.5 -31t9.5 -54l349 -350q15 -15 35 -15t35 15l349 350q23 22 10 53.5t-45 31.5h-698z" />
    <glyph glyph-name="more-vertical" unicode="&#xe622;" 
d="M416 672q0 40 28 68t68 28t68 -28t28 -68t-28 -68t-68 -28t-68 28t-28 68zM416 384.5q0 39.5 28 67.5t68 28t68 -28t28 -67.5t-28 -68t-68 -28.5t-68 28.5t-28 68zM416 96q0 40 28 68t68 28t68 -28t28 -68t-28 -68t-68 -28t-68 28t-28 68z" />
    <glyph glyph-name="arrow-downward" unicode="&#xe623;" 
d="M822.5 374.5q-9.5 9.5 -22.5 9.5t-23 -9l-233 -234v563q0 13 -9.5 22.5t-22.5 9.5t-22.5 -9.5t-9.5 -22.5v-563l-233 234q-10 9 -23 9t-22.5 -9.5t-9.5 -22.5t9 -23l288 -288q5 -4 11 -7q5 -2 11.5 -2t12.5 2.5t11 6.5l288 288q9 10 9 23t-9.5 22.5z" />
    <glyph glyph-name="expand-less" unicode="&#xe624;" 
d="M887 279l-353 350l-1 0.5l-1 0.5v1q-10 9 -23 9t-22 -10l-350 -353q-10 -9 -10 -22.5t9.5 -22.5t22.5 -9v0q14 0 23 9l328 331l332 -330q10 -9 23 -9v0q13 0 22.5 9.5t9.5 23t-10 22.5z" />
    <glyph glyph-name="chevron-right" unicode="&#xe625;" 
d="M407 9l350 353l0.5 1l0.5 1h1q9 10 9 23t-10 22l-353 350q-9 10 -22.5 10t-22.5 -9.5t-9 -22.5v0q0 -14 9 -23l331 -328l-330 -332q-9 -10 -9 -23v0q0 -13 9.5 -22.5t23 -9.5t22.5 10v0z" />
    <glyph glyph-name="search" unicode="&#xe626;" 
d="M953 -12l-152 163q96 115 96 265q0 113 -56 209t-152 151.5t-208.5 55.5t-208.5 -55.5t-151.5 -151.5t-55.5 -209t55.5 -208.5t151.5 -151.5t209 -56q90 0 172 37q12 6 16.5 18.5t-1 24.5t-18 16.5t-24.5 -0.5q-69 -32 -145 -32q-96 0 -177 47t-128 128.5t-47 177
t47 176.5t128 128t176.5 47t176.5 -47t128.5 -128t47.5 -177q0 -141 -98 -244q-10 -9 -9.5 -22.5t9.5 -22.5q1 0 2 -1t1.5 -1t1 -1.5t1.5 -2.5l166 -177q9 -10 23 -10q12 0 22 9t10.5 22t-9.5 23z" />
    <glyph glyph-name="star" unicode="&#xe627;" 
d="M767 -64q-8 0 -15 4l-242 134l-242 -133q-17 -10 -33.5 1.5t-13.5 31.5l47 285l-196 202q-14 14 -7 32q5 18 24 22l155 26q14 3 24.5 -5t13 -21t-5.5 -23.5t-21 -13.5l-95 -16l165 -170q12 -12 9 -28l-39 -235l200 109q7 4 15.5 4t15.5 -4l199 -110l-38 236q-3 16 9 27
l164 169l-225 34q-17 3 -24 18l-100 213l-100 -212q-5 -12 -17.5 -16.5t-24.5 1t-16.5 18t0.5 24.5l130 274q8 18 28 18q21 0 29 -18l121 -259l270 -41q20 -3 26 -21.5t-8 -32.5l-197 -202l46 -285q3 -19 -13 -31q-7 -6 -18 -6z" />
    <glyph glyph-name="star-fill" unicode="&#xe628;" 
d="M957 491.5q-6 18.5 -25 21.5l-271 42l-120 259q-9 18 -29.5 18t-28.5 -18l-122 -258l-271 -41q-19 -3 -25.5 -21.5t7.5 -32.5l196 -202l-47 -285q-3 -20 13.5 -31.5t33.5 -1.5l242 133l242 -134q7 -4 15 -4h1q13 0 22.5 9.5t9.5 22.5q0 6 -2 11l-45 279l197 201
q13 14 7 32.5z" />
    <glyph glyph-name="folder-fill" unicode="&#xe629;" 
d="M415 772h-291q-41 0 -69 -28t-28 -69v-582q0 -41 28 -69t69 -28h776q41 0 69 28t28 69v485q0 40 -28 68.5t-69 28.5h-388z" />
    <glyph glyph-name="folder" unicode="&#xe62a;" 
d="M922 -26h-818q-28 0 -48 20t-20 49v682q0 29 20 49t48 20h309q26 0 47.5 -17.5t27.5 -42.5l17 -70q1 -2 4 -4.5t5 -2.5h408q28 0 48 -20t20 -48v-546q0 -29 -20 -49t-48 -20zM138 43h750q14 0 24 10t10 24v478q0 14 -10 24t-24 10h-374q-25 0 -47 17t-28 42l-17 70
q0 2 -3.5 4.5t-5.5 2.5h-275q-14 0 -24 -10t-10 -24v-614q0 -14 10 -24t24 -10v0z" />
    <glyph glyph-name="upload" unicode="&#xe62b;" 
d="M896 192q-13 0 -22.5 -9.5t-9.5 -22.5v-128h-704v128q0 13 -9.5 22.5t-22.5 9.5t-22.5 -9.5t-9.5 -22.5v-160q0 -13 9.5 -22.5t22.5 -9.5h768q13 0 22.5 9.5t9.5 22.5v160q0 13 -9.5 22.5t-22.5 9.5zM796 531l-259 259q-9 9 -23 9l-1 0.5t-2 0.5q-6 0 -13 -3
q-6 -2 -11 -7l-259 -259q-10 -10 -10 -23t9.5 -22.5t22.5 -9.5t23 10l206 206v-564q0 -13 9.5 -22.5t22.5 -9.5t22.5 9.5t9.5 22.5v565l208 -207q9 -10 22.5 -10t23 9.5t9.5 22.5t-10 23z" />
    <glyph glyph-name="download" unicode="&#xe62c;" 
d="M792.5 430.5q-9.5 9.5 -22.5 9.5t-22 -10l-208 -208v566q0 13 -9.5 22.5t-23 9.5t-22.5 -9.5t-9 -22.5v-564l-207 206q-9 9 -22 9t-22.5 -9t-9.5 -22.5t9 -22.5l260 -259q4 -5 11 -8q6 -2 13 -2h1h2q13 0 23 10l259 259q9 9 9 22.5t-9.5 23zM893 20.5q0 -13.5 -9.5 -23
t-22.5 -9.5h-704q-14 0 -23 9.5t-9 23t9 22.5t23 9h704q13 0 22.5 -9t9.5 -22.5z" />
    <glyph glyph-name="delete" unicode="&#xe62d;" 
d="M608 128q-13 0 -22.5 9.5t-9.5 22.5v352q0 13 9.5 22.5t22.5 9.5t22.5 -9.5t9.5 -22.5v-352q0 -13 -9.5 -22.5t-22.5 -9.5zM416 128q-13 0 -22.5 9.5t-9.5 22.5v352q0 13 9.5 22.5t22.5 9.5t22.5 -9.5t9.5 -22.5v-352q0 -13 -9.5 -22.5t-22.5 -9.5zM928 672h-160v64
q0 40 -28 68t-67 28h-321q-40 0 -68 -28t-28 -68v-64h-160q-13 0 -22.5 -9.5t-9.5 -22.5t9.5 -22.5t22.5 -9.5h832q13 0 22.5 9.5t9.5 22.5t-9.5 22.5t-22.5 9.5zM320 736q0 13 9.5 22.5t22.5 9.5h321q13 0 22 -9.5t9 -22.5v-64h-384v64zM736 -64h-448q-40 0 -68 28t-28 68
v480q0 14 9.5 23t22.5 9t22.5 -9t9.5 -23v-480q0 -13 9.5 -22.5t22.5 -9.5h448q14 0 23 9.5t9 22.5v479q0 13 9.5 22.5t22.5 9.5t22.5 -9.5t9.5 -22.5v-479q0 -40 -28 -68t-68 -28v0z" />
    <glyph glyph-name="refresh" unicode="&#xe62e;" 
d="M938.5 640.5q-12.5 4.5 -24.5 -1t-17 -18.5l-24 -69q-45 101 -134 166q-91 68 -203 81t-215.5 -30.5t-171.5 -134.5q-51 -67 -71.5 -146.5t-8.5 -162.5t54.5 -154t110.5 -121q112 -83 252 -83q98 0 187.5 43t150.5 124q55 72 74 160q3 13 -4 24.5t-20 14t-24.5 -4.5
t-13.5 -20q-17 -74 -63 -136q-58 -76 -146 -113t-183 -26t-172 68q-58 43 -94 103t-46 130q-21 145 68 261q58 77 146 114t182.5 26t172.5 -68q87 -65 123 -168l-110 43q-13 5 -25 -0.5t-17 -17.5t0.5 -24.5t17.5 -17.5l163 -63q5 -2 12 -2h0.5h0.5l1.5 -0.5t2.5 -0.5
q22 0 30 22l58 161q4 13 -1.5 25t-18 16.5z" />
    <glyph glyph-name="list" unicode="&#xe62f;" 
d="M350 599h575q15 0 25.5 11t10.5 25.5t-10.5 25t-25.5 10.5h-575q-14 0 -25 -10.5t-11 -25t11 -25.5t25 -11zM925 420h-575q-14 0 -25 -10.5t-11 -25.5t11 -25.5t25 -10.5h575q15 0 25.5 10.5t10.5 25.5t-10.5 25.5t-25.5 10.5zM925 169h-575q-14 0 -25 -10.5t-11 -25.5
t11 -25.5t25 -10.5h575q15 0 25.5 10.5t10.5 25.5t-10.5 25.5t-25.5 10.5zM63 635q0 -29 21 -50.5t51 -21.5t51 21.5t21 51t-21 50.5t-51 21t-51 -21t-21 -51v0zM63 384q0 -30 21 -51t51 -21t51 21t21 51t-21 51t-51 21t-51 -21t-21 -51v0zM63 132.5q0 -29.5 21 -50.5
t51 -21t51 21t21 50.5t-21 51t-51 21.5t-51 -21.5t-21 -51z" />
    <glyph glyph-name="setting" unicode="&#xe630;" 
d="M512 288q-40 0 -68 28t-28 68t28 68t68 28t68 -28t28 -68t-28 -68t-68 -28zM512 416q-13 0 -22.5 -9.5t-9.5 -22.5t9.5 -22.5t22.5 -9.5t22.5 9.5t9.5 22.5t-9.5 22.5t-22.5 9.5zM631 -64q-16 0 -26 13l-73 101q-20 -2 -40 0l-73 -101q-14 -18 -35 -12q-52 15 -98 41
q-16 9 -16 28v5l20 123q-60 53 -91 127l-61 -119q-22 -3 -32 16q-26 47 -41 98q-6 22 12 35l101 73q-1 9 -1 20t1 20l-101 73q-18 14 -12 35q15 52 41 98q10 19 32 16l124 -20q53 60 127 91l-119 61q-3 22 17 32q46 26 97 41q22 6 35 -12l73 -101q20 2 40 0l73 101
q13 18 35 12q51 -15 98 -41q16 -9 16 -28v-5l-20 -123q15 -13 28 -27l124 19q22 3 32 -16q26 -46 41 -98q6 -22 -12 -35l-101 -73q1 -9 1 -20t-1 -20l101 -73q18 -13 12 -35q-15 -52 -41 -98q-11 -19 -33 -16l-123 20q-12 -15 -28 -28l20 -124v-4q0 -19 -16 -28
q-46 -26 -98 -41q-5 -1 -9 -1zM337 23q63 -31 136 -38l-22 117q11 15 30 13q31 -4 62 0q19 2 30 -13l70 -97q70 25 125 70l-100 67q-3 18 12 30q25 20 44 44q12 15 30 12l118 -19q31 63 38 136l-116 -22q-15 11 -13 30q2 16 2 31t-2 31q-2 19 13 30l96 70q-24 70 -70 125
l-66 -100q-18 -3 -30 12q-20 25 -44 44q-14 12 -12 30l19 119q-63 31 -136 38l22 -117q-11 -15 -30 -13q-31 4 -62 0q-19 -2 -30 13l-70 97q-70 -25 -125 -70l100 -67q2 -18 -12 -30q-24 -19 -44 -44q-12 -14 -30 -12l-119 19q-31 -63 -38 -136l117 22q15 -11 13 -30
q-2 -16 -2 -31t2 -31q2 -19 -13 -30l-97 -70q25 -70 70 -125l67 100q18 2 30 -12q19 -25 44 -44q15 -12 12 -30l-19 -119v0z" />
    <glyph glyph-name="arrow-back" unicode="&#xe631;" 
d="M502.5 73.5q9.5 9.5 9.5 22.5t-9 23l-234 233h563q13 0 22.5 9.5t9.5 22.5t-9.5 22.5t-22.5 9.5h-563l234 233q9 10 9 23t-9.5 22.5t-22.5 9.5t-23 -9l-288 -288q-4 -5 -7 -11q-2 -6 -2 -12t2.5 -12t6.5 -11l288 -288q10 -9 23 -9t22.5 9.5z" />
    <glyph glyph-name="arrow-forward" unicode="&#xe632;" 
d="M521.5 694.5q-9.5 -9.5 -9.5 -22.5t9 -23l234 -233h-563q-13 0 -22.5 -9.5t-9.5 -22.5t9.5 -22.5t22.5 -9.5h563l-234 -233q-9 -10 -9 -23t9.5 -22.5t22.5 -9.5t23 9l288 288q4 5 7 11q2 6 2 12t-2.5 12t-6.5 11l-288 288q-10 9 -23 9t-22.5 -9.5z" />
    <glyph glyph-name="share" unicode="&#xe633;" 
d="M769 192q-54 0 -91 -38l-310 172q15 28 15 58q0 16 -6 36l305 189q37 -33 85 -33q53 0 90.5 37.5t37.5 90.5t-37.5 90.5t-90.5 37.5t-90.5 -37.5t-37.5 -90.5q0 -20 8 -41l-302 -188q-38 37 -90 37q-53 0 -90.5 -37.5t-37.5 -90.5t37.5 -90.5t90.5 -37.5q38 0 69 21
l322 -178q-6 -19 -6 -34q0 -53 37.5 -90.5t90.5 -37.5t90.5 37.5t37.5 90.5t-37 90t-90 37zM767.5 768q26.5 0 45 -19t18.5 -45t-18.5 -45t-45 -19t-45.5 19t-19 45t19 45t45.5 19zM191 384.5q0 26.5 19 45t45.5 18.5t45 -18.5t18.5 -45t-18.5 -45.5t-45 -19t-45.5 19
t-19 45.5zM769 0q-27 0 -45.5 19t-18.5 45.5t18.5 45t45 18.5t45.5 -18.5t19 -45t-19 -45.5t-45 -19v0z" />
    <glyph glyph-name="map" unicode="&#xe634;" 
d="M72 125l7 6l205 205q17 17 37 10q17 -5 22 -22.5t-7 -31.5l-6 -6q-186 -185 -253 -252q-5 -6 -5 -12v-45q0 -17 10 -26.5t27 -9.5h226h199q-7 6 -7 7l-238 238q-17 16 -11 36q5 18 22.5 23t31.5 -7q2 -1 7 -6l153 -153l4 -5q93 92 346 343l-5 4q-21 13 -16 37
q2 11 10.5 18.5t18.5 7.5q62 1 84 -1q39 -4 64.5 -33t25.5 -68v-285v-120q0 -45 -30 -74.5t-74 -29.5h-812q-44 0 -73.5 29.5t-29.5 74.5q-1 202 0 403q0 45 29.5 74.5t73.5 29.5h67t21.5 -8t11.5 -20q2 -14 -5 -24.5t-20 -13.5q-4 -1 -12 -1h-30.5t-30.5 -1q-18 0 -28 -9.5
t-10 -27.5v-123v-123v-3.5v-4.5zM933 414q-365 -365 -387 -389l50 -50q20 -20 20 -34h8h293q39 0 39 38v398v8q-2 23 -23 29zM789 620q-2 -64 -30 -123q-40 -83 -101 -146q-54 -56 -96 -96q-21 -21 -47.5 -21t-48.5 21q-89 83 -135 142q-62 80 -81 154q-20 75 2.5 148.5
t79.5 125t134 64.5q112 20 205 -45t113 -177q0 -2 5 -47zM513 301l6 6q79 80 88 89q53 55 89 127q30 60 22 123q-10 87 -82.5 140t-158.5 36q-49 -9 -88 -39t-58.5 -71t-22 -89t21.5 -94q35 -73 83 -124q7 -7 100 -104zM514 552q-28 0 -48 20.5t-20 48t20 47.5t48 20t48 -20
t20 -48t-20 -48t-48 -20z" />
    <glyph glyph-name="calendar" unicode="&#xe635;" 
d="M73 552h883v8v158q0 38 -38 38h-65q-13 0 -22.5 9t-10.5 22q-1 12 6.5 22.5t19.5 13.5q4 1 10 1h64q45 0 74.5 -30t29.5 -74v-744q0 -44 -30 -73.5t-74 -29.5h-811q-45 0 -74.5 29.5t-29.5 74.5v522v221q0 40 24.5 68.5t63.5 34.5q5 1 38 1h43q14 0 24 -9.5t10 -24.5
q0 -14 -9.5 -24t-24.5 -10h-33.5h-32.5q-16 0 -25.5 -9.5t-10.5 -24.5v-165zM956 484h-884v-8v-497q0 -39 39 -39h806q39 0 39 39v497v8zM514 824h66q16 0 26 -10t10 -24.5t-10.5 -24t-25.5 -9.5h-134q-13 0 -22.5 9t-11 21.5t6 23t20.5 13.5q3 1 10 1h65zM752 790v-66
q0 -16 -9.5 -26t-24.5 -10t-24.5 10t-9.5 26v132q0 16 9.5 26t24 10t24.5 -10t10 -26v-66zM344 790v-67q0 -22 -19 -31q-18 -9 -34 2q-15 10 -15 27v138q1 14 10.5 23.5t24 9.5t24 -10t9.5 -25v-67z" />
    <glyph glyph-name="location" unicode="&#xe636;" 
d="M513 832q-91 0 -174 -35.5t-143 -95.5t-95.5 -143t-35.5 -174t35.5 -174t95.5 -143t143 -95.5t174 -35.5t174 35.5t143 95.5t95.5 143t35.5 174t-35.5 174t-95.5 143t-143 95.5t-174 35.5zM540 -12v153q0 10 -7.5 17.5t-18 7.5t-18 -7.5t-7.5 -17.5v-153
q-150 9 -256.5 115.5t-115.5 256.5h150q10 0 17.5 7.5t7.5 18t-7.5 18t-17.5 7.5h-150q10 149 116.5 254.5t255.5 114.5v-153q0 -10 7.5 -17.5t18 -7.5t18 7.5t7.5 17.5v153q148 -10 253.5 -115.5t115.5 -253.5h-2v0h-154q-10 0 -18 -7.5t-8 -18t7.5 -18t18.5 -7.5h154h2
q-9 -149 -114.5 -255.5t-254.5 -116.5zM513 474q-37 0 -63.5 -26.5t-26.5 -63.5t26.5 -63.5t63.5 -26.5t63.5 26.5t26.5 63.5t-26.5 63.5t-63.5 26.5z" />
    <glyph glyph-name="place" unicode="&#xe637;" 
d="M511.5 288q-79.5 0 -135.5 56.5t-56 135.5t56.5 135.5t135.5 56.5t135.5 -56.5t56.5 -135.5t-56.5 -135.5t-136 -56.5zM512 608q-53 0 -90.5 -37.5t-37.5 -90.5t37.5 -90.5t90.5 -37.5t90.5 37.5t37.5 90.5t-37.5 90.5t-90.5 37.5zM512 -64v0q-13 0 -22 9q-10 9 -10 22
t9 23q39 41 86 97.5t100.5 129.5t89 144.5t35.5 118.5q0 119 -84.5 203.5t-203.5 84.5t-203.5 -84.5t-84.5 -203.5q0 -57 53 -151.5t151 -216.5q9 -10 7.5 -23t-11.5 -21.5t-23.5 -7t-21.5 11.5q-219 268 -219 408q0 95 47 176.5t128 128.5t176.5 47t177 -47t128.5 -128.5
t47 -176.5q0 -52 -34 -127t-76.5 -137t-98 -131t-79.5 -95t-41 -44q-10 -10 -23 -10v0z" />
    <glyph glyph-name="folder-open-fill" unicode="&#xe638;" 
d="M906 620h-447q-43 0 -69 40l-69 118q-23 39 -69 39h-134q-32 0 -55.5 -23t-23.5 -56v-708q0 -33 23.5 -56t55.5 -23h788q32 0 55.5 23t23.5 56v512q0 32 -23.5 55t-55.5 23zM906 778h-475q-6 0 -8.5 -5t0.5 -9l32 -53q6 -12 18 -12h433q34 0 61 -12q6 -3 12 1t6 11
q0 33 -23.5 56t-55.5 23z" />
    <glyph glyph-name="folder-open" unicode="&#xe639;" 
d="M939 -43h-854q-35 0 -60 25t-25 61v682q0 36 25 61t60 25h354l87 -86h413q35 0 60 -25t25 -60v-597q0 -36 -25 -61t-60 -25zM85 754q-12 0 -20 -8.5t-8 -20.5v0v-682q0 -12 8.5 -20.5t19.5 -8.5h854q11 0 19.5 8.5t8.5 20.5v597v0q0 12 -8.5 20t-19.5 8h-436l-87 86h-331
zM50 623h924v-57h-924v57z" />
    <glyph glyph-name="dialogue-fill" unicode="&#xe63a;" 
d="M511.5 829q-121.5 0 -224.5 -51.5t-163 -140t-60 -192.5q0 -88 45.5 -166.5t128.5 -135.5l84 -52q-6 -37 -33 -115q-7 -20 8 -35q9 -8 22 -8q7 0 13 3q28 12 57.5 27t70.5 43.5t59 54.5q120 2 221.5 53.5t160.5 139.5t59 191q0 104 -60 192.5t-163.5 140t-225 51.5z
M580 352h-195q-13 0 -22.5 9.5t-9.5 22.5t9.5 22.5t22.5 9.5h195q13 0 22.5 -9.5t9.5 -22.5t-9.5 -22.5t-22.5 -9.5zM641 480h-256q-13 0 -22.5 9.5t-9.5 22.5t9.5 22.5t22.5 9.5h256q13 0 22.5 -9.5t9.5 -22.5t-9.5 -22.5t-22.5 -9.5z" />
    <glyph glyph-name="alert-fill" unicode="&#xe63b;" 
d="M890 146q-7 11 -13.5 20.5t-28.5 46t-36.5 68.5t-27.5 75.5t-13 77.5q0 118 -45.5 189t-117.5 98v15q0 40 -28 68t-68 28t-68 -28t-28 -68v-15q-72 -27 -117.5 -98t-45.5 -189q0 -34 -13 -77t-27.5 -75t-36.5 -69t-28.5 -46.5t-13.5 -19.5q-8 -12 -5 -26t15.5 -21
t35.5 -18t82.5 -32.5t115.5 -34.5q16 -50 52.5 -80.5t81 -30.5t81 30.5t52.5 80.5q122 27 234 84q12 7 16 21t-5 26zM480 736q0 13 9.5 22.5t22.5 9.5t22.5 -9.5t9.5 -22.5v-1q-12 1 -21 1h-22q-9 0 -21 -1v1zM512 -32q-34 0 -58 35q30 -3 58 -3q25 0 58 3q-24 -35 -58 -35z
" />
    <glyph glyph-name="filter" unicode="&#xe63c;" 
d="M608 -64q-13 0 -22.5 9.5t-9.5 22.5v480q0 12 9 21l208 235h-563l210 -235q8 -9 8 -21v-289l51 -41q10 -8 11.5 -21.5t-7 -23.5t-21.5 -11.5t-24 6.5l-62 51q-12 10 -12 25v292l-249 279q-8 9 -8 21q0 7 3 13q8 19 29 19h706q21 0 29.5 -19t-5.5 -34l-249 -279v-468
q0 -13 -9 -22.5t-23 -9.5v0z" />
    <glyph glyph-name="alert" unicode="&#xe63d;" 
d="M890 146q-3 4 -13 19t-29.5 48t-35.5 67.5t-28.5 77t-12.5 76.5q0 118 -45.5 189t-117.5 98v15q0 40 -28 68t-68 28t-68 -28t-28 -68v-17q-19 -13 -12 -35q4 -13 16 -19t24 -2q27 9 57 9h22q86 0 135 -63.5t49 -174.5q0 -122 110 -294q-168 -76 -305 -76t-305 77
q110 170 110 293q0 94 35 154q7 11 3.5 24t-15 19.5t-24.5 3t-19 -14.5q-44 -75 -44 -186q0 -34 -13 -77.5t-27.5 -75t-36.5 -68.5t-28.5 -46.5t-13.5 -19.5q-8 -12 -5 -26t16 -21t35.5 -18t82 -33t115.5 -34q16 -50 52.5 -80.5t81 -30.5t81 30.5t53.5 80.5q121 26 233 84
q13 7 16 21q3 15 -5 26zM501 736l-21 -2v2q0 13 9.5 22.5t22.5 9.5t22.5 -9.5t9.5 -22.5v-1q-12 1 -21 1h-22zM512 -32q-34 0 -58 35q30 -3 58 -3q25 0 58 3q-24 -35 -58 -35z" />
    <glyph glyph-name="dialogue" unicode="&#xe63e;" 
d="M640 480h-256q-13 0 -22.5 9.5t-9.5 22.5t9.5 22.5t22.5 9.5h256q13 0 22.5 -9.5t9.5 -22.5t-9.5 -22.5t-22.5 -9.5zM579 352h-195q-13 0 -22.5 9.5t-9.5 22.5t9.5 22.5t22.5 9.5h195q13 0 22.5 -9.5t9.5 -22.5t-9.5 -22.5t-22.5 -9.5zM962 448q0 104 -60 192.5t-163 140
t-224.5 51.5t-225 -51.5t-163.5 -140t-60 -192.5q0 -87 45.5 -166t127.5 -135q11 -7 24 -4.5t20.5 13.5t5 24t-13.5 20q-69 47 -107 112t-38 136q0 87 51.5 160.5t140 116.5t192.5 43t192.5 -43t140 -116.5t51.5 -160.5t-51.5 -160.5t-140 -116.5t-192.5 -43q-1 0 -5 -1
q-12 2 -22 -3.5t-14 -16.5q-9 -26 -94 -74q17 58 3 79q-11 16 -30 16q-13 0 -22.5 -9.5t-9.5 -22.5q0 -9 5 -16q-6 -34 -33 -100q-9 -20 7 -35q9 -9 22 -9q7 0 13 3q145 64 188 125q120 2 221 53.5t160 139.5t59 191z" />
    <glyph glyph-name="feedback" unicode="&#xe63f;" 
d="M800 -64h-576q-40 0 -68 28t-28 68v640q0 40 28 68t68 28h448q13 0 22.5 -9.5t9.5 -22.5t-9.5 -22.5t-22.5 -9.5h-448q-13 0 -22.5 -9.5t-9.5 -22.5v-640q0 -13 9.5 -22.5t22.5 -9.5h576q13 0 22.5 9.5t9.5 22.5v512q0 13 9.5 22.5t22.5 9.5t22.5 -9.5t9.5 -22.5v-512
q0 -40 -28 -68t-68 -28zM612 448q-13 0 -22.5 9.5t-9.5 22.5t9 23l318 318q10 9 23 9t22.5 -9.5t9.5 -22.5t-9 -23l-318 -318q-10 -9 -23 -9zM480 448h-192q-13 0 -22.5 9.5t-9.5 22.5t9.5 22.5t22.5 9.5h192q13 0 22.5 -9.5t9.5 -22.5t-9.5 -22.5t-22.5 -9.5zM672 256h-384
q-13 0 -22.5 9.5t-9.5 22.5t9.5 22.5t22.5 9.5h384q13 0 22.5 -9.5t9.5 -22.5t-9.5 -22.5t-22.5 -9.5z" />
    <glyph glyph-name="help" unicode="&#xe640;" 
d="M891 798h-241q-42 0 -78 -18.5t-60 -50.5q-24 32 -60 50.5t-78 18.5h-241q-29 0 -49 -20.5t-20 -48.5v-638q0 -28 20 -48.5t49 -20.5h253q53 -51 126 -51t126 51h253q29 0 49 20.5t20 48.5v638q0 28 -20 48.5t-49 20.5zM891 91h-268q-16 0 -26 -12q-34 -39 -85 -39
t-85 39q-10 12 -26 12h-268v638h241q43 0 73.5 -30.5t30.5 -73.5v-293q0 -14 10 -24t24 -10t24 10t10 24v293q0 43 30.5 73.5t73.5 30.5h241v-638z" />
    <glyph glyph-name="message-fill" unicode="&#xe641;" 
d="M832 768h-640q-40 0 -68 -28t-28 -68v-512q0 -40 28 -68t68 -28h211l87 -87q9 -9 22.5 -9t22.5 9l87 87h210q40 0 68 28t28 68v512q0 40 -28 68t-68 28zM336 384q-20 0 -34 14t-14 34t14 34t34 14t34 -14t14 -34t-14 -34t-34 -14zM528 384q-20 0 -34 14t-14 34t14 34
t34 14t34 -14t14 -34t-14 -34t-34 -14zM720 384q-20 0 -34 14t-14 34t14 34t34 14t34 -14t14 -34t-14 -34t-34 -14z" />
    <glyph glyph-name="message" unicode="&#xe642;" 
d="M512 -32q-13 0 -23 9l-96 96q-9 10 -9 23t9.5 22.5t22.5 9.5t22 -9l74 -74l73 74q10 9 23 9h224q13 0 22.5 9.5t9.5 22.5v512q0 13 -9.5 22.5t-22.5 9.5h-640q-13 0 -22.5 -9.5t-9.5 -22.5v-512q0 -13 9.5 -22.5t22.5 -9.5h96q13 0 22.5 -9.5t9.5 -22.5t-9.5 -22.5
t-22.5 -9.5h-96q-40 0 -68 28t-28 68v512q0 40 28 68t68 28h640q40 0 68 -28t28 -68v-512q0 -40 -28 -68t-68 -28h-211l-86 -87q-10 -9 -23 -9zM336 384q-20 0 -34 14t-14 34t14 34t34 14t34 -14t14 -34t-14 -34t-34 -14zM528 384q-20 0 -34 14t-14 34t14 34t34 14t34 -14
t14 -34t-14 -34t-34 -14zM720 384q-20 0 -34 14t-14 34t14 34t34 14t34 -14t14 -34t-14 -34t-34 -14z" />
    <glyph glyph-name="question-fill" unicode="&#xe643;" 
d="M512 832q-185 0 -316.5 -131.5t-131.5 -316.5t131.5 -316.5t316.5 -131.5t316.5 131.5t131.5 316.5t-131.5 316.5t-316.5 131.5zM512 64q-20 0 -34 14t-14 34t14 34t34 14t34 -14t14 -34t-14 -34t-34 -14v0zM601 391q-19 -19 -28.5 -29t-19 -26t-9.5 -28v-54
q0 -13 -9.5 -22.5t-22.5 -9.5t-22.5 9.5t-9.5 22.5v54q0 25 13 50t25.5 39.5t36.5 38.5q18 17 26.5 26.5t17.5 23.5t9 24q0 40 -28 68.5t-68 28.5t-68 -27.5t-28 -67.5q0 -13 -9.5 -22.5t-22.5 -9.5t-22.5 9.5t-9.5 22.5q0 66 47 112.5t113 46.5t113 -47t47 -114
q0 -22 -12 -45.5t-24 -37t-35 -36.5z" />
    <glyph glyph-name="text" unicode="&#xe644;" 
d="M800 -32h-576q-40 0 -68 28t-28 68v640q0 40 28 68t68 28h576q40 0 68 -28t28 -68v-640q0 -40 -28 -68t-68 -28zM224 736q-13 0 -22.5 -9.5t-9.5 -22.5v-640q0 -13 9.5 -22.5t22.5 -9.5h576q13 0 22.5 9.5t9.5 22.5v640q0 13 -9.5 22.5t-22.5 9.5h-576zM641 351h-353
q-14 0 -23 9.5t-9 23t9 22.5t23 9h353q13 0 22.5 -9t9.5 -22.5t-9.5 -23t-22.5 -9.5zM735 160h-447q-14 0 -23 9.5t-9 23t9 22.5t23 9h447q13 0 22.5 -9t9.5 -22.5t-9.5 -23t-22.5 -9.5zM256 591q0 -20 14 -34t34 -14t34 14t14 34t-14 34t-34 14t-34 -14t-14 -34zM463 591
q0 -20 14 -34t34 -14t34 14t14 34t-14 34t-34 14t-34 -14t-14 -34zM671 591q0 -20 14 -34t34 -14t34 14t14 34t-14 34t-34 14t-34 -14t-14 -34z" />
    <glyph glyph-name="question" unicode="&#xe645;" 
d="M464 112q0 -20 14 -34t34 -14t34 14t14 34t-14 34t-34 14t-34 -14t-14 -34zM512 -64q-185 0 -316.5 131.5t-131.5 316.5t131.5 316.5t316.5 131.5t316.5 -131.5t131.5 -316.5t-131.5 -316.5t-316.5 -131.5zM512 768q-104 0 -192.5 -51.5t-140 -140t-51.5 -192.5
t51.5 -192.5t140 -140t192.5 -51.5t192.5 51.5t140 140t51.5 192.5t-51.5 192.5t-140 140t-192.5 51.5zM512 222q-13 0 -22.5 9.5t-9.5 22.5v54q0 25 13 50t25.5 39.5t36.5 38.5q18 18 26.5 27t17.5 23t9 24q0 40 -28 68.5t-68 28.5t-68 -27.5t-28 -67.5q0 -13 -9.5 -22.5
t-22.5 -9.5t-22.5 9.5t-9.5 22.5q0 66 47 112.5t113 46.5t113 -47t47 -114q0 -22 -12 -45.5t-24 -37t-35 -36.5q-19 -19 -28.5 -29t-19 -26t-9.5 -28v-54q0 -13 -9.5 -22.5t-22.5 -9.5z" />
    <glyph glyph-name="tip-fill" unicode="&#xe646;" 
d="M512 830q-91 0 -173.5 -35.5t-142 -95t-95 -142t-35.5 -173.5t35.5 -173.5t95 -142t142 -95t173.5 -35.5t173.5 35.5t142 95t95 142t35.5 173.5t-35.5 173.5t-95 142t-142 95t-173.5 35.5zM544 160q0 -13 -9.5 -22.5t-22.5 -9.5t-22.5 9.5t-9.5 22.5v288q0 13 9.5 22.5
t22.5 9.5t22.5 -9.5t9.5 -22.5v-288zM512 544q-20 0 -34 14t-14 34t14 34t34 14t34 -14t14 -34t-14 -34t-34 -14z" />
    <glyph glyph-name="user-fill" unicode="&#xe647;" 
d="M631 277v16q118 83 118 298q0 105 -61.5 164t-171.5 59h-8q-110 0 -171.5 -59t-61.5 -164q0 -215 118 -297v-17q-70 -10 -128.5 -29.5t-98 -52t-39.5 -70.5q0 -171 385 -171t385 171q0 38 -39.5 70.5t-98 52t-128.5 29.5z" />
    <glyph glyph-name="user" unicode="&#xe648;" 
d="M512 -46q-385 0 -385 171q0 39 39.5 71.5t98 52t128.5 28.5v17q-119 83 -119 297q0 105 62 164t172 59h8q109 0 171 -59t62 -164q0 -214 -118 -297v-17q70 -9 128.5 -28.5t98 -52t39.5 -71.5q0 -171 -385 -171zM508 754q-33 0 -61 -6.5t-55 -23.5t-42.5 -51t-15.5 -82
q0 -193 104 -256q15 -8 15 -25v-59q0 -12 -8 -20.5t-19 -9.5q-101 -10 -170.5 -41t-69.5 -55q0 -33 29 -56t79.5 -34.5t103 -16t114.5 -4.5t114.5 4.5t103 16t79.5 34.5t29 56q0 25 -69.5 55.5t-170.5 40.5q-11 1 -19 10t-8 20v0l2 60q0 16 14 25q103 62 103 255
q0 49 -15.5 82.5t-42.5 50.5t-55 24t-61 7z" />
    <glyph glyph-name="phone" unicode="&#xe649;" 
d="M372 63v-2h-9h-6h-3q-52 0 -89.5 36.5t-38.5 89.5q-2 53 35 92q36 39 89 40h2h2q41 0 75 -24q47 -17 93 45t19 96q-10 7 -19 17l-3 3q-31 35 -32 81q-2 53 34.5 91.5t89.5 40.5h2h2q45 0 80 -28.5t45 -71.5q5 -18 7.5 -43t-1 -68.5t-28.5 -101.5t-69 -118
q-42 -55 -86 -93t-82 -54.5t-63 -22t-46 -5.5v0zM367 127q10 0 21 1t36.5 9.5t50 23t58 44.5t64.5 72q39 52 60.5 102t24.5 86t1 55t-6 32q-5 23 -22.5 37.5t-39.5 14.5q-28 0 -46 -19.5t-18 -45.5q1 -23 17 -41h1q6 -7 11 -11q4 -2 7 -5q9 -11 16 -25t11.5 -37t-6 -54
t-35.5 -64q-55 -75 -125 -75q-24 0 -48 10q-4 1 -7 4q-18 14 -39 14q-28 -1 -46 -20t-17 -45q0 -26 18.5 -44t44.5 -18v0h3q6 0 10 -1zM516 -71q-92 0 -175 35q-13 5 -18 17.5t0.5 24.5t17.5 17t25 0q71 -30 150 -30q105 0 194 52t141 141t52 194t-52 194.5t-141 141.5
t-194 52t-194.5 -52t-141.5 -141.5t-52 -194.5q0 -111 60 -205q7 -12 4 -25t-14.5 -20t-24.5 -4t-20 14q-69 110 -69 240q0 92 36 175.5t96.5 144t144 96.5t175 36t175.5 -36t144.5 -96.5t96 -144t35.5 -175t-35.5 -175.5t-96 -144.5t-144.5 -96t-175 -35.5z" />
    <glyph glyph-name="tip" unicode="&#xe64a;" 
d="M512 -62q-91 0 -173.5 35.5t-142 95t-95 142t-35.5 173.5t35.5 173.5t95 142t142 95t173.5 35.5t173.5 -35.5t142 -95t95 -142t35.5 -173.5t-35.5 -173.5t-95 -142t-142 -95t-173.5 -35.5zM512 766q-104 0 -192 -51t-139 -139t-51 -192t51 -192t139 -139t192 -51t192 51
t139 139t51 192t-51 192t-139 139t-192 51zM464 592q0 -20 14 -34t34 -14t34 14t14 34t-14 34t-34 14t-34 -14t-14 -34zM512 128q-13 0 -22.5 9.5t-9.5 22.5v288q0 13 9.5 22.5t22.5 9.5t22.5 -9.5t9.5 -22.5v-288q0 -13 -9.5 -22.5t-22.5 -9.5z" />
    <glyph glyph-name="arrow-up" unicode="&#xe64b;" 
d="M842 500l-296 295q-14 14 -34 14t-34 -14l-296 -296q-19 -20 -7.5 -46.5t38.5 -26.5h146v-421q0 -19 14 -33t33 -14h212q19 0 33 14t14 33v421h147q27 0 38 27t-8 47z" />
    <glyph glyph-name="arrow-down" unicode="&#xe64c;" 
d="M840 269l-296 -296q-14 -14 -34 -14t-34 14l-296 296q-19 20 -7.5 46.5t38.5 26.5h147v421q0 19 13.5 33t33.5 14h211q19 0 33 -14t14 -33v-421h147q27 0 38.5 -27t-8.5 -46z" />
    <glyph glyph-name="loading" unicode="&#xe64d;" 
d="M516 -73q-150 0 -271 90q-72 55 -117.5 131.5t-58.5 166.5t9 176.5t76 159.5q74 98 185 145t231 33t218 -87q63 -47 106.5 -113t61.5 -142q3 -13 -3.5 -24.5t-20 -14.5t-24.5 4t-15 20q-32 135 -144 218q-84 63 -186.5 75t-198 -28.5t-158.5 -124.5q-46 -62 -65 -136.5
t-8 -151t50 -142.5t101 -113q84 -63 187 -75t198 28.5t158 124.5q51 68 69 149q3 13 14 20.5t24 4.5t20.5 -14t4.5 -24q-21 -96 -80 -175q-54 -72 -131 -117.5t-167 -58.5q-32 -5 -65 -5z" />
    <glyph glyph-name="font" unicode="&#xe64e;" 
d="M911 738v58q0 13 -9 22.5t-22.5 9.5t-23 -9.5t-9.5 -22.5q0 -3 -0.5 -7.5t-7 -11.5t-17.5 -7h-623q-12 0 -18.5 6.5t-6.5 12.5l-1 7q0 13 -9.5 22.5t-22.5 9.5t-22.5 -9.5t-9.5 -22.5v-154q0 -14 9.5 -23t22.5 -9t22.5 9t9.5 23v0q0 18 6.5 31t16 19t19 9.5t15.5 4.5h7
h152q7 -1 15 -3t18.5 -7.5t18 -18t8.5 -29.5v-584q-1 -17 -8.5 -29.5t-18 -18t-18.5 -7.5t-15 -3h-38q-13 0 -22.5 -9.5t-9.5 -22.5t9.5 -22.5t22.5 -9.5h318q14 0 23 9.5t9 22.5t-9 22.5t-23 9.5h-38q-7 1 -14.5 3t-18 7.5t-18 18t-8.5 29.5v584q1 17 8.5 29.5t18 18
t18 7.5t14.5 3h152q3 0 7.5 -0.5t15.5 -4t19.5 -9.5t15 -19t6.5 -31v0q0 -14 9.5 -23t23 -9t22.5 9t9 23v96z" />
    <glyph glyph-name="sort" unicode="&#xe64f;" 
d="M332 734q-5 2 -12 2q-13 0 -23 -9l-192 -192q-9 -10 -9 -23t9.5 -22.5t22.5 -9.5t23 9l137 138v-531q0 -13 9.5 -22.5t22.5 -9.5t22.5 9.5t9.5 22.5v608q0 21 -20 30zM918.5 278.5q-9.5 9.5 -22.5 9.5t-23 -9l-105 -106v531q0 13 -9.5 22.5t-22.5 9.5t-22.5 -9.5
t-9.5 -22.5v-608q0 -21 20 -30q6 -2 12 -2q13 0 23 9l160 160q9 10 9 23t-9.5 22.5z" />
    <glyph glyph-name="id" unicode="&#xe650;" 
d="M210 5q-47 0 -80.5 33.5t-33.5 80.5v498q0 47 33.5 80.5t80.5 33.5h623q47 0 80 -33.5t33 -80.5v-498q0 -47 -33 -80.5t-80 -33.5h-623v0zM210 670q-22 0 -37.5 -15.5t-15.5 -37.5v-498q0 -22 15.5 -37.5t37.5 -15.5h623q21 0 36.5 15.5t15.5 37.5v498q0 22 -15.5 37.5
t-36.5 15.5h-623zM791 192q-13 0 -21.5 9t-8.5 22q0 39 -27.5 66.5t-66.5 27.5t-67 -27.5t-28 -66.5q0 -13 -8.5 -22t-21.5 -9t-21.5 9t-8.5 22q0 39 19 74t53 56q-31 33 -31 77q0 47 33.5 80.5t80.5 33.5t80 -33.5t33 -80.5q0 -44 -31 -77q34 -21 53.5 -56t19.5 -74
q0 -13 -9 -22t-22 -9zM666.5 483q-21.5 0 -37 -15.5t-15.5 -37.5t15.5 -37t37 -15t37 15t15.5 37t-15.5 37.5t-37 15.5zM435 482h-187q-13 0 -22.5 9.5t-9.5 22.5t9.5 22.5t22.5 9.5h187q13 0 22.5 -9.5t9.5 -22.5t-9.5 -22.5t-22.5 -9.5zM435 336h-187q-13 0 -22.5 9.5
t-9.5 22.5t9.5 22.5t22.5 9.5h187q13 0 22.5 -9.5t9.5 -22.5t-9.5 -22.5t-22.5 -9.5zM435 192h-187q-13 0 -22.5 9t-9.5 22.5t9.5 23t22.5 9.5h187q13 0 22.5 -9.5t9.5 -23t-9.5 -22.5t-22.5 -9z" />
    <glyph glyph-name="scale" unicode="&#xe651;" 
d="M928 352h-832q-13 0 -22.5 9.5t-9.5 22.5t9.5 22.5t22.5 9.5h832q13 0 22.5 -9.5t9.5 -22.5t-9.5 -22.5t-22.5 -9.5zM832 -32h-192q-13 0 -22.5 9.5t-9.5 22.5t9.5 22.5t22.5 9.5h192q13 0 22.5 9.5t9.5 22.5v160q0 13 9.5 22.5t22.5 9.5t22.5 -9.5t9.5 -22.5v-160
q0 -40 -28 -68t-68 -28v0zM352 -32h-160q-40 0 -68 28t-28 68v160q0 13 9.5 22.5t22.5 9.5t22.5 -9.5t9.5 -22.5v-160q0 -13 9.5 -22.5t22.5 -9.5h160q13 0 22.5 -9.5t9.5 -22.5t-9.5 -22.5t-22.5 -9.5v0zM128 512q-13 0 -22.5 9.5t-9.5 22.5v160q0 40 28 68t68 28h160
q13 0 22.5 -9.5t9.5 -22.5t-9.5 -22.5t-22.5 -9.5h-160q-13 0 -22.5 -9.5t-9.5 -22.5v-160q0 -13 -9.5 -22.5t-22.5 -9.5zM896 512q-13 0 -22.5 9.5t-9.5 22.5v160q0 13 -9.5 22.5t-22.5 9.5h-192q-13 0 -22.5 9.5t-9.5 22.5t9.5 22.5t22.5 9.5h192q40 0 68 -28t28 -68v-160
q0 -13 -9.5 -22.5t-22.5 -9.5z" />
    <glyph glyph-name="clear" unicode="&#xe652;" 
d="M452 749l-340 -340q-10 -10 -24 -10t-23.5 9.5t-9.5 23.5t10 24l340 340q10 10 23.5 10t23.5 -10t10 -23.5t-10 -23.5zM924 277l-340 -340q-10 -10 -24 -10t-23.5 10t-9.5 23.5t10 23.5l340 340q10 10 23.5 10t23.5 -9.5t10 -23.5t-10 -24zM451 275l-103 -103
q-10 -10 -23.5 -10t-23.5 10t-10 23.5t10 23.5l103 103q10 10 23.5 10t23.5 -9.5t10 -23.5t-10 -24zM298 371l-74 -75q-10 -9 -24 -9t-23.5 9.5t-9.5 23.5t10 23l74 75q10 10 24 10t23.5 -10t9.5 -23.5t-10 -23.5zM545 124l-74 -75q-10 -9 -24 -9t-23.5 9.5t-9.5 23.5t9 23
l75 75q10 10 24 10t23.5 -10t9.5 -23.5t-10 -23.5v0zM536 -63l-471 471q-10 10 -10 24t9.5 23.5t23.5 9.5t24 -10l471 -471q10 -10 10 -24t-9.5 -23.5t-23.5 -9.5t-24 10zM732 132l-472 472q-9 10 -9 24t9.5 23.5t23.5 9.5t24 -10l471 -471q10 -10 10 -24t-9.5 -23.5
t-23.5 -9.5t-24 9zM912 677l-107 107q-10 10 -10 24t10 23.5t23.5 9.5t23.5 -10l107 -107q10 -10 10 -24t-9.5 -23.5t-23.5 -9.5t-24 10zM587 567l-182 182q-9 10 -9 23.5t9.5 23.5t23.5 10t24 -10l182 -182q9 -10 9 -23.5t-9.5 -23.5t-23.5 -10t-24 10zM877 277l-182 182
q-10 10 -10 24t10 23.5t24 9.5t23 -10l182 -182q10 -9 10 -23t-9.5 -23.5t-23.5 -9.5t-24 9zM959 677l-217 -218q-10 -9 -23.5 -9t-23.5 9.5t-10 23.5t10 24l217 217q10 9 24 9t23.5 -9.5t9.5 -23.5t-10 -23zM852 784l-218 -217q-9 -10 -23 -10t-24 10t-9.5 24t9.5 23
l218 217q9 10 23 10t23.5 -9.5t9.5 -23.5t-9 -24z" />
    <glyph glyph-name="cancel" unicode="&#xe653;" 
d="M570 800h-6q-118 0 -197 -75t-79 -187v-429l-105 106q-9 10 -22.5 10t-23 -9.5t-9.5 -22.5t10 -23l158 -160q9 -9 23 -9q13 0 22 9v0v0l160 159q9 9 9 22.5t-9.5 23t-22.5 9.5t-22 -10l-104 -103v427q0 85 60.5 141.5t151.5 56.5h6q87 0 142.5 -55t55.5 -143v-506
q0 -13 9.5 -22.5t22.5 -9.5t22.5 9.5t9.5 22.5v506q0 114 -74 188t-188 74z" />
    <glyph glyph-name="success-fill" unicode="&#xe654;" 
d="M512 830q-91 0 -173.5 -35.5t-142 -95t-95 -142t-35.5 -173.5t35.5 -173.5t95 -142t142 -95t173.5 -35.5t173.5 35.5t142 95t95 142t35.5 173.5t-35.5 173.5t-95 142t-142 95t-173.5 35.5zM727 458l-256 -259v-1v0q-2 -1 -7 -4q-1 -1 -2 -1.5t-2 -1.5q-6 -2 -12 -2t-12 2
q-1 1 -2 1.5t-1 1.5q-6 3 -7 4v1h-1l-126 129q-9 10 -9 23t9.5 22.5t23 9t22.5 -9.5l103 -106l234 236q9 9 22.5 9t22.5 -9t9.5 -22.5t-9.5 -22.5z" />
    <glyph glyph-name="strategy" unicode="&#xe655;" 
d="M448 -32h-2h-2l-286 32q-39 1 -66.5 29t-27.5 67v608q0 40 28 68t68 28h2h1l287 -32q39 -1 66.5 -29t27.5 -67v-608q0 -40 -28 -68t-68 -28zM158 736q-12 -1 -21 -10t-9 -22v-608q0 -13 9.5 -22.5t22.5 -9.5h2h1l286 -32q13 1 22 10t9 22v608q0 13 -9.5 22.5t-22.5 9.5
h-2h-2zM609 -28q-12 0 -21 8t-11 20q-1 13 7 23.5t22 12.5l254 28h4q13 0 22.5 9.5t9.5 22.5v608q0 13 -9 22t-22 10l-253 -28q-13 -2 -23 6.5t-11.5 22t6.5 23.5t21 12l256 28h3q40 0 68 -28t28 -68v-608q0 -39 -27.5 -67t-66.5 -29l-253 -28h-4zM408 538h-208
q-13 0 -22.5 9.5t-9.5 22.5t9.5 22.5t22.5 9.5h208q13 0 22.5 -9.5t9.5 -22.5t-9.5 -22.5t-22.5 -9.5zM408 353h-208q-14 0 -23 9.5t-9 23t9 22.5t23 9h208q13 0 22.5 -9t9.5 -22.5t-9.5 -23t-22.5 -9.5zM408 170h-208q-13 0 -22.5 9t-9.5 22.5t9.5 23t22.5 9.5h208
q13 0 22.5 -9.5t9.5 -23t-9.5 -22.5t-22.5 -9zM824 537h-208q-13 0 -22.5 9.5t-9.5 22.5t9.5 22.5t22.5 9.5h208q13 0 22.5 -9.5t9.5 -22.5t-9.5 -22.5t-22.5 -9.5zM824 352h-208q-13 0 -22.5 9.5t-9.5 23t9.5 22.5t22.5 9h208q13 0 22.5 -9t9.5 -22.5t-9.5 -23t-22.5 -9.5z
M824 169h-208q-13 0 -22.5 9t-9.5 22.5t9.5 23t22.5 9.5h208q13 0 22.5 -9.5t9.5 -23t-9.5 -22.5t-22.5 -9z" />
    <glyph glyph-name="add-circle" unicode="&#xe656;" 
d="M512 -62q-90 0 -171.5 33.5t-145 97t-97.5 145t-34 170.5t34 170.5t97.5 145t145 97t171.5 33.5t171.5 -33.5t145 -97t97.5 -145t34 -170.5t-34 -170.5t-97.5 -145t-145 -97t-171.5 -33.5zM512 766q-77 0 -147 -29t-124.5 -83t-83.5 -123.5t-29 -146.5t29 -146.5
t83.5 -123.5t124.5 -83t147 -29t147 29t124.5 83t83.5 124t29 146.5t-29 146t-83.5 123.5t-124.5 83t-147 29zM736 416h-192v192q0 13 -9.5 22.5t-22.5 9.5t-22.5 -9.5t-9.5 -22.5v-192h-192q-13 0 -22.5 -9.5t-9.5 -22.5t9.5 -22.5t22.5 -9.5h192v-192q0 -13 9.5 -22.5
t22.5 -9.5t22.5 9.5t9.5 22.5v192h192q13 0 22.5 9.5t9.5 22.5t-9.5 22.5t-22.5 9.5z" />
    <glyph glyph-name="add-circle-fill" unicode="&#xe657;" 
d="M828.5 699.5q-63.5 63.5 -145 97t-171.5 33.5t-171.5 -33.5t-145 -97t-97.5 -145t-34 -170.5t34 -170.5t97.5 -145t145 -97t171.5 -33.5t171.5 33.5t145 97t97.5 145t34 170.5t-34 170.5t-97.5 145zM736 352h-192v-192q0 -13 -9.5 -22.5t-22.5 -9.5t-22.5 9.5t-9.5 22.5
v192h-192q-13 0 -22.5 9.5t-9.5 22.5t9.5 22.5t22.5 9.5h192v192q0 13 9.5 22.5t22.5 9.5t22.5 -9.5t9.5 -22.5v-192h192q13 0 22.5 -9.5t9.5 -22.5t-9.5 -22.5t-22.5 -9.5z" />
    <glyph glyph-name="fail-fill" unicode="&#xe658;" 
d="M512 832q-185 0 -316.5 -131.5t-131.5 -316.5t131.5 -316.5t316.5 -131.5t316.5 131.5t131.5 316.5t-131.5 316.5t-316.5 131.5zM695 246q9 -9 9 -22.5t-9.5 -23t-22.5 -9.5v0q-13 0 -23 10l-137 138l-138 -137q-10 -9 -23 -9v0q-13 0 -22.5 9.5t-9.5 22.5t10 23l138 136
l-138 138q-9 9 -9 22.5t9.5 23t22.5 9.5t23 -10l137 -138l138 137q10 9 23 9t22.5 -9.5t9.5 -22.5t-10 -23l-138 -136z" />
    <glyph glyph-name="fail" unicode="&#xe659;" 
d="M512 -64q-185 0 -316.5 131.5t-131.5 316.5t131.5 316.5t316.5 131.5t316.5 -131.5t131.5 -316.5t-131.5 -316.5t-316.5 -131.5zM512 768q-104 0 -192.5 -51.5t-140 -140t-51.5 -192.5t51.5 -192.5t140 -140t192.5 -51.5t192.5 51.5t140 140t51.5 192.5t-51.5 192.5
t-140 140t-192.5 51.5zM557 383l138 136q10 10 10 23t-9.5 22.5t-22.5 9.5t-23 -9l-138 -137l-137 137q-9 9 -22 9t-22.5 -9t-9.5 -22.5t9 -22.5l136 -137l-137 -136q-9 -9 -9.5 -22.5t9 -23t22.5 -9.5v0q14 0 23 10l138 136l138 -140q10 -9 23 -9v0q13 0 22.5 9.5t9.5 22.5
t-9 23z" />
    <glyph glyph-name="success" unicode="&#xe65a;" 
d="M512 -64q-185 0 -316.5 131.5t-131.5 316.5t131.5 316.5t316.5 131.5t316.5 -131.5t131.5 -316.5t-131.5 -316.5t-316.5 -131.5zM512 768q-104 0 -192.5 -51.5t-140 -140t-51.5 -192.5t51.5 -192.5t140 -140t192.5 -51.5t192.5 51.5t140 140t51.5 192.5t-51.5 192.5
t-140 140t-192.5 51.5zM727 502.5q-9 9.5 -22.5 9.5t-22.5 -9l-234 -236l-103 106q-9 9 -22.5 9.5t-23 -9t-9.5 -22.5t9 -23l126 -129h1v-1q1 -1 7 -4q0 -1 1 -1.5t2 -1.5q6 -2 12 -2t12 2q1 1 2 1.5t2 1.5q5 3 7 4v0v1l256 259q10 9 9.5 22t-9.5 22.5z" />
    <glyph glyph-name="youxuanzhuan" unicode="&#xe65b;" 
d="M851 145q-24 9 -41 -10q-65 -83 -166 -112.5t-203 6.5q-63 22 -112 67t-74.5 102t-31 122.5t18.5 128.5q23 63 68 112t101.5 74.5t122 31t129.5 -18.5q2 -2 8 -4l9 -3q-13 -37 -19 -53l-15 -45q-6 -8 -2 -20q9 -17 28 -10h1l20 9l135 64l34 17q9 4 11 12t-1 16l-17 34
l-64 135l-8 21v1q-4 8 -12 11t-16 -1q-9 -4 -12 -16l-15 -45q-4 -9 -11 -28.5t-11 -29.5q-9 4 -17 6q-79 30 -159.5 23.5t-150 -38.5t-124.5 -92t-83 -138q-30 -78 -23.5 -158.5t38.5 -150t91.5 -124.5t136.5 -82q126 -44 247.5 -9t201.5 133q7 7 9 15q6 13 -1 27.5
t-21 19.5z" />
  </font>
</defs>
</svg>
