<?xml version="1.0" standalone="no"?>
<!DOCTYPE svg PUBLIC "-//W3C//DTD SVG 1.1//EN" "http://www.w3.org/Graphics/SVG/1.1/DTD/svg11.dtd" >
<!--
2013-9-30: Created.
-->
<svg>
<metadata>
Created by iconfont
</metadata>
<defs>

<font id="iconfont" horiz-adv-x="1024" >
  <font-face
    font-family="iconfont"
    font-weight="500"
    font-stretch="normal"
    units-per-em="1024"
    ascent="896"
    descent="-128"
  />
    <missing-glyph />
    
    <glyph glyph-name="del" unicode="&#58889;" d="M970.105 653.474h-80.842v-727.579c0-29.75-24.118-53.895-53.895-53.895h-646.737c-29.777 0-53.895 24.145-53.895 53.895v727.579h-80.842c-14.875 0-26.947 12.072-26.947 26.947 0 14.902 12.072 26.947 26.947 26.947h916.211c14.875 0 26.947-12.045 26.947-26.947 0-14.875-12.072-26.947-26.947-26.947zM188.632-74.105h646.737v727.579h-646.737v-727.579zM673.684 60.632c-14.875 0-26.947 12.072-26.947 26.947v377.263c0 14.875 12.072 26.947 26.947 26.947 14.875 0 26.947-12.072 26.947-26.947v-377.263c0-14.875-12.072-26.947-26.947-26.947zM512 60.632c-14.875 0-26.947 12.072-26.947 26.947v377.263c0 14.875 12.072 26.947 26.947 26.947s26.947-12.072 26.947-26.947v-377.263c0-14.875-12.072-26.947-26.947-26.947zM350.316 60.632c-14.875 0-26.947 12.072-26.947 26.947v377.263c0 14.875 12.072 26.947 26.947 26.947 14.875 0 26.947-12.072 26.947-26.947v-377.263c0-14.875-12.072-26.947-26.947-26.947zM673.684 842.105h-323.368c-44.652 0-80.842-36.19-80.842-80.842h-53.895c0 74.429 60.335 134.737 134.737 134.737h323.368c74.402 0 134.737-60.308 134.737-134.737h-53.895c0 44.652-36.19 80.842-80.842 80.842z"  horiz-adv-x="1024" />

    
    <glyph glyph-name="xiala" unicode="&#58966;" d="M787.2 515.2c-9.6 9.6-22.4 12.8-35.2 12.8l-480-3.2c-12.8 0-25.6-3.2-35.2-12.8-19.2-19.2-19.2-48 0-67.2l240-240c3.2-3.2 9.6-6.4 12.8-9.6l3.2-3.2c16-6.4 38.4-3.2 51.2 9.6l240 243.2c22.4 22.4 19.2 51.2 3.2 70.4z"  horiz-adv-x="1024" />

    
    <glyph glyph-name="guanbi-highlight" unicode="&#58940;" d="M871.23452587 742.93047296c-198.23206286 198.23206286-519.62888306 198.23206286-717.85978084 0-198.23089778-198.23089778-198.23089778-519.62771797 0-717.85861575 198.23206286-198.23206286 519.62888306-198.23206286 717.85978084-0.00116508 198.23089778 198.23206286 198.23089778 519.62771797 0 717.85978083z m-181.63962312-577.40710571L512.30638307 342.81305202 335.01553323 165.52220217c-11.37344512-11.37344512-29.81466681-11.37344512-41.18694798 0s-11.37344512 29.81466681 0 41.18694798L471.11827001 384 293.82858525 561.29084985c-11.37344512 11.37344512-11.37461021 29.81350173 0 41.18694798s29.81350173 11.37344512 41.18694798 0l177.29084984-177.29084985 177.28968477 177.28968477c11.37344512 11.37344512 29.81466681 11.37344512 41.18694798 0s11.37344512-29.81350173 0-41.18694798L553.49333106 384l177.28851968-177.28968477c11.37344512-11.37344512 11.37461021-29.81466681 0-41.18694798-11.37344512-11.37344512-29.81350173-11.37344512-41.18694799 0z"  horiz-adv-x="1024" />

    
    <glyph glyph-name="shuaxin-index" unicode="&#58907;" d="M938.617341 850.719075c-106.987283 0-205.687861-35.810405-285.003468-96.184971-17.905202-13.613873-19.532948-39.953757-3.551445-55.93526 13.169942-13.169942 34.034682-14.649711 48.83237-3.255491 66.589595 50.608092 149.752601 80.795376 239.574566 80.795375 207.16763 0 377.932948-159.667052 395.542197-362.247399 1.627746-19.384971-0.295954-34.774566-0.295954-34.774566l-93.225434-0.739884 113.202313-225.516763c9.766474 0 150.788439 226.404624 150.788439 226.404624h-94.409249c0.443931 24.564162-1.183815 35.810405-1.627745 40.545665-20.716763 241.054335-223.593064 430.760694-469.82659 430.90867zM938.617341-17.90520200000003c-219.00578 0-397.021965 178.164162-397.021965 397.021965v0.443931l94.261271 1.035838-112.018497 224.924855-150.936416-226.256647h94.261272C467.015029 114.68208100000004 692.087861-92.48554899999999 938.617341-92.48554899999999c110.982659 0 213.234682 38.621965 293.882081 102.991907 17.313295 13.909827 18.645087 39.80578 2.959538 55.49133-13.465896 13.465896-34.774566 14.649711-49.572255 2.811561-67.921387-54.307514-153.895954-86.714451-247.269364-86.714451z"  horiz-adv-x="1879" />

    
    <glyph glyph-name="jianhao" unicode="&#58884;" d="M512 864C246.912 864 32 649.088 32 384c0-265.088 214.912-480 480-480s480 214.912 480 480c0 265.088-214.912 480-480 480z m256-512H256v64h512v-64z"  horiz-adv-x="1024" />

    
    <glyph glyph-name="suo" unicode="&#58967;" d="M800.421 459.475h-63.661v148.673c0 124.507-100.762 225.757-224.732 225.757-123.98 0-224.857-101.25-224.857-225.766v-148.662h-63.593c-30.667 0-55.532-24.952-55.532-55.752v-407.048c0-30.848 24.865-55.82 55.532-55.82h576.9c30.667 0 55.465 24.97 55.465 55.82v407.048c0 30.802-24.855 55.752-55.532 55.752zM543.203 189.591v-88.88c-0.016-4.026-3.264-7.287-7.282-7.325h-47.733c-4.039 0.022-7.307 3.287-7.334 7.322v88.882c-22.423 11.518-37.953 34.602-37.953 61.659 0 38.288 30.945 69.425 69.070 69.425 38.183 0 69.138-31.136 69.138-69.415 0.057-27.067-15.473-50.152-37.905-61.659zM650.514 459.475h-276.989v144.986c0 76.691 62.196 139.146 138.552 139.146 76.366 0 138.447-62.454 138.447-139.146v-144.986z"  horiz-adv-x="1024" />

    
    <glyph glyph-name="zhixiangzuo" unicode="&#59643;" d="M896 352H250.4l242.4-242.4L448 64 173.6 338.4 128 384l45.6 45.6L448 704l45.6-45.6L250.4 416H896v-64z"  horiz-adv-x="1024" />

    
    <glyph glyph-name="zhixiangyou" unicode="&#59644;" d="M128 416h645.6L530.4 658.4 576 704l274.4-274.4L896 384l-45.6-45.6L576 64l-45.6 45.6L773.6 352H128v64z"  horiz-adv-x="1024" />

    
    <glyph glyph-name="xialajiantouxiao" unicode="&#59518;" d="M483.072 181.50400000000002l30.165333-30.208 415.957334 415.829333a42.837333 42.837333 0 0 1 0 60.288 42.538667 42.538667 0 0 1-60.330667 0.042667l-355.541333-355.413333-355.242667 355.413333a42.496 42.496 0 0 1-60.288 0 42.837333 42.837333 0 0 1-0.085333-60.330667l383.701333-383.872 1.706667-1.749333z"  horiz-adv-x="1024" />

    
    <glyph glyph-name="gou" unicode="&#58898;" d="M438.542911-128a57.551563 57.551563 0 0 0-41.437125 18.4165L16.114438 293.277442a57.551563 57.551563 0 1 0 84.025282 79.421158l337.25216-356.819692L1193.61942 874.54823a57.551563 57.551563 0 1 0 86.327345-75.968063L481.131068-108.432469a57.551563 57.551563 0 0 0-42.588157-19.567531z"  horiz-adv-x="1298" />

    
    <glyph glyph-name="gongdanxitong" unicode="&#58899;" d="M821.333333 896H202.666667A128 128 0 0 1 74.666667 768v-768A128 128 0 0 1 202.666667-128h618.666666a128 128 0 0 1 128 128v768A128 128 0 0 1 821.333333 896z m42.666667-896a42.666667 42.666667 0 0 0-42.666667-42.666667H202.666667a42.666667 42.666667 0 0 0-42.666667 42.666667v768a42.666667 42.666667 0 0 0 42.666667 42.666667h618.666666a42.666667 42.666667 0 0 0 42.666667-42.666667zM309.333333 512h181.76a42.666667 42.666667 0 0 1 0 85.333333H309.333333a42.666667 42.666667 0 0 1 0-85.333333zM309.333333 330.24h256a42.666667 42.666667 0 0 1 0 85.333333h-256a42.666667 42.666667 0 0 1 0-85.333333zM747.093333 223.573333H309.333333a42.666667 42.666667 0 0 1 0-85.333333h437.76a42.666667 42.666667 0 0 1 0 85.333333z"  horiz-adv-x="1024" />

    
    <glyph glyph-name="qudaoxitong" unicode="&#58900;" d="M936.422015 12.511278a139.548872 139.548872 0 1 0 140.511278 139.548872 139.548872 139.548872 0 0 0-140.511278-139.548872z m0 324.330827h-23.097744a371.488722 371.488722 0 0 1-207.8797 332.992481 183.819549 183.819549 0 0 1 21.172933 85.654136v6.736842a464.842105 464.842105 0 0 0 281.022556-426.345865v-13.473684a192.481203 192.481203 0 0 1-69.293233 13.473684zM538.948331 616.902256a139.548872 139.548872 0 1 0 140.511278 139.548872A139.548872 139.548872 0 0 0 538.948331 616.902256zM164.572391 336.842105h-23.097744A192.481203 192.481203 0 0 1 72.181414 318.556391v13.473684a464.842105 464.842105 0 0 0 280.06015 431.157895v-6.736842a183.819549 183.819549 0 0 1 21.172932-85.654136A371.488722 371.488722 0 0 1 164.572391 336.842105z m116.451128-185.744361a140.511278 140.511278 0 1 0-139.548872 139.548873 139.548872 139.548872 0 0 0 139.548872-139.548873z m18.285714-96.240601a375.338346 375.338346 0 0 1 481.203008 0 192.481203 192.481203 0 0 1 68.330827-63.518797 467.729323 467.729323 0 0 0-615.93985 0 192.481203 192.481203 0 0 1 68.330827 63.518797z m0 0"  horiz-adv-x="1076" />

    
    <glyph glyph-name="riqi" unicode="&#58901;" d="M689.56229 206.43771H344.781145a43.097643 43.097643 0 0 1 0-86.195286h344.781145a43.097643 43.097643 0 0 1 0 86.195286zM689.56229 389.171717H344.781145a43.097643 43.097643 0 0 1 0-86.195286h344.781145a43.097643 43.097643 0 0 1 0 86.195286zM905.050505 820.148148h-86.195286V852.902357a43.097643 43.097643 0 0 1-86.195286 0v-32.754209h-430.976431V852.902357a43.097643 43.097643 0 0 1-86.195287 0v-32.754209h-86.195286A129.292929 129.292929 0 0 1 0 690.855219v-689.56229a129.292929 129.292929 0 0 1 129.292929-129.292929h775.757576a130.154882 130.154882 0 0 1 129.292929 129.292929v689.56229a130.154882 130.154882 0 0 1-129.292929 129.292929z m43.097643-818.855219a43.097643 43.097643 0 0 0-43.097643-43.097643h-775.757576a43.097643 43.097643 0 0 0-43.097643 43.097643V496.915825H949.010101z m0 579.232324H86.195286V690.855219a43.097643 43.097643 0 0 0 43.097643 43.097643h86.195286v-64.646465a43.097643 43.097643 0 0 1 86.195287 0v64.646465h430.976431v-64.646465a43.097643 43.097643 0 0 1 86.195286 0v64.646465h86.195286a43.097643 43.097643 0 0 0 43.097643-43.097643z"  horiz-adv-x="1034" />

    
    <glyph glyph-name="peizhixitong" unicode="&#58902;" d="M316.398815 618.01382h-82.890424V845.457058a50.542942 50.542942 0 0 1-101.085884 0v-227.443238H50.542942a50.542942 50.542942 0 0 1 0-101.085883h81.879565v-594.384995a50.542942 50.542942 0 0 1 101.085884 0V516.927937h81.879566a50.542942 50.542942 0 0 1 0 101.085883zM720.742349 276.343534h-82.890424V845.457058a50.542942 50.542942 0 0 1-101.085884 0v-569.113524H454.886476a50.542942 50.542942 0 0 1 0-101.085883h81.879565v-252.714709a50.542942 50.542942 0 0 1 101.085884 0v252.714709h81.879566a50.542942 50.542942 0 0 1 0 101.085883zM1125.085884 618.01382h-81.879566V845.457058a50.542942 50.542942 0 0 1-101.085884 0v-227.443238H859.23001a50.542942 50.542942 0 0 1 0-101.085883h81.879566v-594.384995a50.542942 50.542942 0 0 1 101.085883 0V516.927937h81.879566a50.542942 50.542942 0 0 1 0 101.085883z"  horiz-adv-x="1175" />

    
    <glyph glyph-name="guanlixitong" unicode="&#58903;" d="M338.397628 895.969769h-195.04186A146.281396 146.281396 0 0 1 0 749.688373v-195.041861A146.281396 146.281396 0 0 1 146.281396 408.365117h195.04186A146.281396 146.281396 0 0 1 487.604652 557.57214v195.041861A146.281396 146.281396 0 0 1 338.397628 895.969769zM390.083721 557.57214a48.760465 48.760465 0 0 0-48.760465-48.760465h-195.04186a48.760465 48.760465 0 0 0-48.760466 48.760465v195.041861A48.760465 48.760465 0 0 0 146.281396 798.448838h195.04186a48.760465 48.760465 0 0 0 48.760465-48.760465zM924.49842 895.969769h-195.041861A146.281396 146.281396 0 0 1 585.125582 749.688373v-195.041861A146.281396 146.281396 0 0 1 732.382187 408.365117h195.04186A146.281396 146.281396 0 0 1 1072.730234 557.57214v195.041861A146.281396 146.281396 0 0 1 924.49842 895.969769zM975.209303 557.57214a48.760465 48.760465 0 0 0-48.760465-48.760465h-195.04186a48.760465 48.760465 0 0 0-48.760466 48.760465v195.041861a48.760465 48.760465 0 0 0 48.760466 48.760465h195.04186a48.760465 48.760465 0 0 0 48.760465-48.760465zM338.397628 356.679024h-195.04186A146.281396 146.281396 0 0 1 0 213.323256v-195.04186a146.281396 146.281396 0 0 1 146.281396-146.281396h195.04186A146.281396 146.281396 0 0 1 487.604652 18.281396V213.323256a146.281396 146.281396 0 0 1-149.207024 143.355768zM390.083721 18.281396a48.760465 48.760465 0 0 0-48.760465-48.760466h-195.04186A48.760465 48.760465 0 0 0 97.52093 18.281396V213.323256a48.760465 48.760465 0 0 0 48.760466 48.760465h195.04186A48.760465 48.760465 0 0 0 390.083721 213.323256zM924.49842 356.679024h-195.041861A146.281396 146.281396 0 0 1 585.125582 213.323256v-195.04186a146.281396 146.281396 0 0 1 146.281396-146.281396h195.04186A146.281396 146.281396 0 0 1 1072.730234 18.281396V213.323256a146.281396 146.281396 0 0 1-148.231814 143.355768zM975.209303 18.281396a48.760465 48.760465 0 0 0-48.760465-48.760466h-195.04186A48.760465 48.760465 0 0 0 682.646512 18.281396V213.323256a48.760465 48.760465 0 0 0 48.760466 48.760465h195.04186a48.760465 48.760465 0 0 0 48.760465-48.760465z"  horiz-adv-x="1072" />

    
    <glyph glyph-name="shangchuan" unicode="&#58904;" d="M47.06938-128h1047.764388a47.06938 47.06938 0 0 1 47.069379 47.06938V212.782308a47.06938 47.06938 0 0 1-94.138759 0v-246.643549H94.138759V212.782308a47.06938 47.06938 0 0 1-94.138759 0v-293.712928a47.06938 47.06938 0 0 1 47.06938-47.06938zM421.741641 626.05146L530.001214 734.311033v-545.063415a47.06938 47.06938 0 0 1 94.138759 0V734.311033l107.318185-108.259573a47.06938 47.06938 0 0 1 66.838519 66.838519l-188.277518 188.277518A47.06938 47.06938 0 0 1 594.956957 894.346923a46.127992 46.127992 0 0 1-24.476077 0H564.832554a46.127992 46.127992 0 0 1-21.651914-11.296651l-188.277518-188.277518a47.06938 47.06938 0 0 1 66.838519-66.838519z"  horiz-adv-x="1143" />

    
    <glyph glyph-name="shezhi" unicode="&#58905;" d="M1069.468793 490.400323c-6.365886 33.648253-26.372955 54.564734-51.836497 53.655322h-4.547062a133.683599 133.683599 0 0 0-133.683599 133.683599 155.509493 155.509493 0 0 0 11.822359 50.927085 68.205918 68.205918 0 0 1-23.644718 82.756514L732.076852 887.813471H727.529791a69.11533 69.11533 0 0 1-25.463542 8.18471 75.481216 75.481216 0 0 1-53.655323-21.825894A191.885982 191.885982 0 0 0 545.647343 813.241667 191.885982 191.885982 0 0 0 436.517875 873.262875a75.481216 75.481216 0 0 1-53.655322 22.735306 69.11533 69.11533 0 0 1-27.282368-5.456473L214.621288 813.241667a68.205918 68.205918 0 0 1-22.735306-82.756513 152.781256 152.781256 0 0 0 11.82236-50.927086 133.683599 133.683599 0 0 0-136.411836-135.502423H62.749444c-25.463543 0-45.470612-20.916481-51.836497-53.655322A680.240355 680.240355 0 0 1 0 384.908503a690.243889 690.243889 0 0 1 10.912947-106.401232c6.365886-32.738841 26.372955-53.655322 50.927085-53.655322h5.456474a133.683599 133.683599 0 0 0 133.683599-133.683599 150.962432 150.962432 0 0 0-11.822359-50.927086 68.205918 68.205918 0 0 1 22.735306-82.756514l131.864774-73.662391a69.11533 69.11533 0 0 1 28.19178-5.456473 74.571804 74.571804 0 0 1 54.564734 22.735306 195.523631 195.523631 0 0 0 108.220057 62.749444 196.433044 196.433044 0 0 0 108.220056-63.658857 74.571804 74.571804 0 0 1 54.564734-23.644718 67.296506 67.296506 0 0 1 27.282368 5.456474H727.529791l136.411836 75.481215a68.205918 68.205918 0 0 1 22.735306 82.756514 150.962432 150.962432 0 0 0-11.822359 50.927086 133.683599 133.683599 0 0 0 133.683599 133.683599h5.456474c24.55413 0 44.5612 20.916481 50.927085 53.655322a678.42153 678.42153 0 0 1 10.912947 105.49182 712.069783 712.069783 0 0 1-10.912947 105.491819z m-62.749444-105.49182a588.389719 588.389719 0 0 0-9.094123-90.941224 208.255403 208.255403 0 0 1-191.885982-203.708342 218.258937 218.258937 0 0 1 12.731771-74.571803l-120.951828-67.296506a370.130781 370.130781 0 0 1-44.561199 38.195314 197.342456 197.342456 0 0 1-115.495355 45.470612 197.342456 197.342456 0 0 1-114.585942-45.470612 352.851949 352.851949 0 0 1-47.289436-40.923551l-116.404767 70.024743A218.258937 218.258937 0 0 1 272.823672 91.16835 208.255403 208.255403 0 0 1 82.756514 297.604928a584.75207 584.75207 0 0 0-9.094123 90.941224 590.208543 590.208543 0 0 0 9.094123 90.941224A208.255403 208.255403 0 0 1 272.823672 678.648656a218.258937 218.258937 0 0 1-15.460008 75.481216L383.771965 821.426378a371.949606 371.949606 0 0 1 46.380024-40.014139A198.251868 198.251868 0 0 1 545.647343 739.579276a199.16128 199.16128 0 0 1 109.129469 40.923551 382.862553 382.862553 0 0 1 46.380024 39.104726L818.471015 753.22046a219.16835 219.16835 0 0 1-15.460008-75.481216A208.255403 208.255403 0 0 1 1000.353463 471.302666a585.661482 585.661482 0 0 0 9.094122-90.941224z m0 0M538.372046 575.885073A190.97657 190.97657 0 1 1 727.529791 384.908503a190.97657 190.97657 0 0 1-190.97657 190.97657z m0-307.381337A116.404767 116.404767 0 1 0 654.776812 384.908503a117.314179 117.314179 0 0 0-116.404766-116.404767z m0 0"  horiz-adv-x="1083" />

    
    <glyph glyph-name="shipin" unicode="&#58906;" d="M1402.991284 888.829739a53.517244 53.517244 0 0 1-53.517244 0l-314.807319-192.032465V737.722226A157.403659 157.403659 0 0 1 879.361777 895.125885H157.403659A157.403659 157.403659 0 0 1 0 737.722226v-708.316468a157.403659 157.403659 0 0 1 157.403659-157.403659h721.958118a157.403659 157.403659 0 0 1 157.40366 157.403659v41.974309l314.807319-192.032464a52.467886 52.467886 0 0 1 27.283301-7.345504 52.467886 52.467886 0 0 1 52.467886 52.467886V842.657999a52.467886 52.467886 0 0 1-28.332659 46.17174zM931.829664 29.405758a52.467886 52.467886 0 0 0-52.467887-52.467886H157.403659a52.467886 52.467886 0 0 0-52.467886 52.467886V737.722226a52.467886 52.467886 0 0 0 52.467886 52.467886h721.958118a52.467886 52.467886 0 0 0 52.467887-52.467886z m393.509148-11.542935L1036.765437 194.154922V572.973062l287.524018 175.242741z"  horiz-adv-x="1432" />

    
    <glyph glyph-name="shuaxin" unicode="&#58908;" d="M1020.077371 231.405499a44.044791 44.044791 0 0 1-51.091958 36.116729l-191.154395-39.640313a44.044791 44.044791 0 0 1 17.617916-88.089583l75.757042 15.856125a422.829998 422.829998 0 1 0 17.617916 421.068207 44.044791 44.044791 0 1 1 80.161521 43.163895 511.800477 511.800477 0 1 1-16.737021-501.229727l14.975229-94.255853a44.044791 44.044791 0 0 1 43.163896-36.997625h7.047166a44.044791 44.044791 0 0 1 36.997625 50.211062z"  horiz-adv-x="1056" />

    
    <glyph glyph-name="sousuo" unicode="&#58909;" d="M1009.703316-51.155323L764.8726 193.675393A429.794066 429.794066 0 0 1 432.474695 896a431.581152 431.581152 0 0 1-305.591623-736.279232 427.113438 427.113438 0 0 1 574.547993-28.593368l244.830715-244.830716a44.677138 44.677138 0 0 1 63.441536 63.441536zM190.324607 222.268761a342.226876 342.226876 0 1 0 483.406632 0 350.268761 350.268761 0 0 0-483.406632 0z"  horiz-adv-x="1024" />

    
    <glyph glyph-name="weikefu" unicode="&#58910;" d="M512.094032-127.9991H103.57418a44.991173 44.991173 0 0 0-44.09135 54.889231C73.880005-11.02205 90.076828 60.963827 90.076828 86.158884a505.700786 505.700786 0 0 0-89.982346 297.841566 511.99955 511.99955 0 1 0 511.99955-511.99955z m-351.830974 89.982346h351.830974A422.017204 422.017204 0 1 1 90.076828 384.00045a417.518087 417.518087 0 0 1 84.583405-252.850393c12.597528-16.196822 17.996469-23.39541-14.397175-169.166811z"  horiz-adv-x="1024" />

    
    <glyph glyph-name="wenjian" unicode="&#58911;" d="M938.666667-128H85.333333V896h531.626667L938.666667 628.053333z m-768 85.333333h682.666666V587.946667L586.24 810.666667H170.666667z"  horiz-adv-x="1024" />

    
    <glyph glyph-name="yidongxunjian" unicode="&#58912;" d="M511.559759-128A511.559759 511.559759 0 1 1 0 384.440241a512.440241 512.440241 0 0 1 511.559759-512.440241zM511.559759 807.951849a419.989682 419.989682 0 0 0 248.295787-81.884781l-73.079966-81.004299a328.419604 328.419604 0 1 1 64.275151-59.872743l73.960447 81.884781A421.750645 421.750645 0 1 0 511.559759 807.951849z m226.283749-423.511608a225.403267 225.403267 0 1 0-226.283749 225.403267 222.761823 222.761823 0 0 0 114.462597-32.577816L478.981943 413.496131a44.024076 44.024076 0 0 1 65.155632-58.992262l147.920894 163.769562a223.642304 223.642304 0 0 0 45.785039-133.83319z"  horiz-adv-x="1024" />

    
    <glyph glyph-name="yidonganjian" unicode="&#58913;" d="M937.373927 741.620848L524.840318 893.433216a39.603226 39.603226 0 0 1-28.052286 0l-412.533609-149.337167a41.253361 41.253361 0 0 1-27.227218-41.25336v-501.640869a41.253361 41.253361 0 0 1 0-17.326412c5.775471-12.376008 151.812368-311.050341 449.661634-311.050341S954.700338 171.4994 964.601145 183.875408a41.253361 41.253361 0 0 1 0 18.151479V702.842689a41.253361 41.253361 0 0 1-27.227218 38.778159zM882.094423 211.927694c-23.926949-43.728563-150.162234-256.595905-371.280248-256.595905S163.460876 168.199131 139.533927 211.927694v462.037642L510.814175 810.926494 882.094423 673.965336zM400.255168 360.439793a41.253361 41.253361 0 0 1-47.028832-67.655512l134.485957-93.232595a41.253361 41.253361 0 0 1 53.629369 5.77547l237.619359 247.520165A41.253361 41.253361 0 1 1 717.08098 509.77696l-212.042275-222.768149z"  horiz-adv-x="1024" />

    
    <glyph glyph-name="youjiantou" unicode="&#58914;" d="M778.755998 415.459392L311.56374 882.65165a44.494501 44.494501 0 0 1-62.292301-62.292301L680.868096 384.313241l-436.046107-436.046107a44.494501 44.494501 0 1 1 63.182191-63.182191L778.755998 353.167091a44.494501 44.494501 0 0 1 0 62.292301z"  horiz-adv-x="1024" />

    
    <glyph glyph-name="yuyin" unicode="&#58915;" d="M514.988795 204.82128a233.230258 233.230258 0 0 1 231.527847 233.230258V660.216126a235.783874 235.783874 0 0 1-471.567748 0v-222.164588A234.932668 234.932668 0 0 1 514.988795 204.82128zM360.920632 581.054032h64.691604a42.560266 42.560266 0 0 1 0 85.120532h-64.691604a149.812136 149.812136 0 0 0 299.624272 0H600.109327a42.560266 42.560266 0 0 1 0-85.120532h64.691604v-62.989194H600.109327a42.560266 42.560266 0 0 1 0-85.120532h63.840399a149.812136 149.812136 0 0 0-299.624273 0h63.840399a42.560266 42.560266 0 0 1 0 85.120532h-67.24522zM805.249809 649.150457a42.560266 42.560266 0 0 1-42.560266-42.560266v-179.604322a250.254364 250.254364 0 0 0-255.361596-247.700748A248.551953 248.551953 0 0 0 259.627199 426.985869V606.590191a42.560266 42.560266 0 0 1-85.120532 0v-179.604322a332.82128 332.82128 0 0 1 294.51704-328.565254V-42.879468H360.920632a42.560266 42.560266 0 0 1 0-85.120532h301.326683a42.560266 42.560266 0 1 1 0 85.120532H554.144239V97.56941a331.970075 331.970075 0 0 1 293.665836 329.416459V606.590191a42.560266 42.560266 0 0 1-42.560266 42.560266z"  horiz-adv-x="1024" />

    
    <glyph glyph-name="x" unicode="&#58916;" d="M574.856741 383.764804L1010.171619 819.079681a44.970545 44.970545 0 1 1-63.858175 63.858174L511.897978 445.824156 76.583101 882.038445a44.970545 44.970545 0 0 1-62.958763-62.958764L449.838626 383.764804 13.624338-50.650662a44.970545 44.970545 0 1 1 63.858174-63.858174l434.415466 435.314877 434.415466-434.415467a44.970545 44.970545 0 0 1 63.858175 63.858175z"  horiz-adv-x="1024" />

    
    <glyph glyph-name="GISxitong" unicode="&#58917;" d="M1264.417391 604.827826c-26.713043 73.015652-113.085217 113.085217-242.198261 121.989565a511.109565 511.109565 0 0 1-890.434782-319.666087C24.041739 311.874783-20.48 216.598261 8.904348 139.130435s125.551304-121.989565 267.130435-122.88h7.123478a511.109565 511.109565 0 0 1 865.502609 332.132174c97.947826 84.591304 146.031304 175.415652 115.756521 256.445217z m-83.700869-31.165217c8.904348-24.041739 0-60.549565-34.726957-101.509566a508.438261 508.438261 0 0 1-53.426087 156.716522c47.193043-11.575652 79.248696-30.274783 89.043479-55.206956zM642.893913 806.956522A422.956522 422.956522 0 0 0 1068.521739 389.342609a1246.608696 1246.608696 0 0 0-364.187826-198.566957 1323.186087 1323.186087 0 0 0-378.434783-82.810435A421.175652 421.175652 0 0 0 642.893913 806.956522zM89.043478 170.295652c-10.685217 28.493913 7.123478 72.125217 48.083479 119.318261a508.438261 508.438261 0 0 1 71.234782-178.086956c-61.44 7.123478-105.071304 28.493913-119.318261 58.768695z m553.850435-209.252174a419.394783 419.394783 0 0 0-224.389565 65.892174 1502.163478 1502.163478 0 0 1 316.104348 80.139131 1504.834783 1504.834783 0 0 1 311.652174 157.606956 422.066087 422.066087 0 0 0-403.366957-303.638261z"  horiz-adv-x="1273" />

    
    <glyph glyph-name="jiaoyizhongxin" unicode="&#58919;" d="M102.007914 460.933729a42.265706 42.265706 0 0 1 32.967251 0l176.670651 84.531412a42.265706 42.265706 0 0 1-34.657879 76.923585l-79.459528-36.348508a415.894547 415.894547 0 0 0 773.46242-84.531412 42.265706 42.265706 0 0 1 40.575078-31.276622h10.989084a42.265706 42.265706 0 0 1 30.431308 51.564161A500.425959 500.425959 0 0 1 118.068882 613.09027l-33.812565 84.531412a42.265706 42.265706 0 1 1-81.150155-32.121936l75.232956-181.742536a42.265706 42.265706 0 0 1 23.668796-22.823481zM1117.230172 110.128369l-72.697014 181.742536a42.265706 42.265706 0 0 1-27.050052 23.668795 41.420392 41.420392 0 0 1-32.967251 0l-176.670651-84.531412a42.265706 42.265706 0 0 1 34.657879-76.923585l79.459527 36.348507a415.894547 415.894547 0 0 0-773.46242 84.531412 42.265706 42.265706 0 0 1-84.531412-21.132853 500.425959 500.425959 0 0 1 940.834616-90.448611l33.812565-84.531412a42.265706 42.265706 0 0 1 38.884449-26.204737 43.956334 43.956334 0 0 1 16.060969 0 42.265706 42.265706 0 0 1 23.668795 57.48136zM620.185469 143.940934v84.531412h121.725234v84.531412H620.185469v52.409475h100.592381v84.531412h-47.337591l60.862617 90.448611-70.161072 47.337591-87.067355-130.178375L479.018011 581.813648l-66.779815-51.564161 62.553245-80.304842h-39.729764v-84.531412H535.654057v-52.409475H413.928824v-84.531412H535.654057v-84.531412h84.531412z"  horiz-adv-x="1132" />

    
    <glyph glyph-name="ranqiguanwang" unicode="&#58920;" d="M1024 896h-877.714286A146.285714 146.285714 0 0 1 0 749.714286v-500.297143a146.285714 146.285714 0 0 1 146.285714-146.285714h390.095238V-30.47619H237.958095v-97.52381h694.369524v97.52381H633.904762V103.131429h390.095238a146.285714 146.285714 0 0 1 146.285714 146.285714V749.714286A146.285714 146.285714 0 0 1 1024 896z m-877.714286-97.52381h877.714286a48.761905 48.761905 0 0 0 48.761905-48.761904v-390.095238H97.52381v390.095238a48.761905 48.761905 0 0 0 48.761904 48.761904z m877.714286-597.820952h-877.714286a48.761905 48.761905 0 0 0-48.761904 48.761905V262.095238h975.238095v-12.678095a48.761905 48.761905 0 0 0-48.761905-48.761905z"  horiz-adv-x="1170" />

    
    <glyph glyph-name="zhifumingxi" unicode="&#58921;" d="M821.333333 896H202.666667A128 128 0 0 1 74.666667 768v-768A128 128 0 0 1 202.666667-128h618.666666a128 128 0 0 1 128 128v768A128 128 0 0 1 821.333333 896z m42.666667-896a42.666667 42.666667 0 0 0-42.666667-42.666667H202.666667a42.666667 42.666667 0 0 0-42.666667 42.666667v768a42.666667 42.666667 0 0 0 42.666667 42.666667h618.666666a42.666667 42.666667 0 0 0 42.666667-42.666667zM266.666667 372.906667a42.666667 42.666667 0 0 1 42.666666-42.666667h256a42.666667 42.666667 0 0 1 0 85.333333h-256a42.666667 42.666667 0 0 1-42.666666-42.666666zM747.093333 223.573333H309.333333a42.666667 42.666667 0 0 1 0-85.333333h437.76a42.666667 42.666667 0 0 1 0 85.333333zM561.066667 756.906667H266.666667v-277.333334H561.066667z m-85.333334-192H352V671.573333H475.733333z"  horiz-adv-x="1024" />

    
    <glyph glyph-name="dianzifapiao" unicode="&#58922;" d="M213.373023 443.534884v-95.255814h113.354419v-60.011163H189.55907v-95.255814h137.168372v-95.255814h95.255814v95.255814h137.168372v95.255814H421.983256v60.011163h113.354418v95.255814h-52.390697l67.631628 101.923721-79.062326 53.343255-98.113488-146.693953-110.496744 140.026046-74.299535-59.058604 69.536744-89.540465h-44.770233zM238.139535-128h666.790698a238.139535 238.139535 0 0 1 238.139534 238.139535V657.860465A238.139535 238.139535 0 0 1 908.740465 896H710.608372l-65.726512-46.675349L588.68093 896H448.654884L381.023256 849.324651 326.727442 896H238.139535A238.139535 238.139535 0 0 1 0 657.860465v-547.72093a238.139535 238.139535 0 0 1 238.139535-238.139535zM95.255814 657.860465A142.883721 142.883721 0 0 0 238.139535 800.744186h54.295814l88.587907-72.394419L476.27907 800.744186h74.299535l86.68279-72.394419L742.042791 800.744186h166.697674A142.883721 142.883721 0 0 0 1047.813953 657.860465v-547.72093a142.883721 142.883721 0 0 0-142.88372-142.883721h-666.790698A142.883721 142.883721 0 0 0 95.255814 110.139535zM607.732093 540.695814h274.336744v-95.255814H607.732093zM607.732093 291.125581h333.395349v-95.255814h-333.395349z"  horiz-adv-x="1146" />

    
    <glyph glyph-name="huiyuan" unicode="&#58923;" d="M1091.413333 677.546667A72.533333 72.533333 0 0 1 1024 576L787.626667 478.72 622.08 763.733333a72.533333 72.533333 0 1 1-85.333333 0L354.133333 478.72 139.093333 575.146667a72.533333 72.533333 0 1 1-68.266666-42.666667l112.64-484.693333a40.106667 40.106667 0 0 1 39.253333-31.573334H938.666667a40.106667 40.106667 0 0 1 39.253333 31.573334l112.64 484.693333a72.533333 72.533333 0 1 1 0 145.066667z m-185.173333-580.266667H256L170.666667 469.333333l185.173333-85.333333a40.96 40.96 0 0 1 50.346667 15.36l172.373333 277.333333 157.013333-269.653333a40.106667 40.106667 0 0 1 50.346667-17.066667l207.36 85.333334-85.333333-378.026667zM930.133333-42.666667H230.4a40.96 40.96 0 0 1 0-85.333333h699.733333a40.96 40.96 0 1 1 0 85.333333z m0 0"  horiz-adv-x="1166" />

    
    <glyph glyph-name="biaojuzhouqi" unicode="&#58924;" d="M932.603736 482.680773l-75.075563-30.676037a363.268852 363.268852 0 0 0-279.313384-495.660167 364.076116 364.076116 0 0 0-416.548284 417.355548A367.305173 367.305173 0 0 0 464.390548 674.809632 369.726965 369.726965 0 0 0 654.90488 653.820765l29.868772-12.108961 37.941413 50.857639L561.262242 896l-62.159337-50.050375 69.424714-88.799053a449.646112 449.646112 0 0 1-116.246032 0 443.995264 443.995264 0 0 1 68.61745-884.761471 460.94781 460.94781 0 0 1 70.231978 5.650849 443.995264 443.995264 0 0 1 341.472721 605.448087zM448.245266 370.471061a265.589894 265.589894 0 0 0-20.988867-21.796131l-27.44698-24.217924-28.254244-27.44698a275.277063 275.277063 0 0 1-23.410659-25.832452L332.806498 250.188707v-58.123016h200.2015V250.188707H407.074796l17.759811 20.181603a322.905646 322.905646 0 0 0 25.025187 24.217924L480.535831 321.22795a188.092539 188.092539 0 0 1 27.44698 29.061508 92.028109 92.028109 0 0 1 14.530754 34.712357 113.016976 113.016976 0 0 1 0 27.44698 105.751599 105.751599 0 0 1-5.650849 29.868772 100.908014 100.908014 0 0 1-16.145282 29.868772A80.726412 80.726412 0 0 1 474.884982 492.367942a100.10075 100.10075 0 0 1-43.592262 8.879905 100.908014 100.908014 0 0 1-46.014055-8.879905 80.726412 80.726412 0 0 1-29.061508-24.217923 104.944335 104.944335 0 0 1-15.338018-29.868773 150.151126 150.151126 0 0 1-4.843585-26.639715v-23.41066h59.737545v19.374339a35.519621 35.519621 0 0 0 10.494433 24.217923 29.868772 29.868772 0 0 0 23.410659 10.494434 44.399526 44.399526 0 0 0 20.988867-5.650849 27.44698 27.44698 0 0 0 12.108962-12.916226 45.20679 45.20679 0 0 0 0-17.75981 51.664903 51.664903 0 0 0 0-21.796131 80.726412 80.726412 0 0 0-14.530754-13.72349zM683.159124 503.66964L561.262242 300.239083v-58.930281h117.053297v-50.857639h56.508488v50.857639h27.44698v54.89396h-28.254244V503.66964z m-4.843585-207.466878h-58.123016l58.123016 94.449902z"  horiz-adv-x="1024" />

    
    <glyph glyph-name="qudaoyonghu" unicode="&#58925;" d="M538.856176 435.113367a230.443316 230.443316 0 1 1-230.443316 230.443317 230.443316 230.443316 0 0 1 230.443316-230.443317z m0 374.253807a143.810491 143.810491 0 1 0-143.810491-143.81049A143.810491 143.810491 0 0 0 538.856176 809.367174zM1062.118443-83.817259a519.796954 519.796954 0 0 1-531.059221 497.27242A519.796954 519.796954 0 0 1 0-83.817259v-44.182741h1062.984772zM86.632826-41.367174a438.362098 438.362098 0 0 0 444.426396 368.189509 438.362098 438.362098 0 0 0 440.961083-368.189509z"  horiz-adv-x="1062" />

    
    <glyph glyph-name="yunCIS" unicode="&#58926;" d="M613.23579236 76.83740103000002a77.22823339 77.22823339 0 0 0-41.66259939-49.79188736 84.34136064 84.34136064 0 0 0-42.67876124-6.09696539 101.61609728 101.61609728 0 0 0-50.80804808 17.27473663 86.37368321 86.37368321 0 0 0-30.48482928 39.63027797 121.93931719 121.93931719 0 0 0-8.12928799 47.7595648A133.11708729 133.11708729 0 0 0 447.60155437 174.38885431000006a111.77770667 111.77770667 0 0 0 28.45250671 39.63027799 87.38984391 87.38984391 0 0 0 53.85653135 20.32321992 88.40600463 88.40600463 0 0 0 38.61411725-6.09696541 76.21207267 76.21207267 0 0 0 28.45250677-19.30705919 72.14742868 72.14742868 0 0 0 13.21009264-19.30705807v-13.21009266h63.00198117v20.32321991a101.61609728 101.61609728 0 0 1-14.22625452 31.50099001 142.26253597 142.26253597 0 0 1-30.48482816 32.51715072 130.06860402 130.06860402 0 0 1-43.69492196 22.35554133 177.82816996 177.82816996 0 0 1-55.8888539 7.11312725 170.71504384 170.71504384 0 0 1-58.93733602-11.17777123 143.27869666 143.27869666 0 0 1-47.75956597-32.51715072 152.42414649 152.42414649 0 0 1-34.54947325-52.84037063 196.11906732 196.11906732 0 0 1-13.21009266-69.09894656 209.32915997 209.32915997 0 0 1 6.09696538-52.84037063 151.40798464 151.40798464 0 0 1 20.32321994-46.74340409 129.05244331 129.05244331 0 0 1 33.53331255-35.56563399 135.14940985 135.14940985 0 0 1 41.66259939-20.32321991 190.0221019 190.0221019 0 0 1 49.79188738-6.09696541 190.0221019 190.0221019 0 0 1 59.95349787 7.11312613 128.03628259 128.03628259 0 0 1 40.64643869 21.33938061 110.76154595 110.76154595 0 0 1 29.46866859 35.56563399 159.5372726 159.5372726 0 0 1 15.24241408 36.5817947q0 15.24241408 7.11312725 34.54947328h-60.9696586zM727.04582158 292.26352754000004h65.03430259v-326.18767247h-65.03430259zM1074.57287467 127.64545023999995a119.90699463 119.90699463 0 0 1-35.56563399 18.29089735 304.84829184 304.84829184 0 0 1-40.64643982 10.16160938l-36.58179472 6.09696655-26.42018531 5.08080469a90.43832604 90.43832604 0 0 0-22.35554133 7.1131261 24.3878639 24.3878639 0 0 0-10.16160938 12.19393196 27.43634603 27.43634603 0 0 0 0 15.24241522 29.46866859 29.46866859 0 0 0 8.12928797 17.27473664 46.74340523 46.74340523 0 0 0 24.38786274 12.19393081 135.14940985 135.14940985 0 0 0 36.58179473 0h26.4201853a66.05046329 66.05046329 0 0 0 20.32321991-6.09696541 28.45250675 28.45250675 0 0 0 11.17777124-10.16160938 77.22823339 77.22823339 0 0 0 7.1131261-17.27473665h63.00198003v21.33938063a54.87269205 54.87269205 0 0 1-13.21009266 27.43634603A113.81002922 113.81002922 0 0 1 1057.29813804 270.92414692a101.61609728 101.61609728 0 0 1-35.56563401 15.24241521 212.37764322 212.37764322 0 0 1-48.77572664 5.0808047 241.84631182 241.84631182 0 0 1-45.72724451 0 143.27869666 143.27869666 0 0 1-37.59795542-12.19393195 95.51913186 95.51913186 0 0 1-35.56563399-31.50099001 89.42216533 89.42216533 0 0 1-16.25857594-51.82420992 109.74538525 109.74538525 0 0 1 0-23.37170203A76.21207267 76.21207267 0 0 1 854.06594347 153.04947485000002a58.93733603 58.93733603 0 0 1 16.2585748-19.3070592 82.30903922 82.30903922 0 0 1 28.45250787-13.21009266l38.61411726-9.14544868 43.69492082-9.14544868 34.54947329-8.12928794 18.29089733-7.11312614a29.46866859 29.46866859 0 0 0 10.16161052-10.16161052 31.50099001 31.50099001 0 0 0 0-14.22625337 37.59795655 37.59795655 0 0 0 0-21.33938061 32.51715072 32.51715072 0 0 0-19.3070592-13.21009267 129.05244331 129.05244331 0 0 0-32.51715071 0 144.29485853 144.29485853 0 0 0-42.67876124 0 46.74340523 46.74340523 0 0 0-24.38786277 14.22625451 44.71108268 44.71108268 0 0 0-16.25857591 9.14544868v18.29089734h-68.08278471v-21.33938061a101.61609728 101.61609728 0 0 1 15.24241408-40.64643869 91.45448789 91.45448789 0 0 1 28.45250785-28.45250787 101.61609728 101.61609728 0 0 1 31.50099004-13.21009267 212.37764322 212.37764322 0 0 1 35.56563398 0h39.63027797a271.31497927 271.31497927 0 0 1 40.64643868 0 101.61609728 101.61609728 0 0 1 34.54947328 13.21009267 77.22823339 77.22823339 0 0 1 25.40402461 28.45250787 106.69690196 106.69690196 0 0 1 11.17777011 45.72724338 86.37368321 86.37368321 0 0 1-7.11312729 42.67876124 79.26055596 79.26055596 0 0 1-21.33937946 31.50099001zM1027.82946946 428.4290981a297.73516459 297.73516459 0 0 1-591.40568637 0A328.21999389 328.21999389 0 0 1 142.75326253 101.22526493999999a304.84829184 304.84829184 0 0 1 359.7209839-293.67052176h485.72494504a310.94525724 310.94525724 0 0 1 61.98581931 0 297.73516459 297.73516459 0 0 1 297.73516572 297.73516573c0 157.50495119-141.24637524 339.39776512-320.09070704 323.13918919z m22.35554132-524.33906233a210.3453218 210.3453218 0 0 0-44.71108267 0H485.19950977a197.13522915 197.13522915 0 0 0-44.71108267 0A203.23219457 203.23219457 0 0 0 244.36935979 101.22526493999999a226.60389661 226.60389661 0 0 0 196.11906731 227.6200573 203.23219457 203.23219457 0 0 0 36.5817947 0l64.01814187-12.19393081-6.09696654 78.24439411a197.13522915 197.13522915 0 0 0 395.28661901 0v-19.30705807l-7.11312726-75.19591197 72.14742985 22.35554133a194.0867459 194.0867459 0 0 0 57.92117531 10.1616094 226.60389661 226.60389661 0 0 0 197.13522802-227.62005732 203.23219457 203.23219457 0 0 0-200.18371128-202.21603385zM733.142787 864.36215581a220.5069312 220.5069312 0 0 0 203.23219455-101.61609727l90.43832718 42.67876009A315.00990123 315.00990123 0 0 1 736.19127026 965.97825309a319.07454521 319.07454521 0 0 1-281.4765898-137.18173128l86.37368321-50.8080492A221.5230919 221.5230919 0 0 0 733.142787 864.36215581z"  horiz-adv-x="1487" />

    
    <glyph glyph-name="yuyueguanli" unicode="&#58927;" d="M895.019574 721.702128q-15.686809 17.429787-32.245106 33.116595a509.821277 509.821277 0 1 1 32.245106-33.116595z m-383.455319-764.296171a425.286809 425.286809 0 1 0 291.948936 735.537022l27.016171-27.88766a425.286809 425.286809 0 0 0-318.093617-706.777872zM539.451915 656.340426h-87.148936v-381.712341h239.659574v87.148936H539.451915V656.340426z"  horiz-adv-x="1024" />

    
    <glyph glyph-name="hetongguanli" unicode="&#58928;" d="M912.989283 341.368508V769.371805A126.628195 126.628195 0 0 1 786.361088 896H174.324815A126.628195 126.628195 0 0 1 47.69662 769.371805v-759.769167A126.628195 126.628195 0 0 1 174.324815-117.025556h438.133553a286.17972 286.17972 0 0 1 73.444353-10.974444A290.40066 290.40066 0 0 1 976.30338 162.40066a287.023908 287.023908 0 0 1-63.314097 178.967848zM132.115416 9.602638v759.769167a42.209398 42.209398 0 0 0 42.209399 42.209399h612.036273a42.209398 42.209398 0 0 0 42.209398-42.209399v-355.403132a287.023908 287.023908 0 0 1-142.667765 38.832646A288.712284 288.712284 0 0 1 469.790602-32.60676H174.324815a42.209398 42.209398 0 0 0-42.209399 42.209398z m553.787305-53.183842A205.981863 205.981863 0 1 0 891.884584 162.40066a205.981863 205.981863 0 0 0-205.981863-205.981864zM738.242374 193.635614l-36.300082 72.600165-35.455895-72.600165-80.197856-11.818631 57.404781-56.560594-13.507007-79.353668 71.755977 37.14427 71.755977-37.14427-13.507008 79.353668 58.24897 56.560594-80.197857 11.818631zM290.822754 642.743611h327.544929v-84.418796H290.822754zM290.822754 473.906018h105.523495v-84.418796H290.822754z"  horiz-adv-x="1024" />

    
    <glyph glyph-name="baobiao" unicode="&#58929;" d="M1147.314066-128H0V896h98.651252v-925.348748h1048.662814v-98.651252zM312.72447 143.290944L17.757225 391.8921l63.136802 74.974952 225.911368-190.396917 218.019268 218.019268 166.720616-125.287091 423.213873 371.915222 65.109827-73.98844-483.391137-424.200385-161.788054 121.341041-221.965318-220.978806z"  horiz-adv-x="1179" />

    
    <glyph glyph-name="kucun" unicode="&#58930;" d="M1107.862069 527.006897L554.372414 896 0 527.006897l49.434483-74.151725 63.55862 42.372414v-623.227586h88.275863V554.372414l353.103448 235.696552 353.103448-235.696552v-682.372414h88.275862V495.227586l63.558621-42.372414 48.551724 74.151725zM289.544828 489.931034h88.275862v-88.275862h-88.275862zM289.544828 313.37931h88.275862v-88.275862h-88.275862zM466.096552 313.37931h88.275862v-88.275862h-88.275862zM466.096552 136.827586h88.275862v-88.275862h-88.275862zM377.82069 48.551724h88.275862v-88.275862h-88.275862zM642.648276 48.551724h88.275862v-88.275862h-88.275862zM289.544828 136.827586h88.275862v-88.275862h-88.275862z"  horiz-adv-x="1107" />

    
    <glyph glyph-name="chaobiao" unicode="&#58931;" d="M866.260426 526.488511l130.723404 130.723404L758.195745 896l-130.723405-130.723404L37.474043 175.278298l-10.457873-261.446809L277.133617-62.638298l589.126809 589.126809z m-130.723405-7.843405L311.121702 95.101277 196.085106 210.137872 619.628936 634.553191z m23.530213 254.474894l114.165106-115.908085-69.719149-69.719149-115.036595 115.908085zM114.165106 11.438298l8.714894 126.365957 11.329362 11.329362L250.117447 33.225532l-12.200851-8.714894zM386.941277-40.851064h544.680851v-87.148936H386.941277z"  horiz-adv-x="1024" />

    
    <glyph glyph-name="weirizhi" unicode="&#58932;" d="M847.723911 784.933443H691.221035V858.977814a37.022186 37.022186 0 1 1-74.044371 0v-74.044371h-210.353328V858.977814a37.022186 37.022186 0 1 1-74.044371 0v-74.044371H174.593262a88.348398 88.348398 0 0 1-84.141331-84.141331v-736.236648a88.348398 88.348398 0 0 1 84.141331-84.141331h673.130649a88.348398 88.348398 0 0 1 84.141331 84.141331v732.029581a88.348398 88.348398 0 0 1-84.141331 88.348398z m0-841.413312H174.593262a14.304026 14.304026 0 0 0-14.304026 14.304027V696.585045A14.304026 14.304026 0 0 0 174.593262 710.889071h158.185703v-74.044371a37.022186 37.022186 0 1 1 74.044371 0V710.889071h211.194741v-74.044371a37.022186 37.022186 0 1 1 74.044372 0V710.889071H847.723911a14.304026 14.304026 0 0 0 14.304027-14.304026v-736.236647a14.304026 14.304026 0 0 0-14.304027-14.304027zM427.017256 381.896467a75.727198 75.727198 0 0 1-20.19392 22.718159 84.141331 84.141331 0 0 1-21.876746 12.6212l-21.035333 5.04848L342.875924 424.808546H242.74774v-228.023008H342.875924a158.185703 158.185703 0 0 1 31.973706 0 69.837305 69.837305 0 0 1 26.083813 11.779787 92.555464 92.555464 0 0 1 21.035333 21.876746 105.176664 105.176664 0 0 1 15.145439 32.815119A160.709942 160.709942 0 0 1 441.321282 307.010682a194.366475 194.366475 0 0 1 0 41.229252 112.749384 112.749384 0 0 1-14.304026 33.656533z m-31.973706-99.286771a69.837305 69.837305 0 0 0-10.09696-23.559573 48.801972 48.801972 0 0 0-15.14544-15.145439 60.581758 60.581758 0 0 0-18.511092-7.57272h-67.313065V391.152013h69.837304a54.691865 54.691865 0 0 0 16.828267-5.889893 55.533279 55.533279 0 0 0 12.621199-10.938373 53.009039 53.009039 0 0 0 9.255547-15.986853 93.396878 93.396878 0 0 0 5.04848-18.511093 163.234182 163.234182 0 0 0 0-23.559573 136.308956 136.308956 0 0 0-2.52424-33.656532zM607.921118 222.869351V312.059162a33.656532 33.656532 0 0 1 0 13.462613 35.339359 35.339359 0 0 1-12.6212 11.779786 63.947412 63.947412 0 0 1-21.035333 10.09696 90.872638 90.872638 0 0 1-26.083813 0 105.176664 105.176664 0 0 1-22.718159 0 62.264585 62.264585 0 0 1-21.035333-8.414133 49.643385 49.643385 0 0 1-13.462613-14.304026 63.947412 63.947412 0 0 1-10.09696-17.66968v-13.462613h40.387839v5.889893a18.511093 18.511093 0 0 0 7.57272 10.09696 28.608053 28.608053 0 0 0 15.14544 5.04848h12.6212a21.035333 21.035333 0 0 0 7.572719-7.57272 10.09696 10.09696 0 0 0 0-6.731306v-1.682827h-14.304026l-23.559573-5.889893-15.145439-9.255547a84.141331 84.141331 0 0 1-19.352506-10.096959 53.009039 53.009039 0 0 1-13.462613-14.304027 40.387839 40.387839 0 0 1-5.889894-19.352506 37.863599 37.863599 0 0 1 6.731307-25.242399 45.436319 45.436319 0 0 1 21.876746-15.14544 70.678718 70.678718 0 0 1 31.132292 0 69.837305 69.837305 0 0 1 21.035333 4.207067l15.986853 7.57272v-11.779787l39.546426 11.779787v7.572719A44.594906 44.594906 0 0 0 607.921118 222.869351z m-40.387839 34.497946a24.400986 24.400986 0 0 0 0-12.6212 31.132293 31.132293 0 0 0-12.6212-11.779786 51.326212 51.326212 0 0 0-19.352506-5.889894 24.400986 24.400986 0 0 0-13.462613 0A10.09696 10.09696 0 0 0 511.158587 236.331964s0 5.889893 5.04848 8.414133a57.216105 57.216105 0 0 0 15.145439 8.414133l17.66968 6.731307 17.669679 5.048479a24.400986 24.400986 0 0 1 0.841414-5.889893zM723.194741 258.20871l-36.180772 91.714051h-42.912079l59.740345-144.72309-5.04848-13.462613a41.229252 41.229252 0 0 0-5.04848-10.096959l-5.04848-4.207067h-30.290879V138.72802h46.277732a26.925226 26.925226 0 0 1 11.779787 6.731306 44.594906 44.594906 0 0 1 8.414133 12.6212 183.428102 183.428102 0 0 1 8.414133 18.511093l62.264585 173.331142h-42.070666z"  horiz-adv-x="1024" />

    
    <glyph glyph-name="ATM" unicode="&#58933;" d="M842.666667 896H181.333333A128 128 0 0 1 53.333333 768v-768A128 128 0 0 1 181.333333-128h661.333334a128 128 0 0 1 128 128v768A128 128 0 0 1 842.666667 896z m42.666666-896a42.666667 42.666667 0 0 0-42.666666-42.666667H181.333333a42.666667 42.666667 0 0 0-42.666666 42.666667v768a42.666667 42.666667 0 0 0 42.666666 42.666667h661.333334a42.666667 42.666667 0 0 0 42.666666-42.666667zM213.76 384h597.333333V725.333333h-597.333333z m85.333333 256h426.666667v-170.666667h-426.666667zM768.426667 128h-512a42.666667 42.666667 0 0 1 0-85.333333h512a42.666667 42.666667 0 0 1 0 85.333333z"  horiz-adv-x="1024" />

    
    <glyph glyph-name="quanping" unicode="&#58887;" d="M909-63H780a30 30 0 0 0 0 60h99a20 20 0 0 1 20 20v99a30 30 0 0 0 60 0v-129a50 50 0 0 0-50-50z m20 685a30 30 0 0 0-30 30v99a20 20 0 0 1-20 20h-99a30 30 0 0 0 0 60h129a50 50 0 0 0 50-50v-129a30 30 0 0 0-30-30z m-157-28v-420a50 50 0 0 0-50-50H302a50 50 0 0 0-50 50V594a50 50 0 0 0 50 50h420a50 50 0 0 0 50-50z m-60-30a20 20 0 0 1-20 20H332a20 20 0 0 1-20-20v-360a20 20 0 0 1 20-20h360a20 20 0 0 1 20 20V564zM244 771h-99a20 20 0 0 1-20-20v-99a30 30 0 0 0-60 0V781a50 50 0 0 0 50 50h129a30 30 0 0 0 0-60zM95 146a30 30 0 0 0 30-30v-99a20 20 0 0 1 20-20h99a30 30 0 0 0 0-60H115a50 50 0 0 0-50 50V116a30 30 0 0 0 30 30z"  horiz-adv-x="1024" />

    
    <glyph glyph-name="yunCIS1" unicode="&#58934;" d="M413.51093 114.032872a67.876377 67.876377 0 0 0-36.617519-43.762401 74.128149 74.128149 0 0 0-37.51063-5.358661 89.311023 89.311023 0 0 0-44.655511 15.182874 75.91437 75.91437 0 0 0-26.793307 34.831299 107.173228 107.173228 0 0 0-7.144882 41.97618A116.99744 116.99744 0 0 0 267.933963 199.771454a98.242125 98.242125 0 0 0 25.007086 34.831299 76.80748 76.80748 0 0 0 47.334842 17.862205 77.70059 77.70059 0 0 0 33.938189-5.358661 66.983267 66.983267 0 0 0 25.007086-16.969095 63.410826 63.410826 0 0 0 11.610433-16.969094v-11.610433h55.372835v17.862205a89.311023 89.311023 0 0 1-12.503544 27.686417 125.035432 125.035432 0 0 1-26.793306 28.579527 114.318109 114.318109 0 0 1-38.40374 19.648425 156.29429 156.29429 0 0 1-49.121063 6.251772 150.042519 150.042519 0 0 1-51.800393-9.824213 125.928542 125.928542 0 0 1-41.976181-28.579527 133.966535 133.966535 0 0 1-30.365748-46.441732 172.370274 172.370274 0 0 1-11.610433-60.731496 183.980707 183.980707 0 0 1 5.358661-46.441732 133.073424 133.073424 0 0 1 17.862205-41.08307 113.424999 113.424999 0 0 1 29.472638-31.258858 118.783661 118.783661 0 0 1 36.617519-17.862205 167.011613 167.011613 0 0 1 43.762401-5.358661 167.011613 167.011613 0 0 1 52.693504 6.251771 112.531889 112.531889 0 0 1 35.724409 18.755315 97.349015 97.349015 0 0 1 25.900197 31.258858 140.218306 140.218306 0 0 1 13.396653 32.151968q0 13.396653 6.251772 30.365748h-53.586614zM513.539276 303.372241h57.159055v-286.688384h-57.159055zM818.982975 158.688384a105.387007 105.387007 0 0 1-31.258858 16.075984 267.933069 267.933069 0 0 1-35.72441 8.931102l-32.151968 5.358662-23.220866 4.465551a79.48681 79.48681 0 0 0-19.648425 6.251771 21.434646 21.434646 0 0 0-8.931102 10.717323 24.113976 24.113976 0 0 0 0 13.396654 25.900197 25.900197 0 0 0 7.144882 15.182874 41.083071 41.083071 0 0 0 21.434645 10.717322 118.783661 118.783661 0 0 0 32.151968 0h23.220866a58.052165 58.052165 0 0 0 17.862205-5.358661 25.007086 25.007086 0 0 0 9.824213-8.931102 67.876377 67.876377 0 0 0 6.251771-15.182874h55.372834v18.755315a48.227952 48.227952 0 0 1-11.610433 24.113976A100.028346 100.028346 0 0 1 803.800101 284.616926a89.311023 89.311023 0 0 1-31.258858 13.396654 186.660038 186.660038 0 0 1-42.869291 4.465551 212.560235 212.560235 0 0 1-40.189961 0 125.928542 125.928542 0 0 1-33.045078-10.717323 83.952362 83.952362 0 0 1-31.258858-27.686417 78.5937 78.5937 0 0 1-14.289764-45.548622 96.455905 96.455905 0 0 1 0-20.541535A66.983267 66.983267 0 0 1 625.178055 181.01614a51.800393 51.800393 0 0 1 14.289763-16.969095 72.341929 72.341929 0 0 1 25.007087-11.610433l33.938189-8.037992 38.403739-8.037992 30.365748-7.144882 16.075984-6.251771a25.900197 25.900197 0 0 0 8.931103-8.931103 27.686417 27.686417 0 0 0 0-12.503543 33.045079 33.045079 0 0 0 0-18.755315 28.579527 28.579527 0 0 0-16.969095-11.610433 113.424999 113.424999 0 0 0-28.579527 0 126.821653 126.821653 0 0 0-37.51063 0 41.083071 41.083071 0 0 0-21.434645 12.503544 39.29685 39.29685 0 0 0-14.289764 8.037992v16.075984h-59.838385v-18.755315a89.311023 89.311023 0 0 1 13.396653-35.724409 80.379921 80.379921 0 0 1 25.007087-25.007087 89.311023 89.311023 0 0 1 27.686417-11.610433 186.660038 186.660038 0 0 1 31.258858 0h34.831299a238.460431 238.460431 0 0 1 35.724409 0 89.311023 89.311023 0 0 1 30.365748 11.610433 67.876377 67.876377 0 0 1 22.327756 25.007087 93.776574 93.776574 0 0 1 9.824212 40.18996 75.91437 75.91437 0 0 1-6.251772 37.51063 69.662598 69.662598 0 0 1-18.755314 27.686417zM777.899904 423.049012a261.681297 261.681297 0 0 1-519.790154 0A288.474604 288.474604 0 0 1 0.000894 135.467518a267.933069 267.933069 0 0 1 316.161021-258.108857h426.90669a273.29173 273.29173 0 0 1 54.479724 0 261.681297 261.681297 0 0 1 261.681298 261.681298c0 138.432086-124.142322 298.298817-281.329723 284.009053z m19.648425-460.844879a184.873818 184.873818 0 0 0-39.29685 0H300.979041a173.263385 173.263385 0 0 0-39.29685 0A178.622046 178.622046 0 0 0 89.311917 135.467518a199.163581 199.163581 0 0 0 172.370274 200.056691 178.622046 178.622046 0 0 0 32.151968 0l56.265945-10.717322-5.358662 68.769487a173.263385 173.263385 0 0 0 347.41988 0v-16.969094l-6.251772-66.090157 63.410827 19.648425a170.584054 170.584054 0 0 0 50.907283 8.931102 199.163581 199.163581 0 0 0 173.263384-200.056691 178.622046 178.622046 0 0 0-175.942715-177.728936zM518.897937 806.193301a193.80492 193.80492 0 0 0 178.622046-89.311023l79.486811 37.510629A276.864171 276.864171 0 0 1 521.577268 895.504324a280.436612 280.436612 0 0 1-247.391534-120.569881l75.91437-44.655512A194.69803 194.69803 0 0 0 518.897937 806.193301z"  horiz-adv-x="1059" />

    
    <glyph glyph-name="yuntuisong" unicode="&#58935;" d="M777.899904 423.049012a261.681297 261.681297 0 0 1-519.790154 0A288.474604 288.474604 0 0 1 0.000894 135.467518a267.933069 267.933069 0 0 1 316.161021-258.108857h426.90669a273.29173 273.29173 0 0 1 54.479724 0 261.681297 261.681297 0 0 1 261.681298 261.681298c0 138.432086-124.142322 298.298817-281.329723 284.009053z m19.648425-460.844879a184.873818 184.873818 0 0 0-39.29685 0H300.979041a173.263385 173.263385 0 0 0-39.29685 0A178.622046 178.622046 0 0 0 89.311917 135.467518a199.163581 199.163581 0 0 0 172.370274 200.056691 178.622046 178.622046 0 0 0 32.151968 0l56.265945-10.717322-5.358662 68.769487a173.263385 173.263385 0 0 0 347.41988 0v-16.969094l-6.251772-66.090157 63.410827 19.648425a170.584054 170.584054 0 0 0 50.907283 8.931102 199.163581 199.163581 0 0 0 173.263384-200.056691 178.622046 178.622046 0 0 0-175.942715-177.728936zM518.897937 806.193301a193.80492 193.80492 0 0 0 178.622046-89.311023l79.486811 37.510629A276.864171 276.864171 0 0 1 521.577268 895.504324a280.436612 280.436612 0 0 1-247.391534-120.569881l75.91437-44.655512A194.69803 194.69803 0 0 0 518.897937 806.193301zM580.522543 203.343895H334.91723v-89.311023H580.522543v-56.265944l176.835826 111.638779L580.522543 277.472045v-74.12815z"  horiz-adv-x="1059" />

    
    <glyph glyph-name="shuiwujiance" unicode="&#58936;" d="M1035.83815 896h-887.861271A147.976879 147.976879 0 0 1 0 748.023121v-728.046242a147.976879 147.976879 0 0 1 147.976879-147.976879h887.861271a147.976879 147.976879 0 0 1 147.976879 147.976879V748.023121A147.976879 147.976879 0 0 1 1035.83815 896z m49.325626-876.023121a49.325626 49.325626 0 0 0-49.325626-49.325627h-887.861271a49.325626 49.325626 0 0 0-49.325627 49.325627V748.023121a49.325626 49.325626 0 0 0 49.325627 49.325627h887.861271a49.325626 49.325626 0 0 0 49.325626-49.325627zM568.231214 289.294798L432.092486 724.346821 267.344894 427.406551h-32.554913v-98.651252h89.772639l81.88054 146.990366L541.595376 47.599229l164.747591 281.15607h268.331407v98.651252H650.111753l-81.880539-138.111753z"  horiz-adv-x="1183" />

    
    <glyph glyph-name="weixinshujutongji" unicode="&#58937;" d="M552.258413 888.995683h-43.760572a508.497841 508.497841 0 1 1 508.497842-508.497842v43.760572H552.258413z m375.465704-552.258413A420.976698 420.976698 0 1 0 464.73727 799.724117v-462.986847zM869.960162 814.602711A397.34599 397.34599 0 0 1 627.526596 895.997374h-43.760571v-444.607407h444.607407v43.760572A398.221201 398.221201 0 0 1 869.960162 814.602711zM671.287168 538.91111V808.476231a313.325692 313.325692 0 0 0 262.563429-262.563429z"  horiz-adv-x="1028" />

    
    <glyph glyph-name="lingdang" unicode="&#58918;" d="M512 640c117.632 0 213.333333-95.701333 213.333333-213.333333v-149.333334c0-13.845333 4.501333-27.328 12.8-38.4L789.333333 170.66666699999996H234.666667l51.2 68.266666c8.298667 11.072 12.8 24.554667 12.8 38.4v149.333334c0 117.632 95.701333 213.333333 213.333333 213.333333m0 64c-153.173333 0-277.333333-124.16-277.333333-277.333333v-149.333334l-64-85.333333v-42.666667c0-23.466667 19.2-42.666667 42.666666-42.666666h597.333334c23.466667 0 42.666667 19.2 42.666666 42.666666v42.666667l-64 85.333333v149.333334c0 153.173333-124.16 277.333333-277.333333 277.333333zM512 42.66666699999996a64 64 0 0 0-64 64h-64c0-70.570667 57.429333-128 128-128s128 57.429333 128 128h-64a64 64 0 0 0-64-64zM512 640a42.666667 42.666667 0 1 0-0.021333 85.312A42.666667 42.666667 0 0 0 512 640h97.621333A105.962667 105.962667 0 0 1 618.666667 682.666667c0 58.816-47.850667 106.666667-106.666667 106.666666s-106.666667-47.850667-106.666667-106.666666c0-15.189333 3.306667-29.568 9.045334-42.666667H512z"  horiz-adv-x="1024" />

    
    <glyph glyph-name="IOT" unicode="&#58938;" d="M1166.222222 896H170.666667A170.666667 170.666667 0 0 1 0 725.333333v-682.666666A170.666667 170.666667 0 0 1 170.666667-128h995.555555a170.666667 170.666667 0 0 1 170.666667 170.666667v682.666666a170.666667 170.666667 0 0 1-170.666667 170.666667z m56.888889-853.333333a56.888889 56.888889 0 0 0-56.888889-56.888889H170.666667a56.888889 56.888889 0 0 0-56.888889 56.888889v682.666666a56.888889 56.888889 0 0 0 56.888889 56.888889h995.555555a56.888889 56.888889 0 0 0 56.888889-56.888889zM246.897778 568.32h98.986666V156.444444h-98.986666zM610.986667 576.284444a186.595556 186.595556 0 0 1-188.871111-211.626666 190.008889 190.008889 0 1 1 374.328888 0 186.595556 186.595556 0 0 1-185.457777 211.626666z m0-341.333333c-54.613333 0-87.608889 50.062222-87.608889 130.844445s32.995556 127.431111 87.608889 127.431111 87.608889-46.648889 87.608889-127.431111-34.133333-131.982222-87.608889-131.982223zM826.026667 486.4h111.502222v-329.955556h98.986667V486.4h112.64v81.92H826.026667v-81.92z"  horiz-adv-x="1336" />

    
    <glyph glyph-name="E-pos" unicode="&#58939;" d="M842.666667 896H181.333333A128 128 0 0 1 53.333333 768v-768A128 128 0 0 1 181.333333-128h661.333334a128 128 0 0 1 128 128v768A128 128 0 0 1 842.666667 896z m42.666666-896a42.666667 42.666667 0 0 0-42.666666-42.666667H181.333333a42.666667 42.666667 0 0 0-42.666666 42.666667v768a42.666667 42.666667 0 0 0 42.666666 42.666667h661.333334a42.666667 42.666667 0 0 0 42.666666-42.666667zM213.76 384h597.333333V725.333333h-597.333333z m85.333333 256h426.666667v-170.666667h-426.666667zM378.453333 245.76a63.146667 63.146667 0 0 1-40.96-17.92v14.506667h-41.813333V42.666667h45.226667v64.853333a47.786667 47.786667 0 0 1 34.133333-15.36c31.573333 0 61.44 29.013333 61.44 79.36s-23.04 74.24-58.026667 74.24zM363.093333 128a31.573333 31.573333 0 0 0-22.186666 8.533333v59.733334a30.72 30.72 0 0 0 23.04 11.946666c16.213333 0 23.893333-11.946667 23.893333-37.546666s-11.093333-42.666667-24.746667-42.666667zM527.786667 245.76a71.68 71.68 0 0 1-71.68-76.8 71.68 71.68 0 1 1 142.506666 0 71.68 71.68 0 0 1-70.826666 76.8z m0-117.76c-17.066667 0-24.746667 15.36-24.746667 39.253333s7.68 40.106667 24.746667 40.106667 24.746667-15.36 24.746666-40.106667-7.68-39.253333-24.746666-39.253333zM691.626667 184.32c-15.36 5.12-28.16 8.533333-28.16 17.066667S668.586667 213.333333 678.826667 213.333333a56.32 56.32 0 0 0 29.866666-11.946666l20.48 27.306666a85.333333 85.333333 0 0 1-52.053333 18.773334c-34.133333 0-56.32-18.773333-56.32-46.08s20.48-35.84 37.546667-42.666667 29.013333-10.24 29.013333-18.773333-5.12-11.946667-17.066667-11.946667a61.44 61.44 0 0 0-36.693333 15.36l-20.48-28.16a93.013333 93.013333 0 0 1 56.32-20.48c40.106667 0 60.586667 20.48 60.586667 47.786667s-20.48 34.986667-38.4 41.813333z"  horiz-adv-x="1024" />

    
    <glyph glyph-name="youjiantou1" unicode="&#58942;" d="M860.16799425 358.31258311L547.42106423-101.60937239999998a23.6531295 23.6531295 0 0 0-42.05000658 1e-8 59.57084405 59.57084405 0 0 0 1e-8 62.19896879L797.09298388 388.9740472l-291.72192623 429.26049141a59.57084405 59.57084405 0 0 0 1e-8 62.19896976 23.6531295 23.6531295 0 0 0 42.05000657 0L860.16799425 419.63551031a59.57084405 59.57084405 0 0 0 0-61.3229272z"  horiz-adv-x="1024" />

    
    <glyph glyph-name="guanbi" unicode="&#58946;" d="M871.23452587 742.93047296c-198.23206286 198.23206286-519.62888306 198.23206286-717.85978084 0-198.23089778-198.23089778-198.23089778-519.62771797 0-717.85861575 198.23206286-198.23206286 519.62888306-198.23206286 717.85978084-0.00116508 198.23089778 198.23206286 198.23089778 519.62771797 0 717.85978083z m-181.63962312-577.40710571L512.30638307 342.81305202 335.01553323 165.52220217c-11.37344512-11.37344512-29.81466681-11.37344512-41.18694798 0s-11.37344512 29.81466681 0 41.18694798L471.11827001 384 293.82858525 561.29084985c-11.37344512 11.37344512-11.37461021 29.81350173 0 41.18694798s29.81350173 11.37344512 41.18694798 0l177.29084984-177.29084985 177.28968477 177.28968477c11.37344512 11.37344512 29.81466681 11.37344512 41.18694798 0s11.37344512-29.81350173 0-41.18694798L553.49333106 384l177.28851968-177.28968477c11.37344512-11.37344512 11.37461021-29.81466681 0-41.18694798-11.37344512-11.37344512-29.81350173-11.37344512-41.18694799 0z"  horiz-adv-x="1024" />

    
    <glyph glyph-name="zuojiantou" unicode="&#58948;" d="M163.83200575 415.02075022L476.57893577 874.94270573a23.6531295 23.6531295 0 0 0 42.05000659-1e-8 59.57084405 59.57084405 0 0 0-3e-8-62.19896879L226.90701612 384.35928613l291.72192623-429.26049141a59.57084405 59.57084405 0 0 0-1e-8-62.19896976 23.6531295 23.6531295 0 0 0-42.05000657 0L163.83200575 353.69782302a59.57084405 59.57084405 0 0 0 0 61.3229272z"  horiz-adv-x="1024" />

    
    <glyph glyph-name="zhangtingjiaoyiguanli" unicode="&#58941;" d="M53.330347 415.573333h218.453333a42.666667 42.666667 0 0 1 35.84 18.773334L386.98368 554.666667 616.530347 351.573333a42.666667 42.666667 0 1 1 56.32 64L406.610347 650.24a42.666667 42.666667 0 0 1-64-8.533333l-93.866667-140.8H106.237013a420.693333 420.693333 0 0 0 821.76-48.64 42.666667 42.666667 0 0 1 85.333334 12.8A512 512 0 0 1 511.570347 896 512 512 0 0 1 10.66368 465.066667a42.666667 42.666667 0 0 1 41.813333-48.64zM969.810347 351.573333H751.357013a42.666667 42.666667 0 0 1-35.84-18.773333L636.157013 213.333333 406.610347 415.573333a42.666667 42.666667 0 0 1-54.613334-64l264.533334-234.666666a41.813333 41.813333 0 0 1 34.133333-10.24 42.666667 42.666667 0 0 1 29.866667 21.333333l93.866666 140.8h142.506667A420.693333 420.693333 0 0 0 95.997013 315.733333a42.666667 42.666667 0 1 1-85.333333-12.8A512 512 0 0 1 511.570347-128a512 512 0 0 1 500.053333 430.933333 42.666667 42.666667 0 0 1-41.813333 48.64z"  horiz-adv-x="1024" />

    
    <glyph glyph-name="tuichuquanping-" unicode="&#59014;" d="M682.667 0h256a42.667 42.667 0 0 0 0-85.333h-256a42.667 42.667 0 0 0 0 85.333zM85.333 853.333h256a42.667 42.667 0 1 0 0-85.333h-256a42.667 42.667 0 1 0 0 85.333zM981.333 213.333v-256a42.667 42.667 0 0 0-85.333 0v256a42.667 42.667 0 0 0 85.333 0zM128 810.667v-256a42.667 42.667 0 1 0-85.333 0v256a42.667 42.667 0 0 0 85.333 0z m42.667-469.334h256a42.667 42.667 0 0 0 0-85.333h-256a42.667 42.667 0 0 0 0 85.333zM597.333 512h256a42.667 42.667 0 0 0 0-85.333h-256a42.667 42.667 0 0 0 0 85.333zM72.832 20.352l290.816 290.816a42.667 42.667 0 1 0 60.33-60.33L133.164-39.98a42.667 42.667 0 1 0-60.331 60.331z m501.12 482.901L891.733 821.035a42.667 42.667 0 0 0 60.331-60.331L634.283 442.923a42.667 42.667 0 1 0-60.331 60.33zM469.333 298.667v-256a42.667 42.667 0 0 0-85.333 0v256a42.667 42.667 0 0 0 85.333 0zM640 725.333v-256a42.667 42.667 0 0 0-85.333 0v256a42.667 42.667 0 1 0 85.333 0z"  horiz-adv-x="1024" />

    
    <glyph glyph-name="shangcheng" unicode="&#58968;" d="M1023.8194 793.4194c0 10.29418-1.444797 20.046561-4.334391 29.437743-0.1806 0.722399-0.541799 1.444797-0.722399 2.347795-2.347795 7.043386-5.23739 13.725573-8.849382 19.865961-0.541799 1.083598-1.264198 2.167196-1.986597 3.250794-1.444797 2.167196-2.889594 4.514991-4.514991 6.501587-1.805996 2.528395-3.792593 4.87619-5.779189 7.043387-1.264198 1.444797-2.528395 2.708995-3.792592 3.973192-1.264198 1.264198-2.708995 2.528395-3.973192 3.792592-1.625397 1.444797-3.250794 2.708995-4.876191 4.153792-5.779189 4.695591-12.280776 8.668783-18.962963 11.919577-3.070194 1.444797-5.959788 2.708995-9.210582 3.973192s-6.320988 2.167196-9.571781 3.070194l-4.876191 1.083598c-3.250794 0.722399-6.682187 1.264198-10.11358 1.625397-3.431393 0.361199-6.862787 0.541799-10.474779 0.541799H102.4c-3.792593 0-7.404586-0.1806-11.197178-0.541799-2.889594-0.361199-5.779189-0.722399-8.668783-1.264197-2.528395-0.541799-4.87619-1.083598-7.223986-1.625397-2.167196-0.541799-4.514991-1.264198-6.682187-1.986596C64.293474 888.595414 59.959083 886.789418 55.805291 884.622222c-5.417989-2.708995-10.655379-6.140388-15.35097-9.752381-2.167196-1.625397-4.153792-3.431393-6.320988-5.23739-0.1806-0.1806-0.361199-0.361199-0.722398-0.541798C12.822575 850.308289 0 823.398942 0 793.4194v-819.0194c0-56.52769 45.87231-102.4 102.4-102.4h819.2c56.52769 0 102.4 45.87231 102.4 102.4V793.4194zM910.764021 823.579541c22.574956 0 40.99612-18.421164 40.99612-40.996119v-177.710053c0-68.266667-55.985891-123.530159-124.433157-122.446561-65.377072 1.083598-117.57037 53.999295-120.459965 118.834568V823.579541h203.897002z m-276.31746 0v-223.582363c-2.528395-65.377072-56.52769-117.57037-122.446561-117.57037-67.544268 0-122.446561 54.902293-122.446561 122.446561V823.579541h244.893122z m-317.132981 0v-218.706172c0-68.266667-55.985891-123.530159-124.433157-122.446561-67.183069 0.902998-120.640564 57.069489-120.640564 124.252557V782.583422C72.239859 805.158377 90.661023 823.579541 113.235979 823.579541h204.077601z m317.31358-879.339682H389.553439V99.374956c0 67.544268 54.902293 122.446561 122.446561 122.446561s122.446561-54.902293 122.446561-122.446561v-155.135097z m276.136861 0H706.867019V99.374956c0 107.63739-87.22963 194.68642-194.686419 194.68642-107.63739 0-194.68642-87.22963-194.68642-194.68642v-155.135097h-204.077602c-22.574956 0-40.99612 18.421164-40.996119 40.99612V453.530864c33.410935-27.089947 76.032451-43.343915 122.44656-43.343915 65.377072 0 123.349559 32.327337 158.566491 81.81164 35.397531-49.484303 93.189418-81.81164 158.56649-81.81164 65.377072 0 123.168959 32.146737 158.56649 81.63104 35.397531-49.484303 93.189418-81.631041 158.566491-81.63104 46.414109 0 89.035626 16.253968 122.44656 43.343915v-468.294885c0-22.755556-18.240564-40.99612-40.81552-40.99612z"  horiz-adv-x="1024" />

    
    <glyph glyph-name="lingdaotuisong" unicode="&#58943;" d="M1300.31746 896H216.719577a54.179894 54.179894 0 0 1-54.179894-54.179894v-216.719577h-108.359789a54.179894 54.179894 0 0 1 0-108.359788H216.719577a54.179894 54.179894 0 0 1 54.179894 54.179894V751.881481L711.92381 419.216931a54.179894 54.179894 0 0 1 65.015873 0l469.197883 353.25291v-792.110053H395.513228a54.179894 54.179894 0 0 1 0-108.359788H1300.31746a54.179894 54.179894 0 0 1 54.179894 54.179894V841.820106A54.179894 54.179894 0 0 1 1300.31746 896zM745.515344 530.827513L404.182011 787.640212H1083.597884zM521.210582 354.201058a54.179894 54.179894 0 0 1-54.179894 54.179894H182.044444a54.179894 54.179894 0 0 1 0-108.359788h284.986244a54.179894 54.179894 0 0 1 54.179894 54.179894zM615.483598 150.48465599999997a54.179894 54.179894 0 0 1-54.179894 54.179894h-270.899471a54.179894 54.179894 0 0 1 0-108.359788h270.899471a54.179894 54.179894 0 0 1 54.179894 54.179894z"  horiz-adv-x="1354" />

    
    <glyph glyph-name="kehuzhongxin" unicode="&#58944;" d="M512 896a512 512 0 1 1 512-512A512 512 0 0 1 512 896z m308.579125-802.478114a193.939394 193.939394 0 0 1 0 26.720538 233.589226 233.589226 0 0 1-121.535354 199.111111l-43.959596-74.127946A149.117845 149.117845 0 0 0 737.83165 120.242424c0-74.989899-72.40404-137.912458-172.390573-156.013468a418.909091 418.909091 0 0 0-56.026936-6.03367 418.909091 418.909091 0 0 0-56.026936 6.03367c-97.400673 18.10101-172.390572 81.023569-172.390572 156.013468a146.531987 146.531987 0 0 0 72.40404 118.087542l-43.097643 71.542088A230.141414 230.141414 0 0 1 199.111111 120.242424a193.939394 193.939394 0 0 1 0-26.720538 425.804714 425.804714 0 1 0 618.020202 0zM512 637.414141a193.939394 193.939394 0 1 1 193.939394-193.939394A193.939394 193.939394 0 0 1 512 637.414141z m0-301.683501a107.744108 107.744108 0 1 0 107.744108 107.744107A107.744108 107.744108 0 0 0 512 335.73064z"  horiz-adv-x="1024" />

    
    <glyph glyph-name="qiyehuodong" unicode="&#58945;" d="M879.656138 713.697105H745.769161a142.414809 142.414809 0 0 1 5.1167 37.522465A144.120376 144.120376 0 0 1 506.137057 853.553565a143.267592 143.267592 0 0 1-239.632104-139.85646H143.70416A127.917493 127.917493 0 0 1 15.786667 585.779612v-585.862119A127.917493 127.917493 0 0 1 143.70416-128h735.951978a127.917493 127.917493 0 0 1 127.917493 127.917493V585.779612a127.917493 127.917493 0 0 1-127.917493 127.917493zM607.618269 810.061617a58.842047 58.842047 0 0 0 58.842046-58.842047 57.989264 57.989264 0 0 0-15.350099-37.522465h-93.806161a96.364512 96.364512 0 0 0-8.527833 37.522465 58.842047 58.842047 0 0 0 58.842047 58.842047z m-260.951687-58.842047a58.842047 58.842047 0 0 0 117.684094 0 96.364512 96.364512 0 0 0-8.527833-37.522465h-93.806161a57.989264 57.989264 0 0 0-15.3501 37.522465z m575.62872-751.302077a42.639164 42.639164 0 0 0-42.639164-42.639164H143.70416a42.639164 42.639164 0 0 0-42.639165 42.639164V42.556658h821.230307z m0 127.917493H101.064995V585.779612a42.639164 42.639164 0 0 0 42.639165 42.639165h240.484887a1030.162212 1030.162212 0 0 0-187.612323-116.831311l-34.964115-18.761232 48.608647-69.92823 24.730716 12.791749a793.088458 793.088458 0 0 1 267.773952 192.729024h6.822266a793.088458 793.088458 0 0 1 267.773953-192.729024l23.877932-12.791749 49.461431 69.92823-34.964115 18.761232a1030.162212 1030.162212 0 0 0-187.612323 116.831311h251.57107a42.639164 42.639164 0 0 0 42.639164-42.639165z"  horiz-adv-x="1024" />

    
    <glyph glyph-name="tianxinyibiao" unicode="&#58947;" d="M458.24 384a49.493333 49.493333 0 0 1 5.973333-69.973333 49.493333 49.493333 0 0 1 69.973334-5.973334c17.92 17.92 256 290.986667 236.373333 312.32S476.16 401.92 458.24 384zM512 896a512 512 0 1 1 512-512 512 512 0 0 1-512 512z m0-938.666667a426.666667 426.666667 0 1 0 426.666667 426.666667 426.666667 426.666667 0 0 0-426.666667-426.666667z"  horiz-adv-x="1024" />

    
    <glyph glyph-name="tuding" unicode="&#58951;" d="M512 896a512 512 0 1 1 512-512A512 512 0 0 1 512 896zM696.442451 292.926756H557.153961L515.826607-22.38565l-37.500748 319.139013-147.707025-4.591928s-38.266069 21.428999-17.602392 45.919282l76.532138 76.532138 16.071749 229.596413-43.623319 48.980568s-29.082212 43.623318 29.082213 48.980568h260.209267s39.796712-30.612855 4.591929-60.460389l-35.204784-35.204783 20.663677-225.004485 69.644246-76.532137s19.133034-38.266069-14.541107-52.041854z"  horiz-adv-x="1024" />

    
    <glyph glyph-name="lingdaotuisong_" unicode="&#58952;" d="M1237.468783 896H208.050794a53.096296 53.096296 0 0 1-50.929101-54.179894v-216.719577H54.179894a54.179894 54.179894 0 0 1 0-108.359788H208.050794a53.096296 53.096296 0 0 1 52.012698 54.179894V751.881481L679.415873 419.216931a49.845503 49.845503 0 0 1 61.765079 0l445.358731 353.25291v-792.110053H378.175661a54.179894 54.179894 0 0 1 0-108.359788h859.293122a53.096296 53.096296 0 0 1 50.929101 54.179894V841.820106a53.096296 53.096296 0 0 1-50.929101 54.179894zM709.756614 530.827513L385.760847 787.640212h650.15873zM497.371429 354.201058a53.096296 53.096296 0 0 1-52.012699 54.179894H175.542857a54.179894 54.179894 0 0 1 0-108.359788h269.815873a53.096296 53.096296 0 0 1 52.012699 54.179894zM587.310053 150.484656a53.096296 53.096296 0 0 1-50.929101 54.179894H278.484656a54.179894 54.179894 0 0 1 0-108.359788h256.812698a53.096296 53.096296 0 0 1 52.012699 54.179894z"  horiz-adv-x="1289" />

    


  </font>
</defs>
</svg>
