<?xml version="1.0" standalone="no"?>
<!DOCTYPE svg PUBLIC "-//W3C//DTD SVG 1.1//EN" "http://www.w3.org/Graphics/SVG/1.1/DTD/svg11.dtd" >
<svg xmlns="http://www.w3.org/2000/svg">
<metadata>Generated by IcoMoon</metadata>
<defs>
<font id="icons" horiz-adv-x="1024">
<font-face units-per-em="1024" ascent="960" descent="-64" />
<missing-glyph horiz-adv-x="1024" />
<glyph unicode="&#x20;" horiz-adv-x="512" d="" />
<glyph unicode="&#xe900;" glyph-name="arrow-down" d="M512 870.656c-233.426 0-422.656-189.23-422.656-422.656s189.23-422.656 422.656-422.656c233.426 0 422.656 189.23 422.656 422.656-0.291 233.309-189.347 422.365-422.628 422.656zM512 89.6c-0.192 0-0.42-0.001-0.648-0.001-197.939 0-358.4 160.461-358.4 358.4 0 183.645 138.122 335.029 316.15 355.936l1.682-515.935-167.424 167.68c-5.798 5.798-13.808 9.384-22.656 9.384-17.695 0-32.040-14.345-32.040-32.040 0-8.848 3.586-16.858 9.384-22.656l222.208-222.208c5.794-5.808 13.805-9.401 22.656-9.401s16.862 3.593 22.655 9.401l222.209 222.209c5.798 5.798 9.384 13.808 9.384 22.656 0 17.695-14.345 32.040-32.040 32.040-8.848 0-16.858-3.586-22.656-9.384l-167.424-167.424v518.144c193.022-6.399 347.065-164.41 347.065-358.4 0-198.041-160.544-358.585-358.585-358.585-4.051 0-8.086 0.067-12.105 0.2z" />
<glyph unicode="&#xe901;" glyph-name="arrow-left" d="M512 870.656c-233.426 0-422.656-189.23-422.656-422.656s189.23-422.656 422.656-422.656c233.426 0 422.656 189.23 422.656 422.656-0.291 233.309-189.347 422.365-422.628 422.656zM512 89.6c-197.907 0.042-358.326 160.487-358.326 358.4 0 197.939 160.461 358.4 358.4 358.4 183.415 0 334.651-137.778 355.857-315.484l-515.931-1.7 167.68 167.68c5.798 5.798 9.384 13.808 9.384 22.656 0 17.695-14.345 32.040-32.040 32.040-8.848 0-16.858-3.586-22.656-9.384l-222.208-222.464c-5.808-5.794-9.401-13.805-9.401-22.656s3.593-16.862 9.401-22.655l222.209-222.209c5.798-5.798 13.808-9.384 22.656-9.384 17.695 0 32.040 14.345 32.040 32.040 0 8.848-3.586 16.858-9.384 22.656l-167.68 167.424h518.4c-12.464-187.773-167.826-335.361-357.659-335.361-0.261 0-0.521 0-0.782 0.001z" />
<glyph unicode="&#xe902;" glyph-name="arrow-right" d="M512 870.656c-233.426 0-422.656-189.23-422.656-422.656s189.23-422.656 422.656-422.656c233.426 0 422.656 189.23 422.656 422.656-0.291 233.309-189.347 422.365-422.628 422.656zM512 89.6c-0.022 0-0.048 0-0.074 0-183.415 0-334.651 137.778-355.857 315.484l515.931 1.7-167.68-167.424c-5.798-5.798-9.384-13.808-9.384-22.656 0-17.695 14.345-32.040 32.040-32.040 8.848 0 16.858 3.586 22.656 9.384l222.208 222.208c5.808 5.794 9.401 13.805 9.401 22.656s-3.593 16.862-9.401 22.655l-222.209 222.209c-5.798 5.798-13.808 9.384-22.656 9.384-17.695 0-32.040-14.345-32.040-32.040 0-8.848 3.586-16.858 9.384-22.656l167.68-167.424h-518.4c12.465 187.772 167.826 335.359 357.659 335.359 197.939 0 358.4-160.461 358.4-358.4 0-197.678-160.039-357.977-357.618-358.399z" />
<glyph unicode="&#xe903;" glyph-name="arrow-up" d="M512 870.656c-233.426 0-422.656-189.23-422.656-422.656s189.23-422.656 422.656-422.656c233.426 0 422.656 189.23 422.656 422.656-0.291 233.309-189.347 422.365-422.628 422.656zM552.96 91.904v516.096l167.68-167.68c5.798-5.798 13.808-9.384 22.656-9.384 17.695 0 32.040 14.345 32.040 32.040 0 8.848-3.586 16.858-9.384 22.656l-222.208 222.208c-5.794 5.808-13.805 9.401-22.656 9.401s-16.862-3.593-22.655-9.401l-222.209-222.209c-5.798-5.798-9.384-13.808-9.384-22.656 0-17.695 14.345-32.040 32.040-32.040 8.848 0 16.858 3.586 22.656 9.384l167.424 167.424v-518.144c-186.947 13.394-333.538 168.346-333.538 357.537 0 197.939 160.461 358.4 358.4 358.4s358.4-160.461 358.4-358.4c0-184.151-138.885-335.863-317.623-356.106z" />
<glyph unicode="&#xe904;" glyph-name="exchange" d="M870.4 627.2l-148.224 148.48c-5.828 5.733-13.828 9.273-22.656 9.273-17.846 0-32.313-14.467-32.313-32.313 0-9.018 3.695-17.174 9.653-23.036l93.444-93.444h-548.096c-17.673 0-32-14.327-32-32s14.327-32 32-32h548.096l-93.44-93.44c-5.798-5.798-9.384-13.808-9.384-22.656 0-17.695 14.345-32.040 32.040-32.040 8.848 0 16.858 3.586 22.656 9.384l148.224 148.992c5.656 5.767 9.147 13.676 9.147 22.4s-3.491 16.633-9.152 22.405zM801.792 323.072h-548.096l93.44 93.44c5.798 5.798 9.384 13.808 9.384 22.656 0 17.695-14.345 32.040-32.040 32.040-8.848 0-16.858-3.586-22.656-9.384l-148.224-148.224c-5.656-5.767-9.147-13.676-9.147-22.4s3.491-16.633 9.152-22.405l147.963-147.963c5.831-5.831 13.886-9.437 22.784-9.437 17.795 0 32.221 14.426 32.221 32.221 0 8.898-3.607 16.953-9.437 22.784l-93.44 92.672h548.096c17.673 0 32 14.327 32 32s-14.327 32-32 32z" />
<glyph unicode="&#xe905;" glyph-name="columns" d="M806.656 852.48h-588.8c-0.152 0.001-0.332 0.001-0.512 0.001-60.706 0-109.935-49.139-110.080-109.811v-588.814c0-0.076 0-0.166 0-0.256 0-60.796 49.284-110.080 110.080-110.080 0 0 0 0 0 0h588.8c60.596 0.145 109.679 49.228 109.824 109.81v588.814c0 0.077 0 0.168 0 0.259 0 60.526-48.848 109.642-109.271 110.077zM171.264 153.344v588.8c-0.002 0.152-0.003 0.332-0.003 0.513 0 25.308 20.516 45.824 45.824 45.824 0.091 0 0.182 0 0.273-0.001h262.642v-680.96h-262.656c-0.076 0-0.166-0.001-0.256-0.001-25.308 0-45.824 20.516-45.824 45.824 0 0 0 0.001 0 0.001zM852.48 153.344c0-25.308-20.516-45.824-45.824-45.824h-262.656v680.96h262.656c25.308 0 45.824-20.516 45.824-45.824z" />
<glyph unicode="&#xe906;" glyph-name="repo-contour1" d="M877.824 723.968v0c-1.318 25.758-13.878 48.338-32.832 63.089-22.511 18.884-48.585 34.076-77.002 44.379-73.831 26.425-156.961 41.373-243.582 41.373-4.362 0-8.716-0.038-13.061-0.113-3.039 0.076-7.392 0.113-11.755 0.113-86.621 0-169.751-14.948-246.951-42.406-25.049-9.27-51.123-24.462-73.837-43.525-18.629-14.464-31.156-36.833-32.618-62.169l-0.011-0.228v-552.448c1.254-25.619 13.844-48.063 32.822-62.572 22.52-19.048 48.586-34.401 77.009-44.884 73.784-26.438 156.857-41.388 243.421-41.388 4.421 0 8.832 0.039 13.234 0.117 3.091-0.078 7.516-0.117 11.951-0.117 86.551 0 169.609 14.95 246.735 42.408 25.069 9.457 51.135 24.811 73.828 44.026 18.473 14.57 30.713 37.101 31.62 62.52l0.004 551.57z" />
<glyph unicode="&#xe907;" glyph-name="inferred-off" d="M573.696 448c-0.057-8.814-3.667-16.773-9.47-22.526l-316.674-316.93c-5.798-5.798-13.808-9.384-22.656-9.384-17.695 0-32.040 14.345-32.040 32.040 0 8.848 3.586 16.858 9.384 22.656l294.144 294.144-294.144 294.144c-5.798 5.798-9.384 13.808-9.384 22.656 0 17.695 14.345 32.040 32.040 32.040 8.848 0 16.858-3.586 22.656-9.384l315.648-316.928c6.184-5.617 10.153-13.578 10.494-22.468zM566.178 779.907c14.613-15.174 14.158-39.321-1.017-53.934s-39.321-14.158-53.934 1.017c-14.613 15.174-14.158 39.321 1.017 53.934s39.321 14.158 53.934-1.017zM871.55 474.55c14.613-15.174 14.158-39.321-1.017-53.934s-39.321-14.158-53.934 1.017c-14.613 15.174-14.158 39.321 1.017 53.934s39.321 14.158 53.934-1.017zM642.303 703.633c14.613-15.174 14.158-39.321-1.017-53.934s-39.321-14.158-53.934 1.017c-14.613 15.174-14.158 39.321 1.017 53.934s39.321 14.158 53.934-1.017zM718.868 627.282c14.613-15.174 14.158-39.321-1.017-53.934s-39.321-14.158-53.934 1.017c-14.613 15.174-14.158 39.321 1.017 53.934s39.321 14.158 53.934-1.017zM795.169 550.824c14.613-15.174 14.158-39.321-1.017-53.934s-39.321-14.158-53.934 1.017c-14.613 15.174-14.158 39.321 1.017 53.934s39.321 14.158 53.934-1.017zM566.193 169.179c14.613-15.174 14.158-39.321-1.017-53.934s-39.321-14.158-53.934 1.017c-14.613 15.174-14.158 39.321 1.017 53.934s39.321 14.158 53.934-1.017zM642.651 245.481c14.613-15.174 14.158-39.321-1.017-53.934s-39.321-14.158-53.934 1.017c-14.613 15.174-14.158 39.321 1.017 53.934s39.321 14.158 53.934-1.017zM718.924 321.861c14.613-15.174 14.158-39.321-1.017-53.934s-39.321-14.158-53.934 1.017c-14.613 15.174-14.158 39.321 1.017 53.934s39.321 14.158 53.934-1.017zM795.276 398.17c14.613-15.174 14.158-39.321-1.017-53.934s-39.321-14.158-53.934 1.017c-14.613 15.174-14.158 39.321 1.017 53.934s39.321 14.158 53.934-1.017z" />
<glyph unicode="&#xe908;" glyph-name="inferred-on" d="M573.952 448c-0.057-8.814-3.667-16.773-9.47-22.526l-316.674-316.93c-5.798-5.798-13.808-9.384-22.656-9.384-17.695 0-32.040 14.345-32.040 32.040 0 8.848 3.586 16.858 9.384 22.656l294.144 294.144-293.888 294.144c-5.090 5.644-8.205 13.156-8.205 21.396 0 17.673 14.327 32 32 32 8.176 0 15.636-3.066 21.292-8.111l316.896-316.9c5.697-5.775 9.216-13.711 9.216-22.47 0-0.020 0-0.041 0-0.061zM881.92 448c-0.057-8.814-3.667-16.773-9.47-22.526l-316.674-316.93c-5.798-5.798-13.808-9.384-22.656-9.384-17.695 0-32.040 14.345-32.040 32.040 0 8.848 3.586 16.858 9.384 22.656l294.144 294.144-294.144 294.144c-5.798 5.798-9.384 13.808-9.384 22.656 0 17.695 14.345 32.040 32.040 32.040 8.848 0 16.858-3.586 22.656-9.384l316.672-316.928c5.805-5.755 9.415-13.714 9.472-22.517z" />
<glyph unicode="&#xe909;" glyph-name="save" d="M704 847.872h-478.208c-62.716-0.145-113.519-50.948-113.664-113.65v-572.43c0.145-62.716 50.948-113.519 113.65-113.664h572.43c62.716 0.145 113.519 50.948 113.664 113.65v478.222zM304.384 783.872h153.6v-122.368c0-16.966 13.754-30.72 30.72-30.72s30.72 13.754 30.72 30.72v122.368h86.272v-145.408c-0.286-18.019-14.96-32.516-33.020-32.516-0.181 0-0.362 0.001-0.543 0.004h-234.213c-0.153-0.003-0.335-0.004-0.516-0.004-18.060 0-32.734 14.497-33.020 32.489zM725.504 112.128h-419.84v175.872c2.989 24.833 23.933 43.893 49.328 43.893 1.199 0 2.389-0.043 3.567-0.126l312.162 0.009c1.325 0.126 2.866 0.197 4.423 0.197 25.423 0 46.385-19.103 49.314-43.738zM847.872 161.792c-0.826-27.090-22.574-48.838-49.587-49.662l-8.781-0.002v175.872c-2.353 60.634-52.076 108.897-113.072 108.897-1.649 0-3.289-0.035-4.921-0.105l-313.111 0.008c-1.412 0.063-3.067 0.099-4.731 0.099-60.636 0-110.132-47.695-113.019-107.616l-0.010-175.875h-14.848c-27.090 0.826-48.838 22.574-49.662 49.587l-0.002 571.213c0.826 27.090 22.574 48.838 49.587 49.662l17.229 0.002v-145.408c0.29-52.092 42.586-94.208 94.719-94.208 0.091 0 0.181 0 0.271 0h234.226c0.076 0 0.167 0 0.257 0 52.133 0 94.428 42.116 94.718 94.181v145.436h10.24l170.24-170.24z" />
<glyph unicode="&#xe90a;" glyph-name="tag" d="M868.864 411.136l-323.328 323.328c-29.934 29.996-71.058 48.816-116.576 49.662l-57.504 0.002c8.723 38.699 22.494 72.899 40.849 104.078 1.558 2.547 3.017 7.624 3.017 13.042 0 16.309-13.221 29.53-29.53 29.53-10.891 0-20.405-5.896-25.524-14.67-22.418-37.751-39.474-81.496-48.783-128.039l-51.644-2.662c-1.526 0.085-3.312 0.133-5.109 0.133-26.347 0-50.267-10.392-67.885-27.301-18.169-18.019-29.438-43.037-29.438-70.687 0-0.878 0.011-1.753 0.034-2.626l3.581-168.831c0.848-45.678 19.668-86.802 49.661-116.733l323.331-323.075c15.374-15.341 36.595-24.827 60.032-24.827s44.658 9.486 60.033 24.829l214.783 214.783c15.341 15.374 24.827 36.595 24.827 60.032s-9.486 44.658-24.829 60.033zM823.552 336.384l-214.784-214.784c-3.853-3.682-9.086-5.949-14.848-5.949s-10.995 2.267-14.856 5.957l-323.064 323.064c-18.691 18.642-30.425 44.251-30.974 72.6l-3.586 169.064c-0.005 0.229-0.008 0.498-0.008 0.768 0 20.077 16.275 36.352 36.352 36.352 0.003 0 0.006 0 0.009 0h45.824c-0.159-3.978-0.249-8.647-0.249-13.337 0-24.723 2.514-48.859 7.301-72.166l-3.979-0.512c-11.649-11.037-18.898-26.617-18.898-43.891 0-33.367 27.049-60.416 60.416-60.416s60.416 27.049 60.416 60.416c0 26.133-16.592 48.391-39.817 56.813-4.314 18.136-6.544 38.818-6.544 60.021 0 4.147 0.085 8.274 0.254 12.38l64.237-1.868c28.448-0.579 54.049-12.306 72.703-30.975l324.353-324.097c3.726-3.786 6.026-8.984 6.026-14.72s-2.3-10.934-6.029-14.723z" />
<glyph unicode="&#xe90b;" glyph-name="repo-contour2" d="M877.824 383.488v340.224c-1.239 25.855-13.817 48.541-32.833 63.345-22.511 18.884-48.585 34.075-77.002 44.379-73.831 26.425-156.961 41.373-243.582 41.373-4.362 0-8.716-0.038-13.061-0.113-3.039 0.076-7.392 0.113-11.755 0.113-86.621 0-169.751-14.948-246.951-42.406-25.049-9.27-51.123-24.462-73.837-43.525-18.629-14.464-31.156-36.833-32.618-62.169l-0.011-0.228v-552.448c1.254-25.619 13.844-48.063 32.822-62.572 22.52-19.048 48.586-34.401 77.009-44.884 73.784-26.438 156.857-41.388 243.421-41.388 4.421 0 8.832 0.039 13.234 0.117 34.907 0.175 69.748 2.402 103.993 6.561 37.244-47.005 97.434-76.194 164.442-76.194 124.701 0 225.792 101.091 225.792 225.792 0 89.556-52.138 166.934-127.716 203.437z" />
<glyph unicode="&#xe90c;" glyph-name="file" d="M580.352 874.24c-7.527 7.56-17.932 12.25-29.433 12.288h-243.719c-0.152 0.001-0.332 0.001-0.512 0.001-62.492 0-113.152-50.66-113.152-113.152 0-0.090 0-0.181 0-0.271v-650.226c0-0.076 0-0.167 0-0.257 0-62.492 50.66-113.152 113.152-113.152 0.18 0 0.36 0 0.54 0.001h409.572c62.492 0 113.152 50.66 113.152 113.152v483.84c0.022 0.507 0.035 1.101 0.035 1.699 0 10.791-4.096 20.625-10.818 28.032zM763.648 601.6h-218.88v217.6zM716.8 73.472h-409.6c-0.611-0.027-1.328-0.043-2.049-0.043-27.146 0-49.152 22.006-49.152 49.152 0 0.105 0 0.21 0.001 0.315v650.224c-0.001 0.089-0.001 0.194-0.001 0.299 0 27.146 22.006 49.152 49.152 49.152 0.721 0 1.438-0.016 2.151-0.046l174.234 0.003v-254.208c0-0.011 0-0.024 0-0.037 0-17.133 13.464-31.121 30.389-31.96l256.075-0.003v-413.44c0-0.010 0-0.021 0-0.033 0-27.287-22.121-49.408-49.408-49.408-0.63 0-1.258 0.012-1.882 0.035z" />
<glyph unicode="&#xe90d;" glyph-name="folder" d="M985.856 456.448c-13.381 27.915-41.415 46.849-73.871 46.849-0.13 0-0.26 0-0.389-0.001h-69.868v84.992c0 56.554-45.846 102.4-102.4 102.4h-264.448l-70.144 94.976h-226.816c-56.554 0-102.4-45.846-102.4-102.4v-470.784c0-56.554 45.846-102.4 102.4-102.4h578.816c0.015 0 0.033 0 0.051 0 25.798 0 48.81 11.925 63.826 30.562l155.771 230.558c10.804 13.718 17.328 31.246 17.328 50.299 0 12.698-2.898 24.719-8.069 35.438zM177.92 721.664h194.56l70.144-94.464h296.96c21.066 0 38.144-17.078 38.144-38.144v-85.248h-439.552c-0.138 0.001-0.3 0.001-0.463 0.001-25.567 0-48.398-11.712-63.421-30.064l-134.515-199.057v409.6c0.431 20.733 17.34 37.376 38.136 37.376 0.003 0 0.005 0 0.008 0zM925.952 409.344l-155.392-230.4c-3.334-3.762-8.173-6.127-13.565-6.144h-573.955c-0.006 0-0.014 0-0.021 0-10.038 0-18.176 8.138-18.176 18.176 0 4.387 1.554 8.411 4.142 11.551l155.367 229.089c3.334 3.762 8.173 6.127 13.565 6.144h573.699c10.071-0.142 18.18-8.339 18.18-18.43 0-4.262-1.446-8.185-3.875-11.307z" />
<glyph unicode="&#xe90e;" glyph-name="heartbeat" d="M971.264 617.728c-15.331 133.959-128.059 237.041-264.863 237.041-76.603 0-145.657-32.32-194.27-84.068-48.773 50.916-117.283 82.666-193.208 82.666-147.182 0-266.496-119.314-266.496-266.496 0-55.64 17.051-107.297 46.213-150.031 114.864-198.248 383.408-403.816 394.16-412.264 5.329-4.114 12.103-6.594 19.456-6.594s14.127 2.48 19.53 6.649c11.19 8.649 279.222 213.961 394.678 413.129 29.061 42.169 46.417 94.358 46.417 150.6 0 10.346-0.587 20.556-1.731 30.596zM512 89.6c-102.93 82.53-194.405 170.678-277.33 266.433l98.13 2.623c12.941 0.026 23.92 8.397 27.843 20.016l45.629 140.24 68.352-250.112c3.435-12.048 14.046-20.838 26.808-21.501l1.608-0.003c12.441 0.050 23.057 7.808 27.323 18.744l66.885 173.768 18.688-57.088c3.984-11.827 14.963-20.198 27.901-20.224h149.763c-85.712-99.968-177.878-189.374-277.605-269.78zM872.704 473.6l-1.536-2.304c-9.472-16.384-20.48-33.024-32-49.664h-173.568l-37.888 114.944c-3.899 11.59-14.505 19.857-27.094 20.223-0.448 0.022-0.923 0.033-1.4 0.033-12.311 0-22.793-7.828-26.74-18.778l-64.83-166.854-70.912 258.304c-3.463 12.125-14.197 20.95-27.075 21.502-13.206-0.007-24.402-8.34-28.665-20.010l-69.444-213.46h-124.416c-12.544 17.664-24.32 35.584-34.304 52.992l-1.536 3.072c-22.631 32.043-36.173 71.911-36.173 114.942 0 8.21 0.493 16.305 1.451 24.257 10.467 92.426 83.046 166.053 175.006 178.131 8.629 1.088 17.422 1.646 26.346 1.646 0.099 0 0.198 0 0.297 0 70.019-0.285 131.622-36.124 167.711-90.392 6.3-9.275 15.986-14.801 26.961-14.801s20.661 5.526 26.425 13.947c36.968 54.304 98.376 89.429 167.987 89.429 103.89 0 189.506-78.236 201.148-179.004 0.8-7.286 1.207-14.644 1.207-22.097 0-43.511-13.845-83.787-37.371-116.665z" />
<glyph unicode="&#xe90f;" glyph-name="pin" d="M814.336 308.224l-34.816 74.496c-15.949 33.203-46.921 56.976-83.858 62.642l-0.622 233.038c36.901 0 66.816 29.915 66.816 66.816v51.2c0 0.080 0.001 0.174 0.001 0.268 0 36.452-29.19 66.086-65.47 66.803l-368.707 0.001c-36.901 0-66.816-29.915-66.816-66.816v-51.2c0-0.076 0-0.166 0-0.256 0-36.901 29.915-66.816 66.816-66.816 0 0 0 0 0 0v0-233.984c-37.559-5.744-68.531-29.517-84.19-62.051l-33.826-74.141c-4.034-8.072-6.395-17.585-6.395-27.65 0-34.781 28.195-62.976 62.976-62.976 0.178 0 0.356 0.001 0.534 0.002h207.077l9.984-175.616c-0.082-0.808-0.128-1.745-0.128-2.694 0-15.694 12.722-28.416 28.416-28.416s28.416 12.722 28.416 28.416c0 0.949-0.046 1.886-0.137 2.811l9.737 175.499h207.104c0.005 0 0.011 0 0.017 0 34.781 0 62.976 28.195 62.976 62.976 0 9.665-2.177 18.821-6.068 27.005zM322.304 746.496v51.2c0 2.969 2.407 5.376 5.376 5.376h368.64c2.969 0 5.376-2.407 5.376-5.376v-51.2c0-2.969-2.407-5.376-5.376-5.376h-368.64c-2.969 0-5.376 2.407-5.376 5.376zM631.040 678.4v-230.4h-238.080v230.4zM267.52 281.088l34.816 74.496c7.756 16.149 23.971 27.106 42.748 27.136h332.804c18.781-0.030 34.996-10.987 42.629-26.852l34.939-73.244z" />
<glyph unicode="&#xe910;" glyph-name="repo-contour3" d="M877.824 390.912v116.224c77.299 36.954 129.745 114.525 129.745 204.346 0 124.701-101.091 225.792-225.792 225.792-65.091 0-123.749-27.543-164.955-71.609-31.214 4.066-67.515 6.659-104.346 7.036-4.168 0.070-8.522 0.108-12.884 0.108-86.621 0-169.751-14.948-246.951-42.406-25.049-9.27-51.123-24.462-73.837-43.525-18.629-14.464-31.156-36.833-32.618-62.169l-0.011-0.228v-552.448c1.254-25.619 13.844-48.063 32.822-62.572 22.52-19.048 48.586-34.401 77.009-44.884 73.784-26.438 156.857-41.388 243.421-41.388 4.421 0 8.832 0.039 13.234 0.117-0.63-0.009-0.592-0.009-0.555-0.009 37.676 0 74.809 2.325 111.263 6.841 36.726-42.771 94.159-69.041 157.727-69.041 124.701 0 225.792 101.091 225.792 225.792 0 89.556-52.138 166.934-127.716 203.437z" />
<glyph unicode="&#xe911;" glyph-name="zoom-in" d="M893.184 129.28l-226.56 204.8c-1.427 1.178-3.017 2.278-4.697 3.24 44.231 53.184 71.19 122.191 71.19 197.494 0 170.51-138.226 308.736-308.736 308.736s-308.736-138.226-308.736-308.736c0-170.51 138.226-308.736 308.736-308.736 76.024 0 145.631 27.479 199.429 73.046 0.607-2.113 1.705-3.619 2.916-5.025l204.762-226.515c7.561-7.388 17.914-11.947 29.333-11.947 12.172 0 23.134 5.18 30.802 13.455 8.142 7.821 13.185 18.763 13.185 30.882 0 11.352-4.425 21.671-11.644 29.326zM425.984 290.56c-134.174 0-242.944 108.77-242.944 242.944s108.77 242.944 242.944 242.944c134.174 0 242.944-108.77 242.944-242.944-0.146-134.116-108.828-242.798-242.93-242.944zM594.432 564.224h-137.728v137.728c0 16.966-13.754 30.72-30.72 30.72s-30.72-13.754-30.72-30.72v-137.728h-137.728c-16.966 0-30.72-13.754-30.72-30.72s13.754-30.72 30.72-30.72h137.728v-137.728c0-16.966 13.754-30.72 30.72-30.72s30.72 13.754 30.72 30.72v137.728h137.728c16.966 0 30.72 13.754 30.72 30.72s-13.754 30.72-30.72 30.72z" />
<glyph unicode="&#xe912;" glyph-name="zoom-out" d="M893.184 129.28l-226.56 204.8c-1.427 1.178-3.017 2.278-4.697 3.24 44.231 53.184 71.19 122.191 71.19 197.494 0 170.51-138.226 308.736-308.736 308.736s-308.736-138.226-308.736-308.736c0-170.51 138.226-308.736 308.736-308.736 76.024 0 145.631 27.479 199.429 73.046 0.607-2.113 1.705-3.619 2.916-5.025l204.762-226.515c7.561-7.388 17.914-11.947 29.333-11.947 12.172 0 23.134 5.18 30.802 13.455 8.142 7.821 13.185 18.763 13.185 30.882 0 11.352-4.425 21.671-11.644 29.326zM425.984 290.56c-134.174 0-242.944 108.77-242.944 242.944s108.77 242.944 242.944 242.944c134.174 0 242.944-108.77 242.944-242.944-0.146-134.116-108.828-242.798-242.93-242.944zM593.92 563.456h-337.92c-16.966 0-30.72-13.754-30.72-30.72s13.754-30.72 30.72-30.72h337.92c16.966 0 30.72 13.754 30.72 30.72s-13.754 30.72-30.72 30.72z" />
<glyph unicode="&#xe913;" glyph-name="repo-master-ro-mute" d="M877.824 390.912v116.224c77.299 36.954 129.745 114.525 129.745 204.346 0 124.701-101.091 225.792-225.792 225.792-65.091 0-123.749-27.543-164.955-71.609-31.214 4.066-67.515 6.659-104.346 7.036-4.168 0.070-8.522 0.108-12.884 0.108-86.621 0-169.751-14.948-246.951-42.406-25.049-9.27-51.123-24.462-73.837-43.525-18.629-14.464-31.156-36.833-32.618-62.169l-0.011-0.228v-552.448c1.254-25.619 13.844-48.063 32.822-62.572 22.52-19.048 48.586-34.401 77.009-44.884 73.784-26.438 156.857-41.388 243.421-41.388 4.421 0 8.832 0.039 13.234 0.117-0.63-0.009-0.592-0.009-0.555-0.009 37.676 0 74.809 2.325 111.263 6.841 36.726-42.771 94.159-69.041 157.727-69.041 124.701 0 225.792 101.091 225.792 225.792 0 89.556-52.138 166.934-127.716 203.437zM781.056 877.312c0.151 0 0.329 0.001 0.507 0.001 92.324 0 167.168-74.844 167.168-167.168s-74.844-167.168-167.168-167.168c-92.324 0-167.168 74.844-167.168 167.168 0 0.45 0.002 0.899 0.005 1.348 0.144 92.017 74.61 166.663 166.614 167.099zM221.184 739.584c17.139 14.034 37.218 25.274 59.080 32.634 66.512 23.173 141.648 36.334 219.858 36.334 4.176 0 8.343-0.038 12.502-0.112 21.136 0.009 42.384 0.009 63.376-2.551-13.281-27.739-21.039-60.296-21.039-94.665 0-25.107 4.14-49.247 11.775-71.774-18.383 1.575-36.303-0.473-54.735-0.473-3.367-0.060-7.339-0.094-11.318-0.094-78.422 0-153.749 13.252-223.864 37.638-18.424 6.387-38.5 17.71-55.959 32.093-6.587 6.14-10.683 11.772-10.683 15.356s4.096 9.216 11.008 15.616zM512 87.296c-3.379-0.060-7.365-0.095-11.359-0.095-78.408 0-153.72 13.252-223.82 37.638-18.031 6.425-37.753 17.646-54.934 31.835-6.591 6.142-10.687 11.774-10.687 15.358v466.176c13.4-7.919 29.085-15.496 45.412-21.782 73.383-25.984 155.475-40.567 240.973-40.567 5.068 0 10.125 0.051 15.169 0.153 28.686-0.012 57.102 1.78 85.006 4.596 40.786-57.342 106.994-94.297 181.834-94.297 12.083 0 23.941 0.963 35.502 2.817l-1.272-76.968c-10.208 1.669-21.973 2.623-33.961 2.623-46.714 0-90.045-14.481-125.75-39.2l0.735 120.289c0.001 0.080 0.001 0.174 0.001 0.268 0 7.653-3.026 14.6-7.946 19.709-4.946 5.2-11.929 8.441-19.668 8.441-0.102 0-0.205-0.001-0.307-0.002-0.074 0.001-0.18 0.002-0.286 0.002-11.137 0-20.751-6.525-25.226-15.96l-89.416-172.201-89.344 172.288c-4.548 9.605-14.161 16.13-25.298 16.13-0.106 0-0.212-0.001-0.318-0.002-0.146 0.004-0.336 0.006-0.527 0.006-7.742 0-14.726-3.242-19.67-8.442-4.923-5.112-7.948-12.058-7.948-19.712 0-0.094 0-0.188 0.001-0.282v-297.458c0.031-7.121 2.963-13.55 7.676-18.172 4.631-4.605 11.010-7.448 18.052-7.448s13.421 2.844 18.049 7.446c4.715 4.624 7.648 11.054 7.679 18.169v204.806l66.048-128c4.558-9.775 14.302-16.429 25.6-16.429s21.042 6.653 25.527 16.256l66.377 128.173v-76.8c-29.842-37.704-47.872-85.947-47.872-138.401 0-35.418 8.22-68.917 22.857-98.691-23.113 0.037-44.873-2.267-66.889-2.267zM781.056 19.456c-0.304-0.002-0.664-0.003-1.024-0.003-92.324 0-167.168 74.844-167.168 167.168s74.844 167.168 167.168 167.168c92.233 0 167.020-74.696 167.168-166.895-0.142-91.922-74.318-166.458-166.075-167.182zM758.272 263.68l-41.472-40.448c-0.342-0.13-0.738-0.206-1.152-0.206s-0.81 0.075-1.175 0.213l-41.193-0.008c-4.383 0-7.936-3.553-7.936-7.936v-60.928c0-4.383 3.553-7.936 7.936-7.936h41.984c0.342 0.13 0.738 0.206 1.152 0.206s0.81-0.075 1.175-0.213l40.425-40.44c2.388-2.294 5.637-3.707 9.217-3.707 7.305 0 13.236 5.884 13.311 13.172v139.015c-0.338 7.082-6.162 12.696-13.298 12.696-3.463 0-6.616-1.322-8.984-3.489zM889.6 227.584c-2.32 2.339-5.535 3.786-9.088 3.786s-6.768-1.448-9.087-3.785l-26.625-27.649-27.904 27.904c-2.326 2.326-5.539 3.764-9.088 3.764-7.098 0-12.852-5.754-12.852-12.852 0-3.549 1.439-6.762 3.764-9.088l27.904-27.904-27.904-27.904c-2.326-2.326-3.764-5.539-3.764-9.088 0-7.098 5.754-12.852 12.852-12.852 3.549 0 6.762 1.439 9.088 3.764l27.904 27.904 25.6-27.904c2.326-2.326 5.539-3.764 9.088-3.764 7.098 0 12.852 5.754 12.852 12.852 0 3.549-1.439 6.762-3.764 9.088l-26.88 27.904 27.904 27.904c2.263 2.307 3.659 5.47 3.659 8.96s-1.396 6.653-3.661 8.962zM790.272 660.224c2.32-2.339 5.535-3.786 9.088-3.786s6.768 1.448 9.087 3.785l27.905 27.905 27.904-27.904c2.326-2.326 5.539-3.764 9.088-3.764 7.098 0 12.852 5.754 12.852 12.852 0 3.549-1.439 6.762-3.764 9.088l-28.16 27.904 27.904 27.904c2.326 2.326 3.764 5.539 3.764 9.088 0 7.098-5.754 12.852-12.852 12.852-3.549 0-6.762-1.439-9.088-3.764l-27.904-28.16-27.904 27.904c-2.326 2.326-5.539 3.764-9.088 3.764-7.098 0-12.852-5.754-12.852-12.852 0-3.549 1.439-6.762 3.764-9.088l29.184-27.648-28.928-27.904c-2.339-2.32-3.786-5.535-3.786-9.088s1.448-6.768 3.785-9.087zM705.536 756.992h54.784v-107.776h-54.784v107.776zM730.368 601.6c0.597-0.573 1.409-0.927 2.304-0.927s1.707 0.353 2.305 0.928l25.599 35.839h-55.040zM760.064 791.040c0 7.493-6.075 13.568-13.568 13.568h-27.648c-7.493 0-13.568-6.075-13.568-13.568v-18.944h54.528z" />
<glyph unicode="&#xe914;" glyph-name="check" d="M512 870.656c-233.426 0-422.656-189.23-422.656-422.656s189.23-422.656 422.656-422.656c233.426 0 422.656 189.23 422.656 422.656-0.291 233.309-189.347 422.365-422.628 422.656zM512 89.6c-197.939 0-358.4 160.461-358.4 358.4s160.461 358.4 358.4 358.4c197.939 0 358.4-160.461 358.4-358.4s-160.461-358.4-358.4-358.4zM448 273.152c-0.012 0-0.025 0-0.039 0-9.18 0-17.492 3.717-23.513 9.728l-141.312 141.312c-6.866 6.124-11.169 14.996-11.169 24.873 0 18.38 14.9 33.28 33.28 33.28 9.941 0 18.864-4.359 24.962-11.269l117.023-117.028 245.76 260.864c6.16 6.664 14.946 10.823 24.704 10.823 18.56 0 33.607-15.046 33.607-33.607 0-8.803-3.384-16.815-8.923-22.806l-270.315-285.674c-5.985-6.362-14.416-10.364-23.784-10.496z" />
<glyph unicode="&#xe915;" glyph-name="download" d="M690.659 256.803c19.366-0.365 34.77-16.361 34.405-35.727s-16.361-34.77-35.727-34.405c-19.366 0.365-34.77 16.361-34.405 35.727s16.361 34.77 35.727 34.405zM810.481 256.082c19.37-0.387 34.758-16.404 34.371-35.773s-16.404-34.758-35.773-34.371c-19.37 0.387-34.758 16.404-34.371 35.773s16.404 34.758 35.773 34.371zM489.216 280.576c5.794-5.808 13.805-9.401 22.656-9.401s16.862 3.593 22.655 9.401l190.721 190.721c5.798 5.798 9.384 13.808 9.384 22.656 0 17.695-14.345 32.040-32.040 32.040-8.848 0-16.858-3.586-22.656-9.384l-136.192-136.192v432.64c0 17.673-14.327 32-32 32s-32-14.327-32-32v-432.64l-136.192 136.192c-5.798 5.798-13.808 9.384-22.656 9.384-17.695 0-32.040-14.345-32.040-32.040 0-8.848 3.586-16.858 9.384-22.656zM866.816 391.936h-111.36c-17.673 0-32-14.327-32-32s14.327-32 32-32h111.616c9.756 0 17.664-7.908 17.664-17.664v-152.32c0-9.756-7.908-17.664-17.664-17.664h-709.888c-9.756 0-17.664 7.908-17.664 17.664v152.32c0 9.756 7.908 17.664 17.664 17.664h109.056c17.673 0 32 14.327 32 32s-14.327 32-32 32h-109.056c-45.102 0-81.664-36.562-81.664-81.664v-152.32c0-45.102 36.562-81.664 81.664-81.664h709.632c45.102 0 81.664 36.562 81.664 81.664v152.32c0 45.102-36.562 81.664-81.664 81.664z" />
<glyph unicode="&#xe916;" glyph-name="external" d="M899.328 822.528c-5.755 5.805-13.714 9.415-22.517 9.472h-286.219c-17.673 0-32-14.327-32-32s14.327-32 32-32h208.896l-387.584-387.584c-5.798-5.798-9.384-13.808-9.384-22.656 0-17.695 14.345-32.040 32.040-32.040 8.848 0 16.858 3.586 22.656 9.384l387.584 387.584v-208.896c0-17.673 14.327-32 32-32s32 14.327 32 32v286.208c-0.057 8.814-3.667 16.773-9.47 22.526zM829.952 386.816c-17.673 0-32-14.327-32-32v-156.416c-0.145-34.722-28.254-62.831-62.962-62.976h-463.63c-34.781 0-62.976 28.195-62.976 62.976v463.616c0 34.781 28.195 62.976 62.976 62.976h156.416c17.673 0 32 14.327 32 32s-14.327 32-32 32h-156.416c-70.692 0-128-57.308-128-128v-462.592c0-70.692 57.308-128 128-128h463.616c70.692 0 128 57.308 128 128v156.416c0 0.005 0 0.011 0 0.016 0 17.673-14.327 32-32 32-0.36 0-0.719-0.006-1.076-0.018z" />
<glyph unicode="&#xe917;" glyph-name="lock" d="M762.368 592.896h-47.872v76.8c0 111.906-90.718 202.624-202.624 202.624s-202.624-90.718-202.624-202.624v-76.8h-47.616c-46.798 0-84.736-37.938-84.736-84.736v-399.616c0-46.798 37.938-84.736 84.736-84.736h500.736c46.798 0 84.736 37.938 84.736 84.736v399.872c-0.146 46.688-38.027 84.48-84.736 84.48 0 0 0 0 0 0zM373.248 669.696c0 76.56 62.064 138.624 138.624 138.624s138.624-62.064 138.624-138.624v-76.8h-276.992zM782.848 108.544c0-11.452-9.284-20.736-20.736-20.736h-500.48c-11.452 0-20.736 9.284-20.736 20.736v399.872c0 11.452 9.284 20.736 20.736 20.736h500.736c11.452 0 20.736-9.284 20.736-20.736zM512 420.352c-0.412 0.010-0.897 0.015-1.384 0.015-34.215 0-61.952-27.737-61.952-61.952 0-23.265 12.824-43.535 31.789-54.126l0.314-74.145c0-17.673 14.327-32 32-32s32 14.327 32 32v76.8c16.367 11.37 26.948 30.074 26.948 51.25 0 33.48-26.449 60.783-59.592 62.154z" />
<glyph unicode="&#xe918;" glyph-name="search" d="M893.184 129.28l-226.56 204.8c-1.427 1.179-3.017 2.28-4.698 3.241 44.231 53.183 71.191 122.19 71.191 197.493 0 170.51-138.226 308.736-308.736 308.736s-308.736-138.226-308.736-308.736c0-170.51 138.226-308.736 308.736-308.736 76.024 0 145.631 27.479 199.429 73.046 0.606-2.113 1.704-3.619 2.915-5.024l204.763-226.516c7.561-7.388 17.914-11.947 29.333-11.947 12.172 0 23.134 5.18 30.802 13.455 8.142 7.821 13.185 18.763 13.185 30.882 0 11.352-4.425 21.671-11.644 29.326zM425.984 290.56c-134.174 0-242.944 108.77-242.944 242.944s108.77 242.944 242.944 242.944c134.174 0 242.944-108.77 242.944-242.944-0.146-134.116-108.828-242.798-242.93-242.944z" />
<glyph unicode="&#xe919;" glyph-name="upload" d="M690.659 256.803c19.366-0.365 34.77-16.361 34.405-35.727s-16.361-34.77-35.727-34.405c-19.366 0.365-34.77 16.361-34.405 35.727s16.361 34.77 35.727 34.405zM810.481 256.082c19.37-0.387 34.758-16.404 34.371-35.773s-16.404-34.758-35.773-34.371c-19.37 0.387-34.758 16.404-34.371 35.773s16.404 34.758 35.773 34.371zM343.808 573.952l136.192 136.192v-432.64c0-17.673 14.327-32 32-32s32 14.327 32 32v432.64l136.192-136.192c5.798-5.798 13.808-9.384 22.656-9.384 17.695 0 32.040 14.345 32.040 32.040 0 8.848-3.586 16.858-9.384 22.656l-190.976 190.72c-5.794 5.808-13.805 9.401-22.656 9.401s-16.862-3.593-22.655-9.401l-190.721-190.721c-5.798-5.798-9.384-13.808-9.384-22.656 0-17.695 14.345-32.040 32.040-32.040 8.848 0 16.858 3.586 22.656 9.384zM866.816 391.936h-213.76c-17.673 0-32-14.327-32-32s14.327-32 32-32h214.016c9.756 0 17.664-7.908 17.664-17.664v-152.32c0-9.756-7.908-17.664-17.664-17.664h-709.888c-9.756 0-17.664 7.908-17.664 17.664v152.32c0 9.756 7.908 17.664 17.664 17.664h211.456c17.673 0 32 14.327 32 32s-14.327 32-32 32h-211.456c-45.102 0-81.664-36.562-81.664-81.664v-152.32c0-45.102 36.562-81.664 81.664-81.664h709.632c45.102 0 81.664 36.562 81.664 81.664v152.32c0 45.102-36.562 81.664-81.664 81.664z" />
<glyph unicode="&#xe91a;" glyph-name="caret-left" d="M295.936 448c0.057 8.814 3.667 16.773 9.47 22.526l316.674 316.93c5.798 5.798 13.808 9.384 22.656 9.384 17.695 0 32.040-14.345 32.040-32.040 0-8.848-3.586-16.858-9.384-22.656l-294.144-294.144 294.144-294.144c5.798-5.798 9.384-13.808 9.384-22.656 0-17.695-14.345-32.040-32.040-32.040-8.848 0-16.858 3.586-22.656 9.384l-316.672 316.928c-5.805 5.755-9.415 13.714-9.472 22.517z" />
<glyph unicode="&#xe91b;" glyph-name="caret-right" d="M702.464 448c-0.057-8.814-3.667-16.773-9.47-22.526l-316.674-316.93c-5.798-5.798-13.808-9.384-22.656-9.384-17.695 0-32.040 14.345-32.040 32.040 0 8.848 3.586 16.858 9.384 22.656l294.144 294.144-294.144 294.144c-5.798 5.798-9.384 13.808-9.384 22.656 0 17.695 14.345 32.040 32.040 32.040 8.848 0 16.858-3.586 22.656-9.384l316.672-316.928c5.805-5.755 9.415-13.714 9.472-22.517z" />
<glyph unicode="&#xe91c;" glyph-name="caret-up" d="M512 664.064c8.814-0.057 16.773-3.667 22.526-9.47l316.93-316.674c5.798-5.798 9.384-13.808 9.384-22.656 0-17.695-14.345-32.040-32.040-32.040-8.848 0-16.858 3.586-22.656 9.384l-294.144 294.144-294.144-294.144c-5.798-5.798-13.808-9.384-22.656-9.384-17.695 0-32.040 14.345-32.040 32.040 0 8.848 3.586 16.858 9.384 22.656l316.928 316.672c5.755 5.805 13.714 9.415 22.517 9.472z" />
<glyph unicode="&#xe91d;" glyph-name="minus" d="M512 870.656c-233.426 0-422.656-189.23-422.656-422.656s189.23-422.656 422.656-422.656c233.426 0 422.656 189.23 422.656 422.656-0.291 233.309-189.347 422.365-422.628 422.656zM512 89.6c-197.939 0-358.4 160.461-358.4 358.4s160.461 358.4 358.4 358.4c197.939 0 358.4-160.461 358.4-358.4s-160.461-358.4-358.4-358.4zM750.848 416h-477.696c-17.673 0-32 14.327-32 32s14.327 32 32 32h477.696c17.673 0 32-14.327 32-32s-14.327-32-32-32z" />
<glyph unicode="&#xe91e;" glyph-name="reload" d="M512 804.352h-100.096l96 90.368c5.798 5.798 9.384 13.808 9.384 22.656 0 17.695-14.345 32.040-32.040 32.040-8.848 0-16.858-3.586-22.656-9.384l-144.896-144.896c-5.808-5.794-9.401-13.805-9.401-22.656s3.593-16.862 9.401-22.655l144.897-144.897c5.798-5.798 13.808-9.384 22.656-9.384 17.695 0 32.040 14.345 32.040 32.040 0 8.848-3.586 16.858-9.384 22.656l-95.744 90.112h99.84c161.544-0.079 292.47-131.054 292.47-292.608 0-43.894-9.665-85.53-26.982-122.897-2.107-2.887-3.8-8.566-3.8-14.641 0-17.673 14.327-32 32-32 14.411 0 26.596 9.525 30.604 22.623 19.998 43.326 31.627 93.762 31.627 146.915 0 196.707-159.266 356.215-355.881 356.607zM557.824 291.072c-5.843 5.908-13.951 9.566-22.912 9.566-17.796 0-32.222-14.426-32.222-32.222 0-8.834 3.555-16.838 9.313-22.659l96.509-90.365h-96.512c-161.575 0.037-292.544 131.028-292.544 292.608 0 44.389 9.884 86.469 27.571 124.159 0.092 0.947 0.581 4.096 0.581 7.359 0 17.673-14.327 32-32 32-11.598 0-21.756-6.171-27.368-15.408-20.382-43.583-32.228-94.463-32.228-148.11 0-196.731 159.305-356.254 355.954-356.607h97.058l-97.024-90.112c-5.798-5.798-9.384-13.808-9.384-22.656 0-17.695 14.345-32.040 32.040-32.040 8.848 0 16.858 3.586 22.656 9.384l144.896 144.896c5.808 5.794 9.401 13.805 9.401 22.656s-3.593 16.862-9.401 22.655z" />
<glyph unicode="&#xe91f;" glyph-name="trash" d="M378.112 197.632c17.452 0.288 31.488 14.503 31.488 31.996 0 0.001 0 0.003 0 0.004v283.648c0 17.673-14.327 32-32 32s-32-14.327-32-32v-283.648c0-0.001 0-0.003 0-0.004 0-17.673 14.327-32 32-32 0.18 0 0.36 0.001 0.539 0.004zM512 197.632c17.673 0 32 14.327 32 32v283.648c0 17.673-14.327 32-32 32s-32-14.327-32-32v-283.648c0-17.673 14.327-32 32-32zM645.888 197.632c17.673 0 32 14.327 32 32v283.648c0 17.673-14.327 32-32 32s-32-14.327-32-32v-283.648c0-17.673 14.327-32 32-32zM854.528 694.528h-122.88l-46.848 107.008c-14.778 34.872-48.367 59.062-87.703 59.902l-170.089 0.002c-39.441-0.842-73.030-25.032-87.568-59.267l-47.088-107.389h-122.88c-17.673 0-32-14.327-32-32s14.327-32 32-32h41.728v-475.648c-0.002-0.229-0.002-0.501-0.002-0.772 0-65.809 53.059-119.225 118.731-119.803h364.087c65.727 0.578 118.786 53.995 118.786 119.804 0 0.272-0.001 0.543-0.003 0.814v475.35h41.728c17.673 0 32 14.327 32 32s-14.327 32-32 32zM397.824 775.68c4.511 12.244 15.735 20.97 29.094 21.756l169.818 0.004c13.449-0.79 24.673-9.516 29.11-21.531l35.658-81.381h-299.264zM748.8 155.136c0.003-0.231 0.005-0.504 0.005-0.777 0-30.464-24.409-55.227-54.736-55.798l-364.085-0.001c-30.381 0.572-54.789 25.335-54.789 55.799 0 0.273 0.002 0.546 0.006 0.818v475.351h473.6z" />
<glyph unicode="&#xe920;" glyph-name="warning" d="M825.6 39.936h-627.2c-68.28 0.012-123.627 55.367-123.627 123.648 0 21.885 5.685 42.441 15.66 60.274l313.279 568.206c21.083 38.405 61.252 64.003 107.4 64.003 0.312 0 0.624-0.001 0.936-0.004h-0.048c0.264 0.002 0.576 0.003 0.888 0.003 46.148 0 86.316-25.599 107.081-63.37l313.919-569.465c9.653-17.207 15.339-37.763 15.339-59.648 0-68.281-55.347-123.636-123.625-123.648zM460.8 761.088l-314.624-569.088c-4.625-8.278-7.349-18.162-7.349-28.682 0-32.556 26.082-59.020 58.491-59.637l627.258-0.001c32.466 0.617 58.549 27.082 58.549 59.638 0 10.52-2.723 20.404-7.504 28.986l-312.421 568.785c-10.106 18.294-29.203 30.523-51.173 30.72h-0.027c-21.997-0.197-41.094-12.426-51.046-30.417zM512 315.392c-15.939 1.084-28.458 14.279-28.458 30.398 0 0.564 0.015 1.124 0.046 1.68l-15.107 305.331c0.983 22.831 19.731 40.968 42.715 40.968 0.283 0 0.566-0.003 0.847-0.008 0.419 0.019 0.961 0.029 1.506 0.029 22.837 0 41.415-18.234 41.971-40.937l-15.359-304.948c0.047-0.637 0.075-1.38 0.075-2.13 0-16.040-12.397-29.185-28.132-30.376zM512.953 262.059c26.576-0.501 47.713-22.451 47.212-49.027s-22.451-47.713-49.027-47.212c-26.576 0.501-47.713 22.451-47.212 49.027s22.451 47.713 49.027 47.212z" />
<glyph unicode="&#xe921;" glyph-name="caret-down" d="M512 231.936c-8.814 0.057-16.773 3.667-22.526 9.47l-316.93 316.674c-5.798 5.798-9.384 13.808-9.384 22.656 0 17.695 14.345 32.040 32.040 32.040 8.848 0 16.858-3.586 22.656-9.384l294.144-294.144 294.144 294.144c5.798 5.798 13.808 9.384 22.656 9.384 17.695 0 32.040-14.345 32.040-32.040 0-8.848-3.586-16.858-9.384-22.656l-316.928-316.672c-5.755-5.805-13.714-9.415-22.517-9.472z" />
<glyph unicode="&#xe922;" glyph-name="close" d="M557.312 448l283.904 284.16c4.576 5.495 7.353 12.628 7.353 20.409 0 17.673-14.327 32-32 32-7.781 0-14.914-2.777-20.461-7.395l-284.108-283.862-284.16 283.904c-5.912 7.103-14.755 11.591-24.647 11.591-17.673 0-32-14.327-32-32 0-9.892 4.488-18.735 11.539-24.605l283.956-284.202-283.904-284.16c-7.103-5.912-11.591-14.755-11.591-24.647 0-17.673 14.327-32 32-32 9.892 0 18.735 4.488 24.605 11.539l284.202 283.956 284.16-284.16c5.798-5.798 13.808-9.384 22.656-9.384 17.695 0 32.040 14.345 32.040 32.040 0 8.848-3.586 16.858-9.384 22.656z" />
<glyph unicode="&#xe923;" glyph-name="edit" d="M915.968 719.104l-128 128c-9.228 9.050-21.882 14.636-35.84 14.636s-26.612-5.586-35.848-14.644l-65.272-63.736c-5.8-5.392-9.418-13.065-9.418-21.583 0-16.259 13.181-29.44 29.44-29.44 8.581 0 16.305 3.672 21.686 9.529l58.643 58.901 117.248-117.504-58.624-58.624c-5.34-5.34-8.642-12.716-8.642-20.864 0-16.296 13.21-29.506 29.506-29.506 8.148 0 15.524 3.303 20.864 8.642l64.512 64.512c8.901 9.2 14.387 21.751 14.387 35.584s-5.486 26.384-14.4 35.598zM652.544 711.424c-10.652 10.635-25.358 17.211-41.6 17.211s-30.948-6.576-41.601-17.212l-402.943-403.199c-6.396-6.424-11.319-14.321-14.218-23.136l-56.182-175.264c-1.758-5.336-2.773-11.477-2.773-17.856 0-32.519 26.361-58.88 58.88-58.88 5.728 0 11.265 0.818 16.501 2.343l178.784 51.096c10.087 3.004 18.712 8.318 25.59 15.349l403.466 402.443c10.635 10.652 17.211 25.358 17.211 41.6s-6.576 30.948-17.212 41.601zM152.064 91.904l55.808 173.568 122.624-122.88zM370.688 182.016l-123.392 123.904 363.52 363.776 123.904-123.648z" />
<glyph unicode="&#xe924;" glyph-name="info" d="M512 25.344c-233.426 0-422.656 189.23-422.656 422.656s189.23 422.656 422.656 422.656c233.426 0 422.656-189.23 422.656-422.656-0.291-233.309-189.347-422.365-422.628-422.656zM512 806.4c-197.939 0-358.4-160.461-358.4-358.4s160.461-358.4 358.4-358.4c197.939 0 358.4 160.461 358.4 358.4s-160.461 358.4-358.4 358.4zM489.216 142.848c-0.375-0.008-0.817-0.013-1.261-0.013-17.879 0-33.99 7.574-45.298 19.689-10.684 11.721-17.206 27.329-17.206 44.461 0 0.582 0.008 1.162 0.022 1.741-0.002 32.426 33.278 146.858 60.926 237.226 9.728 33.024 14.336 49.92 16.384 58.624-9.73-2.673-18.236-6.346-26.080-11.017-9.219-5.231-17.602-11.249-25.277-18.047-5.702-6.142-14.024-10.055-23.261-10.055-17.673 0-32 14.327-32 32 0 10.709 5.26 20.189 13.338 25.998 10.633 9.422 22.366 17.893 34.907 25.119 18.588 11.619 39.757 18.546 62.473 19.482 0.788 0.025 1.419 0.034 2.052 0.034 14.766 0 28.335-5.123 39.027-13.69 12.114-10.073 19.848-25.296 19.848-42.326 0-0.206-0.001-0.412-0.003-0.618-3.785-31.359-11.072-59.911-21.563-86.863-45.253-146.834-57.541-205.202-57.541-216.21-0.078-0.462-0.122-0.994-0.122-1.536s0.044-1.074 0.13-1.592 5.88 1.592 18.68 9.016c20.939 13.945 39.2 29.035 55.777 45.793 5.588 4.808 12.872 7.717 20.835 7.717 17.673 0 32-14.327 32-32 0-8.664-3.443-16.524-9.036-22.286-19.825-20.051-41.695-38.017-65.291-53.58-15.955-10.334-33.442-16.233-52.246-17.061zM557.112 737.69c27.731-6.214 44.723-35.744 37.952-65.958s-34.739-49.67-62.47-43.456c-27.731 6.214-44.723 35.744-37.952 65.958s34.739 49.67 62.47 43.456z" />
<glyph unicode="&#xe925;" glyph-name="link" d="M481.024 330.496c-8.814 0.057-16.773 3.667-22.526 9.47l-71.682 71.682c-22.794 22.754-36.895 54.21-36.895 88.96s14.101 66.206 36.893 88.958l235.778 235.778c22.754 22.794 54.21 36.895 88.96 36.895s66.206-14.101 88.958-36.893l71.682-71.682c22.656-22.77 36.662-54.165 36.662-88.832s-14.005-66.062-36.667-88.837l-117.755-118.011c-5.798-5.798-13.808-9.384-22.656-9.384-17.695 0-32.040 14.345-32.040 32.040 0 8.848 3.586 16.858 9.384 22.656l117.76 118.016c11.117 11.195 17.987 26.619 17.987 43.648s-6.871 32.453-17.991 43.652l-71.676 72.188c-11.327 10.821-26.71 17.481-43.648 17.481s-32.321-6.66-43.672-17.504l-235.752-235.753c-11.178-11.167-18.093-26.6-18.093-43.648s6.915-32.481 18.092-43.648l71.68-71.68c5.732-5.781 9.274-13.741 9.274-22.529 0-17.604-14.214-31.887-31.791-31.999zM313.344 34.048c-0.067 0-0.147 0-0.227 0-34.123 0-65.051 13.681-87.598 35.857l-71.919 70.895c-23.335 22.84-37.803 54.659-37.803 89.857 0 34.179 13.642 65.172 35.778 87.831l116.456 119.272c5.823 5.952 13.936 9.642 22.912 9.642 17.697 0 32.042-14.346 32.042-32.042 0-8.721-3.484-16.628-9.136-22.406l-117.242-119.034c-11.178-11.167-18.093-26.6-18.093-43.648s6.915-32.481 18.092-43.648l73.472-71.424c11.386-10.831 26.786-17.534 43.75-17.664 17.112 0.175 32.501 7.297 43.53 18.672l233.231 238.352c11.178 11.167 18.093 26.6 18.093 43.648s-6.915 32.481-18.092 43.648l-73.472 71.424c-5.952 5.823-9.642 13.936-9.642 22.912 0 17.697 14.346 32.042 32.042 32.042 8.721 0 16.628-3.484 22.406-9.136l72.442-70.906c23.334-22.839 37.8-54.657 37.8-89.854 0-34.307-13.744-65.403-36.026-88.084l-232.942-238.317c-22.491-23.14-53.817-37.588-88.52-37.888z" />
<glyph unicode="&#xe926;" glyph-name="more" d="M560.64 228.096c0-26.863-21.777-48.64-48.64-48.64s-48.64 21.777-48.64 48.64c0 26.863 21.777 48.64 48.64 48.64s48.64-21.777 48.64-48.64zM560.64 667.904c0-26.863-21.777-48.64-48.64-48.64s-48.64 21.777-48.64 48.64c0 26.863 21.777 48.64 48.64 48.64s48.64-21.777 48.64-48.64zM560.64 448c0-26.863-21.777-48.64-48.64-48.64s-48.64 21.777-48.64 48.64c0 26.863 21.777 48.64 48.64 48.64s48.64-21.777 48.64-48.64z" />
<glyph unicode="&#xe927;" glyph-name="plus" d="M512 870.656c-233.426 0-422.656-189.23-422.656-422.656s189.23-422.656 422.656-422.656c233.426 0 422.656 189.23 422.656 422.656-0.291 233.309-189.347 422.365-422.628 422.656zM512 89.6c-197.939 0-358.4 160.461-358.4 358.4s160.461 358.4 358.4 358.4c197.939 0 358.4-160.461 358.4-358.4s-160.461-358.4-358.4-358.4zM750.848 480h-206.848v206.848c0 17.673-14.327 32-32 32s-32-14.327-32-32v-206.848h-206.848c-17.673 0-32-14.327-32-32s14.327-32 32-32h206.848v-206.848c0-17.673 14.327-32 32-32s32 14.327 32 32v206.848h206.848c17.673 0 32 14.327 32 32s-14.327 32-32 32z" />
<glyph unicode="&#xe928;" glyph-name="data" d="M975.872 671.232c0.004 0.332 0.006 0.724 0.006 1.116 0 58.392-47.336 105.728-105.728 105.728-50.627 0-92.943-35.584-103.302-83.106-61.079-7.89-116.495-21.296-169.129-40.488-30.122 62.628-78.001 112.635-135.218 149.36-1.701 3.326-1.701 5.63-1.701 7.934 0 63.058-51.118 114.176-114.176 114.176s-114.176-51.118-114.176-114.176c0.097-10.053 1.492-19.738 4.026-28.953-62.193-67.353-100.316-158.19-100.793-257.925-55.483-20.177-94.417-72.407-94.417-133.73 0-78.301 63.475-141.776 141.776-141.776 16.978 0 33.259 2.984 48.347 8.457 50.85-57.869 115.321-103.009 188.139-131.498 21.57-90.698 99.647-157.136 193.241-157.136 106.887 0 193.536 86.649 193.536 193.536 0 47.19-16.889 90.434-44.952 124.020 54.637 80.535 98.423 174.213 126.6 274.424 50.781 16.415 87.44 58.875 87.921 109.985zM870.4 718.336c26.015 0 47.104-21.089 47.104-47.104s-21.089-47.104-47.104-47.104c-26.015 0-47.104 21.089-47.104 47.104s21.089 47.104 47.104 47.104zM771.072 635.392c10.18-28.022 30.99-50.082 57.43-61.685-26.523-94.415-64.874-176.649-113.842-251.295-10.971 12.14-26.052 19.515-42.068 24.844-0.89 9.424-0.623 20-0.623 30.639 0 81.233-15.589 158.825-43.94 229.947 42.326 10.261 90.148 21.417 139.602 27.245zM547.328 635.392c-98.941-42.532-183.653-89.643-262.905-144.122-19.228 27.537-52.371 42.927-89.098 44.274 3.172 73.861 29.709 140.918 72.229 194.772 20.001-20.934 48.211-33.417 79.337-33.417 38.993 0 73.411 19.591 93.947 49.467 43.172-29.411 78.607-66.806 105.321-110.15zM346.88 867.328c30.539 0 55.296-24.757 55.296-55.296s-24.757-55.296-55.296-55.296c-30.539 0-55.296 24.757-55.296 55.296s24.757 55.296 55.296 55.296zM112.128 393.216c0 42.415 34.385 76.8 76.8 76.8s76.8-34.385 76.8-76.8c0-42.415-34.385-76.8-76.8-76.8s-76.8 34.385-76.8 76.8zM420.864 189.952c-54.301 23.949-100.544 56.58-139.136 96.634 29.751 26.095 48.534 64.155 48.534 106.601 0 18.531-3.58 36.227-10.086 52.432 72.911 49.36 155.789 95.457 243.13 133.18 33.931-56.74 48.187-126.745 48.187-200.081 0-7.596-0.153-15.157-0.456-22.678l0.035 1.079c-96.949-0.788-176.857-72.74-190.089-166.14zM612.352 34.048c-71.32 0.291-129.024 58.174-129.024 129.535 0 71.541 57.995 129.536 129.536 129.536s129.536-57.995 129.536-129.536c0-0.090 0-0.179 0-0.269 0 0.014 0 0.013 0 0.013 0-71.541-57.995-129.536-129.536-129.536-0.18 0-0.36 0-0.54 0.001z" />
<glyph unicode="&#xe929;" glyph-name="help" d="M510.346 270.672c26.576-0.501 47.713-22.451 47.212-49.027s-22.451-47.713-49.027-47.212c-26.576 0.501-47.713 22.451-47.212 49.027s22.451 47.713 49.027 47.212zM512 25.344c-233.426 0-422.656 189.23-422.656 422.656s189.23 422.656 422.656 422.656c233.426 0 422.656-189.23 422.656-422.656-0.291-233.309-189.347-422.365-422.628-422.656zM512 806.4c-197.939 0-358.4-160.461-358.4-358.4s160.461-358.4 358.4-358.4c197.939 0 358.4 160.461 358.4 358.4s-160.461 358.4-358.4 358.4zM506.368 310.016c-17.013 0.018-31.035 12.798-33.009 29.282-11.791 98.462 34.801 139.166 72.177 171.678 28.928 25.6 49.664 43.264 49.664 87.552-3.097 36.441-33.44 64.846-70.417 64.846-1.165 0-2.323-0.028-3.474-0.084-32.709-0.895-62.233-14.517-83.806-36.090-6.034-6.095-14.403-9.869-23.654-9.869-18.38 0-33.28 14.9-33.28 33.28 0 10.206 4.594 19.34 11.828 25.444 33.168 32.383 78.111 52.745 127.8 54.052 1.496 0.046 2.96 0.069 4.431 0.069 73.529 0 133.448-58.269 136.1-131.15 0.007-74.482-40.185-109.554-72.441-137.714s-57.344-51.2-51.2-113.664c0.139-1.144 0.219-2.468 0.219-3.811 0-17.014-12.767-31.046-29.244-33.038z" />
<glyph unicode="&#xe92a;" glyph-name="monitoring" d="M553.984 240.896h-1.536c-12.834 0.666-23.445 9.456-26.829 21.296l-76.083 288.208-51.2-169.472c-3.984-11.827-14.963-20.198-27.901-20.224h-155.395c-16.259 0-29.44 13.181-29.44 29.44s13.181 29.44 29.44 29.44h133.888l75.008 230.4c4.33 11.882 15.527 20.215 28.671 20.224 13.213-0.359 24.225-9.369 27.6-21.553l78.385-301.519 71.68 203.264c4.317 11.236 15.020 19.066 27.552 19.066 13.009 0 24.047-8.437 27.94-20.138l41.276-125.392h74.24c16.259 0 29.44-13.181 29.44-29.44s-13.181-29.44-29.44-29.44h-95.488c-12.941 0.026-23.92 8.397-27.843 20.016l-22.077 77.008-74.24-203.264c-4.6-10.626-14.995-17.925-27.095-17.925-0.195 0-0.389 0.002-0.582 0.006zM819.2 100.096h-614.4c-67.382 0.145-121.967 54.73-122.112 122.098v451.598c0.145 67.382 54.73 121.967 122.098 122.112h614.414c67.382-0.145 121.967-54.73 122.112-122.098v-451.598c-0.145-67.382-54.73-121.967-122.098-122.112zM204.8 731.904c-32.036-0.145-57.967-26.076-58.112-58.098v-451.598c0.145-32.036 26.076-57.967 58.098-58.112h614.414c32.036 0.145 57.967 26.076 58.112 58.098v451.598c-0.145 32.036-26.076 57.967-58.098 58.112z" />
<glyph unicode="&#xe92b;" glyph-name="settings" d="M512 16.384c-21.826 0.173-43.095 1.935-63.873 5.177-12.822 2.312-24.282 15.442-24.282 31.248 0 2.979 0.407 5.864 1.169 8.6 1.239 4.725 1.981 10.408 1.981 16.264 0 28.523-17.603 52.935-42.538 62.965-7.758 3.186-16.237 4.942-25.126 4.942-1.678 0-3.342-0.063-4.989-0.186-23.311-1.259-43.516-14.387-54.647-33.458-5.783-10.060-16.136-16.511-27.995-16.511-7.276 0-13.985 2.429-19.361 6.519-17.23 12.77-32.515 25.862-46.83 39.938-13.973 14.191-27.067 29.477-39.055 45.632-4.819 6.439-7.225 13.12-7.225 20.363 0 11.732 6.314 21.989 15.728 27.56 4.029 2.337 7.376 4.706 10.495 7.337 14.432 12.428 23.582 30.855 23.582 51.419 0 1.513-0.050 3.015-0.147 4.504-0.168 7.564-1.655 14.93-4.237 21.758-1.962 4.339-4.359 8.461-7.149 12.277-12.339 16.917-32.31 27.908-54.848 27.908-6.492 0-12.77-0.912-18.715-2.614-2.033-0.591-4.917-0.998-7.897-0.998-15.807 0-28.936 11.46-31.534 26.525-2.657 17.835-4.16 38.2-4.16 58.915 0 1.945 0.013 3.886 0.040 5.824 0.139 21.507 1.903 42.778 5.172 63.548 2.313 12.854 15.443 24.314 31.249 24.314 2.979 0 5.864-0.407 8.6-1.169 5.381-1.631 11.824-2.601 18.492-2.601 37.184 0 67.328 30.144 67.328 67.328 0 25.266-13.918 47.282-34.505 58.799-10.004 5.803-16.396 16.115-16.396 27.92 0 7.198 2.376 13.84 6.387 19.186 12.799 17.549 25.982 33.087 40.203 47.605 14.175 13.979 29.462 27.074 45.627 39.050 6.413 4.765 13.056 7.142 20.253 7.142 11.805 0 22.116-6.392 27.663-15.904 11.774-21.080 33.79-34.997 59.056-34.997 37.184 0 67.328 30.144 67.328 67.328 0 6.669-0.97 13.111-2.775 19.194-0.587 2.035-0.994 4.919-0.994 7.899 0 15.807 11.46 28.936 26.525 31.534 18.66 3.19 39.934 4.998 61.63 4.998s42.97-1.808 63.68-5.281c13.015-2.314 24.476-15.444 24.476-31.25 0-2.979-0.407-5.864-1.169-8.6-1.466-5.12-2.34-11.258-2.34-17.6 0-19.663 8.398-37.366 21.802-49.716 11.5-10.803 26.836-17.546 43.741-17.961l11.346-0.002c4.586 0.558 8.741 1.547 12.704 2.944 16.132 5.376 29.541 16.543 37.808 31.024 5.805 10 16.117 16.391 27.921 16.391 7.198 0 13.84-2.376 19.186-6.387 17.23-12.745 32.516-25.838 46.818-39.928 13.98-14.199 27.073-29.484 39.062-45.639 4.772-6.42 7.148-13.063 7.148-20.261 0-11.805-6.392-22.116-15.904-27.663-16.314-9.626-28.048-25.21-32.318-43.653-0.93-4.421-1.412-8.971-1.412-13.634 0-9.489 1.994-18.513 5.585-26.676 10.375-24.196 34.397-41.131 62.375-41.131 6.348 0 12.492 0.872 18.32 2.502 2.034 0.594 4.918 1.001 7.898 1.001 15.807 0 28.936-11.46 31.534-26.525 2.975-18.551 4.738-39.82 4.89-61.473-0.152-21.967-1.915-43.237-5.175-64.010-2.312-12.843-15.442-24.303-31.249-24.303-2.979 0-5.864 0.407-8.6 1.169-4.948 1.367-10.889 2.184-17.020 2.184-12.508 0-24.223-3.398-34.271-9.321l-2.5-1.364-3.584-2.048c-2.44-1.895-4.612-3.823-6.65-5.882l-3.334-3.078c-3.705-4.309-6.947-9.187-9.546-14.441l-2.23-4.247c-3.6-7.911-5.698-17.156-5.698-26.892 0-3.702 0.303-7.333 0.887-10.869 2.638-14.89 10.070-28.094 20.645-37.979l3.111-3.108c2.788-2.352 5.884-4.551 9.156-6.483 9.98-5.801 16.372-16.113 16.372-27.918 0-7.198-2.376-13.84-6.387-19.186-12.742-17.231-25.836-32.517-39.928-46.817-14.195-13.999-29.482-27.093-45.647-39.070-6.413-4.766-13.056-7.142-20.254-7.142-11.805 0-22.116 6.392-27.663 15.904-10.648 17.238-27.718 29.441-47.754 33.358-1.993 0.2-3.783 0.272-5.59 0.272-11.523 0-22.364-2.917-31.826-8.052-24.269-10.367-41.204-34.389-41.204-62.367 0-6.348 0.872-12.492 2.502-18.32 0.594-2.034 1.001-4.918 1.001-7.898 0-15.807-11.46-28.936-26.525-31.534-17.994-2.646-38.547-4.142-59.449-4.142-1.397 0-2.792 0.007-4.186 0.020zM490.496 81.152c6.437-0.515 13.936-0.808 21.504-0.808s15.067 0.293 22.487 0.87c-0.314 71.677 57.995 129.574 129.828 129.574 35.704 0 68.068-14.304 91.672-37.494 5.613 4.883 10.989 10.003 15.853 14.867s9.728 10.24 14.848 15.872c-18.27 18.745-31.058 42.913-35.726 69.864-1.149 6.975-1.741 14.099-1.741 21.36 0 18.169 3.704 35.474 10.399 51.199 1.080 2.416 2.451 5.106 3.969 7.7 5.974 11.982 13.403 22.6 22.149 31.972l4.791 4.273c3.908 3.84 8.083 7.446 12.48 10.776 3.144 2.244 6.407 4.28 9.792 6.121 19.23 11.366 41.638 18.215 65.587 18.938 0.206 7.429 0.206 14.597 0.206 21.509s0 14.080 0 21.504c-53.563 1.014-99.219 33.818-118.97 80.289-6.534 15.498-10.143 32.518-10.143 50.381 0 10.495 1.246 20.698 3.597 30.471 5.581 23.589 17.415 44.739 33.654 61.622-4.905 5.589-9.769 10.965-14.633 15.829s-9.984 9.728-15.616 14.592c-13.372-12.992-29.519-23.206-47.459-29.661-7.295-2.592-14.88-4.551-22.696-5.821l-9.204-0.101h-3.84c-1.761-0.123-3.816-0.193-5.888-0.193s-4.127 0.070-6.164 0.208c-70.146 1.956-126.618 58.965-127.723 129.415-6.4 0.616-13.855 0.907-21.377 0.907s-14.978-0.291-22.354-0.862q0.978-5.315 0.978-10.691c-6.462-66.93-62.419-118.835-130.5-118.835-35.713 0-68.090 14.283-91.731 37.448-5.61-4.886-10.73-9.75-15.594-14.614s-9.728-9.984-14.592-15.872l7.168-7.936c18.805-22.528 30.222-51.791 30.222-83.721 0-71.854-57.819-130.204-129.469-131.062-0.081-7.425-0.081-14.593-0.081-21.505s0-14.080 0-21.504c43.433-1.232 81.476-23.245 104.677-56.406 5.389-7.802 9.946-16.233 13.54-25.154 5.464-13.137 8.859-27.349 9.765-42.234 0.18-2.817 0.272-5.679 0.272-8.562 0-35.592-14.049-67.902-36.904-91.689 4.906-5.588 9.77-10.708 14.634-15.572s9.984-9.728 15.872-14.592c23.613 23.114 55.969 37.376 91.657 37.376 71.849 0 130.196-57.811 131.062-129.454zM512 282.112c-91.617 0-165.888 74.271-165.888 165.888s74.271 165.888 165.888 165.888c91.617 0 165.888-74.271 165.888-165.888-0.145-91.559-74.329-165.743-165.874-165.888zM512 550.4c-56.554 0-102.4-45.846-102.4-102.4s45.846-102.4 102.4-102.4c56.554 0 102.4 45.846 102.4 102.4s-45.846 102.4-102.4 102.4z" />
<glyph unicode="&#xe92c;" glyph-name="sparql" d="M305.408 32c-1.15-0.034-2.502-0.053-3.86-0.053-78.186 0-141.568 63.382-141.568 141.568 0 0.829 0.007 1.656 0.021 2.481-0.002-0.079-0.002-0.027-0.002 0.026 0 28.547 3.359 56.309 9.704 82.913 4.555 17.916 7.448 41.267 7.448 65.292 0 0.044 0 0.088 0 0.132 0 58.361-76.8 89.593-108.032 100.089-12.788 4.387-21.815 16.307-21.815 30.336s9.028 25.949 21.59 30.269c55.521 18.499 108.513 41.027 108.513 100.163 0.004 0.47 0.006 1.026 0.006 1.583 0 20.831-2.805 41.007-8.058 60.171-5.645 20.497-9.102 45.861-9.102 72.032 0 0.396 0.001 0.792 0.002 1.187-0.013 0.64-0.020 1.467-0.020 2.296 0 78.186 63.382 141.568 141.568 141.568 1.357 0 2.71-0.019 4.058-0.057 17.475 0.004 31.802-14.322 31.802-31.996s-14.327-32-32-32c-1.475 0.101-3.197 0.159-4.932 0.159-42.415 0-76.8-34.385-76.8-76.8 0-1.136 0.025-2.267 0.074-3.391-0.009-0.31-0.011-0.866-0.011-1.423 0-20.831 2.805-41.007 8.058-60.171 5.645-20.497 9.102-45.861 9.102-72.032 0-0.396-0.001-0.792-0.002-1.187 0-68.291-47.872-107.971-89.6-131.779 53.248-33.024 89.6-76.8 89.6-129.28 0-0.12 0-0.263 0-0.405 0-28.547-3.359-56.309-9.704-82.914-4.555-17.917-7.449-41.267-7.449-65.293 0-0.044 0-0.088 0-0.132-0.043-0.952-0.067-2.077-0.067-3.208 0-42.415 34.385-76.8 76.8-76.8 1.645 0 3.278 0.052 4.897 0.154 17.452-0.011 31.779-14.338 31.779-32.011s-14.327-32-32-32zM719.104 32c-17.673 0-32 14.327-32 32s14.327 32 32 32c1.398-0.091 3.030-0.142 4.675-0.142 42.415 0 76.8 34.385 76.8 76.8 0 1.131-0.024 2.255-0.073 3.374 0.022 1.001 0.031 2.371 0.031 3.744 0 22.477-2.528 44.364-7.315 65.392-5.48 22.197-8.84 49.939-8.84 78.466 0 0.163 0 0.326 0 0.488 0 51.175 37.12 96.487 90.368 129.255-41.984 23.808-90.368 63.488-90.368 131.84-0.006 0.695-0.009 1.517-0.009 2.34 0 25.823 3.366 50.861 9.683 74.697 4.424 15.522 7.229 35.675 7.229 56.483 0 0.58-0.002 1.159-0.007 1.737 0.043 0.87 0.068 1.995 0.068 3.126 0 42.415-34.385 76.8-76.8 76.8-1.645 0-3.278-0.052-4.897-0.154-17.452 0.011-31.779 14.338-31.779 32.011s14.327 32 32 32c1.15 0.034 2.502 0.053 3.86 0.053 78.186 0 141.568-63.382 141.568-141.568 0-0.829-0.007-1.656-0.021-2.481 0.003-0.21 0.004-0.606 0.004-1.002 0-26.171-3.457-51.535-9.939-75.66-4.416-15.516-7.221-35.669-7.221-56.478 0-0.58 0.002-1.159 0.007-1.737-0.001-59.047 52.991-81.575 107.263-99.751 13.066-4.392 22.345-16.449 22.528-30.698 0.002-0.145 0.003-0.291 0.003-0.438 0-13.867-8.891-25.657-21.284-29.98-32.735-10.82-108.255-41.796-108.255-100.164 0-0.019 0-0.042 0-0.065 0-24.047 2.893-47.418 8.35-69.784 5.443-22.155 8.802-49.897 8.802-78.424 0-0.163 0-0.326 0-0.488 0.010-0.609 0.016-1.358 0.016-2.107 0-78.186-63.382-141.568-141.568-141.568-1.716 0-3.425 0.031-5.126 0.091zM391.936 448c0-26.863-21.777-48.64-48.64-48.64s-48.64 21.777-48.64 48.64c0 26.863 21.777 48.64 48.64 48.64s48.64-21.777 48.64-48.64zM729.344 448c0-26.863-21.777-48.64-48.64-48.64s-48.64 21.777-48.64 48.64c0 26.863 21.777 48.64 48.64 48.64s48.64-21.777 48.64-48.64zM560.64 448c0-26.863-21.777-48.64-48.64-48.64s-48.64 21.777-48.64 48.64c0 26.863 21.777 48.64 48.64 48.64s48.64-21.777 48.64-48.64z" />
<glyph unicode="&#xe92d;" glyph-name="user-alt" d="M512 870.656c-233.426 0-422.656-189.23-422.656-422.656s189.23-422.656 422.656-422.656c233.426 0 422.656 189.23 422.656 422.656-0.291 233.309-189.347 422.365-422.628 422.656zM512 806.4c197.888-0.068 358.281-160.503 358.281-358.4 0-85.421-29.884-163.862-79.767-225.439-55.537 78.751-207.601 111.519-278.513 111.519s-222.976-32.768-279.040-110.848c-49.357 60.906-79.241 139.347-79.241 224.768 0 197.897 160.393 358.332 358.275 358.4zM279.296 175.616c22.784 52.736 150.016 94.72 232.704 94.72s209.92-41.984 232.704-94.72c-62.103-53.587-143.592-86.226-232.704-86.226s-170.601 32.639-233.165 86.614zM512 419.072c76.065 0 137.728 61.663 137.728 137.728s-61.663 137.728-137.728 137.728c-76.065 0-137.728-61.663-137.728-137.728 0.145-76.007 61.721-137.583 137.714-137.728zM512 635.648c43.547 0 78.848-35.301 78.848-78.848s-35.301-78.848-78.848-78.848c-43.547 0-78.848 35.301-78.848 78.848s35.301 78.848 78.848 78.848z" />
<glyph unicode="&#xe92e;" glyph-name="export-alt" d="M887.040 314.112c-17.673 0-32-14.327-32-32v-132.096l-387.328 387.584c-5.798 5.798-13.808 9.384-22.656 9.384-17.695 0-32.040-14.345-32.040-32.040 0-8.848 3.586-16.858 9.384-22.656l387.584-387.584h-132.096c-17.673 0-32-14.327-32-32s14.327-32 32-32h209.152c17.673 0 32 14.327 32 32v209.408c0 17.673-14.327 32-32 32zM593.92 209.92c-36.623-17.668-79.638-27.992-125.064-27.992-83.739 0-159.283 35.084-212.737 91.354-55.284 55.196-89.41 131.324-89.41 215.422 0 168.007 136.196 304.203 304.203 304.203 83.908 0 159.881-33.972 214.916-88.912 55.48-53.729 89.92-128.905 89.92-212.126 0-46.386-10.7-90.273-29.767-129.328-0.745-1.845-1.626-6.020-1.626-10.401 0-17.673 14.327-32 32-32 11.984 0 22.429 6.588 27.912 16.339 22.28 45.444 35.26 98.71 35.26 155.007 0 100.659-41.496 191.625-108.316 256.727-66.238 64.351-156.643 103.981-256.304 103.981-203.17 0-367.872-164.702-367.872-367.872 0-99.661 39.63-190.065 103.992-256.315 64.986-68.089 156.567-110.478 258.048-110.478 55.002 0 107.096 12.452 153.616 34.691 9.080 4.265 16.732 15.432 16.732 28.387 0 17.78-14.413 32.193-32.193 32.193-4.825 0-9.403-1.062-13.511-2.964z" />
<glyph unicode="&#xe92f;" glyph-name="import" d="M260.352 825.6h142.592c42.415 0 76.8-34.385 76.8-76.8v-394.24l-93.696 93.44c-5.798 5.798-13.808 9.384-22.656 9.384-17.695 0-32.040-14.345-32.040-32.040 0-8.848 3.586-16.858 9.384-22.656l147.968-147.968c5.794-5.808 13.805-9.401 22.656-9.401s16.862 3.593 22.655 9.401l147.969 147.969c5.090 5.644 8.205 13.156 8.205 21.396 0 17.673-14.327 32-32 32-8.176 0-15.636-3.066-21.292-8.111l-93.408-93.412v394.496c-0.145 77.562-62.982 140.399-140.53 140.544h-142.606c-17.673 0-32-14.327-32-32s14.327-32 32-32zM643.072 716.288c-3.433 1.372-7.412 2.168-11.577 2.168-17.673 0-32-14.327-32-32 0-14.313 9.397-26.432 22.359-30.522 114.271-42.018 194.147-149.714 194.147-276.065 0-3.048-0.046-6.086-0.139-9.112 0.011-167.381-136.037-303.429-303.861-303.429s-303.872 136.048-303.872 303.872c-0.027 1.479-0.042 3.222-0.042 4.97 0 127.892 81.337 236.786 195.105 277.775 14.833 5.179 23.818 17.16 23.818 31.239 0 17.885-14.499 32.384-32.384 32.384-3.806 0-7.458-0.657-10.85-1.862-140.689-50.336-239.701-182.696-239.701-338.183 0-2.223 0.020-4.442 0.061-6.656-0.005-202.838 164.697-367.54 367.867-367.54s367.872 164.702 367.872 367.872c0.075 2.73 0.118 5.943 0.118 9.166 0 154.034-97.66 285.257-234.439 335.132z" />
<glyph unicode="&#xe930;" glyph-name="comment" d="M502.784-5.632v0c-14.777 0.276-27.388 9.266-32.933 22.035l-88.667 189.421h-163.84c-60.596 0.145-109.679 49.228-109.824 109.81v400.398c0 0 0 0 0 0 0 60.705 49.139 109.934 109.81 110.080h588.814c60.596-0.145 109.679-49.228 109.824-109.81v-400.398c-0.145-60.596-49.228-109.679-109.81-109.824h-173.838l-96.256-190.208c-5.885-12.768-18.562-21.476-33.276-21.504zM217.344 762.112c-0.076 0-0.166 0.001-0.257 0.001-25.308 0-45.824-20.516-45.824-45.824 0-0.090 0-0.18 0.001-0.271v-400.114c-0.011-0.382-0.018-0.83-0.018-1.281 0-25.308 20.516-45.824 45.824-45.824 0.096 0 0.192 0 0.289 0.001h204.785l82.432-176.128 88.32 176.128h213.76c25.308 0 45.824 20.516 45.824 45.824v401.408c0 25.308-20.516 45.824-45.824 45.824zM718.080 578.816h-412.16c-17.673 0-32 14.327-32 32s14.327 32 32 32h412.16c17.673 0 32-14.327 32-32s-14.327-32-32-32zM718.080 406.272h-412.16c-17.673 0-32 14.327-32 32s14.327 32 32 32h412.16c17.673 0 32-14.327 32-32s-14.327-32-32-32z" />
<glyph unicode="&#xe931;" glyph-name="connection-off" d="M940.8 876.8c-5.794 5.808-13.805 9.401-22.656 9.401s-16.862-3.593-22.655-9.401l-125.953-125.953c-31.19 22.564-70.208 36.091-112.385 36.091-6.038 0-12.011-0.277-17.908-0.82-47.993-5.296-90.799-27.299-122.587-60.054l-27.952-27.954c-6.339-6.647-10.24-15.668-10.24-25.6s3.901-18.953 10.254-25.615l221.17-221.169c6.647-6.339 15.668-10.24 25.6-10.24s18.953 3.901 25.615 10.254l27.889 27.89c32.989 31.473 55.297 73.885 61.088 121.397 0.586 6.135 0.865 12.138 0.865 18.206 0 42.234-13.528 81.309-36.488 113.127l126.343 125.638c5.656 5.767 9.147 13.676 9.147 22.4s-3.491 16.633-9.152 22.405zM787.2 581.376c-3.967-33.159-19.189-62.179-41.675-83.662l-8.757-8.754-183.808 182.784 8.704 8.704c21.533 22.539 50.553 37.761 83.056 41.664 4.201 0.409 8.319 0.605 12.483 0.605 71.541 0 129.536-57.995 129.536-129.536 0-4.247-0.204-8.446-0.604-12.588zM540.928 426.496l-90.368-90.112-51.2 51.2 90.368 90.368c3.262 4.932 5.204 10.985 5.204 17.492 0 17.673-14.327 32-32 32-6.507 0-12.56-1.942-17.611-5.278l-90.248-90.294-40.192 40.192c-6.718 6.173-15.717 9.957-25.6 9.957s-18.882-3.784-25.627-9.982l-30.693-29.671c-32.685-31.572-54.725-73.977-60.325-121.417-0.581-6.116-0.86-12.119-0.86-18.186 0-42.234 13.528-81.309 36.488-113.127l-125.063-125.638c-7.807-5.9-12.8-15.167-12.8-25.6 0-17.673 14.327-32 32-32 10.433 0 19.7 4.993 25.542 12.72l124.73 124.752c31.196-22.55 70.208-36.076 112.379-36.096q8.709 0 17.669 0c48.75 5.352 91.556 27.355 123.344 60.11l29.744 29.746c6.339 6.647 10.24 15.668 10.24 25.6s-3.901 18.953-10.254 25.615l-40.178 40.177 90.368 90.368c5.798 5.798 9.384 13.808 9.384 22.656 0 17.695-14.345 32.040-32.040 32.040-8.848 0-16.858-3.586-22.656-9.384zM460.8 214.016c-21.533-22.539-50.553-37.761-83.056-41.664-4.279-0.424-8.486-0.629-12.741-0.629-71.541 0-129.536 57.995-129.536 129.536 0 4.255 0.205 8.463 0.606 12.613 4.081 32.559 19.375 61.475 41.884 82.873l10.811 10.551 183.040-183.040z" />
<glyph unicode="&#xe932;" glyph-name="connection-on" d="M940.8 876.8c-5.794 5.808-13.805 9.401-22.656 9.401s-16.862-3.593-22.655-9.401l-224.769-224.001c-31.248 22.568-70.323 36.097-112.557 36.097-6.068 0-12.070-0.279-17.995-0.826-48.077-5.513-90.884-27.779-122.565-60.802l-27.714-27.718c-1.57-1.607-3.002-3.365-4.267-5.243-1.196-0.768-2.116-1.36-3.003-1.995l-29.594-29.626c-32.788-31.848-54.786-74.648-60.078-122.483-0.571-6.073-0.851-12.076-0.851-18.144 0-42.234 13.528-81.309 36.488-113.127l-245.383-244.934c-7.807-5.9-12.8-15.167-12.8-25.6 0-17.673 14.327-32 32-32 10.433 0 19.7 4.993 25.542 12.72l245.050 245.072c31.248-22.569 70.323-36.098 112.559-36.098 0.299 0 0.597 0.001 0.896 0.002q8.658 0 17.618 0c48.75 5.352 91.556 27.355 123.344 60.11l28.976 31.794c0.866 1.176 1.714 2.516 2.47 3.913 1.76 1.106 3.183 2.038 4.53 3.063l27.816 26.816c32.805 31.836 54.808 74.643 60.079 122.487 0.613 6.29 0.917 12.545 0.917 18.871 0 41.809-13.257 80.521-35.797 112.163l224.401 224.687c5.656 5.767 9.147 13.676 9.147 22.4s-3.491 16.633-9.152 22.405zM582.4 334.336c-21.544-22.521-50.559-37.739-83.052-41.663-4.283-0.425-8.49-0.63-12.745-0.63-71.541 0-129.536 57.995-129.536 129.536 0 4.255 0.205 8.463 0.606 12.613 3.948 32.625 19.165 61.64 41.636 83.136l10.803 10.545 181.76-182.272zM688.896 482.816c-3.989-33.153-19.207-62.168-41.677-83.663l-8.755-8.753-183.040 183.040 8.704 8.704c21.533 22.539 50.553 37.761 83.056 41.664 4.279 0.424 8.486 0.629 12.741 0.629 71.541 0 129.536-57.995 129.536-129.536 0-4.255-0.205-8.463-0.606-12.613z" />
<glyph unicode="&#xe933;" glyph-name="key" d="M861.184 783.872c-47.598 47.702-113.41 77.214-186.115 77.214-145.202 0-262.912-117.71-262.912-262.912 0-14.152 1.118-28.043 3.271-41.589l-323.78-322.089-5.888-131.84c0.996-37.681 31.78-67.848 69.609-67.848 0.368 0 0.735 0.003 1.102 0.009l4.297-0.001 120.832 14.592c18.583 0.98 33.28 16.287 33.28 35.026 0 0.016 0 0.032 0 0.048l4.096 86.27h87.040c1.238-0.164 2.669-0.258 4.122-0.258 8.221 0 15.741 3.004 21.521 7.975 7.22 6.154 11.797 15.31 11.797 25.536 0 0.73-0.023 1.455-0.069 2.173l-18.171 99.23 134.912-36.608 71.936 70.912c13.049-2.3 28.074-3.615 43.405-3.615 144.92 0 262.4 117.48 262.4 262.4 0 72.375-29.302 137.907-76.689 185.379zM816.64 457.472c-36.108-36.208-86.045-58.61-141.214-58.61-19.174 0-37.716 2.706-55.265 7.757l1.408-0.347-76.8-75.008-142.848 39.936h-2.816c-1.696 0.324-3.647 0.509-5.641 0.509-17.39 0-31.488-14.098-31.488-31.488 0-0.269 0.003-0.538 0.010-0.805l20.479-112.856h-84.48c-0.537 0.033-1.164 0.052-1.795 0.052-17.087 0-30.969-13.722-31.228-30.747l-4.352-92.696-104.448-12.288c-0.274-0.021-0.593-0.033-0.915-0.033-3.436 0-6.549 1.381-8.814 3.619-2.191 1.871-3.747 4.429-4.337 7.339l4.85 108.116 332.8 331.52c1.929 1.981 3.119 4.69 3.119 7.677 0 0.91-0.11 1.793-0.318 2.639-3.4 13.73-5.36 29.58-5.36 45.887 0 109.997 89.171 199.168 199.168 199.168s199.168-89.171 199.168-199.168c0-0.049 0-0.097 0-0.146-0.048-54.831-22.569-104.399-58.849-139.994zM614.4 674.816c-5.571-5.376-9.031-12.908-9.031-21.248 0-16.299 13.213-29.511 29.511-29.511 7.958 0 15.181 3.15 20.489 8.272 6.849 6.601 16.193 10.674 26.487 10.674 21.098 0 38.202-17.104 38.202-38.202 0-10.804-4.485-20.56-11.694-27.509-5.583-5.387-9.043-12.919-9.043-21.259 0-16.299 13.213-29.511 29.511-29.511 7.958 0 15.181 3.15 20.489 8.272 18.355 17.703 29.759 42.523 29.759 70.008 0 53.695-43.529 97.224-97.224 97.224-26.211 0-50-10.372-67.485-27.236z" />
<glyph unicode="&#xe934;" glyph-name="copy" d="M806.912 42.24h-409.6c-60.596 0.145-109.679 49.228-109.824 109.81v409.614c0.145 60.596 49.228 109.679 109.81 109.824h409.614c60.596-0.145 109.679-49.228 109.824-109.81v-409.614c-0.145-60.596-49.228-109.679-109.81-109.824zM397.312 607.488c-25.308 0-45.824-20.516-45.824-45.824v-409.6c0-25.308 20.516-45.824 45.824-45.824h409.6c25.308 0 45.824 20.516 45.824 45.824v409.6c0 25.308-20.516 45.824-45.824 45.824zM221.952 224.256c-63.34 0-114.688 51.348-114.688 114.688v400.128c0 63.34 51.348 114.688 114.688 114.688h399.872c63.34 0 114.688-51.348 114.688-114.688 0-17.673-14.327-32-32-32s-32 14.327-32 32c0 28.277-22.923 51.2-51.2 51.2h-399.36c-28.277 0-51.2-22.923-51.2-51.2v-400.128c0-28.277 22.923-51.2 51.2-51.2 17.673 0 32-14.327 32-32s-14.327-32-32-32z" />
<glyph unicode="&#xe935;" glyph-name="eye" d="M512 150.528c-2.922-0.063-6.366-0.099-9.818-0.099-194.703 0-362.799 113.921-441.268 278.744-3.406 7.742-4.653 13.331-4.653 19.21s1.247 11.468 3.49 16.515c79.786 167.103 247.667 280.679 442.075 280.679 3.577 0 7.146-0.038 10.705-0.115 2.44 0.074 5.94 0.111 9.449 0.111 194.66 0 362.71-113.93 441.107-278.747 3.47-7.772 4.756-13.405 4.756-19.339s-1.286-11.566-3.594-16.636c-79.765-166.967-247.529-280.436-441.795-280.436-3.676 0-7.343 0.041-11 0.121zM122.368 448c71.769-139.68 214.869-233.583 379.901-233.583 3.422 0 6.834 0.040 10.237 0.121 2.438-0.083 5.905-0.124 9.381-0.124 164.99 0 308.046 93.912 378.629 231.197-70.583 142.065-213.639 235.977-378.629 235.977-3.476 0-6.943-0.042-10.4-0.125-2.384 0.081-5.796 0.121-9.218 0.121-165.032 0-308.132-93.904-378.784-231.194zM905.728 438.528v0zM905.728 457.472v0zM512 294.4c-84.831 0-153.6 68.769-153.6 153.6s68.769 153.6 153.6 153.6c84.831 0 153.6-68.769 153.6-153.6s-68.769-153.6-153.6-153.6zM512 539.136c-49.907-0.002-90.365-40.46-90.365-90.368s40.459-90.368 90.368-90.368c49.639 0 89.93 40.023 90.364 89.559 0 49.95-40.459 90.409-90.368 90.409z" />
<glyph unicode="&#xe936;" glyph-name="repo-free" d="M877.824 723.968v0c-1.318 25.758-13.878 48.338-32.832 63.089-22.511 18.884-48.585 34.076-77.002 44.379-73.831 26.425-156.961 41.373-243.582 41.373-4.362 0-8.716-0.038-13.061-0.113-3.039 0.076-7.392 0.113-11.755 0.113-86.621 0-169.751-14.948-246.951-42.406-25.049-9.27-51.123-24.462-73.837-43.525-18.629-14.464-31.156-36.833-32.618-62.169l-0.011-0.228v-552.448c1.254-25.619 13.844-48.063 32.822-62.572 22.52-19.048 48.586-34.401 77.009-44.884 73.784-26.438 156.857-41.388 243.421-41.388 4.421 0 8.832 0.039 13.234 0.117 3.091-0.078 7.516-0.117 11.951-0.117 86.551 0 169.609 14.95 246.735 42.408 25.069 9.457 51.135 24.811 73.828 44.026 18.473 14.57 30.713 37.101 31.62 62.52l0.004 551.57zM221.184 739.584c17.139 14.034 37.218 25.274 59.080 32.634 66.512 23.173 141.648 36.334 219.858 36.334 4.176 0 8.343-0.038 12.502-0.112 2.91 0.075 7.077 0.112 11.253 0.112 78.21 0 153.346-13.16 223.315-37.387 18.018-6.422 37.741-17.644 54.919-31.837 4.939-3.508 8.829-8.891 10.638-15.157l0.050-0.202c0-3.584-4.096-9.216-11.008-15.36-16.853-14.025-36.573-25.329-58.063-32.874-66.675-23.345-142.015-36.596-220.451-36.596-3.966 0-7.923 0.034-11.873 0.101-2.772-0.068-6.744-0.102-10.724-0.102-78.422 0-153.749 13.252-223.864 37.638-18.415 6.308-38.493 17.547-55.972 31.845-6.574 6.132-10.67 11.764-10.67 15.348s4.096 9.216 11.008 15.616zM802.816 156.672c-17.139-14.034-37.218-25.274-59.080-32.634-66.656-23.329-141.969-36.581-220.377-36.581-3.994 0-7.979 0.034-11.956 0.103-2.781-0.068-6.767-0.103-10.761-0.103-78.408 0-153.72 13.252-223.82 37.638-18.031 6.425-37.753 17.646-54.934 31.835-6.591 6.142-10.687 11.774-10.687 15.358v465.92c13.4-7.919 29.085-15.496 45.412-21.782 73.383-25.984 155.475-40.567 240.973-40.567 5.068 0 10.125 0.051 15.169 0.153 3.183-0.088 7.826-0.131 12.479-0.131 86.318 0 169.165 14.859 246.123 42.159 13.385 5.443 29.070 13.020 43.991 21.76l-1.524-466.745c0-4.352-4.096-9.984-11.008-16.384zM581.12 469.504c0.050 0 0.108-0.001 0.167-0.001 6.773 0 12.932 2.63 17.511 6.925 4.718 4.394 7.668 10.659 7.668 17.614 0 0.103-0.001 0.206-0.002 0.309 0 14.123-11.461 25.584-25.6 25.584h-132.096c-0.154 0.003-0.335 0.004-0.516 0.004-16.966 0-30.72-13.754-30.72-30.72 0-0.182 0.002-0.363 0.005-0.543v-290.533c0.175-7.061 3.183-13.387 7.926-17.91 4.624-4.535 10.951-7.328 17.93-7.328s13.306 2.793 17.924 7.322c4.748 4.529 7.756 10.855 7.931 17.884l0.001 131.36h105.984c0.050 0 0.108-0.001 0.167-0.001 6.773 0 12.932 2.63 17.511 6.925 4.717 4.394 7.666 10.658 7.666 17.612 0 0.014 0 0.027 0 0.041 0 14.136-11.462 25.598-25.6 25.598h-105.984v89.856z" />
<glyph unicode="&#xe937;" glyph-name="repo-master-mute" d="M877.824 383.488v340.224c-1.239 25.855-13.817 48.541-32.833 63.345-22.511 18.884-48.585 34.075-77.002 44.379-73.831 26.425-156.961 41.373-243.582 41.373-4.362 0-8.716-0.038-13.061-0.113-3.039 0.076-7.392 0.113-11.755 0.113-86.621 0-169.751-14.948-246.951-42.406-25.049-9.27-51.123-24.462-73.837-43.525-18.629-14.464-31.156-36.833-32.618-62.169l-0.011-0.228v-552.448c1.254-25.619 13.844-48.063 32.822-62.572 22.52-19.048 48.586-34.401 77.009-44.884 73.784-26.438 156.857-41.388 243.421-41.388 4.421 0 8.832 0.039 13.234 0.117 34.907 0.175 69.748 2.402 103.993 6.561 37.244-47.005 97.434-76.194 164.442-76.194 124.701 0 225.792 101.091 225.792 225.792 0 89.556-52.138 166.934-127.716 203.437zM221.184 739.584c17.139 14.034 37.218 25.274 59.080 32.634 66.512 23.173 141.648 36.334 219.858 36.334 4.176 0 8.343-0.038 12.502-0.112 2.91 0.075 7.077 0.112 11.253 0.112 78.21 0 153.346-13.16 223.315-37.387 18.018-6.422 37.741-17.644 54.919-31.837 4.939-3.508 8.829-8.891 10.638-15.157l0.050-0.202c0-3.584-4.096-9.216-11.008-15.36-16.853-14.025-36.573-25.329-58.063-32.874-66.675-23.345-142.015-36.596-220.451-36.596-3.966 0-7.923 0.034-11.873 0.101-2.772-0.068-6.744-0.102-10.724-0.102-78.422 0-153.749 13.252-223.864 37.638-18.415 6.308-38.493 17.547-55.972 31.845-6.574 6.132-10.67 11.764-10.67 15.348s4.096 9.216 11.008 15.616zM512 87.296c-3.379-0.060-7.365-0.095-11.359-0.095-78.408 0-153.72 13.252-223.82 37.638-18.031 6.425-37.753 17.646-54.934 31.835-6.591 6.142-10.687 11.774-10.687 15.358v466.176c13.4-7.919 29.085-15.496 45.412-21.782 73.383-25.984 155.475-40.567 240.973-40.567 5.068 0 10.125 0.051 15.169 0.153 3.183-0.088 7.826-0.131 12.479-0.131 86.318 0 169.165 14.859 246.123 42.159 13.385 5.443 29.070 13.020 43.991 21.76l-1.524-236.089c-10.208 1.669-21.973 2.623-33.961 2.623-46.714 0-90.045-14.481-125.75-39.2l0.735 128.481c0.001 0.080 0.001 0.174 0.001 0.268 0 7.653-3.026 14.6-7.946 19.709-4.946 5.2-11.929 8.441-19.668 8.441-0.102 0-0.205-0.001-0.307-0.002-0.074 0.001-0.18 0.002-0.286 0.002-11.137 0-20.751-6.525-25.226-15.96l-89.416-171.945-89.344 172.288c-4.548 9.605-14.161 16.13-25.298 16.13-0.106 0-0.212-0.001-0.318-0.002-0.146 0.004-0.336 0.006-0.527 0.006-7.742 0-14.726-3.242-19.67-8.442-4.923-5.112-7.948-12.058-7.948-19.712 0-0.094 0-0.188 0.001-0.282v-297.458c0.031-7.121 2.963-13.55 7.676-18.172 4.631-4.605 11.010-7.448 18.052-7.448s13.421 2.844 18.049 7.446c4.715 4.624 7.648 11.054 7.679 18.169v204.806l66.048-128c4.558-9.775 14.302-16.429 25.6-16.429s21.042 6.653 25.527 16.256l66.377 128.173v-84.736c-30.37-37.989-48.735-86.73-48.735-139.76 0-32.311 6.818-63.030 19.093-90.796-21.047 1.437-41.527-0.867-62.263-0.867zM781.056 12.8c-0.304-0.002-0.663-0.003-1.023-0.003-92.324 0-167.168 74.844-167.168 167.168s74.844 167.168 167.168 167.168c92.324 0 167.168-74.844 167.168-167.168 0-0.179 0-0.358-0.001-0.537-0.431-91.661-74.498-165.906-166.075-166.628zM758.272 256.256l-41.472-40.448c-0.342-0.13-0.738-0.206-1.152-0.206s-0.81 0.075-1.175 0.213l-41.193-0.008c-4.383 0-7.936-3.553-7.936-7.936v-61.952c0-4.383 3.553-7.936 7.936-7.936h41.984c0.342 0.13 0.738 0.206 1.152 0.206s0.81-0.075 1.175-0.213l40.425-40.44c2.388-2.294 5.637-3.707 9.217-3.707 7.305 0 13.236 5.884 13.311 13.172v140.039c-0.338 7.082-6.162 12.696-13.298 12.696-3.463 0-6.616-1.322-8.984-3.489zM889.6 220.16c-2.32 2.339-5.535 3.786-9.088 3.786s-6.768-1.448-9.087-3.785l-26.625-28.161-29.184 28.16c-2.326 2.326-5.539 3.764-9.088 3.764-7.098 0-12.852-5.754-12.852-12.852 0-3.549 1.439-6.762 3.764-9.088l27.904-27.904-27.904-27.904c-2.326-2.326-3.764-5.539-3.764-9.088 0-7.098 5.754-12.852 12.852-12.852 3.549 0 6.762 1.439 9.088 3.764l29.184 28.16 25.6-27.904c2.326-2.326 5.539-3.764 9.088-3.764 7.098 0 12.852 5.754 12.852 12.852 0 3.549-1.439 6.762-3.764 9.088l-27.904 27.904 27.904 27.904c2.584 2.351 4.2 5.727 4.2 9.481 0 3.24-1.204 6.199-3.188 8.453z" />
<glyph unicode="&#xe938;" glyph-name="repo-master-ro" d="M877.824 383.488v340.224c-1.239 25.855-13.817 48.541-32.833 63.345-22.511 18.884-48.585 34.075-77.002 44.379-73.831 26.425-156.961 41.373-243.582 41.373-4.362 0-8.716-0.038-13.061-0.113-3.039 0.076-7.392 0.113-11.755 0.113-86.621 0-169.751-14.948-246.951-42.406-25.049-9.27-51.123-24.462-73.837-43.525-18.629-14.464-31.156-36.833-32.618-62.169l-0.011-0.228v-552.448c1.254-25.619 13.844-48.063 32.822-62.572 22.52-19.048 48.586-34.401 77.009-44.884 73.784-26.438 156.857-41.388 243.421-41.388 4.421 0 8.832 0.039 13.234 0.117 34.907 0.175 69.748 2.402 103.993 6.561 37.244-47.005 97.434-76.194 164.442-76.194 124.701 0 225.792 101.091 225.792 225.792 0 89.556-52.138 166.934-127.716 203.437zM221.184 739.584c17.139 14.034 37.218 25.274 59.080 32.634 66.512 23.173 141.648 36.334 219.858 36.334 4.176 0 8.343-0.038 12.502-0.112 2.91 0.075 7.077 0.112 11.253 0.112 78.21 0 153.346-13.16 223.315-37.387 18.018-6.422 37.741-17.644 54.919-31.837 4.939-3.508 8.829-8.891 10.638-15.157l0.050-0.202c0-3.584-4.096-9.216-11.008-15.36-16.853-14.025-36.573-25.329-58.063-32.874-66.675-23.345-142.015-36.596-220.451-36.596-3.966 0-7.923 0.034-11.873 0.101-2.772-0.068-6.744-0.102-10.724-0.102-78.422 0-153.749 13.252-223.864 37.638-18.415 6.308-38.493 17.547-55.972 31.845-6.574 6.132-10.67 11.764-10.67 15.348s4.096 9.216 11.008 15.616zM512 87.296c-3.379-0.060-7.365-0.095-11.359-0.095-78.408 0-153.72 13.252-223.82 37.638-18.031 6.425-37.753 17.646-54.934 31.835-6.591 6.142-10.687 11.774-10.687 15.358v466.176c13.4-7.919 29.085-15.496 45.412-21.782 73.383-25.984 155.475-40.567 240.973-40.567 5.068 0 10.125 0.051 15.169 0.153 3.183-0.088 7.826-0.131 12.479-0.131 86.318 0 169.165 14.859 246.123 42.159 13.385 5.443 29.070 13.020 43.991 21.76l-1.524-236.089c-10.208 1.669-21.973 2.623-33.961 2.623-46.714 0-90.045-14.481-125.75-39.2l0.735 128.481c0.001 0.080 0.001 0.174 0.001 0.268 0 7.653-3.026 14.6-7.946 19.709-4.946 5.2-11.929 8.441-19.668 8.441-0.102 0-0.205-0.001-0.307-0.002-0.074 0.001-0.18 0.002-0.286 0.002-11.137 0-20.751-6.525-25.226-15.96l-89.416-171.945-89.344 172.288c-4.548 9.605-14.161 16.13-25.298 16.13-0.106 0-0.212-0.001-0.318-0.002-0.146 0.004-0.336 0.006-0.527 0.006-7.742 0-14.726-3.242-19.67-8.442-4.923-5.112-7.948-12.058-7.948-19.712 0-0.094 0-0.188 0.001-0.282v-297.458c0.031-7.121 2.963-13.55 7.676-18.172 4.631-4.605 11.010-7.448 18.052-7.448s13.421 2.844 18.049 7.446c4.715 4.624 7.648 11.054 7.679 18.169v204.806l66.048-128c4.558-9.775 14.302-16.429 25.6-16.429s21.042 6.653 25.527 16.256l66.377 128.173v-84.736c-30.37-37.989-48.735-86.73-48.735-139.76 0-32.311 6.818-63.030 19.093-90.796-21.047 1.437-41.527-0.867-62.263-0.867zM781.056 12.8c-0.304-0.002-0.663-0.003-1.023-0.003-92.324 0-167.168 74.844-167.168 167.168s74.844 167.168 167.168 167.168c92.324 0 167.168-74.844 167.168-167.168 0-0.179 0-0.358-0.001-0.537-0.431-91.661-74.498-165.906-166.075-166.628zM882.176 220.16c-2.32 2.339-5.535 3.786-9.088 3.786s-6.768-1.448-9.087-3.785l-27.905-28.161-27.904 28.16c-2.326 2.326-5.539 3.764-9.088 3.764-7.098 0-12.852-5.754-12.852-12.852 0-3.549 1.439-6.762 3.764-9.088l29.184-27.648-27.904-27.904c-2.326-2.326-3.764-5.539-3.764-9.088 0-7.098 5.754-12.852 12.852-12.852 3.549 0 6.762 1.439 9.088 3.764l27.904 27.904 27.904-27.904c2.326-2.326 5.539-3.764 9.088-3.764 7.098 0 12.852 5.754 12.852 12.852 0 3.549-1.439 6.762-3.764 9.088l-27.904 27.904 27.904 27.904c1.905 2.221 3.065 5.13 3.065 8.31 0 3.822-1.675 7.252-4.331 9.598zM705.536 225.024h54.784v-107.776h-54.784v107.776zM730.368 68.352c0.597-0.573 1.409-0.927 2.304-0.927s1.707 0.353 2.305 0.928l25.599 35.839h-55.040zM760.064 259.072c0 7.493-6.075 13.568-13.568 13.568h-27.392c-7.493 0-13.568-6.075-13.568-13.568v-18.944h54.528z" />
<glyph unicode="&#xe939;" glyph-name="repo-master" d="M877.824 723.968v0c-1.318 25.758-13.878 48.338-32.832 63.089-22.511 18.884-48.585 34.076-77.002 44.379-73.831 26.425-156.961 41.373-243.582 41.373-4.362 0-8.716-0.038-13.061-0.113-3.039 0.076-7.392 0.113-11.755 0.113-86.621 0-169.751-14.948-246.951-42.406-25.049-9.27-51.123-24.462-73.837-43.525-18.629-14.464-31.156-36.833-32.618-62.169l-0.011-0.228v-552.448c1.254-25.619 13.844-48.063 32.822-62.572 22.52-19.048 48.586-34.401 77.009-44.884 73.784-26.438 156.857-41.388 243.421-41.388 4.421 0 8.832 0.039 13.234 0.117 3.091-0.078 7.516-0.117 11.951-0.117 86.551 0 169.609 14.95 246.735 42.408 25.069 9.457 51.135 24.811 73.828 44.026 18.473 14.57 30.713 37.101 31.62 62.52l0.004 551.57zM221.184 739.584c17.139 14.034 37.218 25.274 59.080 32.634 66.512 23.173 141.648 36.334 219.858 36.334 4.176 0 8.343-0.038 12.502-0.112 2.91 0.075 7.077 0.112 11.253 0.112 78.21 0 153.346-13.16 223.315-37.387 18.018-6.422 37.741-17.644 54.919-31.837 4.939-3.508 8.829-8.891 10.638-15.157l0.050-0.202c0-3.584-4.096-9.216-11.008-15.36-16.853-14.025-36.573-25.329-58.063-32.874-66.675-23.345-142.015-36.596-220.451-36.596-3.966 0-7.923 0.034-11.873 0.101-2.772-0.068-6.744-0.102-10.724-0.102-78.422 0-153.749 13.252-223.864 37.638-18.415 6.308-38.493 17.547-55.972 31.845-6.574 6.132-10.67 11.764-10.67 15.348s4.096 9.216 11.008 15.616zM802.816 156.672c-17.139-14.034-37.218-25.274-59.080-32.634-66.656-23.329-141.969-36.581-220.377-36.581-3.994 0-7.979 0.034-11.956 0.103-2.781-0.068-6.767-0.103-10.761-0.103-78.408 0-153.72 13.252-223.82 37.638-18.031 6.425-37.753 17.646-54.934 31.835-6.591 6.142-10.687 11.774-10.687 15.358v465.92c13.4-7.919 29.085-15.496 45.412-21.782 73.383-25.984 155.475-40.567 240.973-40.567 5.068 0 10.125 0.051 15.169 0.153 3.183-0.088 7.826-0.131 12.479-0.131 86.318 0 169.165 14.859 246.123 42.159 13.385 5.443 29.070 13.020 43.991 21.76l-1.524-466.745c0-4.352-4.096-9.984-11.008-16.384zM626.688 524.8c-0.090 0.001-0.196 0.002-0.302 0.002-11.137 0-20.751-6.525-25.226-15.96l-89.16-172.713-89.344 172.288c-4.548 9.605-14.161 16.13-25.298 16.13-0.106 0-0.212-0.001-0.318-0.002-0.146 0.004-0.336 0.006-0.527 0.006-7.742 0-14.726-3.242-19.67-8.442-4.923-5.112-7.948-12.058-7.948-19.712 0-0.094 0-0.188 0.001-0.282v-297.458c0.031-7.121 2.963-13.55 7.676-18.172 4.631-4.605 11.010-7.448 18.052-7.448s13.421 2.844 18.049 7.446c4.715 4.624 7.648 11.054 7.679 18.169v204.806l66.048-128c4.558-9.775 14.302-16.429 25.6-16.429s21.042 6.653 25.527 16.256l66.377 128.173v-204.8c0-14.138 11.462-25.6 25.6-25.6s25.6 11.462 25.6 25.6v297.216c0.001 0.080 0.001 0.174 0.001 0.268 0 7.653-3.026 14.6-7.946 19.709-4.978 5.504-12.157 8.953-20.143 8.953-0.116 0-0.231-0.001-0.346-0.002z" />
<glyph unicode="&#xe93a;" glyph-name="repo-standart" d="M877.824 723.968v0c-1.318 25.758-13.878 48.338-32.832 63.089-22.511 18.884-48.585 34.076-77.002 44.379-73.831 26.425-156.961 41.373-243.582 41.373-4.362 0-8.716-0.038-13.061-0.113-3.039 0.076-7.392 0.113-11.755 0.113-86.621 0-169.751-14.948-246.951-42.406-25.049-9.27-51.123-24.462-73.837-43.525-18.629-14.464-31.156-36.833-32.618-62.169l-0.011-0.228v-552.448c1.254-25.619 13.844-48.063 32.822-62.572 22.52-19.048 48.586-34.401 77.009-44.884 73.784-26.438 156.857-41.388 243.421-41.388 4.421 0 8.832 0.039 13.234 0.117 3.091-0.078 7.516-0.117 11.951-0.117 86.551 0 169.609 14.95 246.735 42.408 25.069 9.457 51.135 24.811 73.828 44.026 18.473 14.57 30.713 37.101 31.62 62.52l0.004 551.57zM221.184 739.584c17.139 14.034 37.218 25.274 59.080 32.634 66.512 23.173 141.648 36.334 219.858 36.334 4.176 0 8.343-0.038 12.502-0.112 2.91 0.075 7.077 0.112 11.253 0.112 78.21 0 153.346-13.16 223.315-37.387 18.018-6.422 37.741-17.644 54.919-31.837 4.939-3.508 8.829-8.891 10.638-15.157l0.050-0.202c0-3.584-4.096-9.216-11.008-15.36-16.853-14.025-36.573-25.329-58.063-32.874-66.675-23.345-142.015-36.596-220.451-36.596-3.966 0-7.923 0.034-11.873 0.101-2.772-0.068-6.744-0.102-10.724-0.102-78.422 0-153.749 13.252-223.864 37.638-18.415 6.308-38.493 17.547-55.972 31.845-6.574 6.132-10.67 11.764-10.67 15.348s4.096 9.216 11.008 15.616zM802.816 156.672c-17.139-14.034-37.218-25.274-59.080-32.634-66.656-23.329-141.969-36.581-220.377-36.581-3.994 0-7.979 0.034-11.956 0.103-2.781-0.068-6.767-0.103-10.761-0.103-78.408 0-153.72 13.252-223.82 37.638-18.031 6.425-37.753 17.646-54.934 31.835-6.591 6.142-10.687 11.774-10.687 15.358v465.92c13.4-7.919 29.085-15.496 45.412-21.782 73.383-25.984 155.475-40.567 240.973-40.567 5.068 0 10.125 0.051 15.169 0.153 3.183-0.088 7.826-0.131 12.479-0.131 86.318 0 169.165 14.859 246.123 42.159 13.385 5.443 29.070 13.020 43.991 21.76l-1.524-466.745c0-4.352-4.096-9.984-11.008-16.384zM591.872 333.056c-6.833 7.43-14.573 13.867-23.084 19.184-8.916 5.392-17.62 10.256-26.068 14.864l-51.2 25.6c-10.117 4.341-18.664 10.59-25.535 18.357-4.563 6.058-7.268 13.611-7.268 21.795 0 0.554 0.012 1.106 0.037 1.654-0.032 0.466-0.049 1.104-0.049 1.745 0 12.73 6.59 23.921 16.544 30.347 5.191 3.483 11.108 6.056 17.467 7.448 7.216 1.565 15.116 2.427 23.217 2.427 10.067 0 19.824-1.33 29.104-3.823 9.763-2.593 18.706-5.742 27.315-9.512 1.904-0.986 5.561-1.838 9.417-1.838 7.037 0 13.411 2.839 18.039 7.435 4.448 4.479 7.251 10.6 7.422 17.374 0.003 0.163 0.004 0.318 0.004 0.472 0 5.165-1.529 9.972-4.16 13.994-2.812 4.24-6.941 7.543-11.805 9.321-9.57 3.976-21.172 7.831-33.088 10.903-13.655 3.437-27.156 5.172-41.061 5.172-15.675 0-30.836-2.205-45.188-6.321-11.785-3.696-23.030-9.641-32.874-17.301-8.506-7.786-15.585-17.406-20.532-28.205-5.877-11.362-9.193-24.171-9.193-37.754 0-0.419 0.003-0.838 0.009-1.256-0.012-0.499-0.018-1.161-0.018-1.825 0-10.646 1.597-20.92 4.564-30.594 2.601-9.042 6.898-17.57 12.497-25.069 5.353-6.879 11.681-12.963 18.78-18.040 7.609-5.14 16.019-9.765 24.847-13.611l52.225-25.998c5.888-2.816 11.52-6.144 17.152-9.728 5.062-3.265 9.434-6.986 13.263-11.209 3.673-4.027 6.754-8.582 9.121-13.544 2.249-4.919 3.476-10.279 3.476-15.926 0-0.189-0.001-0.377-0.004-0.566 0.077-0.965 0.12-2.124 0.12-3.293 0-12.692-5.132-24.186-13.433-32.52-10.412-7.981-23.623-12.79-37.958-12.79-1.958 0-3.895 0.090-5.807 0.265 0.109-0.019-0.053-0.019-0.215-0.019-10.931 0-21.535 1.401-31.642 4.033-10.658 2.787-20.622 6.463-30.097 10.997-2.155 1.076-5.876 1.961-9.803 1.961-6.821 0-13.020-2.668-17.608-7.017-4.719-4.396-7.669-10.66-7.669-17.614 0-0.014 0-0.027 0-0.041 0.128-10.212 6.218-18.973 14.944-22.972 11.089-4.857 24.227-9.329 37.786-12.739 14.558-3.633 29.207-5.5 44.292-5.503 0.216-0.001 0.47-0.002 0.724-0.002 14.278 0 28.031 2.248 40.924 6.409 12.348 3.959 23.857 10.342 33.789 18.563 9.697 8.147 17.711 18.289 23.396 29.788 4.927 11.382 7.653 24.007 7.653 37.269 0 2.389-0.088 4.758-0.262 7.103 0.030 0.241 0.037 0.893 0.037 1.548 0 12.207-2.26 23.886-6.385 34.642-3.877 9.593-9.408 18.412-16.236 26.047z" />
<glyph unicode="&#xe93b;" glyph-name="repo-system" d="M877.824 723.968v0c-1.318 25.758-13.878 48.338-32.832 63.089-22.511 18.884-48.585 34.076-77.002 44.379-73.831 26.425-156.961 41.373-243.582 41.373-4.362 0-8.716-0.038-13.061-0.113-3.039 0.076-7.392 0.113-11.755 0.113-86.621 0-169.751-14.948-246.951-42.406-25.049-9.27-51.123-24.462-73.837-43.525-18.629-14.464-31.156-36.833-32.618-62.169l-0.011-0.228v-552.448c1.254-25.619 13.844-48.063 32.822-62.572 22.52-19.048 48.586-34.401 77.009-44.884 73.784-26.438 156.857-41.388 243.421-41.388 4.421 0 8.832 0.039 13.234 0.117 3.091-0.078 7.516-0.117 11.951-0.117 86.551 0 169.609 14.95 246.735 42.408 25.069 9.457 51.135 24.811 73.828 44.026 18.473 14.57 30.713 37.101 31.62 62.52l0.004 551.57zM221.184 739.584c17.139 14.034 37.218 25.274 59.080 32.634 66.512 23.173 141.648 36.334 219.858 36.334 4.176 0 8.343-0.038 12.502-0.112 2.91 0.075 7.077 0.112 11.253 0.112 78.21 0 153.346-13.16 223.315-37.387 18.018-6.422 37.741-17.644 54.919-31.837 4.939-3.508 8.829-8.891 10.638-15.157l0.050-0.202c0-3.584-4.096-9.216-11.008-15.36-16.853-14.025-36.573-25.329-58.063-32.874-66.675-23.345-142.015-36.596-220.451-36.596-3.966 0-7.923 0.034-11.873 0.101-2.772-0.068-6.744-0.102-10.724-0.102-78.422 0-153.749 13.252-223.864 37.638-18.415 6.308-38.493 17.547-55.972 31.845-6.574 6.132-10.67 11.764-10.67 15.348s4.096 9.216 11.008 15.616zM802.816 156.672c-17.139-14.034-37.218-25.274-59.080-32.634-66.656-23.329-141.969-36.581-220.377-36.581-3.994 0-7.979 0.034-11.956 0.103-2.781-0.068-6.767-0.103-10.761-0.103-78.408 0-153.72 13.252-223.82 37.638-18.031 6.425-37.753 17.646-54.934 31.835-6.591 6.142-10.687 11.774-10.687 15.358v465.92c13.4-7.919 29.085-15.496 45.412-21.782 73.383-25.984 155.475-40.567 240.973-40.567 5.068 0 10.125 0.051 15.169 0.153 3.183-0.088 7.826-0.131 12.479-0.131 86.318 0 169.165 14.859 246.123 42.159 13.385 5.443 29.070 13.020 43.991 21.76l-1.524-466.745c0-4.352-4.096-9.984-11.008-16.384zM622.592 546.048c-5.186 0.677-11.184 1.063-17.272 1.063-35.868 0-68.603-13.411-93.464-35.493-24.575 22.091-57.317 35.508-93.192 35.508-72.098 0-131.539-54.19-139.815-124.062-0.648-5.448-0.981-10.986-0.981-16.601 0-29.123 8.956-56.154 24.264-78.49 56.269-97.574 187.341-197.926 192.717-202.278 4.672-3.575 10.596-5.729 17.024-5.729s12.352 2.154 17.092 5.778c5.564 4.302 136.38 104.654 191.676 200.654 15.805 22.418 25.261 50.3 25.261 80.389 0 71.636-53.595 130.754-122.875 139.444zM334.848 416c4.558 38.773 34.799 69.276 73.050 74.196l10.662 0.044c0.056 0 0.122 0 0.187 0 28.98 0 54.553-14.593 69.77-36.831 5.57-7.37 13.998-11.895 23.483-11.895s17.913 4.525 23.244 11.534c15.48 22.402 40.941 36.848 69.775 36.848 43.107 0 78.674-32.287 83.836-73.997 0.36-3.186 0.542-6.401 0.542-9.659 0-18.942-6.141-36.449-16.54-50.64-4.44-7.951-10.072-16.143-15.96-25.359h-42.496l-25.6 58.88c-3.266 7.088-10.271 11.94-18.42 12.032-8.098-0.139-15.083-4.721-18.644-11.404l-41.784-85.364-45.824 128c-2.911 7.953-10.4 13.533-19.196 13.568h-0.004c-8.8-0.035-16.289-5.615-19.154-13.426l-36.398-102.542h-19.456c-5.965 8.024-12.136 17.298-17.842 26.881-11.285 15.316-17.567 32.748-17.567 51.647 0 2.636 0.122 5.244 0.361 7.817zM512 183.808c-40.252 33.013-76.373 67.35-109.852 104.135l-0.74 0.825c8.8 0.035 16.289 5.615 19.154 13.426l22.318 62.862 43.52-118.528c2.785-7.646 9.788-13.098 18.122-13.566l0.054-0.002c0.005 0 0.010 0 0.016 0 8.050 0 15.016 4.645 18.362 11.4l43.83 89.464 14.080-31.232c3.297-7.155 10.407-12.032 18.656-12.032 0.011 0 0.022 0 0.033 0h23.806c-34.48-38.351-70.86-73.27-109.652-105.379z" />
<glyph unicode="&#xe93c;" glyph-name="repo-worker" d="M877.824 723.968v0c-1.318 25.758-13.878 48.338-32.832 63.089-22.511 18.884-48.585 34.076-77.002 44.379-73.831 26.425-156.961 41.373-243.582 41.373-4.362 0-8.716-0.038-13.061-0.113-3.039 0.076-7.392 0.113-11.755 0.113-86.621 0-169.751-14.948-246.951-42.406-25.049-9.27-51.123-24.462-73.837-43.525-18.629-14.464-31.156-36.833-32.618-62.169l-0.011-0.228v-552.448c1.254-25.619 13.844-48.063 32.822-62.572 22.52-19.048 48.586-34.401 77.009-44.884 73.784-26.438 156.857-41.388 243.421-41.388 4.421 0 8.832 0.039 13.234 0.117 3.091-0.078 7.516-0.117 11.951-0.117 86.551 0 169.609 14.95 246.735 42.408 25.069 9.457 51.135 24.811 73.828 44.026 18.473 14.57 30.713 37.101 31.62 62.52l0.004 551.57zM221.184 739.584c17.139 14.034 37.218 25.274 59.080 32.634 66.512 23.173 141.648 36.334 219.858 36.334 4.176 0 8.343-0.038 12.502-0.112 2.91 0.075 7.077 0.112 11.253 0.112 78.21 0 153.346-13.16 223.315-37.387 18.018-6.422 37.741-17.644 54.919-31.837 4.939-3.508 8.829-8.891 10.638-15.157l0.050-0.202c0-3.584-4.096-9.216-11.008-15.36-16.853-14.025-36.573-25.329-58.063-32.874-66.675-23.345-142.015-36.596-220.451-36.596-3.966 0-7.923 0.034-11.873 0.101-2.772-0.068-6.744-0.102-10.724-0.102-78.422 0-153.749 13.252-223.864 37.638-18.415 6.308-38.493 17.547-55.972 31.845-6.574 6.132-10.67 11.764-10.67 15.348s4.096 9.216 11.008 15.616zM802.816 156.672c-17.139-14.034-37.218-25.274-59.080-32.634-66.656-23.329-141.969-36.581-220.377-36.581-3.994 0-7.979 0.034-11.956 0.103-2.781-0.068-6.767-0.103-10.761-0.103-78.408 0-153.72 13.252-223.82 37.638-18.031 6.425-37.753 17.646-54.934 31.835-6.591 6.142-10.687 11.774-10.687 15.358v465.92c13.4-7.919 29.085-15.496 45.412-21.782 73.383-25.984 155.475-40.567 240.973-40.567 5.068 0 10.125 0.051 15.169 0.153 3.183-0.088 7.826-0.131 12.479-0.131 86.318 0 169.165 14.859 246.123 42.159 13.385 5.443 29.070 13.020 43.991 21.76l-1.524-466.745c0-4.352-4.096-9.984-11.008-16.384zM652.032 519.424c-4.722-3.467-8.177-8.418-9.688-14.158l-53.544-214.706-51.2 212.224c-1.333 6.581-5.037 12.126-10.164 15.82-4.835 3.498-10.79 5.564-17.228 5.564s-12.393-2.066-17.238-5.572c-5.068-3.629-8.76-9.075-10.123-15.388l-51.231-212.649-52.736 214.272c-1.551 5.918-5.006 10.869-9.657 14.286-4.227 3.086-9.438 4.907-15.074 4.907-7.029 0-13.396-2.833-18.023-7.419-2.352-3.652-3.751-8.114-3.751-12.903 0-1.593 0.155-3.149 0.45-4.655-0.164-0.886-0.244-2.085-0.244-3.304s0.080-2.418 0.234-3.594l74.737-299.126c1.655-6.169 5.181-11.356 9.922-15.057 4.809-3.662 10.822-5.839 17.342-5.839s12.533 2.177 17.35 5.844c4.935 3.617 8.525 8.96 9.882 15.139l51.231 211.37 51.2-211.2c1.389-6.349 4.979-11.692 9.912-15.31 4.818-3.665 10.831-5.842 17.352-5.842s12.533 2.177 17.35 5.844c4.846 3.752 8.46 9.027 10.123 15.108l71.983 299.977c0.111 0.922 0.174 1.99 0.174 3.072s-0.063 2.15-0.187 3.199c0.012-0.083 0.013-0.030 0.013 0.023 0 6.919-2.952 13.149-7.664 17.499-4.566 4.23-10.677 6.815-17.393 6.815-5.255 0-10.14-1.583-14.205-4.299z" />
<glyph unicode="&#xe93d;" glyph-name="repo" d="M877.824 723.968v0c-1.318 25.758-13.878 48.338-32.832 63.089-22.511 18.884-48.585 34.076-77.002 44.379-73.831 26.425-156.961 41.373-243.582 41.373-4.362 0-8.716-0.038-13.061-0.113-3.039 0.076-7.392 0.113-11.755 0.113-86.621 0-169.751-14.948-246.951-42.406-25.049-9.27-51.123-24.462-73.837-43.525-18.53-14.505-30.966-36.87-32.363-62.177l-0.010-0.22v-552.448c1.189-25.581 13.686-48.020 32.572-62.575 22.514-19.045 48.58-34.398 77.003-44.881 73.784-26.438 156.857-41.388 243.421-41.388 4.421 0 8.832 0.039 13.234 0.117 3.066-0.077 7.463-0.116 11.869-0.116 86.579 0 169.667 14.949 246.822 42.408 25.063 9.462 51.129 24.815 73.824 44.026 18.472 14.569 30.712 37.1 31.619 62.519l0.004 551.57zM210.176 457.216c13.75-8.271 29.772-16.105 46.479-22.561 73.642-26.282 156.104-41.048 242.016-41.048 4.687 0 9.364 0.044 14.030 0.131 3.267-0.088 7.943-0.131 12.63-0.131 85.911 0 168.373 14.766 244.988 41.898 13.734 5.604 29.756 13.438 44.952 22.511l-1.446-108.832c-2.684-4.081-5.726-7.612-9.167-10.709-17.252-14.053-37.292-25.43-59.065-33.147-66.895-23.385-142.404-36.644-221.010-36.644-4.424 0-8.838 0.042-13.242 0.126-2.871-0.075-7.034-0.113-11.206-0.113-78.872 0-154.627 13.349-225.127 37.911-18.373 6.688-38.415 18.066-55.98 32.368-3.127 2.851-6.17 6.381-8.725 10.261zM813.824 534.016c-2.676-4.086-5.719-7.617-9.166-10.708-17.253-14.054-37.293-25.431-59.066-33.148-67.702-24.002-144.176-37.622-223.832-37.622-3.432 0-6.858 0.025-10.278 0.076-3.025-0.072-7.202-0.11-11.389-0.11-78.858 0-154.598 13.349-225.084 37.911-18.374 6.7-38.414 18.076-55.986 32.37-3.122 2.85-6.164 6.381-8.722 10.259l-0.126 105.163c13.4-7.919 29.085-15.496 45.412-21.782 73.399-25.996 155.511-40.587 241.031-40.587 5.408 0 10.803 0.058 16.184 0.174 3.147-0.090 7.805-0.133 12.472-0.133 86.303 0 169.135 14.859 246.078 42.159 13.388 5.443 29.073 13.019 43.993 21.76zM221.184 739.584c17.139 14.034 37.218 25.274 59.080 32.634 66.512 23.173 141.648 36.334 219.858 36.334 4.176 0 8.343-0.038 12.502-0.112 2.91 0.075 7.077 0.112 11.253 0.112 78.21 0 153.346-13.16 223.315-37.387 18.018-6.422 37.741-17.644 54.919-31.837 4.939-3.508 8.829-8.891 10.638-15.157l0.050-0.202c0-3.584-4.096-9.216-11.008-15.36-16.851-14.030-36.572-25.335-58.064-32.874-66.636-23.345-141.935-36.597-220.329-36.597-4.008 0-8.008 0.035-11.999 0.104-2.767-0.068-6.738-0.102-10.718-0.102-78.422 0-153.749 13.252-223.864 37.638-18.415 6.308-38.493 17.547-55.972 31.845-6.574 6.132-10.67 11.764-10.67 15.348s4.096 9.472 11.008 15.616zM802.816 156.672c-17.141-14.029-37.219-25.268-59.078-32.633-66.671-23.33-141.997-36.581-220.419-36.581-3.98 0-7.952 0.034-11.916 0.102-2.77-0.068-6.741-0.102-10.721-0.102-78.422 0-153.749 13.252-223.864 37.638-18.028 6.424-37.75 17.645-54.931 31.834-6.591 6.142-10.687 11.774-10.687 15.358v102.4c13.749-8.269 29.77-16.103 46.477-22.561 74.837-27.203 158.729-42.508 246.197-42.508 2.857 0 5.711 0.016 8.56 0.049 3.533-0.081 8.209-0.125 12.896-0.125 85.911 0 168.373 14.766 244.988 41.898 13.737 5.61 29.758 13.443 44.957 22.513l-1.45-103.202c0-2.048-4.096-7.68-11.008-14.080z" />
<glyph unicode="&#xe93e;" glyph-name="email" d="M881.664 779.008h-739.328c-37.833-0.145-68.463-30.775-68.608-68.594v-524.558c0-38.033 30.831-68.864 68.864-68.864h739.072c37.922 0.146 68.608 30.921 68.608 68.864 0 0 0 0 0 0.001v524.544c-0.145 37.833-30.775 68.463-68.594 68.608zM844.8 715.008l-292.352-218.624c-11.057-8.488-25.091-13.602-40.32-13.602s-29.263 5.114-40.478 13.719l-292.45 218.507zM882.688 180.992h-740.352c-2.686 0-4.864 2.178-4.864 4.864v481.024l295.68-221.696c21.607-16.517 49.002-26.466 78.72-26.466s57.113 9.949 79.035 26.697l295.365 221.465v-481.28c-0.132-2.49-2.118-4.476-4.596-4.607z" />
<glyph unicode="&#xe93f;" glyph-name="sameas-off" d="M759.296 433.408c-0.030 0-0.067 0-0.103 0-28.566 0-55.724-6.029-80.27-16.885l-52.747 93.941c52.19 36.588 85.888 96.468 85.888 164.218 0 110.422-89.514 199.936-199.936 199.936s-199.936-89.514-199.936-199.936c0-67.75 33.698-127.63 85.248-163.792l-53.376-93.866c-23.313 10.324-50.504 16.335-79.098 16.335-110.28 0-199.68-89.4-199.68-199.68s89.4-199.68 199.68-199.68c109.758 0 198.832 88.554 199.674 198.114l94.976 0.080c0.87-109.618 89.934-198.144 199.674-198.144 110.28 0 199.68 89.4 199.68 199.68 0 110.278-89.396 199.677-199.674 199.68zM512 815.36c0.076 0 0.166 0 0.256 0 77.903 0 141.056-63.153 141.056-141.056s-63.153-141.056-141.056-141.056c-77.903 0-141.056 63.153-141.056 141.056 0 0 0 0 0 0 0 77.813 63.007 140.91 140.786 141.056zM264.704 92.672c-77.762 0-140.8 63.038-140.8 140.8s63.038 140.8 140.8 140.8c77.762 0 140.8-63.038 140.8-140.8-0.145-77.703-63.097-140.655-140.786-140.8zM567.808 291.072h-111.616c-11.764 38.069-33.396 70.208-61.925 94.485l56.549 98.539c18.273-6.132 39.315-9.67 61.184-9.67s42.91 3.538 62.585 10.073l55.431-98.707c-28.812-24.512-50.444-56.651-61.828-93.302zM759.040 92.672c-77.762 0-140.8 63.038-140.8 140.8s63.038 140.8 140.8 140.8c77.762 0 140.8-63.038 140.8-140.8-0.145-77.613-62.951-140.509-140.516-140.8z" />
<glyph unicode="&#xe940;" glyph-name="sameas-on" d="M866.785 131.001c20.486-4.911 33.112-25.499 28.202-45.985s-25.499-33.112-45.985-28.202c-20.486 4.911-33.112 25.499-28.202 45.985s25.499 33.112 45.985 28.202zM801.048 436.391c20.485-4.914 33.108-25.505 28.194-45.99s-25.505-33.108-45.99-28.194c-20.485 4.914-33.108 25.505-28.194 45.99s25.505 33.108 45.99 28.194zM936.028 238.068c20.486-4.911 33.112-25.499 28.202-45.985s-25.499-33.112-45.985-28.202c-20.486 4.911-33.112 25.499-28.202 45.985s25.499 33.112 45.985 28.202zM725.020 104.957c20.485-4.914 33.108-25.505 28.194-45.99s-25.505-33.108-45.99-28.194c-20.485 4.914-33.108 25.505-28.194 45.99s25.505 33.108 45.99 28.194zM910.031 361.128c20.486-4.911 33.112-25.499 28.202-45.985s-25.499-33.112-45.985-28.202c-20.486 4.911-33.112 25.499-28.202 45.985s25.499 33.112 45.985 28.202zM624.133 178.482c20.486-4.911 33.112-25.499 28.202-45.985s-25.499-33.112-45.985-28.202c-20.486 4.911-33.112 25.499-28.202 45.985s25.499 33.112 45.985 28.202zM694.784 386.048l-92.928 161.792c-5.642 9.664-15.963 16.055-27.776 16.055-17.703 0-32.055-14.351-32.055-32.055 0-5.89 1.589-11.409 4.361-16.152l93.614-161.384c5.642-9.664 15.963-16.055 27.776-16.055 17.703 0 32.055 14.351 32.055 32.055 0 5.89-1.589 11.409-4.361 16.152zM594.944 231.936c17.673 0 32 14.327 32 32s-14.327 32-32 32h-145.92c-11.747 36.258-32.392 66.902-59.406 90.418l76.558 133.838c2.741 4.62 4.36 10.185 4.36 16.128 0 17.678-14.331 32.008-32.008 32.008-11.735 0-21.995-6.315-27.567-15.732l-76.881-131.989c-22.674 9.702-49.057 15.343-76.758 15.343-110.28 0-199.68-89.4-199.68-199.68s89.4-199.68 199.68-199.68c108.846 0 197.351 87.090 199.635 195.388zM258.56 94.976c-77.762 0-140.8 63.038-140.8 140.8s63.038 140.8 140.8 140.8c77.762 0 140.8-63.038 140.8-140.8-0.145-77.703-63.097-140.655-140.786-140.8zM467.297 874.249c18.886-9.334 26.629-32.21 17.295-51.096s-32.21-26.629-51.096-17.295c-18.886 9.334-26.629 32.21-17.295 51.096s32.21 26.629 51.096 17.295zM369.998 782.328c18.886-9.334 26.629-32.21 17.295-51.096s-32.21-26.629-51.096-17.295c-18.886 9.334-26.629 32.21-17.295 51.096s32.21 26.629 51.096 17.295zM596.268 869.147c18.886-9.334 26.629-32.21 17.295-51.096s-32.21-26.629-51.096-17.295c-18.886 9.334-26.629 32.21-17.295 51.096s32.21 26.629 51.096 17.295zM683.975 645.837c18.886-9.334 26.629-32.21 17.295-51.096s-32.21-26.629-51.096-17.295c-18.886 9.334-26.629 32.21-17.295 51.096s32.21 26.629 51.096 17.295zM685.749 771.488c18.886-9.334 26.629-32.21 17.295-51.096s-32.21-26.629-51.096-17.295c-18.886 9.334-26.629 32.21-17.295 51.096s32.21 26.629 51.096 17.295zM366.66 656.923c18.886-9.334 26.629-32.21 17.295-51.096s-32.21-26.629-51.096-17.295c-18.886 9.334-26.629 32.21-17.295 51.096s32.21 26.629 51.096 17.295z" />
<glyph unicode="&#xe941;" glyph-name="play" d="M512 870.656c-233.426 0-422.656-189.23-422.656-422.656s189.23-422.656 422.656-422.656c233.426 0 422.656 189.23 422.656 422.656-0.291 233.309-189.347 422.365-422.628 422.656zM512 89.6c-197.939 0-358.4 160.461-358.4 358.4s160.461 358.4 358.4 358.4c197.939 0 358.4-160.461 358.4-358.4s-160.461-358.4-358.4-358.4zM417.28 236.288c-29.267 0-52.992 23.725-52.992 52.992v317.44c-0.005 0.261-0.007 0.568-0.007 0.877 0 29.267 23.725 52.992 52.992 52.992 10.23 0 19.782-2.899 27.882-7.919l258.59-158.589c15.281-9.478 25.305-26.16 25.305-45.184s-10.025-35.707-25.080-45.053l-259.042-160.643c-7.552-4.358-16.609-6.93-26.268-6.93-0.485 0-0.969 0.006-1.452 0.019zM425.728 591.616v-287.232l234.24 143.616z" />
<glyph unicode="&#xe942;" glyph-name="facebook" d="M853.504 832h-683.008c-23.47 0-42.496-19.026-42.496-42.496v-683.008c0-23.47 19.026-42.496 42.496-42.496h367.104v297.472h-99.584v115.968h99.584v85.248c0 99.072 60.672 153.6 148.992 153.6 0.723 0.002 1.579 0.004 2.434 0.004 30.614 0 60.838-1.675 90.583-4.939l-3.673-102.073h-61.44c-48.128 0-57.344-22.784-57.344-56.32v-73.984h114.688l-14.848-115.968h-99.072v-299.008h195.584c23.47 0 42.496 19.026 42.496 42.496v683.008c0 23.47-19.026 42.496-42.496 42.496z" />
</font>
</defs>
</svg>
