<?xml version="1.0" standalone="no"?>
<!DOCTYPE svg PUBLIC "-//W3C//DTD SVG 1.1//EN" "http://www.w3.org/Graphics/SVG/1.1/DTD/svg11.dtd" >
<svg xmlns="http://www.w3.org/2000/svg">
  <metadata>Created by iconfont</metadata>
  <defs>
  <font id="iconfont" horiz-adv-x="1024">
    <font-face
      font-family="iconfont"
      font-weight="400"
      font-stretch="normal"
      units-per-em="1024"
      ascent="896"
      descent="-128"
    />
      <missing-glyph />
      
      <glyph glyph-name="jinggao-danchuang" unicode="&#59722;" d="M512 896c282.331429 0 512-229.668571 512-512s-229.668571-512-512-512-512 229.668571-512 512 229.668571 512 512 512z m0-731.428571a36.571429 36.571429 0 1 1 0-73.142858 36.571429 36.571429 0 0 1 0 73.142858z m0 531.017142l-6.582857-0.585142a36.571429 36.571429 0 0 1-29.988572-35.986286v-402.285714a36.571429 36.571429 0 1 1 73.142858 0v402.285714a36.571429 36.571429 0 0 1-36.571429 36.571428z"  horiz-adv-x="1024" />
      
      <glyph glyph-name="em-xitongshezhi" unicode="&#59573;" d="M972.8 288l-83.2 64v6.4V384v32l83.2 64c19.2 12.8 25.6 44.8 12.8 64L889.6 704c-6.4 19.2-25.6 25.6-44.8 25.6h-19.2l-102.4-38.4c-12.8 12.8-32 19.2-51.2 25.6l-12.8 102.4c-6.4 25.6-25.6 44.8-51.2 44.8h-192c-25.6 0-44.8-19.2-51.2-44.8l-12.8-102.4h-6.4c-12.8-12.8-32-19.2-44.8-32l-102.4 38.4h-19.2c-19.2 6.4-38.4-6.4-44.8-19.2L38.4 544c-12.8-19.2-6.4-51.2 12.8-64l83.2-64v-70.4l-83.2-64c-19.2-12.8-25.6-44.8-12.8-64L128 64c6.4-19.2 25.6-25.6 44.8-25.6H192l102.4 38.4c12.8-12.8 32-19.2 51.2-25.6l12.8-102.4c6.4-25.6 25.6-44.8 51.2-44.8h185.6c25.6 0 51.2 19.2 51.2 44.8l12.8 102.4c19.2 6.4 32 19.2 51.2 25.6l102.4-38.4h19.2c19.2 0 38.4 6.4 44.8 25.6l96 160c25.6 19.2 19.2 51.2 0 64z m-128-192l-128 51.2-25.6-19.2c-12.8-6.4-25.6-19.2-44.8-25.6l-32-12.8-19.2-128H422.4l-12.8 96-6.4 32-32 12.8c-12.8 6.4-32 12.8-44.8 25.6l-25.6 19.2-32-12.8-96-38.4-89.6 147.2 76.8 57.6 25.6 19.2v32c6.4 19.2 6.4 25.6 6.4 32v57.6l-25.6 19.2-76.8 64 89.6 147.2 128-51.2 25.6 19.2c12.8 6.4 25.6 19.2 44.8 25.6l32 12.8 19.2 128h179.2l12.8-96 6.4-32 32-12.8c12.8-6.4 25.6-12.8 44.8-25.6l25.6-19.2 32 12.8 96 38.4 89.6-147.2-76.8-57.6-25.6-19.2v-115.2l25.6-19.2 76.8-57.6-102.4-160zM512 588.8C403.2 588.8 307.2 492.8 307.2 384s89.6-204.8 198.4-204.8c51.2 0 102.4 19.2 140.8 57.6s57.6 89.6 57.6 140.8c6.4 115.2-83.2 211.2-192 211.2z m0-352c-83.2 0-147.2 64-147.2 147.2 0 83.2 64 147.2 147.2 147.2 38.4 0 76.8-12.8 102.4-44.8 25.6-25.6 44.8-64 44.8-102.4 0-83.2-64-147.2-147.2-147.2z"  horiz-adv-x="1024" />
      
      <glyph glyph-name="path" unicode="&#58881;" d="M877.714286 896c219.282286 0 397.061224-177.778939 397.061224-397.061224 0-7.06351-0.188082-14.085224-0.543347-21.065143C1437.006367 472.649143 1567.346939 339.069388 1567.346939 175.02040799999997 1567.346939 7.669550999999956 1431.677388-128 1264.326531-128c-3.489959 0-6.979918 0.062694-10.44898 0.167184V-128H940.408163a41.795918 41.795918 0 0 0-41.795918 41.795918V156.65110200000004h130.15249a20.897959 20.897959 0 0 1 14.774857 35.672816L813.244082 422.661224a41.795918 41.795918 0 0 1-59.141225 0l-230.29551-230.29551a20.897959 20.897959 0 0 1 14.774857-35.693714H668.734694V-86.20408199999997a41.795918 41.795918 0 0 0-41.795918-41.795918H292.571429v1.504653C128.397061-110.73828600000002 0 27.606204000000048 0 195.918367c0 140.998531 90.091102 260.973714 215.875918 305.46547C240.117551 596.114286 326.070857 666.122449 428.408163 666.122449c29.048163 0 56.737959-5.642449 82.108082-15.882449C569.991837 794.477714 711.993469 896 877.714286 896z"  horiz-adv-x="1567" />
      
      <glyph glyph-name="circle-remove-outline" unicode="&#58899;" d="M512-128A512 512 0 1 0 512 896a512 512 0 0 0 0-1024zM512 832a448 448 0 1 1 0-896A448 448 0 0 1 512 832z m230.4-486.4H281.6a38.4 38.4 0 1 0 0 76.8h460.8a38.4 38.4 0 1 0 0-76.8z"  horiz-adv-x="1024" />
      
      <glyph glyph-name="circle-plus-outline" unicode="&#58900;" d="M512-128A512 512 0 1 0 512 896a512 512 0 0 0 0-1024zM512 832a448 448 0 1 1 0-896A448 448 0 0 1 512 832z m192-480H544V192a32 32 0 0 0-64 0V352H320a32 32 0 0 0 0 64h160V576a32 32 0 0 0 64 0v-160H704a32 32 0 1 0 0-64z"  horiz-adv-x="1024" />
      
      <glyph glyph-name="edit" unicode="&#58907;" d="M771.437714-42.64228600000001H223.085714c-76.8 0-137.069714 62.537143-137.069714 142.189715V668.525714c0 79.652571 60.342857 142.189714 137.069714 142.189715h422.253715c16.457143 0 32.914286-11.337143 32.914285-28.452572 0-17.042286-10.971429-28.379429-27.428571-28.379428H223.085714c-43.885714 0-76.8-39.862857-76.8-85.357715v-568.905143c0-45.494857 38.4-85.357714 82.285715-85.357714h548.352c43.885714 0 82.212571 39.862857 82.212571 85.357714V486.4c0 17.042286 10.971429 28.452571 27.428571 28.452571s27.428571-11.410286 27.428572-28.452571v-386.852571c-5.485714-79.652571-65.828571-142.189714-142.628572-142.189715zM310.857143 156.45257100000003c-5.485714 0-16.457143 5.705143-21.942857 11.337143a28.233143 28.233143 0 0 0 0 39.862857l603.136 568.905143a25.819429 25.819429 0 0 0 38.4 0c10.971429-11.410286 10.971429-28.525714 0-39.862857L327.314286 167.789714c-5.485714-11.337143-10.971429-11.337143-16.457143-11.337143z"  horiz-adv-x="1024" />
      
      <glyph glyph-name="down-arrow" unicode="&#59447;" d="M494.98657007 211.12907472999996c0.7648762-0.30639815 1.42821703-1.02028288 2.24453285-1.32668043 14.78492855-7.36696854 32.64233464-4.26675847 44.07880349 7.65279061L807.0566273 498.04721938A38.18209802 38.18209802 0 1 1 751.55030099 550.4931457600001l-238.45270772-251.81881219L271.12466492 549.47286345c-14.84441909 13.84873776-37.92713888 13.67250263-52.5577504-0.4021197-14.63105846-14.07417478-15.70188589-37.13229363-2.43865884-52.50228533l268.34864339-278.09299063c0.50991767-0.50991767 1.2246969-0.76532376 1.78560603-1.27568896l1.07127437-1.22424996c2.29597126-2.19354079 5.10186022-3.31625416 7.6527906-4.79546206l0-0.05099208z"  horiz-adv-x="1024" />
      
      <glyph glyph-name="up-arrow" unicode="&#59448;" d="M529.01342993 556.87092527c-0.7648762 0.30639815-1.42821703 1.02028288-2.24453285 1.32668043-14.78492855 7.36696854-32.64233464 4.26675847-44.07880349-7.65279061L216.9433727 269.95278062A38.18209802 38.18209802 0 1 1 272.44969901 217.50685424000005l238.45270772 251.81881219L752.87533508 218.52713655000002c14.84441909-13.84873776 37.92713888-13.67250263 52.5577504 0.4021197 14.63105846 14.07417478 15.70188589 37.13229363 2.43865884 52.50228533l-268.34864339 278.09299063c-0.50991767 0.50991767-1.2246969 0.76532376-1.78560603 1.27568896l-1.07127437 1.22424996c-2.29597126 2.19354079-5.10186022 3.31625416-7.6527906 4.79546206l0 0.05099208z"  horiz-adv-x="1024" />
      
      <glyph glyph-name="import" unicode="&#59308;" d="M921.6-121.60000000000002H102.4c-51.2 0-96 38.4-96 89.6V268.79999999999995c0 12.8 12.8 25.6 25.6 25.6s25.6-12.8 25.6-25.6v-300.8c0-25.6 19.2-38.4 44.8-38.4h825.6c25.6 0 44.8 19.2 44.8 38.4V268.79999999999995c0 12.8 12.8 25.6 25.6 25.6s25.6-12.8 25.6-25.6v-300.8c-6.4-51.2-51.2-89.6-102.4-89.6zM512 198.39999999999998c-12.8 0-25.6 12.8-25.6 25.6V864c0 12.8 12.8 25.6 25.6 25.6s25.6-12.8 25.6-25.6v-640c0-12.8-12.8-25.6-25.6-25.6zM512 198.39999999999998c-6.4 0-12.8 0-19.2 6.4l-256 262.4c-12.8 12.8-12.8 25.6 0 38.4s25.6 12.8 38.4 0L512 256l243.2 243.2c12.8 12.8 25.6 12.8 38.4 0s12.8-25.6 0-38.4l-262.4-262.4H512z"  horiz-adv-x="1024" />
      
      <glyph glyph-name="edit-solid" unicode="&#59311;" d="M885.028571 537.6c-29.257143 0-51.2-21.942857-51.2-51.2v-387.657143c0-36.571429-29.257143-65.828571-58.514285-65.828571H226.742857c-29.257143 0-58.514286 29.257143-58.514286 65.828571V669.257143c0 36.571429 21.942857 65.828571 58.514286 65.828571h424.228572c29.257143 0 51.2 21.942857 51.2 51.2S680.228571 837.485714 650.971429 837.485714H226.742857C138.971429 837.485714 65.828571 764.342857 65.828571 676.571429v-570.514286c0-95.085714 65.828571-160.914286 160.914286-160.914286h548.571429c87.771429 0 153.6 73.142857 160.914285 160.914286V486.4c0 29.257143-21.942857 51.2-51.2 51.2zM307.2 142.62857099999997c-14.628571 0-29.257143 7.314286-36.571429 14.628572-21.942857 21.942857-21.942857 51.2 0 73.142857l577.828572 548.571429c21.942857 21.942857 51.2 21.942857 73.142857 0 21.942857-21.942857 21.942857-51.2 0-73.142858l-577.828571-548.571428c-7.314286-14.628571-21.942857-14.628571-36.571429-14.628572z"  horiz-adv-x="1024" />
      
      <glyph glyph-name="square-plus-outline" unicode="&#58920;" d="M508.44444444 611.55555555a32 32 0 0 0 32-32v-384a32 32 0 1 0-64 0v384a32 32 0 0 0 32 32zM732.44444444 387.55555555a32 32 0 0 0-32-32h-384a32 32 0 0 0 0 64h384a32 32 0 0 0 32-32zM179.03644444 867.55555555h658.816C921.05244444 867.55555555 988.44444444 800.16355555 988.44444444 716.96355555v-658.816c0-83.2-67.392-150.592-150.592-150.592H179.03644444A150.592 150.592 0 0 0 28.44444444 58.14755554999999V716.96355555C28.44444444 800.16355555 95.83644444 867.55555555 179.03644444 867.55555555zM182.04444444 803.55555555A89.6 89.6 0 0 1 92.44444444 713.95555555v-652.8A89.6 89.6 0 0 1 182.04444444-28.44444444999999h652.8a89.6 89.6 0 0 1 89.6 89.6V713.95555555A89.6 89.6 0 0 1 834.84444444 803.55555555H182.04444444z"  horiz-adv-x="1024" />
      
      <glyph glyph-name="arrow-top" unicode="&#59363;" d="M853.33333333 420.26666667L539.73333333 733.86666667c-6.4 6.4-25.6 6.4-32 0L194.13333333 420.26666667c-12.8-12.8-12.8-25.6 0-38.4s25.6-12.8 38.4 0l268.8 268.8v-576c0-12.8 12.8-25.6 25.6-25.6s25.6 12.8 25.6 25.6v576l268.8-268.8c6.4-6.4 12.8-6.4 19.2-6.4s12.8 0 19.2 6.4c0 12.8 0 32-6.4 38.4z"  horiz-adv-x="1024" />
      
      <glyph glyph-name="arrow-down1" unicode="&#59364;" d="M853.33333333 401.06666666c-12.8 12.8-25.6 12.8-38.4 0l-268.8-268.8v576c0 12.8-12.8 25.6-25.6 25.6s-25.6-6.4-25.6-25.6v-576L232.53333333 401.06666666c-12.8 12.8-25.6 12.8-38.4 0s-12.8-25.6 0-38.4l307.2-307.2c6.4-6.4 12.8-6.4 19.2-6.4s12.8 0 19.2 6.4L853.33333333 369.06666666c6.4 6.4 6.4 25.6 0 32z"  horiz-adv-x="1024" />
      
      <glyph glyph-name="d-arrow-down" unicode="&#59403;" d="M710.656 388.096L513.024 209.91999999999996l-199.68 176.64 32.256 28.16 167.424-147.968 166.4 150.016 31.232-28.672zM710.656 529.408l-197.632-177.664-199.68 176.64 31.744 28.16 167.424-147.968L679.424 558.0799999999999l31.232-28.672z"  horiz-adv-x="1024" />
      
      <glyph glyph-name="d-arrow-up" unicode="&#59404;" d="M710.656 379.904l-31.232-28.672-166.4 150.016L345.6 353.28l-32.256 28.16 199.68 176.64 197.632-178.176zM679.424 209.91999999999996l-166.4 150.016-167.424-147.968-31.744 28.16 199.68 176.64 197.632-177.664c-0.512-0.512-31.744-29.184-31.744-29.184z"  horiz-adv-x="1024" />
      
      <glyph glyph-name="refresh" unicode="&#59456;" d="M80.457143 479.085714h7.314286l160.914285 43.885715c14.628571 7.314286 29.257143 21.942857 21.942857 36.571428-7.314286 21.942857-21.942857 29.257143-43.885714 21.942857L146.285714 559.542857c65.828571 138.971429 204.8 234.057143 365.714286 234.057143 197.485714 0 358.4-138.971429 394.971429-329.142857 0-14.628571 14.628571-29.257143 29.257142-29.257143h7.314286c14.628571 0 29.257143 21.942857 29.257143 36.571429-43.885714 219.428571-234.057143 380.342857-460.8 380.342857C329.142857 852.114286 168.228571 749.714286 87.771429 588.8L65.828571 683.885714c-7.314286 21.942857-21.942857 29.257143-43.885714 29.257143-14.628571-7.314286-21.942857-29.257143-21.942857-43.885714l43.885714-168.228572c7.314286-14.628571 21.942857-21.942857 36.571429-21.942857zM1024 128l-43.885714 168.228571c-7.314286 14.628571-21.942857 29.257143-36.571429 21.942858l-160.914286-43.885715c-14.628571-7.314286-29.257143-21.942857-21.942857-36.571428 7.314286-14.628571 21.942857-29.257143 36.571429-21.942857l87.771428 21.942857c-58.514286-146.285714-212.114286-248.685714-373.028571-248.685715-197.485714 0-365.714286 138.971429-394.971429 329.142858 0 14.628571-21.942857 29.257143-36.571428 29.257142s-29.257143-21.942857-29.257143-36.571428c43.885714-219.428571 234.057143-380.342857 460.8-380.342857 182.857143 0 351.085714 109.714286 424.228571 277.942857l21.942858-87.771429c7.314286-14.628571 14.628571-21.942857 29.257142-21.942857h7.314286c21.942857 0 29.257143 14.628571 29.257143 29.257143z"  horiz-adv-x="1024" />
      
      <glyph glyph-name="help" unicode="&#59460;" d="M512 896C226.742857 896 0 669.257143 0 384s226.742857-512 512-512 512 226.742857 512 512-226.742857 512-512 512z m0-950.857143c-241.371429 0-438.857143 197.485714-438.857143 438.857143s197.485714 438.857143 438.857143 438.857143 438.857143-197.485714 438.857143-438.857143-197.485714-438.857143-438.857143-438.857143zM504.685714 186.51428599999997c-14.628571 0-36.571429-7.314286-43.885714-14.628572-14.628571-7.314286-21.942857-29.257143-21.942857-43.885714 0-14.628571 7.314286-29.257143 21.942857-43.885714 14.628571-14.628571 29.257143-21.942857 43.885714-21.942857 14.628571 0 36.571429 7.314286 43.885715 14.628571 14.628571 14.628571 21.942857 29.257143 21.942857 43.885714 0 21.942857-7.314286 36.571429-21.942857 43.885715-7.314286 21.942857-21.942857 21.942857-43.885715 21.942857zM519.314286 705.828571c-65.828571 0-117.028571-21.942857-153.6-58.514285s-51.2-87.771429-51.2-153.6h95.085714c0 36.571429 7.314286 65.828571 21.942857 87.771428 14.628571 29.257143 43.885714 43.885714 80.457143 43.885715 29.257143 0 58.514286-7.314286 73.142857-29.257143 14.628571-14.628571 21.942857-43.885714 21.942857-73.142857 0-21.942857-7.314286-43.885714-21.942857-65.828572l-7.314286-14.628571c-58.514286-43.885714-87.771429-80.457143-102.4-109.714286-14.628571-21.942857-14.628571-51.2-14.628571-80.457143V237.71428600000002h95.085714v14.628571c0 21.942857 7.314286 43.885714 14.628572 58.514286 7.314286 14.628571 14.628571 29.257143 36.571428 43.885714 43.885714 36.571429 65.828571 58.514286 73.142857 65.828572 21.942857 29.257143 29.257143 65.828571 29.257143 109.714285 0 51.2-14.628571 95.085714-51.2 124.342857-36.571429 36.571429-80.457143 51.2-138.971428 51.2z"  horiz-adv-x="1024" />
      
      <glyph glyph-name="circle-arrow-down" unicode="&#59557;" d="M512 864C249.6 864 32 646.4 32 384s217.6-480 480-480 480 217.6 480 480S774.4 864 512 864z m0-908.8A428.8 428.8 0 1 0 512 812.8a428.8 428.8 0 0 0 0-857.6zM697.6 473.6L512 288 326.4 473.6c-12.8 12.8-25.6 12.8-38.4 0s-6.4-25.6 0-38.4l204.8-204.8c6.4-6.4 12.8-6.4 19.2-6.4s12.8 0 19.2 6.4l204.8 204.8c12.8 12.8 12.8 25.6 0 38.4s-25.6 6.4-38.4 0z"  horiz-adv-x="1024" />
      
      <glyph glyph-name="circle-arrow-up" unicode="&#59560;" d="M512 864C249.6 864 32 646.4 32 384s217.6-480 480-480 480 217.6 480 480S774.4 864 512 864z m0-908.8A428.8 428.8 0 1 0 512 812.8a428.8 428.8 0 0 0 0-857.6zM531.2 550.4c-6.4 12.8-25.6 12.8-38.4 0L288 345.6c-6.4-12.8-6.4-25.6 0-38.4s25.6-12.8 38.4 0L512 492.8l185.6-185.6c6.4-6.4 12.8-6.4 19.2-6.4s12.8 0 19.2 6.4c12.8 12.8 12.8 25.6 0 38.4L531.2 550.4z"  horiz-adv-x="1024" />
      
      <glyph glyph-name="d-arrow-right" unicode="&#59205;" d="M525.83471028 210.26260764999995l177.76392419 197.39948069-176.57087773 199.83528392-27.93717152-32.01341365 148.08689323-167.52360865-149.97588348-166.52940326 28.58340503-31.16833905zM384.50841372 210.21289737999996l177.81363447 197.44919096-176.47145719 199.73586337-27.93717154-31.96370337 147.98747269-167.52360865-150.02559374-166.52940326 28.63311531-31.16833905z"  horiz-adv-x="1024" />
      
      <glyph glyph-name="d-arrow-left" unicode="&#59209;" d="M519.49862305 210.26260764999995l-177.76392419 197.39948069 176.57087773 199.83528392 27.93717152-32.01341365-148.08689323-167.52360865 149.97588348-166.52940326-28.58340503-31.16833905zM660.82491961 210.21289737999996l-177.81363447 197.44919096 176.47145719 199.73586337 27.93717154-31.96370337-147.98747269-167.52360865 150.02559374-166.52940326-28.63311531-31.16833905z"  horiz-adv-x="1024" />
      
      <glyph glyph-name="caret-left" unicode="&#58976;" d="M278.896781 313.02910099999997c-38.921487 38.921487-38.921487 101.925644 0 140.847131L602.066754 777.046205c28.461337 28.461337 71.396603 36.975413 108.615275 21.528448 37.218672-15.446965 61.544601-51.81423 61.422972-92.073643V60.404323999999974c0-40.259413-24.325929-76.626678-61.544602-92.073643-37.218672-15.446965-80.032308-6.93289-108.615275 21.528447L279.018411 312.907471l-0.12163 0.12163z m0.12163-0.12163"  horiz-adv-x="1024" />
      
      <glyph glyph-name="caret-top" unicode="&#58977;" d="M584.47976852 639.8621097800001c19.22488191 20.67581644 46.06716966 32.28329252 74.36039192 32.28329255 28.11185563 0 55.13551001-11.78884272 74.36039341-32.28329255l340.6068713-357.83671881c19.7689818-20.85718306 30.83235803-48.78767206 30.83235803-77.98772748 0-60.93924805-47.15537093-110.45238812-105.01138333-110.4523881H318.05192251c-28.11185563 0.18136663-54.95414339 11.78884272-74.36039193 32.46465917-40.98889961 43.89076863-40.98889961 112.08468926 0 155.97545641L584.47976852 639.8621097800001z m0 0"  horiz-adv-x="1320" />
      
      <glyph glyph-name="caret-bottom" unicode="&#58978;" d="M726.60310661 146.35455162000005c-18.02332679-19.38357791-43.18797156-30.26558674-69.7128688-30.26558674-26.35486465 0-51.68954063 11.05204005-69.71286743 30.26558674L268.02845974 481.82647552c-18.53342044 19.55360912-28.90533565 45.73844256-28.90533563 73.1134945 0 57.13054505 44.20816025 103.54911386 98.44817186 103.54911385h638.80791628c26.35486465-0.17003122 51.51950943-11.05204005 69.71286743-30.43561797 38.42709338-41.14759559 38.42709338-105.07939618 0-146.22699038L726.60310661 146.35455162000005z m0 0"  horiz-adv-x="1320" />
      
      <glyph glyph-name="arrow-left" unicode="&#58975;" d="M721.385438-0.167241l42.692006 56.922675-391.404205 327.42701 391.404205 327.427011-42.692006 56.922675-462.557549-384.349686 462.557549-384.349685z m0 0"  horiz-adv-x="1024" />
      
      <glyph glyph-name="arrow-right" unicode="&#58974;" d="M314.514286-10.971428999999944l-43.885715 58.514286L672.914286 384 270.628571 720.457143l43.885715 58.514286L789.942857 384z"  horiz-adv-x="1024" />
      
      <glyph glyph-name="message-solid" unicode="&#58970;" d="M512 896C228.693333 896 0 667.3066670000001 0 384s228.693333-512 512-512 512 228.693333 512 512S795.306667 896 512 896z m37.546667-750.933333c0-20.48-17.066667-37.546667-37.546667-37.546667s-37.546667 17.066667-37.546667 37.546667v324.266666c0 20.48 17.066667 37.546667 37.546667 37.546667s37.546667-17.066667 37.546667-37.546667V145.06666700000005zM512 575.146667c-23.893333 0-40.96 17.066667-40.96 40.96S488.106667 657.066667 512 657.066667s40.96-17.066667 40.96-40.96-17.066667-40.96-40.96-40.96z"  horiz-adv-x="1024" />
      
      <glyph glyph-name="error-solid" unicode="&#58972;" d="M512 896C229.6832 896 0 666.3168000000001 0 384s229.6832-512 512-512 512 229.6832 512 512S794.3168 896 512 896M292.181333 145.91999999999996a36.5568 36.5568 0 0 0 0 51.712L680.072533 585.5232a36.590933 36.590933 0 0 0 51.746134-51.712L343.893333 145.91999999999996a36.5568 36.5568 0 0 0-51.677866 0zM680.072533 145.91999999999996L292.181333 533.8112a36.5568 36.5568 0 1 0 51.746134 51.712L731.818667 197.63199999999995a36.5568 36.5568 0 0 0-51.746134-51.712z"  horiz-adv-x="1024" />
      
      <glyph glyph-name="success-solid" unicode="&#58973;" d="M512 896C229.6832 896 0 666.3168000000001 0 384s229.6832-512 512-512 512 229.6832 512 512S794.3168 896 512 896M405.4016 161.109333l-181.930667 153.429334a36.590933 36.590933 0 0 0 47.104 55.944533l178.312534-150.4256L753.322667 563.746133a36.5568 36.5568 0 1 0 54.715733-48.5376l-307.541333-347.204266a68.266667 68.266667 0 0 0-95.095467-6.894934z"  horiz-adv-x="1024" />
      
      <glyph glyph-name="video-pause" unicode="&#58967;" d="M332.8 691.2a76.8 76.8 0 0 0 76.8-76.8v-460.8a76.8 76.8 0 0 0-153.6 0v460.8A76.8 76.8 0 0 0 332.8 691.2z m358.4 0a76.8 76.8 0 0 0 76.8-76.8v-460.8a76.8 76.8 0 0 0-153.6 0v460.8A76.8 76.8 0 0 0 691.2 691.2z"  horiz-adv-x="1024" />
      
      <glyph glyph-name="video-play" unicode="&#58968;" d="M693.9648 332.79999999999995L440.5248 97.99680000000001a82.5344 82.5344 0 0 0-110.4896 0 69.8368 69.8368 0 0 0-22.8352 51.2V618.8032000000001c0 39.936 35.0208 72.3968 78.1312 72.3968 20.6848 0 40.5504-7.5776 55.296-21.1968L693.8624 435.2a68.7104 68.7104 0 0 0 0-102.4z"  horiz-adv-x="1024" />
      
      <glyph glyph-name="delete" unicode="&#58969;" d="M658.285714 896a73.142857 73.142857 0 0 0 73.142857-73.142857v-73.142857h256a36.571429 36.571429 0 1 0 0-73.142857h-70.948571v-731.428572a73.142857 73.142857 0 0 0-73.142857-73.142857h-658.285714a73.142857 73.142857 0 0 0-73.142858 73.142857V676.571429H36.571429a36.571429 36.571429 0 0 0 0 73.142857H292.571429V822.857143a73.142857 73.142857 0 0 0 73.142857 73.142857h292.571428zM185.051429 676.571429v-731.428572h658.285714V676.571429h-658.285714zM329.142857 512a36.571429 36.571429 0 0 0 35.986286-29.988571L365.714286 475.428571v-329.142857a36.571429 36.571429 0 0 0-72.557715-6.582857L292.571429 146.28571399999998v329.142857a36.571429 36.571429 0 0 0 36.571428 36.571429z m183.076572 0a36.571429 36.571429 0 0 0 35.986285-29.988571l0.585143-6.582858v-329.142857a36.571429 36.571429 0 0 0-72.557714-6.582857l-0.585143 6.582857v329.142857a36.571429 36.571429 0 0 0 36.571429 36.571429z m182.637714 0a36.571429 36.571429 0 0 0 35.986286-29.988571l0.585142-6.582858v-329.142857a36.571429 36.571429 0 0 0-72.557714-6.582857L658.285714 146.28571399999998v329.142857a36.571429 36.571429 0 0 0 36.571429 36.571429zM365.714286 822.857143v-73.142857h292.571428V822.857143H365.714286z"  horiz-adv-x="1024" />
      
      <glyph glyph-name="minus-solid" unicode="&#58965;" d="M102.4 486.4h819.2a102.4 102.4 0 1 0 0-204.8H102.4a102.4 102.4 0 1 0 0 204.8z"  horiz-adv-x="1024" />
      
      <glyph glyph-name="plus-solid" unicode="&#58963;" d="M512.1024 896c47.104 0 85.2992-38.1952 85.2992-85.2992v-341.2992h341.4016a85.2992 85.2992 0 0 0 0-170.7008H597.4016v-341.4016a85.2992 85.2992 0 0 0-170.5984 0l-0.1024 341.4016H85.4016a85.2992 85.2992 0 0 0 0 170.5984l341.2992 0.1024V810.7008C426.8032 857.8048 464.9984 896 512.1024 896z"  horiz-adv-x="1024" />
      
      <glyph glyph-name="arrow-down" unicode="&#58964;" d="M439.1936 150.42560000000003l-23.1424 23.4496-368.0256 371.712a69.0176 69.0176 0 0 0 0 97.0752 67.584 67.584 0 0 0 96.0512 0L512 270.74559999999997l367.9232 371.9168a67.584 67.584 0 0 0 96.0512 0c26.624-26.8288 26.624-70.144 0-96.9728L607.9488 173.87519999999995l-23.1424-23.552a102.4 102.4 0 0 0-145.6128 0z"  horiz-adv-x="1024" />
      
      <glyph glyph-name="arrow-up-solid" unicode="&#58966;" d="M439.1936 638.9077333299999l-23.1424-23.4496-368.0256-371.712a69.0176 69.0176 0 0 1 0-97.0752 67.584 67.584 0 0 1 96.0512 0L512 518.58773333l367.9232-371.9168a67.584 67.584 0 0 1 96.0512 0 69.0176 69.0176 0 0 1 0 96.9728L607.9488 615.45813333l-23.1424 23.552a102.4 102.4 0 0 1-145.6128 0z"  horiz-adv-x="1024" />
      
      <glyph glyph-name="date-forward" unicode="&#58959;" d="M757.93066667 303.10400000000004L426.05226667-28.774400000000014a102.4 102.4 0 0 0-174.7968 72.3968V707.5840000000001a102.4 102.4 0 0 0 174.7968 72.4992l332.0832-332.0832a102.4 102.4 0 0 0 0-144.7936z"  horiz-adv-x="1024" />
      
      <glyph glyph-name="skip-forward" unicode="&#58960;" d="M1372.33066667 324.43733333l-331.9808-331.9808a102.4 102.4 0 0 0-174.7968 72.3968V728.91733333a102.4 102.4 0 0 0 174.7968 72.4992l332.0832-332.0832a102.4 102.4 0 0 0 0-144.7936zM757.93066667 324.43733333L426.05226667-7.441066670000055a102.4 102.4 0 0 0-174.7968 72.3968V728.91733333a102.4 102.4 0 0 0 174.7968 72.4992l332.0832-332.0832a102.4 102.4 0 0 0 0-144.7936z"  horiz-adv-x="1638" />
      
      <glyph glyph-name="d-caret" unicode="&#58961;" d="M746.78653 270.892383c39.933165 0 72.39166-34.096779 72.39166-76.077799a78.125653 78.125653 0 0 0-21.195295-53.756183L563.196365-105.708079a69.934235 69.934235 0 0 0-102.39273 0l-234.78653 246.76648a78.842402 78.842402 0 0 0 0 107.512366 70.650984 70.650984 0 0 0 51.196365 22.321616h469.57306zM460.803635 873.678385a69.934235 69.934235 0 0 0 102.39273 0l234.78653-246.664087c13.618233-14.334982 21.195295-33.584815 21.195295-53.756183 0-41.981019-32.458495-76.077798-72.39166-76.077799H277.21347a70.650984 70.650984 0 0 0-51.196365 22.321615 78.842402 78.842402 0 0 0 0 107.512367z"  horiz-adv-x="1024" />
      
      <glyph glyph-name="upload-file" unicode="&#58962;" d="M595.017143 865.52380966a146.285714 146.285714 0 0 0 103.424-42.861714l136.411428-136.338286A146.285714 146.285714 0 0 0 877.714286 582.82666666V-12.190476340000032a73.142857 73.142857 0 0 0-73.142857-73.142857H219.428571a73.142857 73.142857 0 0 0-73.142857 73.142857V792.38095266a73.142857 73.142857 0 0 0 73.142857 73.142857h375.588572zM592.457143 782.06780966a7.314286 7.314286 0 0 1-7.314286-7.314286V646.0952376600001a73.142857 73.142857 0 0 1 73.142857-73.142857h128.658286a7.314286 7.314286 0 0 1 5.12 12.434286L597.650286 779.94666666a7.314286 7.314286 0 0 1-5.193143 2.121143z"  horiz-adv-x="1024" />
      
      <glyph glyph-name="close" unicode="&#58958;" d="M198.509714 749.714286L512 436.224 825.490286 749.714286l52.224-52.224L564.224 384 877.714286 70.50971400000003l-52.224-52.224L512 331.77599999999995 198.509714 18.285713999999984 146.285714 70.50971400000003 459.776 384 146.285714 697.490286z"  horiz-adv-x="1024" />
      
      <glyph glyph-name="arrow-down-solid" unicode="&#58957;" d="M460.8 199.67999999999995L225.28 455.68c-30.72 30.72-30.72 81.92 0 112.64 10.24 10.24 30.72 20.48 51.2 20.48h471.04c40.96 0 71.68-30.72 71.68-81.92 0-20.48-10.24-40.96-20.48-51.2L563.2 199.67999999999995c-30.72-30.72-71.68-30.72-102.4 0z"  horiz-adv-x="1024" />
      
      <glyph glyph-name="search-solid" unicode="&#58955;" d="M486.4 844.8a435.2 435.2 0 0 0 341.8112-704.6144l129.6384-129.536a51.2 51.2 0 1 0-72.4992-72.4992L755.8144 67.78880000000004A435.2 435.2 0 1 0 486.4 844.8z m0-102.4a332.8 332.8 0 1 1 0-665.6 332.8 332.8 0 0 1 0 665.6z"  horiz-adv-x="1024" />
      
      <glyph glyph-name="search" unicode="&#58956;" d="M446.171429 18.285713999999984c-204.8 0-365.714286 160.914286-365.714286 365.714286s160.914286 365.714286 365.714286 365.714286 365.714286-160.914286 365.714285-365.714286-160.914286-365.714286-365.714285-365.714286z m570.514285-29.257143l-204.8 160.914286c43.885714 65.828571 73.142857 153.6 73.142857 241.371429 0 241.371429-197.485714 438.857143-438.857142 438.857143s-438.857143-197.485714-438.857143-438.857143 197.485714-438.857143 438.857143-438.857143c124.342857 0 241.371429 51.2 321.828571 138.971428l204.8-160.914285 43.885714 58.514285z"  horiz-adv-x="1024" />
      
      <glyph glyph-name="more" unicode="&#58954;" d="M81.92 465.92c-20.48 0-40.96-10.24-51.2-20.48-20.48-20.48-30.72-40.96-30.72-61.44 0-20.48 10.24-40.96 20.48-51.2 10.24-10.24 30.72-20.48 51.2-20.48s40.96 10.24 61.44 20.48c20.48 10.24 20.48 30.72 20.48 51.2s-10.24 40.96-20.48 51.2c-10.24 20.48-30.72 30.72-51.2 30.72z m430.08 0c-20.48 0-40.96-10.24-51.2-20.48-20.48-20.48-30.72-40.96-30.72-61.44 0-20.48 10.24-40.96 20.48-51.2 20.48-20.48 40.96-30.72 61.44-30.72s40.96 10.24 61.44 20.48c10.24 20.48 20.48 40.96 20.48 61.44 0 20.48-10.24 40.96-20.48 51.2-20.48 20.48-40.96 30.72-61.44 30.72z m430.08 0c20.48 0 40.96-10.24 51.2-20.48 20.48-20.48 30.72-40.96 30.72-61.44 0-20.48-10.24-40.96-20.48-51.2-20.48-20.48-40.96-30.72-61.44-30.72s-40.96 10.24-51.2 30.72c-20.48 10.24-20.48 30.72-20.48 51.2s10.24 40.96 20.48 51.2c10.24 20.48 30.72 30.72 51.2 30.72z"  horiz-adv-x="1024" />
      
      <glyph glyph-name="view" unicode="&#58953;" d="M512 736c140.8 0 262.4-64 371.2-172.8 38.4-38.4 70.4-76.8 102.4-121.6 6.4-6.4 12.8-19.2 19.2-25.6l12.8-19.2 6.4-12.8-12.8-19.2-12.8-19.2-12.8-19.2-6.4-6.4c-32-38.4-64-76.8-108.8-115.2-115.2-108.8-236.8-172.8-364.8-172.8s-249.6 64-364.8 172.8C102.4 243.20000000000005 64 281.6 32 320c-6.4 6.4-12.8 19.2-19.2 25.6L0 364.79999999999995v12.8l6.4 12.8 12.8 19.2c6.4 6.4 12.8 19.2 19.2 25.6 25.6 38.4 64 83.2 102.4 121.6C249.6 672 371.2 736 512 736z m-6.4-76.8c-115.2 0-217.6-51.2-320-153.6-32-32-64-70.4-89.6-108.8l-6.4-12.8 6.4-6.4 6.4-6.4c12.8-19.2 25.6-32 44.8-51.2l25.6-25.6 32-32c102.4-96 211.2-147.2 313.6-147.2 96 0 192 44.8 294.4 134.4l25.6 25.6 57.6 57.6 12.8 12.8 25.6 25.6 6.4 6.4-6.4 6.4v6.4l-38.4 38.4c-19.2 19.2-32 38.4-44.8 51.2l-6.4 6.4-12.8 19.2c-102.4 102.4-211.2 153.6-326.4 153.6z m0-76.8c102.4 0 185.6-89.6 185.6-198.4 0-108.8-83.2-198.4-185.6-198.4C403.2 185.60000000000002 320 275.20000000000005 320 384c6.4 108.8 83.2 198.4 185.6 198.4z m0-83.2c-57.6 0-108.8-51.2-108.8-121.6 0-64 51.2-121.6 108.8-121.6 57.6 0 108.8 57.6 108.8 121.6 0 70.4-44.8 121.6-108.8 121.6z"  horiz-adv-x="1024" />
      
      <glyph glyph-name="hide" unicode="&#58952;" d="M1016.91776 332.79999999999995c12.8-12.8 12.8-38.4 0-51.2-6.4-6.4-19.2-12.8-25.6-12.8-12.8 0-19.2 6.4-32 12.8L863.31776 384c-51.2-25.6-108.8-44.8-172.8-57.6l38.4-121.6c6.4-19.2-6.4-44.8-25.6-51.2h-12.8c-19.2 0-32 12.8-38.4 25.6L613.71776 320c-25.6 0-57.6-6.4-89.6-6.4-38.4 0-70.4 0-96 6.4l-44.8-128c-6.4-19.2-19.2-25.6-38.4-25.6h-12.8c-19.2 6.4-32 25.6-25.6 51.2l38.4 115.2c-70.4 12.8-128 38.4-172.8 70.4L69.71776 288c-6.4-6.4-19.2-12.8-32-12.8-6.4 0-19.2 6.4-25.6 12.8-12.8 12.8-19.2 38.4 0 57.6L114.51776 448c-38.4 32-64 64-89.6 96-19.2 19.2-12.8 38.4 0 57.6 19.2 12.8 44.8 6.4 57.6-6.4 64-83.2 160-198.4 441.6-198.4 288 0 384 115.2 435.2 198.4 12.8 19.2 32 25.6 51.2 12.8 19.2-12.8 25.6-32 12.8-51.2-25.6-44.8-57.6-76.8-96-108.8l89.6-115.2z"  horiz-adv-x="1029" />
      
      <glyph glyph-name="radio-disabled" unicode="&#58946;" d="M512 384m-475.428571 0a475.428571 475.428571 0 1 1 950.857142 0 475.428571 475.428571 0 1 1-950.857142 0ZM512-128c-285.257143 0-512 226.742857-512 512s226.742857 512 512 512 512-226.742857 512-512-226.742857-512-512-512zM512 822.857143C270.628571 822.857143 73.142857 625.371429 73.142857 384s197.485714-438.857143 438.857143-438.857143 438.857143 197.485714 438.857143 438.857143-197.485714 438.857143-438.857143 438.857143z"  horiz-adv-x="1024" />
      
      <glyph glyph-name="checkbox-disabled" unicode="&#58947;" d="M182.857143 859.428571h658.285714c80.457143 0 146.285714-65.828571 146.285714-146.285714v-658.285714c0-80.457143-65.828571-146.285714-146.285714-146.285714h-658.285714c-80.457143 0-146.285714 65.828571-146.285714 146.285714v658.285714c0 80.457143 65.828571 146.285714 146.285714 146.285714zM841.142857-128h-658.285714C80.457143-128 0-47.542857000000026 0 54.85714299999995v658.285714C0 815.542857 80.457143 896 182.857143 896h658.285714C943.542857 896 1024 815.542857 1024 713.142857v-658.285714c0-102.4-80.457143-182.857143-182.857143-182.857143z m-658.285714 950.857143C124.342857 822.857143 73.142857 771.657143 73.142857 713.142857v-658.285714c0-58.514286 51.2-109.714286 109.714286-109.714286h658.285714c58.514286 0 109.714286 51.2 109.714286 109.714286v658.285714c0 58.514286-51.2 109.714286-109.714286 109.714286h-658.285714z"  horiz-adv-x="1024" />
      
      <glyph glyph-name="top-solid" unicode="&#58948;" d="M512 384m-512 0a512 512 0 1 1 1024 0 512 512 0 1 1-1024 0ZM704 204.79999999999995h-384c-15.36 0-25.6-10.24-25.6-25.6s10.24-25.6 25.6-25.6h384c15.36 0 25.6 10.24 25.6 25.6s-10.24 25.6-25.6 25.6zM391.68 471.04c7.68 0 12.8 2.56 17.92 7.68l76.8 76.8V281.6c0-15.36 10.24-25.6 25.6-25.6s25.6 10.24 25.6 25.6V552.96l76.8-76.8c5.12-5.12 12.8-7.68 17.92-7.68s12.8 2.56 17.92 7.68c10.24 10.24 10.24 25.6 0 35.84l-117.76 117.76c-2.56 2.56-5.12 5.12-10.24 5.12-2.56 5.12-7.68 5.12-10.24 5.12-2.56 0-7.68 0-10.24-2.56-2.56 0-7.68-2.56-10.24-5.12l-117.76-117.76c-10.24-10.24-10.24-25.6 0-35.84 5.12-5.12 12.8-7.68 17.92-7.68z"  horiz-adv-x="1024" />
      
      <glyph glyph-name="success-circle" unicode="&#58949;" d="M523.377778 393.95555533m-485.451852 0a485.451852 485.451852 0 1 1 970.903704 0 485.451852 485.451852 0 1 1-970.903704 0ZM523.377778-99.08148167000002c-273.066667 0-493.037037 219.97037-493.037037 489.244445s219.97037 493.037037 493.037037 493.037037c269.274074 0 489.244444-219.97037 489.244444-489.244445s-219.97037-493.037037-489.244444-493.037037z m0 932.977778C276.859259 833.89629633 79.644444 632.88888933 79.644444 390.16296333s197.214815-439.940741 439.940741-439.940741c242.725926 0 439.940741 197.214815 439.940741 439.940741S766.103704 833.89629633 523.377778 833.89629633zM731.97037 560.82962933c11.377778-11.377778 11.377778-30.340741 3.792593-41.718518l-265.481482-299.614815c-3.792593-3.792593-7.585185-3.792593-7.585185-7.585185-11.377778-3.792593-26.548148-3.792593-34.133333 7.585185l-94.814815 109.985185c-11.377778 11.377778-7.585185 30.340741 3.792593 41.718519 11.377778 11.377778 30.340741 7.585185 37.925926-3.792593l75.851852-87.22963 242.725925 276.85926c7.585185 11.377778 26.548148 11.377778 37.925926 3.792592z"  horiz-adv-x="1024" />
      
      <glyph glyph-name="arrow-left-circle" unicode="&#58950;" d="M512 384m0 499.2a499.2 499.2 0 1 1 0-998.4 499.2 499.2 0 1 1 0 998.4ZM512-128c-281.6 0-512 230.4-512 512S230.4 896 512 896 1024 665.6 1024 384s-230.4-512-512-512zM512 870.4c-268.8 0-486.4-217.6-486.4-486.4s217.6-486.4 486.4-486.4S998.4 115.20000000000005 998.4 384 780.8 870.4 512 870.4zM614.4 158.72000000000003c-5.12 0-10.24 2.56-12.8 5.12l-204.8 204.8c-2.56 2.56-5.12 7.68-5.12 12.8s2.56 10.24 5.12 12.8l204.8 204.8c7.68 7.68 20.48 7.68 28.16 0 7.68-7.68 7.68-20.48 0-28.16l-192-192 192-189.44c7.68-7.68 7.68-20.48 0-28.16-5.12 0-10.24-2.56-15.36-2.56z"  horiz-adv-x="1024" />
      
      <glyph glyph-name="arrow-right-hover" unicode="&#58951;" d="M512 384m0-512a512 512 0 1 1 0 1024 512 512 0 1 1 0-1024ZM409.6 158.72000000000003c-5.12 0-10.24 2.56-12.8 5.12-7.68 7.68-7.68 20.48 0 28.16L588.8 384l-192 189.44c-7.68 7.68-7.68 20.48 0 28.16 7.68 7.68 20.48 7.68 28.16 0l204.8-204.8c2.56-2.56 5.12-7.68 5.12-12.8s-2.56-10.24-5.12-12.8l-204.8-204.8c-5.12-5.12-10.24-7.68-15.36-7.68z"  horiz-adv-x="1024" />
      
      <glyph glyph-name="radio" unicode="&#58941;" d="M512 384m-475.428571 0a475.428571 475.428571 0 1 1 950.857142 0 475.428571 475.428571 0 1 1-950.857142 0ZM512-128c-285.257143 0-512 226.742857-512 512s226.742857 512 512 512 512-226.742857 512-512-226.742857-512-512-512zM512 822.857143C270.628571 822.857143 73.142857 625.371429 73.142857 384s197.485714-438.857143 438.857143-438.857143 438.857143 197.485714 438.857143 438.857143-197.485714 438.857143-438.857143 438.857143z"  horiz-adv-x="1024" />
      
      <glyph glyph-name="checkbox-checked" unicode="&#58942;" d="M0 896m146.285714 0l731.428572 0q146.285714 0 146.285714-146.285714l0-731.428572q0-146.285714-146.285714-146.285714l-731.428572 0q-146.285714 0-146.285714 146.285714l0 731.428572q0 146.285714 146.285714 146.285714ZM457.654857 164.57142899999997a51.492571 51.492571 0 0 1 38.546286 17.554285l292.425143 319.634286a63.414857 63.414857 0 0 1-0.146286 84.260571 51.492571 51.492571 0 0 1-77.238857-0.073142L418.816 266.24l77.092571 0.219429-183.442285 197.632a51.492571 51.492571 0 0 1-77.238857-0.512 63.488 63.488 0 0 1 0.438857-84.260572l183.369143-197.632c9.801143-10.971429 23.917714-17.261714 38.619428-17.188571z"  horiz-adv-x="1024" />
      
      <glyph glyph-name="checkbox" unicode="&#58943;" d="M182.857143 859.428571h658.285714c80.457143 0 146.285714-65.828571 146.285714-146.285714v-658.285714c0-80.457143-65.828571-146.285714-146.285714-146.285714h-658.285714c-80.457143 0-146.285714 65.828571-146.285714 146.285714v658.285714c0 80.457143 65.828571 146.285714 146.285714 146.285714zM841.142857-128h-658.285714C80.457143-128 0-47.542857000000026 0 54.85714299999995v658.285714C0 815.542857 80.457143 896 182.857143 896h658.285714C943.542857 896 1024 815.542857 1024 713.142857v-658.285714c0-102.4-80.457143-182.857143-182.857143-182.857143z m-658.285714 950.857143C124.342857 822.857143 73.142857 771.657143 73.142857 713.142857v-658.285714c0-58.514286 51.2-109.714286 109.714286-109.714286h658.285714c58.514286 0 109.714286 51.2 109.714286 109.714286v658.285714c0 58.514286-51.2 109.714286-109.714286 109.714286h-658.285714z"  horiz-adv-x="1024" />
      
      <glyph glyph-name="radio-checked-disabled" unicode="&#58944;" d="M512 384m-475.428571 0a475.428571 475.428571 0 1 1 950.857142 0 475.428571 475.428571 0 1 1-950.857142 0ZM512-128c-285.257143 0-512 226.742857-512 512s226.742857 512 512 512 512-226.742857 512-512-226.742857-512-512-512zM512 822.857143C270.628571 822.857143 73.142857 625.371429 73.142857 384s197.485714-438.857143 438.857143-438.857143 438.857143 197.485714 438.857143 438.857143-197.485714 438.857143-438.857143 438.857143zM512 384m-292.571429 0a292.571429 292.571429 0 1 1 585.142858 0 292.571429 292.571429 0 1 1-585.142858 0Z"  horiz-adv-x="1024" />
      
      <glyph glyph-name="radio-checked" unicode="&#58945;" d="M512-128c-285.257143 0-512 226.742857-512 512s226.742857 512 512 512 512-226.742857 512-512-226.742857-512-512-512zM512 822.857143C270.628571 822.857143 73.142857 625.371429 73.142857 384s197.485714-438.857143 438.857143-438.857143 438.857143 197.485714 438.857143 438.857143-197.485714 438.857143-438.857143 438.857143zM512 384m-292.571429 0a292.571429 292.571429 0 1 1 585.142858 0 292.571429 292.571429 0 1 1-585.142858 0Z"  horiz-adv-x="1024" />
      
      <glyph glyph-name="checkbox-indeterminate" unicode="&#58939;" d="M182.857143 859.428571h658.285714c80.457143 0 146.285714-65.828571 146.285714-146.285714v-658.285714c0-80.457143-65.828571-146.285714-146.285714-146.285714h-658.285714c-80.457143 0-146.285714 65.828571-146.285714 146.285714v658.285714c0 80.457143 65.828571 146.285714 146.285714 146.285714zM841.142857-128h-658.285714C80.457143-128 0-47.542857000000026 0 54.85714299999995v658.285714C0 815.542857 80.457143 896 182.857143 896h658.285714C943.542857 896 1024 815.542857 1024 713.142857v-658.285714c0-102.4-80.457143-182.857143-182.857143-182.857143z m-658.285714 950.857143C124.342857 822.857143 73.142857 771.657143 73.142857 713.142857v-658.285714c0-58.514286 51.2-109.714286 109.714286-109.714286h658.285714c58.514286 0 109.714286 51.2 109.714286 109.714286v658.285714c0 58.514286-51.2 109.714286-109.714286 109.714286h-658.285714zM256 713.142857h512c43.885714 0 73.142857-29.257143 73.142857-73.142857v-512c0-43.885714-29.257143-73.142857-73.142857-73.142857h-512c-43.885714 0-73.142857 29.257143-73.142857 73.142857v512c0 43.885714 29.257143 73.142857 73.142857 73.142857z"  horiz-adv-x="1024" />
      
      <glyph glyph-name="checkbox-checked-disabled" unicode="&#58940;" d="M182.857143 859.428571h658.285714c80.457143 0 146.285714-65.828571 146.285714-146.285714v-658.285714c0-80.457143-65.828571-146.285714-146.285714-146.285714h-658.285714c-80.457143 0-146.285714 65.828571-146.285714 146.285714v658.285714c0 80.457143 65.828571 146.285714 146.285714 146.285714zM841.142857-128h-658.285714C80.457143-128 0-47.542857000000026 0 54.85714299999995v658.285714C0 815.542857 80.457143 896 182.857143 896h658.285714C943.542857 896 1024 815.542857 1024 713.142857v-658.285714c0-102.4-80.457143-182.857143-182.857143-182.857143z m-658.285714 950.857143C124.342857 822.857143 73.142857 771.657143 73.142857 713.142857v-658.285714c0-58.514286 51.2-109.714286 109.714286-109.714286h658.285714c58.514286 0 109.714286 51.2 109.714286 109.714286v658.285714c0 58.514286-51.2 109.714286-109.714286 109.714286h-658.285714zM460.8 164.57142899999997c14.628571 0 29.257143 7.314286 36.571429 14.628571l292.571428 321.828571c21.942857 21.942857 21.942857 58.514286 0 87.771429-14.628571 7.314286-21.942857 14.628571-36.571428 14.628571-21.942857 0-29.257143-7.314286-43.885715-14.628571l-292.571428-321.828571h80.457143L314.514286 464.457143c-14.628571 7.314286-29.257143 14.628571-43.885715 14.628571-14.628571 0-29.257143-7.314286-36.571428-14.628571-21.942857-21.942857-21.942857-58.514286 0-87.771429l182.857143-197.485714c14.628571-7.314286 29.257143-14.628571 43.885714-14.628571z"  horiz-adv-x="1024" />
      
      <glyph glyph-name="success" unicode="&#58933;" d="M461.970286-63.00038067000003L64.292571 275.65104733A85.284571 85.284571 0 0 0 54.125714 395.31276233a83.675429 83.675429 0 0 0 118.491429 10.093714l409.453714-348.818286L1281.462857 853.84533333A83.529143 83.529143 0 0 0 1399.954286 861.01333333c34.816-31.158857 38.034286-84.553143 7.314285-119.661714L717.897143-44.34895267000002a182.857143 182.857143 0 0 0-256-18.651428z"  horiz-adv-x="1462" />
      
      <glyph glyph-name="error" unicode="&#58934;" d="M53.888-74.11199999999997a76.16 76.16 0 0 0 0 107.776L862.208 842.112a76.288 76.288 0 0 0 107.904-107.776L161.664-74.11199999999997a76.16 76.16 0 0 0-107.776 0zM862.336-74.11199999999997L53.888 734.336A76.16 76.16 0 1 0 161.728 842.112l808.384-808.448a76.16 76.16 0 0 0-107.776-107.776z"  horiz-adv-x="1024" />
      
      <glyph glyph-name="menu-more" unicode="&#58938;" d="M129.006713 896h902.364417a129.689288 129.689288 0 0 0 91.260304-37.336864c24.163162-23.890132 37.746409-56.312454 37.746409-90.099926v-658.480297c0-33.85573-13.583247-66.209795-37.746409-90.099927a129.689288 129.689288 0 0 0-91.192047-37.336863H219.10664L49.418445-122.948261a32.558837 32.558837 0 0 0-32.76361-0.955605 31.808004 31.808004 0 0 0-16.654835 27.849068V768.56321c0 33.787472 13.583247 66.209795 37.746409 90.099926A129.689288 129.689288 0 0 0 129.006713 896z m173.032814-247.979571a47.712007 47.712007 0 0 1-46.688144-47.438976c0-25.664828 20.682029-46.688144 46.688144-47.370719h488.041269a47.712007 47.712007 0 0 1 46.688144 47.370719 47.712007 47.712007 0 0 1-46.688144 47.438976z m0-257.945168a47.712007 47.712007 0 0 1-46.688144-47.438977 47.780264 47.780264 0 0 1 46.688144-47.438976h294.599457a47.712007 47.712007 0 0 1 46.688143 47.438976 47.712007 47.712007 0 0 1-46.688143 47.438977z"  horiz-adv-x="1160" />
      
      <glyph glyph-name="loading1" unicode="&#58932;" d="M0 384a30.122667 30.122667 0 0 0 60.245333 0c0-249.109333 202.666667-451.754667 451.754667-451.754667S963.754667 134.91200000000003 963.754667 384 761.088 835.754667 512 835.754667A30.122667 30.122667 0 0 0 512 896c282.325333 0 512-229.674667 512-512S794.325333-128 512-128 0 101.674667 0 384z"  horiz-adv-x="1024" />
      
      <glyph glyph-name="loading" unicode="&#58931;" d="M972.8 384A460.8 460.8 0 1 1 512-76.79999999999995a51.2 51.2 0 0 1 0 102.4A358.4 358.4 0 1 0 870.4 384a51.2 51.2 0 0 1 102.4 0z"  horiz-adv-x="1024" />
      
      <glyph glyph-name="plus" unicode="&#58929;" d="M921.6 332.79999999999995H102.4C71.68 332.79999999999995 51.2 353.28 51.2 384s20.48 51.2 51.2 51.2h819.2c30.72 0 51.2-20.48 51.2-51.2s-20.48-51.2-51.2-51.2zM512-76.79999999999995c-30.72 0-51.2 20.48-51.2 51.2V793.6c0 30.72 20.48 51.2 51.2 51.2s51.2-20.48 51.2-51.2v-819.2c0-30.72-20.48-51.2-51.2-51.2z"  horiz-adv-x="1024" />
      
      <glyph glyph-name="time" unicode="&#58918;" d="M512 896a512 512 0 1 1 0-1024A512 512 0 0 1 512 896m0-73.142857c242.029714 0 438.857143-196.827429 438.857143-438.857143s-196.827429-438.857143-438.857143-438.857143-438.857143 196.827429-438.857143 438.857143 196.827429 438.857143 438.857143 438.857143m219.428571-694.857143a36.717714 36.717714 0 0 0-25.892571 10.678857L475.428571 368.859429V749.714286a36.571429 36.571429 0 0 0 73.142858 0v-350.573715l208.749714-208.676571A36.717714 36.717714 0 0 0 731.428571 128"  horiz-adv-x="1024" />
      
      <glyph glyph-name="date" unicode="&#58924;" d="M292.571429 896v-73.142857h438.857142V896h73.142858v-73.142857h219.428571v-950.857143H0V822.857143h219.428571V896z m658.285714-365.714286H73.069714L73.142857-54.85714299999995h877.714286z m-585.142857-365.714285v-73.142858H219.428571v73.142858z m219.428571 0v-73.142858H438.857143v73.142858z m219.428572 0v-73.142858H658.285714v73.142858zM365.714286 384v-73.142857H219.428571V384z m219.428571 0v-73.142857H438.857143V384z m219.428572 0v-73.142857H658.285714V384zM219.428571 749.714286H73.142857L73.069714 603.4285709999999H950.857143V749.714286h-146.285714v-73.142857h-73.142858V749.714286H292.571429v-73.142857H219.428571z"  horiz-adv-x="1024" />
      
      <glyph glyph-name="question" unicode="&#58917;" d="M512-128c-285.257143 0-512 226.742857-512 512s226.742857 512 512 512 512-226.742857 512-512-226.742857-512-512-512zM512 822.857143C270.628571 822.857143 73.142857 625.371429 73.142857 384s197.485714-438.857143 438.857143-438.857143 438.857143 197.485714 438.857143 438.857143-197.485714 438.857143-438.857143 438.857143zM504.685714 193.828571c14.628571 0 29.257143-7.314286 36.571429-14.628571 7.314286-7.314286 14.628571-21.942857 14.628571-36.571429s-7.314286-29.257143-14.628571-36.571428c-7.314286-14.628571-21.942857-14.628571-36.571429-14.628572s-29.257143 7.314286-36.571428 14.628572c-7.314286 7.314286-14.628571 21.942857-14.628572 36.571428s7.314286 29.257143 14.628572 36.571429c7.314286 7.314286 21.942857 14.628571 36.571428 14.628571z m14.628572 490.057143c58.514286 0 102.4-14.628571 131.657143-43.885714 29.257143-29.257143 51.2-65.828571 51.2-117.028571 0-36.571429-7.314286-65.828571-29.257143-95.085715l-14.628572-7.314285c-7.314286-7.314286-14.628571-21.942857-29.257143-29.257143l-43.885714-36.571429c-7.314286-14.628571-21.942857-21.942857-21.942857-36.571428-14.628571-14.628571-21.942857-36.571429-21.942857-58.514286 0-7.314286-7.314286-21.942857-21.942857-21.942857h-29.257143c-7.314286 0-21.942857 14.628571-21.942857 21.942857 0 29.257143 7.314286 51.2 14.628571 73.142857 7.314286 21.942857 36.571429 51.2 87.771429 95.085714l21.942857 21.942857 7.314286 7.314286c14.628571 21.942857 21.942857 36.571429 21.942857 58.514286 0 29.257143-7.314286 58.514286-29.257143 73.142857-14.628571 21.942857-43.885714 29.257143-73.142857 29.257143-36.571429 0-73.142857-14.628571-87.771429-36.571429-21.942857-21.942857-29.257143-51.2-36.571428-95.085714l-73.142858 7.314286c0 58.514286 14.628571 102.4 51.2 138.971428 36.571429 29.257143 87.771429 51.2 146.285715 51.2z"  horiz-adv-x="1024" />
      
    </font>
</defs>
</svg>
