<?xml version="1.0" standalone="no"?>
<!DOCTYPE svg PUBLIC "-//W3C//DTD SVG 1.1//EN" "http://www.w3.org/Graphics/SVG/1.1/DTD/svg11.dtd">
<svg xmlns="http://www.w3.org/2000/svg">
<metadata>Copyright (C) 2016 by original authors @ fontello.com</metadata>
<defs>
<font id="loop-icons" horiz-adv-x="1000" >
<font-face font-family="loop-icons" font-weight="400" font-stretch="normal" units-per-em="1000" ascent="850" descent="-150" />
<missing-glyph horiz-adv-x="1000" />
<glyph glyph-name="icon-assignments" unicode="&#xe801;" d="M353 172l-101 100-63-61 164-162 252 249-63 61z m353 461h-88v87h-51a176 176 0 0 1-340 0h-50v-87h-89a88 88 0 0 1-88-87v-609a88 88 0 0 1 88-87h618a88 88 0 0 1 88 87v609a88 88 0 0 1-88 87z m-309 130a89 89 0 0 0 77-43h-153a89 89 0 0 0 76 43z m-132-130h264v-87h-264v87z m441-696h-618v609h89v-87h441v87h88v-609z" horiz-adv-x="794" />

<glyph glyph-name="icon-backarrow" unicode="&#xe802;" d="M0 350l211 206h0l301 294 60-59-451-441 451-441-60-59-451 441h0z" horiz-adv-x="571" />

<glyph glyph-name="icon-calendar" unicode="&#xe803;" d="M875 725h-62v125h-125v-250h-63v125h-187v125h-125v-250h-63v125h-125a125 125 0 0 1-125-125v-625a125 125 0 0 1 125-125h750a125 125 0 0 1 125 125v625a125 125 0 0 1-125 125z m0-750h-750v500h750z" horiz-adv-x="1000" />

<glyph glyph-name="icon-cameraoff" unicode="&#xe804;" d="M226 551h252l105 105h-357a105 105 0 0 1-106-105v-357l106 105v252z m711-8a53 53 0 0 1-51 2l-134-67v49l248 249-74 74-926-925 74-75 176 175h396a106 106 0 0 1 106 105v73l134-67a52 52 0 0 1 23-6 56 56 0 0 1 28 8 53 53 0 0 1 25 45v315a52 52 0 0 1-25 45z m-582-413l291 292v-292h-291z m502 138l-105 52v41l105 52v-145z" horiz-adv-x="1000" />

<glyph glyph-name="icon-cameraon" unicode="&#xe805;" d="M1213 671a74 74 0 0 1-76 3l-199-106v115a162 162 0 0 1-157 167h-625a162 162 0 0 1-156-167v-666a162 162 0 0 1 156-167h625a162 162 0 0 1 157 167v115l199-106a74 74 0 0 1 76 3 85 85 0 0 1 37 71v500a85 85 0 0 1-37 71z m-1057-654v666h625v-666h-625z m938 218l-156 83v64l156 83v-230z" horiz-adv-x="1250" />

<glyph glyph-name="icon-coaching" unicode="&#xe806;" d="M185-150v198h-86a99 99 0 0 0-99 98v605a99 99 0 0 0 99 99h790a99 99 0 0 0 98-99v-610a94 94 0 0 0-98-93h-428z m-92 907v-616h185v-93l150 93h466v616h-801z" horiz-adv-x="987" />

<glyph glyph-name="icon-complete" unicode="&#xe808;" d="M1235 817a116 116 0 0 1-165 0l-691-692-183 158a113 113 0 0 1-162 0 115 115 0 0 1 0-162l274-236a115 115 0 0 1 162 0 89 89 0 0 1 12 14 3 3 0 0 1 2 2l751 751a116 116 0 0 1 0 165h0z m0 0" horiz-adv-x="1269" />

<glyph glyph-name="icon-content" unicode="&#xe809;" d="M1412-150h-1412v177h1412v-177z m470 412h-1882v176h1882v-176z m-470 412h-1412v176h1412v-176z" horiz-adv-x="1882" />

<glyph glyph-name="icon-documents" unicode="&#xe80a;" d="M726 576l-250 250a82 82 0 0 1-59 24h-334a83 83 0 0 1-83-83v-834a83 83 0 0 1 83-83h584a83 83 0 0 1 83 83v584a83 83 0 0 1-24 59z m-143-559h-416v666h215l201-200v-466z" horiz-adv-x="750" />

<glyph glyph-name="icon-duration" unicode="&#xe80b;" d="M500-150a500 500 0 1 0 500 500 501 501 0 0 0-500-500z m0 857a357 357 0 1 1 357-357 357 357 0 0 1-357 357z m214-428h-285v357h142v-215h143v-142z" horiz-adv-x="1000" />

<glyph glyph-name="icon-email" unicode="&#xe80c;" d="M1167 850h-1000a167 167 0 0 1-167-167v-666a167 167 0 0 1 167-167h1000a167 167 0 0 1 166 167v666a167 167 0 0 1-166 167z m-177-167l-323-230-324 230h647z m-823-666v588l451-322a82 82 0 0 1 97 0l452 322v-588h-1000z" horiz-adv-x="1333" />

<glyph glyph-name="icon-exitsession" unicode="&#xe80d;" d="M0 300h580l-115-114 71-71 235 235-235 236-71-71 114-115h-579v-100z m130 200a400 400 0 1 0 0-300h-107a500 500 0 1 1 0 300h107z" horiz-adv-x="1000" />

<glyph glyph-name="icon-filter" unicode="&#xe80e;" d="M800-150h-800v200h800v-200z m200 400h-1000v200h1000v-200z m200 400h-1200v200h1200v-200z" horiz-adv-x="1200" />

<glyph glyph-name="icon-invite" unicode="&#xe80f;" d="M438-150v62c0 221 205 376 500 376s500-155 500-376v-62h-1000z m500 500a250 250 0 1 0 250 250 250 250 0 0 0-250-250z m-625-125h-125v188h-188v125h188v187h125v-187h187v-125h-187v-188z" horiz-adv-x="1438" />

<glyph glyph-name="icon-loopsession" unicode="&#xe810;" d="M683 427a22 22 0 0 1-23 1l-58-31v33a48 48 0 0 1-46 49h-182a48 48 0 0 1-46-49v-183a48 48 0 0 1 46-49h182a48 48 0 0 1 46 49v34l58-31a22 22 0 0 1 10-3 22 22 0 0 1 13 4 25 25 0 0 1 10 21v134a25 25 0 0 1-10 21z m44-392a385 385 0 0 0-228-74 389 389 0 0 0-314 617l12 16-79 79-16-21a495 495 0 0 1-102-302 500 500 0 0 1 500-500 494 494 0 0 1 301 102l21 16-78 79z m-228 815a494 494 0 0 1-301-102l-21-16 78-79 17 12a385 385 0 0 0 227 74 389 389 0 0 0 315-617l-12-16 79-79 16 21a500 500 0 0 1-398 802z" horiz-adv-x="999" />

<glyph glyph-name="icon-newsession" unicode="&#xe812;" d="M1323 37a85 85 0 0 0-45-13 82 82 0 0 0-38 10l-219 111v-121a173 173 0 0 0-171-174h-679a173 173 0 0 0-171 174v652a173 173 0 0 0 171 174h679a173 173 0 0 0 171-174v-120l219 111a85 85 0 0 0 83-4 87 87 0 0 0 41-74v-478a88 88 0 0 0-41-74z m-550 359h-227v227h-91v-227h-228v-91h228v-228h91v228h227v91z" horiz-adv-x="1364" />

<glyph glyph-name="icon-pin" unicode="&#xe815;" d="M741 833a60 60 0 0 1-85 0 61 61 0 0 1-13-22 391 391 0 0 0-175-198 657 657 0 0 0-312-65 60 60 0 0 1-23-5 60 60 0 0 1-32-79 60 60 0 0 1 13-19l195-196-303-364a22 22 0 0 1 31-30l363 303 195-195a59 59 0 0 1 19-13 60 60 0 0 1 84 55 653 653 0 0 0 65 312 390 390 0 0 0 198 174 59 59 0 0 1 21 14 60 60 0 0 1 0 85z" horiz-adv-x="1000" />

<glyph glyph-name="icon-responses" unicode="&#xe817;" d="M687 533h-374l187 196-115 121-383-402 383-402 115 122-187 195h374a334 334 0 0 0 326-342v-170h162v170a502 502 0 0 1-488 512z" horiz-adv-x="1175" />

<glyph glyph-name="icon-search" unicode="&#xe818;" d="M999-40l-289 290a380 380 0 0 1 64 213 389 389 0 1 1-174-323l290-290z m-845 503a233 233 0 1 0 233-233 233 233 0 0 0-233 233z" horiz-adv-x="1000" />

<glyph glyph-name="icon-sessions" unicode="&#xe819;" d="M1035-150h-932a102 102 0 0 0-103 100v800a102 102 0 0 0 103 100h932a102 102 0 0 0 103-100v-800a102 102 0 0 0-103-100z m-932 900v-800h932v800h-932z m569-650h-413a51 51 0 0 0-52 50v400a51 51 0 0 0 52 50h413a51 51 0 0 0 52-50v-36l143 35a54 54 0 0 0 44-10 49 49 0 0 0 20-39v-300a49 49 0 0 0-20-39 52 52 0 0 0-44-10l-143 35v-36a51 51 0 0 0-52-50z m-362 100h311v50a49 49 0 0 0 20 39 52 52 0 0 0 44 10l143-35v172l-143-35a55 55 0 0 0-44 10 49 49 0 0 0-20 39v50h-311v-300z" horiz-adv-x="1138" />

<glyph glyph-name="icon-showdoc" unicode="&#xe81a;" d="M571 850h-471a100 100 0 0 1-100-100v-800a100 100 0 0 1 100-100h600a100 100 0 0 1 100 100v671z m129-900h-600v800h400v-200h200v-600z m-500 450h300v-100h-300v100z m0-200h400v-100h-400v100z" horiz-adv-x="800" />

<glyph glyph-name="icon-showme" unicode="&#xe81b;" d="M500 350a250 250 0 1 1-250 250 250 250 0 0 1 250-250z m0-62c-294 0-500-155-500-376v-62h1000v62c0 221-206 376-500 376z" horiz-adv-x="1000" />

<glyph glyph-name="icon-sort" unicode="&#xe81c;" d="M558 565l-279 285-279-285 84-85 136 139v-399h119v399l136-139z m-339-407h119v-121h-119v121z m0-188h119v-121h-119v121z" horiz-adv-x="558" />

<glyph glyph-name="icon-views" unicode="&#xe81e;" d="M955 516v168a163 163 0 0 1-160 166h-636a163 163 0 0 1-159-166v-668a163 163 0 0 1 159-166h636a163 163 0 0 1 160 166v168l318-168v668z" horiz-adv-x="1273" />

<glyph glyph-name="loop-logo" unicode="&#xe81f;" d="M728 35a385 385 0 0 0-228-74 389 389 0 0 0-315 617l12 17-79 78-16-21a500 500 0 0 1 700-700l21 16-79 79z m-228 815a494 494 0 0 1-302-101l-21-17 79-79 16 12a385 385 0 0 0 228 75 389 389 0 0 0 315-618l-12-16 79-79 16 21a500 500 0 0 1-398 802z" horiz-adv-x="1000" />

<glyph glyph-name="icon-notificationbubble" unicode="&#xe821;" d="M500 850a500 500 0 1 0-500-500 500 500 0 0 0 500 500z" horiz-adv-x="1000" />

<glyph glyph-name="icon-select" unicode="&#xe826;" d="M0 4h923v-154h-923v154z m462 231a76 76 0 0 0-59 27l-385 462a77 77 0 0 0-11 81 77 77 0 0 0 70 45h769a77 77 0 0 0 70-45 77 77 0 0 0-11-81l-384-462a76 76 0 0 0-59-27z m-221 461l221-264 220 264h-441z" horiz-adv-x="923" />

<glyph glyph-name="icon-emptyactivity" unicode="&#xe827;" d="M83 725h750v-83h-750v83z m0-167h584v-83h-584v83z m0-166h834v-84h-834v84z m0-167h584v-83h-584v83z m0-167h750v-83h-750v83z" horiz-adv-x="1000" />

<glyph glyph-name="icon-emptydoc" unicode="&#xe828;" d="M683 808h-475c-45 0-83-37-83-83v-750c0-46 38-83 83-83h584c46 0 83 37 83 83v642l-192 191z m-475-833v750h417v-167h167l0-583h-584z m209 83h250l-125 209-125-209z m229 334c33 0 62-29 62-63s-29-62-62-62c-33 0-63 29-63 62s30 63 63 63z m-354 208h208v-83h-208v83z m0-125h250v-83h-250v83z m0-125h166v-83h-166v83z" horiz-adv-x="1000" />

<glyph glyph-name="icon-pause(1)" unicode="&#xe82b;" d="M100 850h150a100 100 0 0 0 100-100v-800a100 100 0 0 0-100-100h-150a100 100 0 0 0-100 100v800a100 100 0 0 0 100 100z m650 0h150a100 100 0 0 0 100-100v-800a100 100 0 0 0-100-100h-150a100 100 0 0 0-100 100v800a100 100 0 0 0 100 100z" horiz-adv-x="1000" />

<glyph glyph-name="icon-play(1)" unicode="&#xe82c;" d="M0-93v888a55 55 0 0 0 55 55 71 71 0 0 0 30-10c35-20 723-409 783-444a55 55 0 0 0 20-75c-5-10-15-15-20-20-45-25-733-414-783-444a56 56 0 0 0-75 20 71 71 0 0 0-10 30z" horiz-adv-x="895" />

<glyph glyph-name="icon-stop(1)" unicode="&#xe82d;" d="M950 676a168 168 0 0 1-159 174h-632a168 168 0 0 1-159-174v-650a168 168 0 0 1 159-176h632a168 168 0 0 1 159 174z" horiz-adv-x="951" />

<glyph glyph-name="icon-record(1)" unicode="&#xe82e;" d="M500 850a500 500 0 1 0-500-500 500 500 0 0 0 500 500z" horiz-adv-x="1000" />

<glyph glyph-name="icon-menu(1)" unicode="&#xe82f;" d="M1059-150h-1059v177h1059z m0 412h-1059v176h1059z m0 412h-1059v176h1059z" horiz-adv-x="1059" />

<glyph glyph-name="icon-pin(1)" unicode="&#xe830;" d="M740 832a59 59 0 0 1-83 0l0 0a68 68 0 0 1-14-21 390 390 0 0 0-173-196 660 660 0 0 0-311-65 52 52 0 0 1-23-5 59 59 0 0 1-18-99l192-196-305-365a22 22 0 0 1 30-30l363 303 195-196a54 54 0 0 1 20-13 64 64 0 0 1 23-4 59 59 0 0 1 55 37 54 54 0 0 1 5 23 652 652 0 0 0 68 311 387 387 0 0 0 198 176 59 59 0 0 1 24 96l0 0z" horiz-adv-x="1001" />

<glyph glyph-name="icon-scenario" unicode="&#xe832;" d="M200-150v200h-100a100 100 0 0 0-100 100v600a100 100 0 0 0 100 100h800a100 100 0 0 0 100-100v-600a100 100 0 0 0-100-100h-433z m-100 900v-600h200v-100l134 100h466v600z m300-150h400v-100h-400z m0-200h400v-100h-400z m-150 213a63 63 0 1 0-62-63 63 63 0 0 0 62 63z m0-200a63 63 0 1 0-62-63 63 63 0 0 0 62 63z" horiz-adv-x="1000" />

<glyph glyph-name="icon-topic_1" unicode="&#xe835;" d="M654 812h655v-308h-655z m0-616h655v-308h-655z m-462 654a192 192 0 1 0-192-192 192 192 0 0 0 192 192z m0-615a192 192 0 1 0-192-193 192 192 0 0 0 192 193z" horiz-adv-x="1309" />

<glyph glyph-name="icon-close" unicode="&#xe836;" d="M1001-84l-67-67-434 434-434-434-67 67 434 434-434 434 67 67 434-434 434 434 67-67-434-434z" horiz-adv-x="1000" />

<glyph glyph-name="icon-star" unicode="&#xe837;" d="M815-150a52 52 0 0 0-28 9l-277 182-278-182a52 52 0 0 0-58 1 50 50 0 0 0-19 54l93 323-233 230a50 50 0 0 0-11 54 51 51 0 0 0 47 31h274l139 273a53 53 0 0 0 91 0l139-273h274a51 51 0 0 0 47-31 50 50 0 0 0-11-54l-233-230 93-323a50 50 0 0 0-19-54 51 51 0 0 0-30-10z" horiz-adv-x="1019" />

<glyph glyph-name="icon-assignmentcheck" unicode="&#xe838;" d="M542 246l-335 323-207-199 541-520 834 801-207 199z" horiz-adv-x="1375" />

<glyph glyph-name="setup-session-icon" unicode="&#xe839;" d="M404 27h-161v242h-243v162h243v243h161v-243h243v-162h-243v-242z m1184-177h-764v177h764v-177z m294 412h-1058v176h1058v-176z m-294 412h-764v176h764v-176z" horiz-adv-x="1882" />
</font>
</defs>
</svg>
