<?xml version="1.0" standalone="no"?>
<!DOCTYPE svg PUBLIC "-//W3C//DTD SVG 1.1//EN" "http://www.w3.org/Graphics/SVG/1.1/DTD/svg11.dtd" >
<svg xmlns="http://www.w3.org/2000/svg">
<metadata>Generated by IcoMoon</metadata>
<defs>
<font id="mdfonticon-hardware" horiz-adv-x="1024">
<font-face units-per-em="1024" ascent="960" descent="-64" />
<missing-glyph horiz-adv-x="1024" />
<glyph unicode="&#x20;" d="" horiz-adv-x="512" />
<glyph unicode="&#xe600;" d="M896 832h-768c-47.147 0-85.333-38.187-85.333-85.333v-128h85.333v128h768v-597.333h-298.667v-85.333h298.667c47.147 0 85.333 38.187 85.333 85.333v597.333c0 47.147-38.187 85.333-85.333 85.333zM42.667 192v-128h128c0 70.613-57.387 128-128 128zM42.667 362.667v-85.333c117.76 0 213.333-95.573 213.333-213.333h85.333c0 164.907-133.76 298.667-298.667 298.667zM42.667 533.333v-85.333c212.053 0 384-171.947 384-384h85.333c0 259.2-210.133 469.333-469.333 469.333z" />
<glyph unicode="&#xe601;" d="M42.667 192v-128h128c0 70.613-57.387 128-128 128zM42.667 362.667v-85.333c117.76 0 213.333-95.573 213.333-213.333h85.333c0 164.907-133.76 298.667-298.667 298.667zM810.667 661.333h-597.333v-69.76c168.96-54.613 302.293-187.947 356.907-356.907h240.427v426.667zM42.667 533.333v-85.333c212.053 0 384-171.947 384-384h85.333c0 259.2-210.133 469.333-469.333 469.333zM896 832h-768c-47.147 0-85.333-38.187-85.333-85.333v-128h85.333v128h768v-597.333h-298.667v-85.333h298.667c47.147 0 85.333 38.187 85.333 85.333v597.333c0 47.147-38.187 85.333-85.333 85.333z" />
<glyph unicode="&#xe602;" d="M853.333 192c47.147 0 84.907 38.187 84.907 85.333l0.427 426.667c0 47.147-38.187 85.333-85.333 85.333h-682.667c-47.147 0-85.333-38.187-85.333-85.333v-426.667c0-47.147 38.187-85.333 85.333-85.333h-170.667v-85.333h1024v85.333h-170.667zM170.667 704h682.667v-426.667h-682.667v426.667z" />
<glyph unicode="&#xe603;" d="M896 874.667h-768c-47.147 0-85.333-38.187-85.333-85.333v-512c0-47.147 38.187-85.333 85.333-85.333h298.667l-85.333-128v-42.667h341.333v42.667l-85.333 128h298.667c47.147 0 85.333 38.187 85.333 85.333v512c0 47.147-38.187 85.333-85.333 85.333zM896 362.667h-768v426.667h768v-426.667z" />
<glyph unicode="&#xe604;" d="M896 874.667h-768c-47.147 0-85.333-38.187-85.333-85.333v-512c0-47.147 38.187-85.333 85.333-85.333h298.667v-85.333h-85.333v-85.333h341.333v85.333h-85.333v85.333h298.667c47.147 0 85.333 38.187 85.333 85.333v512c0 47.147-38.187 85.333-85.333 85.333zM896 277.333h-768v512h768v-512z" />
<glyph unicode="&#xe605;" d="M341.333-21.333h341.333v85.333h-341.333v-85.333zM682.667 916.907l-341.333 0.427c-47.147 0-85.333-38.187-85.333-85.333v-597.333c0-47.147 38.187-85.333 85.333-85.333h341.333c47.147 0 85.333 38.187 85.333 85.333v597.333c0 47.147-38.187 84.907-85.333 84.907zM682.667 320h-341.333v426.667h341.333v-426.667z" />
<glyph unicode="&#xe606;" d="M640 640v234.667h-256v-234.667l128-128 128 128zM320 576h-234.667v-256h234.667l128 128-128 128zM384 256v-234.667h256v234.667l-128 128-128-128zM704 576l-128-128 128-128h234.667v256h-234.667z" />
<glyph unicode="&#xe607;" d="M512 917.333c-212.053 0-384-171.947-384-384v-298.667c0-70.613 57.387-128 128-128h128v341.333h-170.667v85.333c0 164.907 133.76 298.667 298.667 298.667s298.667-133.76 298.667-298.667v-85.333h-170.667v-341.333h128c70.613 0 128 57.387 128 128v298.667c0 212.053-171.947 384-384 384z" />
<glyph unicode="&#xe608;" d="M512 917.333c-212.053 0-384-171.947-384-384v-298.667c0-70.613 57.387-128 128-128h128v341.333h-170.667v85.333c0 164.907 133.76 298.667 298.667 298.667s298.667-133.76 298.667-298.667v-85.333h-170.667v-341.333h170.667v-42.667h-298.667v-85.333h256c70.613 0 128 57.387 128 128v426.667c0 212.053-171.947 384-384 384z" />
<glyph unicode="&#xe609;" d="M853.333 746.667h-682.667c-47.147 0-84.907-38.187-84.907-85.333l-0.427-426.667c0-47.147 38.187-85.333 85.333-85.333h682.667c47.147 0 85.333 38.187 85.333 85.333v426.667c0 47.147-38.187 85.333-85.333 85.333zM469.333 618.667h85.333v-85.333h-85.333v85.333zM469.333 490.667h85.333v-85.333h-85.333v85.333zM341.333 618.667h85.333v-85.333h-85.333v85.333zM341.333 490.667h85.333v-85.333h-85.333v85.333zM298.667 405.333h-85.333v85.333h85.333v-85.333zM298.667 533.333h-85.333v85.333h85.333v-85.333zM682.667 234.667h-341.333v85.333h341.333v-85.333zM682.667 405.333h-85.333v85.333h85.333v-85.333zM682.667 533.333h-85.333v85.333h85.333v-85.333zM810.667 405.333h-85.333v85.333h85.333v-85.333zM810.667 533.333h-85.333v85.333h85.333v-85.333z" />
<glyph unicode="&#xe60a;" d="M661.333 512c35.413 0 64 28.587 64 64s-28.587 64-64 64-64-28.587-64-64 28.587-64 64-64zM362.667 512c35.413 0 64 28.587 64 64s-28.587 64-64 64-64-28.587-64-64 28.587-64 64-64zM512 213.333c111.36 0 205.867 71.253 241.067 170.667h-482.133c35.2-99.413 129.707-170.667 241.067-170.667zM511.787 896c-235.733 0-426.453-190.933-426.453-426.667s190.72-426.667 426.453-426.667c235.733 0 426.88 190.933 426.88 426.667s-191.147 426.667-426.88 426.667zM512 128c-188.587 0-341.333 152.747-341.333 341.333s152.747 341.333 341.333 341.333 341.333-152.747 341.333-341.333-152.747-341.333-341.333-341.333z" />
<glyph unicode="&#xe60b;" d="M316.373 609.707l195.627-195.627 195.627 195.627 60.373-60.373-256-256-256 256z" />
<glyph unicode="&#xe60c;" d="M657.707 263.040l-195.627 195.627 195.627 195.627-60.373 60.373-256-256 256-256z" />
<glyph unicode="&#xe60d;" d="M366.293 257.707l195.627 195.627-195.627 195.627 60.373 60.373 256-256-256-256z" />
<glyph unicode="&#xe60e;" d="M316.373 302.293l195.627 195.627 195.627-195.627 60.373 60.373-256 256-256-256z" />
<glyph unicode="&#xe60f;" d="M896 490.667h-604.587l152.96 152.96-60.373 60.373-256-256 256-256 60.373 60.373-152.96 152.96h604.587z" />
<glyph unicode="&#xe610;" d="M512 600.96l195.627-195.627 60.373 60.373-256 256-256-256 60.373-60.373 195.627 195.627zM256 192h512v85.333h-512v-85.333z" />
<glyph unicode="&#xe611;" d="M256 533.333c-47.147 0-85.333-38.187-85.333-85.333s38.187-85.333 85.333-85.333 85.333 38.187 85.333 85.333-38.187 85.333-85.333 85.333zM768 533.333c-47.147 0-85.333-38.187-85.333-85.333s38.187-85.333 85.333-85.333 85.333 38.187 85.333 85.333-38.187 85.333-85.333 85.333zM512 533.333c-47.147 0-85.333-38.187-85.333-85.333s38.187-85.333 85.333-85.333 85.333 38.187 85.333 85.333-38.187 85.333-85.333 85.333z" />
<glyph unicode="&#xe612;" d="M853.333 832h-682.667c-47.147 0-84.907-38.187-84.907-85.333l-0.427-426.667c0-47.147 38.187-85.333 85.333-85.333h682.667c47.147 0 85.333 38.187 85.333 85.333v426.667c0 47.147-38.187 85.333-85.333 85.333zM469.333 704h85.333v-85.333h-85.333v85.333zM469.333 576h85.333v-85.333h-85.333v85.333zM341.333 704h85.333v-85.333h-85.333v85.333zM341.333 576h85.333v-85.333h-85.333v85.333zM298.667 490.667h-85.333v85.333h85.333v-85.333zM298.667 618.667h-85.333v85.333h85.333v-85.333zM682.667 320h-341.333v85.333h341.333v-85.333zM682.667 490.667h-85.333v85.333h85.333v-85.333zM682.667 618.667h-85.333v85.333h85.333v-85.333zM810.667 490.667h-85.333v85.333h85.333v-85.333zM810.667 618.667h-85.333v85.333h85.333v-85.333zM512-21.333l170.667 170.667h-341.333l170.667-170.667z" />
<glyph unicode="&#xe613;" d="M810.667 661.333v-170.667h-561.92l152.96 152.96-60.373 60.373-256-256 256-256 60.373 60.373-152.96 152.96h647.253v256z" />
<glyph unicode="&#xe614;" d="M494.293 643.627l152.96-152.96h-604.587v-85.333h604.587l-152.96-152.96 60.373-60.373 256 256-256 256-60.373-60.373zM853.333 704v-512h85.333v512h-85.333z" />
<glyph unicode="&#xe615;" d="M512 320c70.613 0 127.573 57.387 127.573 128l0.427 256c0 70.827-57.173 128-128 128-70.613 0-128-57.173-128-128v-256c0-70.613 57.387-128 128-128zM738.133 448c0-128-108.16-217.6-226.133-217.6-117.76 0-226.133 89.6-226.133 217.6h-72.533c0-145.707 116.053-266.027 256-286.72v-139.947h85.333v139.947c139.947 20.693 256 141.013 256 286.72h-72.533z" />
<glyph unicode="&#xe616;" d="M853.333 192c46.933 0 85.333 38.4 85.333 85.333v426.667c0 46.933-38.4 85.333-85.333 85.333h-682.667c-46.933 0-85.333-38.4-85.333-85.333v-426.667c0-46.933 38.4-85.333 85.333-85.333h-170.667v-85.333h1024v85.333h-170.667zM170.667 704h682.667v-426.667h-682.667v426.667z" />
<glyph unicode="&#xe617;" d="M938.667 192v640h-853.333v-640h-85.333v-85.333h1024v85.333h-85.333zM597.333 192h-170.667v42.667h170.667v-42.667zM853.333 320h-682.667v426.667h682.667v-426.667z" />
<glyph unicode="&#xe618;" d="M853.333 192c47.147 0 84.907 38.187 84.907 85.333l0.427 469.333c0 47.147-38.187 85.333-85.333 85.333h-682.667c-47.147 0-85.333-38.187-85.333-85.333v-469.333c0-47.147 38.187-85.333 85.333-85.333h-170.667c0-47.147 38.187-85.333 85.333-85.333h853.333c47.147 0 85.333 38.187 85.333 85.333h-170.667zM170.667 746.667h682.667v-469.333h-682.667v469.333zM512 149.333c-23.467 0-42.667 19.2-42.667 42.667s19.2 42.667 42.667 42.667 42.667-19.2 42.667-42.667-19.2-42.667-42.667-42.667z" />
<glyph unicode="&#xe619;" d="M853.333 192v42.667c47.147 0 84.907 38.187 84.907 85.333l0.427 426.667c0 47.147-38.187 85.333-85.333 85.333h-682.667c-47.147 0-85.333-38.187-85.333-85.333v-426.667c0-47.147 38.187-85.333 85.333-85.333v-42.667h-170.667v-85.333h1024v85.333h-170.667zM170.667 746.667h682.667v-426.667h-682.667v426.667z" />
<glyph unicode="&#xe61a;" d="M640 576h-256v-256h256v256zM554.667 405.333h-85.333v85.333h85.333v-85.333zM896 490.667v85.333h-85.333v85.333c0 47.147-38.187 85.333-85.333 85.333h-85.333v85.333h-85.333v-85.333h-85.333v85.333h-85.333v-85.333h-85.333c-47.147 0-85.333-38.187-85.333-85.333v-85.333h-85.333v-85.333h85.333v-85.333h-85.333v-85.333h85.333v-85.333c0-47.147 38.187-85.333 85.333-85.333h85.333v-85.333h85.333v85.333h85.333v-85.333h85.333v85.333h85.333c47.147 0 85.333 38.187 85.333 85.333v85.333h85.333v85.333h-85.333v85.333h85.333zM725.333 234.667h-426.667v426.667h426.667v-426.667z" />
<glyph unicode="&#xe61b;" d="M554.667 914.347v-338.347h298.667c0 174.080-130.347 317.44-298.667 338.347zM170.667 320c0-188.587 152.747-341.333 341.333-341.333s341.333 152.747 341.333 341.333v170.667h-682.667v-170.667zM469.333 914.347c-168.32-20.907-298.667-164.267-298.667-338.347h298.667v338.347z" />
<glyph unicode="&#xe61c;" d="M682.667 917.333h-341.333c-70.613 0-128-57.387-128-128v-682.667c0-70.613 57.387-128 128-128h341.333c70.613 0 128 57.387 128 128v682.667c0 70.613-57.387 128-128 128zM597.333 64h-170.667v42.667h170.667v-42.667zM736 192h-448v597.333h448v-597.333z" />
<glyph unicode="&#xe61d;" d="M661.333 917.333h-341.333c-58.88 0-106.667-47.787-106.667-106.667v-725.333c0-58.88 47.787-106.667 106.667-106.667h341.333c58.88 0 106.667 47.787 106.667 106.667v725.333c0 58.88-47.787 106.667-106.667 106.667zM490.667 21.333c-35.413 0-64 28.587-64 64s28.587 64 64 64 64-28.587 64-64-28.587-64-64-64zM682.667 192h-384v597.333h384v-597.333z" />
<glyph unicode="&#xe61e;" d="M170.667 704h768v85.333h-768c-47.147 0-85.333-38.187-85.333-85.333v-469.333h-85.333v-128h597.333v128h-426.667v469.333zM981.333 618.667h-256c-23.467 0-42.667-19.2-42.667-42.667v-426.667c0-23.467 19.2-42.667 42.667-42.667h256c23.467 0 42.667 19.2 42.667 42.667v426.667c0 23.467-19.2 42.667-42.667 42.667zM938.667 234.667h-170.667v298.667h170.667v-298.667z" />
<glyph unicode="&#xe61f;" d="M938.667 704v85.333h-647.68l85.333-85.333h562.347zM81.92 889.813l-54.4-54.4 77.44-77.44c-11.947-14.72-19.627-33.493-19.627-53.973v-469.333h-85.333v-128h756.48l100.48-100.48 54.187 54.4-829.227 829.227zM170.667 692.267l457.813-457.6h-457.813v457.6zM981.333 618.667h-256c-23.467 0-42.667-19.2-42.667-42.667v-178.347l85.333-85.333v221.013h170.667v-298.667h-93.013l128-128h7.68c23.467 0 42.667 19.2 42.667 42.667v426.667c0 23.467-19.2 42.667-42.667 42.667z" />
<glyph unicode="&#xe620;" d="M512 917.333l-384-170.667v-256c0-237.013 163.627-458.027 384-512 220.373 53.973 384 274.987 384 512v256l-384 170.667zM512 448.427h298.667c-22.613-175.787-139.733-332.373-298.667-381.227v380.8h-298.667v243.2l298.667 132.693v-375.467z" />
<glyph unicode="&#xe621;" d="M852.907 789.333c0 47.147-37.76 85.333-84.907 85.333h-341.333l-256-256v-512c0-47.147 38.187-85.333 85.333-85.333h512.427c47.147 0 84.907 38.187 84.907 85.333l-0.427 682.667zM384 149.333h-85.333v85.333h85.333v-85.333zM725.333 149.333h-85.333v85.333h85.333v-85.333zM384 320h-85.333v170.667h85.333v-170.667zM554.667 149.333h-85.333v170.667h85.333v-170.667zM554.667 405.333h-85.333v85.333h85.333v-85.333zM725.333 320h-85.333v170.667h85.333v-170.667z" />
<glyph unicode="&#xe622;" d="M725.333 916.907l-426.667 0.427c-47.147 0-85.333-38.187-85.333-85.333v-768c0-47.147 38.187-85.333 85.333-85.333h426.667c47.147 0 85.333 38.187 85.333 85.333v768c0 47.147-38.187 84.907-85.333 84.907zM725.333 149.333h-426.667v597.333h426.667v-597.333z" />
<glyph unicode="&#xe623;" d="M725.333 874.667h-426.667c-47.147 0-85.333-38.187-85.333-85.333v-682.667c0-47.147 38.187-84.907 85.333-84.907l426.667-0.427c47.147 0 85.333 38.187 85.333 85.333v682.667c0 47.147-38.187 85.333-85.333 85.333zM512 789.333c47.147 0 85.333-38.187 85.333-85.333s-38.187-85.333-85.333-85.333-85.333 38.187-85.333 85.333 38.187 85.333 85.333 85.333zM512 106.667c-117.76 0-213.333 95.573-213.333 213.333s95.573 213.333 213.333 213.333 213.333-95.573 213.333-213.333-95.573-213.333-213.333-213.333zM512 448c-70.613 0-128-57.387-128-128s57.387-128 128-128 128 57.387 128 128-57.387 128-128 128z" />
<glyph unicode="&#xe624;" d="M896 789.333h-768c-47.147 0-85.333-38.187-85.333-85.333v-512c0-47.147 38.187-85.333 85.333-85.333h768c47.147 0 84.907 38.187 84.907 85.333l0.427 512c0 47.147-38.187 85.333-85.333 85.333zM810.667 192h-597.333v512h597.333v-512z" />
<glyph unicode="&#xe625;" d="M768 960h-512c-70.613 0-128-57.387-128-128v-768c0-70.613 57.387-128 128-128h512c70.613 0 128 57.387 128 128v768c0 70.613-57.387 128-128 128zM597.333 21.333h-170.667v42.667h170.667v-42.667zM821.333 149.333h-618.667v682.667h618.667v-682.667z" />
<glyph unicode="&#xe626;" d="M789.333 960h-597.333c-58.88 0-106.667-47.787-106.667-106.667v-810.667c0-58.88 47.787-106.667 106.667-106.667h597.333c58.88 0 106.667 47.787 106.667 106.667v810.667c0 58.88-47.787 106.667-106.667 106.667zM490.667-21.333c-35.413 0-64 28.587-64 64s28.587 64 64 64 64-28.587 64-64-28.587-64-64-64zM810.667 149.333h-640v682.667h640v-682.667z" />
<glyph unicode="&#xe627;" d="M896 832h-768c-47.147 0-85.333-38.187-85.333-85.333v-512c0-47.147 38.187-85.333 85.333-85.333h213.333v-85.333h341.333v85.333h213.333c47.147 0 84.907 38.187 84.907 85.333l0.427 512c0 47.147-38.187 85.333-85.333 85.333zM896 234.667h-768v512h768v-512z" />
<glyph unicode="&#xe628;" d="M853.333 448c0 108.587-50.773 205.227-129.92 267.733l-40.747 244.267h-341.333l-40.747-244.267c-79.147-62.507-129.92-159.147-129.92-267.733s50.773-205.227 129.92-267.733l40.747-244.267h341.333l40.747 244.267c79.147 62.507 129.92 159.147 129.92 267.733zM256 448c0 141.44 114.56 256 256 256s256-114.56 256-256-114.56-256-256-256-256 114.56-256 256z" />
</font>
</defs>
</svg>
