<?xml version="1.0" standalone="no"?>
<!DOCTYPE svg PUBLIC "-//W3C//DTD SVG 1.1//EN" "http://www.w3.org/Graphics/SVG/1.1/DTD/svg11.dtd" >
<svg xmlns="http://www.w3.org/2000/svg">
<metadata>
<json>
<![CDATA[
{
	"fontFamily": "generic-icons",
	"majorVersion": 4,
	"minorVersion": 6,
	"version": "Version 4.6",
	"fontId": "generic-icons",
	"psName": "generic-icons",
	"subFamily": "Regular",
	"fullName": "generic-icons",
	"description": "Font generated by IcoMoon."
}
]]>
</json>
</metadata>
<defs>
<font id="generic-icons" horiz-adv-x="1024">
<font-face units-per-em="1024" ascent="870.850439882698" descent="-153.14956011730206" />
<missing-glyph horiz-adv-x="1024" />
<glyph unicode="&#x20;" horiz-adv-x="0" d="" />
<glyph unicode="&#xe426;" glyph-name="timer-off" data-tags="timer_off" d="M512-0.667c54 0 106 16 150 42l-408 408c-26-44-40-96-40-150 0-166 132-300 298-300zM128 683.333l758-758-54-54-108 108c-62-40-134-64-212-64-212 0-384 172-384 384 0 78 24 152 64 212l-118 118zM470 451.333v60h84v-146zM640 811.333v-86h-256v86h256zM812 659.333l60-60-60-62c52-66 84-148 84-238 0-78-24-152-64-212l-62 62c26 44 40 96 40 150 0 166-132 298-298 298-54 0-104-14-148-40l-64 62c60 40 134 64 212 64 90 0 174-32 240-84z" />
<glyph unicode="&#xe614;" glyph-name="grades" data-tags="event_available" d="M810 43.333v468h-596v-468h596zM810 725.333c46 0 86-40 86-86v-596c0-46-40-86-86-86h-596c-48 0-86 40-86 86v596c0 46 38 86 86 86h42v86h86v-86h340v86h86v-86h42zM706 381.333l-254-254-136 136 46 46 90-90 208 208z" />
<glyph unicode="&#xe7fb;" glyph-name="people" data-tags="people" d="M682 299.333c100 0 300-50 300-150v-106h-256v106c0 64-34 112-84 148 14 2 28 2 40 2zM342 299.333c100 0 298-50 298-150v-106h-598v106c0 100 200 150 300 150zM342 383.333c-70 0-128 58-128 128s58 128 128 128 126-58 126-128-56-128-126-128zM682 383.333c-70 0-128 58-128 128s58 128 128 128 128-58 128-128-58-128-128-128z" />
<glyph unicode="&#xe800;" glyph-name="slideshare" data-tags="slideshare" d="M499.175 424.002q0-47.15-35.875-80.975t-87.125-34.85-87.125 34.85-36.9 80.975q0 48.175 36.9 82t87.125 33.825 87.125-33.825 35.875-82zM786.176 424.002q0-47.15-35.875-80.975t-87.125-34.85q-51.25 0-87.125 34.85t-36.9 80.975q0 48.175 36.9 82t87.125 33.825q51.25 0 87.125-33.825t35.875-82zM915.326 321.502v381.3q0 49.2-18.45 70.725t-63.55 20.5h-635.501q-48.175 0-64.575-19.475t-17.425-71.75v-385.4q24.6-13.325 51.25-22.55t46.125-16.4 46.125-10.25 41-6.15 39.975-2.050 32.8-1.025 32.8 2.050 25.625 1.025q38.95 0 54.325-15.375 3.075-4.1 5.125-5.125 15.375-14.35 34.85-29.725 4.1 52.275 67.65 50.225 3.075 0 21.525-1.025t24.6-1.025 25.625-1.025 30.75 1.025 30.75 2.050 34.85 5.125 35.875 7.175 37.925 11.275 38.95 15.375 41 20.5zM1008.601 323.552q-69.7-85.075-213.2-143.5 48.175-162.975-13.325-266.5-36.9-64.575-104.55-84.050-59.45-18.45-103.525 8.2-49.2 28.7-47.15 94.3l-1.025 186.55q-4.1 1.025-13.325 3.075t-13.325 3.075l-1.025-192.7q2.050-65.6-47.15-94.3-45.1-26.65-104.55-8.2-67.65 20.5-104.55 85.075-59.45 103.525-12.3 265.475-143.5 58.425-213.2 143.5-14.35 21.525-2.050 36.9t33.825-1.025q2.050-1.025 7.175-4.1t6.15-4.1v396.675q0 41 26.65 70.725t65.6 28.7h718.526q37.925 0 65.6-28.7t26.65-70.725v-396.675l12.3 8.2q21.525 15.375 33.825 1.025t-2.050-36.9z" />
<glyph unicode="&#xe801;" glyph-name="marquee" data-tags="marquee" d="M0 847.327v-146.575h146.575v146.575h-146.575zM293.15 847.327v-146.575h146.575v146.575h-146.575zM585.276 847.327v-146.575h146.575v146.575h-146.575zM878.426 847.327v-146.575h146.575v146.575h-146.575zM0 554.177v-146.575h146.575v146.575h-146.575zM878.426 554.177v-146.575h146.575v146.575h-146.575zM0 262.052v-146.575h146.575v146.575h-146.575zM878.426 262.052v-146.575h146.575v146.575h-146.575zM0-31.099v-146.575h146.575v146.575h-146.575zM293.15-31.099v-146.575h146.575v146.575h-146.575zM585.276-31.099v-146.575h146.575v146.575h-146.575zM878.426-31.099v-146.575h146.575v146.575h-146.575z" />
<glyph unicode="&#xe802;" glyph-name="graduation-cap" data-tags="graduation-cap" horiz-adv-x="1317" d="M1014.751 369.677l10.25-181.425q2.050-38.95-47.15-72.775t-134.275-53.3-184.5-20.5-184.5 20.5-134.275 53.3-47.15 72.775l10.25 181.425 328-103.525q12.3-4.1 27.675-4.1t27.675 4.1zM1318.151 554.177q0-12.3-13.325-17.425l-640.626-200.9q-2.050-1.025-5.125-1.025t-6.15 1.025l-373.1 117.875q-24.6-19.475-39.975-64.575t-19.475-101.475q35.875-20.5 35.875-62.525 0-39.975-32.8-61.5l32.8-248.050q1.025-7.175-4.1-13.325-5.125-7.175-14.35-7.175h-109.675q-8.2 0-13.325 7.175-6.15 6.15-5.125 13.325l33.825 248.050q-33.825 21.525-33.825 61.5 0 42.025 36.9 63.55 7.175 117.875 56.375 188.6l-190.65 59.45q-12.3 5.125-12.3 17.425t12.3 18.45l640.626 200.9q3.075 1.025 6.15 1.025t5.125-1.025l640.626-200.9q13.325-5.125 13.325-18.45z" />
<glyph unicode="&#xe803;" glyph-name="columns" data-tags="columns" horiz-adv-x="951" d="M91.225-31.099h348.5v659.076h-366.95v-640.626q0-7.175 6.15-13.325t12.3-5.125zM878.426-12.649v640.626h-365.925v-659.076h347.475q8.2 0 13.325 5.125t5.125 13.325zM952.226 682.302v-694.951q0-37.925-27.675-64.575t-64.575-27.675h-768.751q-36.9 0-64.575 27.675t-26.65 64.575v694.951q0 37.925 26.65 64.575t64.575 27.675h768.751q37.925 0 64.575-27.675t27.675-64.575z" />
<glyph unicode="&#xe804;" glyph-name="mail" data-tags="mail" d="M0-53.649l332.1 350.55 180.4-102.5 180.4 102.5 332.1-350.55h-1025.001zM0 63.201v424.35l260.35-150.675zM0 578.777v144.525h1025.001v-144.525l-512.5-292.125zM764.651 336.877l260.35 150.675v-424.35z" />
<glyph unicode="&#xe805;" glyph-name="attach" data-tags="attach" horiz-adv-x="963" d="M250.1-167.424q-104.55 0-174.25 73.8-73.8 71.75-75.85 170.15t86.1 194.75l508.4 508.4q82 82 178.35 55.35 45.1-12.3 80.975-48.175t48.175-80.975q26.65-98.4-55.35-180.4l-485.85-485.85q-41-41-90.2-47.15-49.2-4.1-82 28.7-30.75 24.6-27.675 75.85t48.175 94.3l340.3 342.35q24.6 26.65 51.25 0t0-51.25l-340.3-340.3q-45.1-45.1-20.5-71.75 12.3-8.2 24.6-6.15 24.6 4.1 47.15 26.65l485.85 485.85q51.25 51.25 34.85 110.7-16.4 61.5-77.9 77.9-55.35 14.35-110.7-36.9l-506.35-506.35q-67.65-77.9-65.6-146.575t53.3-119.925q51.25-49.2 119.925-51.25t144.525 63.55l508.4 506.35q24.6 24.6 51.25 0 26.65-22.55 0-49.2l-508.4-508.4q-84.050-84.050-190.65-84.050z" />
<glyph unicode="&#xe806;" glyph-name="edit" data-tags="edit" d="M508.4 169.801l65.6 66.625-87.125 87.125-65.6-66.625v-31.775h54.325v-55.35h32.8zM759.526 581.852q-9.225 9.225-18.45 0l-200.9-200.9q-9.225-9.225 0-18.45t18.45 0l200.9 200.9q9.225 9.225 0 18.45zM805.651 242.577v-108.65q0-68.675-48.175-116.85t-116.85-48.175h-475.6q-68.675 0-116.85 48.175t-48.175 116.85v475.6q0 67.65 48.175 115.825t116.85 49.2h475.6q35.875 0 66.625-14.35 9.225-4.1 10.25-13.325 2.050-10.25-5.125-16.4l-27.675-28.7q-8.2-8.2-18.45-4.1-13.325 3.075-25.625 3.075h-475.6q-37.925 0-64.575-26.65t-27.675-64.575v-475.6q0-37.925 27.675-64.575t64.575-27.675h475.6q37.925 0 64.575 27.675t26.65 64.575v71.75q0 7.175 5.125 12.3l36.9 36.9q8.2 8.2 20.5 4.1t11.275-16.4zM750.301 663.852l165.025-164-384.375-384.375h-165.025v164zM1004.501 589.027l-52.275-53.3-165.025 165.025 52.275 53.3q16.4 15.375 38.95 15.375t38.95-15.375l87.125-87.125q16.4-16.4 16.4-38.95t-16.4-38.95z" />
<glyph unicode="&#xe807;" glyph-name="mail-1" data-tags="mail-1" d="M952.226-12.649v438.7q-18.45-20.5-39.975-36.9-152.725-117.875-243.95-193.725-28.7-24.6-47.15-37.925t-49.2-28.7-58.425-13.325h-2.050q-26.65 0-58.425 13.325t-49.2 28.7-47.15 37.925q-90.2 75.85-243.95 193.725-21.525 16.4-39.975 36.9v-438.7q0-7.175 6.15-13.325t12.3-5.125h842.551q7.175 0 12.3 5.125t6.15 13.325zM952.226 588.002v14.35t-1.025 7.175-1.025 7.175-3.075 5.125-5.125 4.1-8.2 2.050h-842.551q-7.175 0-12.3-6.15t-6.15-12.3q0-96.35 85.075-162.975 109.675-86.1 228.575-180.4 4.1-3.075 20.5-17.425t25.625-21.525 25.625-17.425 28.7-16.4 24.6-5.125h2.050q11.275 0 24.6 5.125t28.7 16.4 25.625 17.425 25.625 21.525 20.5 17.425q118.9 94.3 229.6 180.4 30.75 24.6 57.4 66.625t26.65 74.825zM1025.001 609.527v-622.176q0-37.925-26.65-64.575t-64.575-27.675h-842.551q-36.9 0-64.575 27.675t-26.65 64.575v622.176q0 37.925 26.65 64.575t64.575 26.65h842.551q37.925 0 64.575-26.65t26.65-64.575z" />
<glyph unicode="&#xe808;" glyph-name="mail-alt" data-tags="mail-alt" d="M1025.001 441.427v-454.075q0-37.925-26.65-64.575t-64.575-27.675h-842.551q-36.9 0-64.575 27.675t-26.65 64.575v454.075q25.625-27.675 57.4-50.225 207.050-140.425 284.95-196.8 32.8-24.6 52.275-37.925t54.325-27.675 62.525-13.325h2.050q28.7 0 62.525 13.325t54.325 27.675 52.275 37.925q97.375 69.7 284.95 196.8 32.8 22.55 57.4 50.225zM1025.001 609.527q0-45.1-27.675-86.1t-69.7-70.725q-215.25-149.65-268.55-185.525-5.125-4.1-23.575-17.425t-30.75-22.55-29.725-18.45-32.8-15.375-28.7-5.125h-2.050q-12.3 0-27.675 5.125t-32.8 15.375-30.75 18.45-30.75 22.55-23.575 17.425q-52.275 35.875-150.675 103.525t-116.85 82q-35.875 23.575-66.625 65.6t-31.775 78.925q0 44.075 23.575 73.8t67.65 29.725h842.551q36.9 0 64.575-26.65t26.65-64.575z" />
<glyph unicode="&#xe809;" glyph-name="bullhorn" data-tags="bullhorn" horiz-adv-x="1243" d="M257.275 406.577c9.225 0 16.4 9.225 16.4 18.45s-7.175 16.4-16.4 16.4h-102.5c-9.225 0-18.45-7.175-18.45-16.4s9.225-18.45 18.45-18.45h102.5zM257.275 332.777c9.225 0 16.4 9.225 16.4 17.425s-7.175 17.425-16.4 17.425h-102.5c-9.225 0-18.45-8.2-18.45-17.425s9.225-17.425 18.45-17.425h102.5zM472.525 318.427c121.975 0 216.275-43.050 297.25-124.025v385.4c-79.95-84.050-175.275-129.15-297.25-129.15v-132.225zM981.951 543.927l-33.825 34.85 140.425 139.4 34.85-32.8zM1007.576 364.552v49.2h235.75v-49.2h-235.75zM948.126 189.277l33.825 34.85 141.45-141.45-34.85-32.8zM816.926 718.177c20.5 0 36.9-15.375 36.9-34.85v-591.426c0-19.475-16.4-34.85-36.9-34.85s-35.875 15.375-35.875 34.85c-60.475 73.8-166.050 169.125-324.925 169.125h-65.6l143.5-241.9-87.125-63.55c-21.525-11.275-45.1 3.075-57.4 18.45l-178.35 287h-96.35s-89.175 48.175-89.175 125.050 89.175 120.95 89.175 120.95h341.325c158.875 0 264.45 98.4 324.925 176.3 0 19.475 15.375 34.85 35.875 34.85z" />
<glyph unicode="&#xe80a;" glyph-name="canal" data-tags="canal" horiz-adv-x="1090" d="M346.45 714.077c-3.075-5.125-3.075-44.075-3.075-87.125 3.075-104.55 0-103.525 114.8-103.525h86.1l2.050 74.825c2.050 80.975-5.125 111.725-29.725 117.875-7.175 2.050-49.2 4.1-91.225 4.1-55.35 2.050-76.875 0-78.925-6.15zM577.076 704.852c-14.35-13.325-14.35-21.525-13.325-98.4l2.050-83.025 83.025-2.050c114.8-3.075 115.825-2.050 118.9 111.725l2.050 86.1h-89.175c-80.975 0-91.225-1.025-103.525-14.35zM359.775 487.552c-17.425-16.4-18.45-20.5-18.45-99.425v-82h88.15c88.15 0 89.175 0 103.525 18.45 13.325 16.4 15.375 29.725 15.375 100.45v80.975h-86.1c-80.975 0-86.1-1.025-102.5-18.45zM562.726 425.027c0-70.725 2.050-84.050 14.35-100.45 14.35-18.45 16.4-18.45 104.55-18.45h88.15l-2.050 86.1c-3.075 113.775-3.075 113.775-120.95 113.775h-84.050v-80.975zM443.825 226.177c-3.075-4.1-4.1-43.050-3.075-86.1 1.025-53.3-1.025-78.925-6.15-86.1-7.175-8.2-25.625-11.275-79.95-11.275-94.3 0-98.4 2.050-98.4 63.55 0 31.775 4.1 51.25 9.225 56.375 5.125 4.1 35.875 8.2 68.675 10.25 47.15 1.025 60.475 5.125 67.65 14.35 5.125 9.225 5.125 16.4 0 23.575-6.15 9.225-20.5 11.275-75.85 11.275-37.925 0-75.85-4.1-84.050-8.2-22.55-12.3-35.875-50.225-35.875-103.525 0-52.275 13.325-91.225 34.85-102.5 9.225-5.125 61.5-7.175 132.225-7.175h117.875v80.975c0 56.375 3.075 82 9.225 87.125 4.1 4.1 32.8 5.125 62.525 3.075l53.3-4.1 2.050-83.025 2.050-84.050h239.85l18.45 21.525c24.6 28.7 24.6 62.525 1.025 90.2-14.35 16.4-22.55 19.475-66.625 21.525-52.275 3.075-69.7 12.3-58.425 29.725 4.1 7.175 24.6 9.225 72.775 10.25l66.625 1.025v49.2l-60.475 2.050c-78.925 3.075-110.7-9.225-126.075-46.125-10.25-24.6-10.25-28.7 2.050-51.25 16.4-31.775 39.975-43.050 84.050-43.050s60.475-8.2 49.2-26.65c-6.15-10.25-19.475-12.3-79.95-14.35-90.2-2.050-93.275 0-93.275 78.925 0 52.275-2.050 61.5-15.375 74.825-25.625 23.575-55.35 30.75-116.85 29.725-30.75-1.025-63.55 1.025-71.75 3.075-10.25 3.075-17.425 2.050-21.525-5.125z" />
<glyph unicode="&#xe80b;" glyph-name="absence" data-tags="absence" d="M552.476 780.702c-66.625-57.4-246-241.9-287-295.2-83.025-111.725-106.6-165.025-110.7-258.3-4.1-98.4 23.575-183.475 75.85-235.75 33.825-33.825 56.375-43.050 108.65-45.1l44.075-2.050 3.075-20.5c5.125-27.675 34.85-58.425 61.5-63.55 46.125-8.2 90.2 19.475 98.4 63.55l3.075 21.525h83.025c75.85 0 85.075 1.025 108.65 12.3 49.2 23.575 88.15 74.825 110.7 146.575 10.25 32.8 12.3 49.2 12.3 105.575-1.025 76.875-7.175 106.6-38.95 165.025l-19.475 36.9 133.25 311.6-19.475 44.075-18.45 44.075h-310.575l-37.925-30.75zM674.451 550.077l-25.625-25.625h-246l25.625 25.625 24.6 25.625h246l-24.6-25.625zM721.601 383.002c53.3-21.525 88.15-92.25 88.15-178.35 0-65.6-21.525-126.075-57.4-159.9-33.825-33.825-67.65-33.825-101.475-3.075-64.575 58.425-80.975 187.575-35.875 277.775 16.4 32.8 35.875 52.275 61.5 63.55 22.55 10.25 22.55 10.25 45.1 0zM334.15 784.802c-8.2-8.2-8.2-127.1 0-136.325 9.225-9.225 28.7-7.175 34.85 4.1 3.075 5.125 5.125 34.85 5.125 66.625 0 44.075-1.025 57.4-8.2 63.55-9.225 10.25-22.55 11.275-31.775 2.050zM167.075 711.002c-14.35-13.325-9.225-24.6 34.85-67.65 36.9-36.9 45.1-42.025 57.4-41s15.375 4.1 16.4 16.4c2.050 13.325-4.1 21.525-39.975 57.4-44.075 44.075-54.325 49.2-68.675 34.85zM95.325 547.002c-4.1-4.1-8.2-11.275-8.2-16.4 0-18.45 11.275-21.525 74.825-21.525 64.575 0 73.8 3.075 73.8 23.575 0 19.475-9.225 22.55-71.75 22.55-48.175 0-62.525-1.025-68.675-8.2z" />
<glyph unicode="&#xe80c;" glyph-name="bookmark" data-tags="bookmark" horiz-adv-x="732" d="M666.251 774.552q12.3 0 24.6-5.125 19.475-8.2 29.725-23.575t11.275-35.875v-736.976q0-19.475-11.275-35.875t-29.725-23.575q-10.25-4.1-24.6-4.1-27.675 0-48.175 18.45l-252.15 241.9-252.15-241.9q-20.5-19.475-47.15-19.475-13.325 0-25.625 5.125-18.45 7.175-29.725 23.575t-11.275 35.875v736.976q0 19.475 11.275 35.875t29.725 23.575q12.3 5.125 25.625 5.125h599.626z" />
<glyph unicode="&#xe80d;" glyph-name="inbox-1" data-tags="inbox-1" horiz-adv-x="879" d="M585.276 297.927h180.4q0 2.050-1.025 5.125t-2.050 4.1l-120.95 283.925h-404.875l-120.95-283.925q-1.025-1.025-2.050-4.1t-1.025-5.125h180.4l54.325-109.675h183.475zM878.426 281.527v-275.725q0-15.375-10.25-25.625t-26.65-11.275h-804.626q-15.375 0-25.625 11.275t-11.275 25.625v275.725q0 34.85 14.35 69.7l136.325 315.7q5.125 14.35 20.5 24.6t29.725 9.225h476.625q14.35 0 29.725-9.225t20.5-24.6l136.325-315.7q14.35-34.85 14.35-69.7z" />
<glyph unicode="&#xe80e;" glyph-name="reservation" data-tags="reservation" d="M317.75 793.002c-17.425-7.175-20.5-18.45-20.5-99.425 0-70.725 1.025-80.975 9.225-88.15 5.125-5.125 15.375-9.225 22.55-9.225 29.725 1.025 34.85 16.4 34.85 102.5 0 69.7 0 72.775-12.3 85.075s-18.45 14.35-33.825 9.225zM676.501 786.852c-12.3-9.225-12.3-13.325-14.35-79.95-2.050-75.85 0-90.2 12.3-102.5 11.275-11.275 34.85-10.25 45.1 1.025 7.175 8.2 8.2 22.55 8.2 89.175 0 85.075-2.050 93.275-25.625 99.425-9.225 2.050-17.425 0-25.625-7.175zM138.375 682.302c-14.35-8.2-27.675-20.5-37.925-35.875-13.325-21.525-15.375-30.75-17.425-75.85l-2.050-51.25h863.051l-2.050 50.225c-2.050 60.475-13.325 86.1-46.125 107.625-19.475 13.325-25.625 14.35-84.050 15.375l-63.55 2.050v-41c0-36.9-1.025-43.050-13.325-56.375-16.4-20.5-42.025-25.625-62.525-13.325s-26.65 27.675-26.65 71.75v37.925h-266.5v-37.925c0-44.075-5.125-59.45-26.65-71.75-20.5-12.3-45.1-7.175-62.525 13.325-11.275 13.325-13.325 19.475-13.325 56.375v39.975h-57.4c-51.25 0-61.5-1.025-80.975-11.275zM82 231.302c0-294.175 1.025-297.25 35.875-329.025 11.275-10.25 26.65-20.5 34.85-22.55 18.45-5.125 702.126-5.125 720.576 0 7.175 2.050 22.55 12.3 33.825 22.55 35.875 31.775 35.875 34.85 35.875 329.025v257.275h-861.001v-257.275zM296.225 377.877l-1.025-86.1h-184.5l-2.050 86.1-1.025 85.075h189.625l-1.025-85.075zM502.25 381.977v-80.975l-26.65 13.325c-36.9 17.425-98.4 18.45-130.175 1.025-12.3-6.15-23.575-11.275-24.6-11.275-2.050 0-3.075 35.875-3.075 79.95v78.925h184.5v-80.975zM711.351 377.877l-1.025-86.1-91.225-2.050-91.225-1.025v174.25h184.5l-1.025-85.075zM916.351 377.877l-1.025-86.1h-179.375l-2.050 86.1-1.025 85.075h184.5l-1.025-85.075zM266.5 240.527c-22.55-44.075-24.6-86.1-7.175-132.225 3.075-8.2-2.050-9.225-73.8-9.225h-77.9v169.125h174.25l-15.375-27.675zM502.25 184.152v-85.075h-184.5v169.125h184.5v-84.050zM712.376 184.152v-85.075h-79.95c-73.8 0-79.95 1.025-75.85 9.225 2.050 5.125 7.175 22.55 10.25 38.95 8.2 37.925 3.075 73.8-15.375 101.475l-13.325 19.475h174.25v-84.050zM917.376 184.152v-85.075h-184.5v169.125h184.5v-84.050zM288.025 70.376c8.2-7.175 9.225-17.425 9.225-90.2v-82l-68.675 2.050c-59.45 1.025-70.725 3.075-83.025 12.3-31.775 23.575-34.85 32.8-36.9 102.5l-2.050 63.55h86.1c72.775 0 87.125-1.025 95.325-8.2zM502.25 72.426c0-14.35-34.85-35.875-67.65-42.025-28.7-6.15-30.75-15.375-3.075-12.3 18.45 2.050 42.025 10.25 67.65 23.575 2.050 1.025 3.075-30.75 3.075-70.725v-71.75h-184.5v69.7c0 64.575 1.025 69.7 9.225 66.625 37.925-15.375 52.275-19.475 60.475-16.4 7.175 3.075 1.025 8.2-28.7 22.55-22.55 11.275-38.95 22.55-39.975 28.7-1.025 8.2 6.15 8.2 91.225 8.2 73.8 0 92.25-1.025 92.25-6.15zM712.376-10.599v-90.2h-184.5v82c0 45.1 2.050 85.075 3.075 89.175 3.075 7.175 16.4 8.2 92.25 8.2h89.175v-89.175zM917.376 15.026c-2.050-69.7-6.15-78.925-37.925-102.5-12.3-10.25-21.525-11.275-78.925-11.275h-64.575l-2.050 89.175-1.025 88.15h185.525l-1.025-63.55z" />
<glyph unicode="&#xe80f;" glyph-name="folder-open-1" data-tags="folder-open-1" d="M0-77.224v56.375l150.675 517.625h874.326l-176.3-574.001h-848.701zM0 132.901v522.75h142.475l69.7 92.25h222.425l69.7-92.25h344.4v-124.025h-742.101z" />
<glyph unicode="&#xe810;" glyph-name="chart-bar" data-tags="chart-bar" horiz-adv-x="1170" d="M365.925 334.827v-293.15h-146.575v293.15h146.575zM585.276 627.977v-586.301h-145.55v586.301h145.55zM1171.576-31.099v-73.8h-1171.576v879.451h72.775v-805.651h1098.801zM805.651 481.402v-439.725h-146.575v439.725h146.575zM1025.001 700.752v-659.076h-146.575v659.076h146.575z" />
<glyph unicode="&#xe811;" glyph-name="address-book" data-tags="address-book" d="M0-177.674v1025.001h1025.001v-182.45h-111.725v-97.375h111.725v-182.45h-111.725v-100.45h111.725v-181.425h-111.725v-98.4h111.725v-182.45h-1025.001zM197.825 114.451h516.6v158.875l-191.675 113.775q37.925 19.475 59.45 55.35t22.55 78.925q0 59.45-43.050 103.525t-105.575 44.075-104.55-44.075-43.050-103.525q0-44.075 22.55-78.925t59.45-55.35l-192.7-113.775v-158.875z" />
<glyph unicode="&#xe812;" glyph-name="book-open" data-tags="book-open" horiz-adv-x="923" d="M348.5 220.027v-69.7l-205 82v69.7zM348.5 433.227v-69.7l-205 82v69.7zM899.951 787.877q22.55-12.3 22.55-43.050v-656.001q0-34.85-32.8-47.15l-407.95-164q-8.2-2.050-10.25-2.050t-5.125-1.025-5.125-1.025-5.125 1.025-5.125 1.025l-10.25 2.050-407.95 164q-32.8 12.3-32.8 47.15v656.001q0 30.75 22.55 43.050 22.55 16.4 47.15 6.15l391.55-157.85 391.55 157.85q24.6 10.25 47.15-6.15zM410-19.824v574.001l-328 131.2v-574.001zM840.501 111.376v574.001l-328-131.2v-574.001zM779.001 302.027v-69.7l-205-82v69.7zM779.001 515.227v-69.7l-205-82v69.7z" />
<glyph unicode="&#xe813;" glyph-name="wikipedia" data-tags="wikipedia" horiz-adv-x="1134" d="M0 670.002v21.525l2.050 2.050h255.225l2.050-2.050v-20.5q0-8.2-10.25-8.2l-26.65-1.025q-33.825-1.025-33.825-20.5 0-13.325 7.175-28.7 51.25-125.050 227.55-496.1l6.15-1.025 113.775 226.525q-13.325 30.75-22.55 50.225l-77.9 153.75-20.5 41q-26.65 52.275-34.85 62.525t-33.825 13.325q-14.35 2.050-14.35 7.175v21.525l3.075 2.050h201.925l5.125-1.025v-21.525q0-8.2-10.25-8.2l-15.375-2.050q-13.325-2.050-19.475-5.125t-5.125-12.3 4.1-17.425 14.35-31.775l74.825-153.75 83.025 166.050q16.4 32.8 5.125 44.075-6.15 8.2-37.925 11.275l-9.225 1.025q-4.1 0-7.175 3.075-3.075 1.025-3.075 6.15v19.475l3.075 2.050q58.425 1.025 190.65 0l2.050-2.050v-20.5q0-8.2-9.225-8.2-22.55-1.025-30.75-4.1t-17.425-16.4q-23.575-34.85-30.75-49.2l-107.625-200.9-3.075-7.175 131.2-268.55 8.2-3.075 207.050 493.025q12.3 28.7-3.075 42.025-13.325 12.3-39.975 13.325l-19.475 1.025q-3.075 0-6.15 3.075-4.1 2.050-4.1 6.15v20.5l3.075 2.050h234.725l2.050-2.050v-20.5q0-7.175-9.225-9.225-47.15-2.050-67.65-19.475-20.5-16.4-34.85-50.225l-256.25-581.176q-10.25-23.575-22.55-30.75t-24.6 1.025-23.575 30.75q-38.95 76.875-125.050 269.575-107.625-221.4-134.275-270.6-42.025-72.775-72.775-1.025-32.8 76.875-133.25 292.125t-133.25 293.15q-16.4 43.050-28.7 53.3-11.275 10.25-53.3 13.325-14.35 2.050-14.35 7.175z" />
<glyph unicode="&#xe814;" glyph-name="share" data-tags="share" horiz-adv-x="951" d="M818.976 106.251q47.15 0 80.975-33.825t33.825-80.975-33.825-80.975-79.95-33.825-80.975 33.825-33.825 82q0 18.45 8.2 39.975l-173.225 125.050q-50.225-51.25-120.95-51.25t-120.95 50.225-51.25 121.975q0 9.225 3.075 26.65l-137.35 45.1q-16.4-14.35-36.9-14.35-24.6 0-41 16.4t-16.4 41 16.4 39.975 41 16.4q20.5 0 34.85-13.325t19.475-31.775l138.375-46.125q21.525 42.025 62.525 66.625t88.15 24.6q53.3 0 98.4-31.775l203.975 203.975q-16.4 30.75-16.4 56.375 0 47.15 33.825 80.975t80.975 33.825 79.95-33.825 33.825-80.975-33.825-79.95-80.975-33.825q-26.65 0-56.375 17.425l-203.975-205q31.775-45.1 31.775-98.4 0-37.925-17.425-74.825l173.225-124.025q33.825 26.65 72.775 26.65z" />
<glyph unicode="&#xe815;" glyph-name="share-1" data-tags="share-1" horiz-adv-x="820" d="M666.251 181.076q63.55 0 108.65-44.075t45.1-109.675q0-63.55-45.1-108.65t-108.65-45.1-108.65 45.1-45.1 108.65q0 6.15 1.025 14.35t1.025 12.3l-266.5 159.9q-43.050-32.8-94.3-32.8-63.55 0-108.65 45.1t-45.1 108.65 45.1 108.65 108.65 45.1q55.35 0 94.3-30.75l266.5 159.9q0 4.1-1.025 12.3t-1.025 12.3q0 63.55 45.1 108.65t108.65 45.1 108.65-44.075 45.1-109.675q0-63.55-45.1-108.65t-108.65-45.1q-53.3 0-92.25 32.8l-268.55-159.9q2.050-8.2 2.050-26.65 0-16.4-2.050-24.6l268.55-159.9q36.9 30.75 92.25 30.75z" />
<glyph unicode="&#xe816;" glyph-name="admission" data-tags="admission" horiz-adv-x="1074" d="M186.55 481.402c-11.275-26.65-18.45-51.25-15.375-53.3 2.050-2.050 8.2 4.1 12.3 15.375 6.15 13.325 14.35 17.425 27.675 17.425s20.5-4.1 26.65-17.425c4.1-11.275 10.25-17.425 12.3-15.375 5.125 5.125-31.775 103.525-38.95 103.525-3.075 0-13.325-22.55-24.6-50.225zM224.475 478.327c0-4.1-6.15-7.175-13.325-7.175-16.4 0-18.45 5.125-6.15 27.675 8.2 14.35 8.2 14.35 13.325 1.025 3.075-8.2 6.15-17.425 6.15-21.525zM259.325 482.427v-49.2h31.775c24.6 0 32.8 3.075 42.025 15.375 26.65 37.925-1.025 83.025-49.2 83.025h-24.6v-49.2zM316.725 510.102c16.4-9.225 18.45-43.050 2.050-58.425-5.125-6.15-18.45-11.275-27.675-11.275-15.375 0-17.425 2.050-17.425 37.925 0 34.85 2.050 38.95 15.375 38.95 7.175 0 19.475-3.075 27.675-7.175zM366.95 477.302v-54.325l4.1 45.1 4.1 46.125 17.425-44.075c9.225-24.6 18.45-42.025 21.525-39.975 4.1 2.050 11.275 19.475 17.425 37.925 16.4 48.175 22.55 48.175 19.475 0-2.050-27.675 0-42.025 5.125-42.025 4.1 0 7.175 19.475 7.175 52.275 0 64.575-13.325 71.75-31.775 18.45-6.15-19.475-13.325-36.9-16.4-38.95-4.1-1.025-12.3 13.325-19.475 32.8-21.525 55.35-30.75 51.25-28.7-13.325zM484.825 478.327c0-29.725 2.050-52.275 7.175-52.275 4.1 0 6.15 22.55 6.15 52.275 0 30.75-2.050 53.3-6.15 53.3-5.125 0-7.175-22.55-7.175-53.3zM523.775 521.377c-6.15-7.175-11.275-14.35-11.275-17.425 0-7.175 17.425-22.55 37.925-31.775 25.625-13.325 18.45-28.7-11.275-27.675-28.7 1.025-35.875-8.2-12.3-14.35 18.45-6.15 39.975 1.025 48.175 16.4s3.075 23.575-25.625 38.95c-28.7 14.35-26.65 28.7 4.1 28.7 12.3 0 21.525 2.050 20.5 7.175-4.1 11.275-37.925 11.275-50.225 0zM598.601 523.427c-15.375-15.375-9.225-33.825 15.375-46.125 31.775-14.35 30.75-33.825-2.050-33.825-24.6 0-29.725-7.175-9.225-13.325 15.375-5.125 36.9 2.050 45.1 13.325 10.25 14.35 4.1 25.625-19.475 39.975-31.775 18.45-32.8 36.9-3.075 32.8 13.325-2.050 20.5 0 20.5 6.15 0 11.275-35.875 12.3-47.15 1.025zM667.276 483.452c0-27.675 3.075-51.25 7.175-53.3 4.1-3.075 6.15 15.375 6.15 48.175 0 30.75-2.050 53.3-6.15 53.3-5.125 0-7.175-21.525-7.175-48.175zM715.451 516.252c-20.5-19.475-16.4-59.45 8.2-77.9 31.775-23.575 69.7-1.025 69.7 41 0 46.125-47.15 68.675-77.9 36.9zM770.801 509.077c5.125-5.125 8.2-18.45 8.2-30.75 0-24.6-10.25-37.925-30.75-37.925-21.525 0-31.775 13.325-31.775 37.925 0 25.625 10.25 38.95 31.775 38.95 8.2 0 17.425-3.075 22.55-8.2zM807.701 478.327c0-60.475 12.3-70.725 15.375-12.3l2.050 39.975 26.65-41c14.35-21.525 28.7-37.925 30.75-35.875 3.075 3.075 5.125 89.175 1.025 100.45 0 3.075-3.075-13.325-5.125-35.875l-4.1-42.025-26.65 39.975c-14.35 21.525-29.725 39.975-32.8 39.975-5.125 0-7.175-22.55-7.175-53.3zM175.275 349.177c-11.275-12.3-13.325-23.575-13.325-79.95 0-59.45 1.025-66.625 15.375-79.95 11.275-11.275 25.625-15.375 47.15-15.375 28.7 0 29.725 0 24.6-22.55l-5.125-20.5 37.925 20.5 38.95 22.55h270.6c330.050 0 307.5-7.175 307.5 94.3 0 103.525 34.85 94.3-370.025 94.3-330.050 0-340.3 0-353.625-13.325zM580.151 325.602c-14.35-14.35-15.375-15.375-24.6-2.050-12.3 15.375-2.050 24.6 22.55 20.5l16.4-3.075-14.35-15.375zM873.301 334.827c3.075-3.075 7.175-30.75 9.225-61.5 4.1-89.175 29.725-82-295.2-84.050-237.8 0-279.825-2.050-298.275-11.275s-22.55-10.25-26.65-2.050c-3.075 5.125-20.5 11.275-36.9 14.35-17.425 2.050-33.825 6.15-36.9 9.225-7.175 7.175-9.225 124.025-3.075 134.275 6.15 9.225 46.125 11.275 46.125 2.050 0-4.1-3.075-8.2-6.15-11.275-9.225-5.125-14.35-89.175-7.175-103.525 9.225-17.425 41-16.4 46.125 1.025 6.15 22.55 24.6 23.575 44.075 4.1 20.5-19.475 39.975-23.575 75.85-14.35 12.3 2.050 22.55 2.050 22.55-1.025 0-10.25 52.275-7.175 62.525 3.075 7.175 6.15 12.3 7.175 17.425 2.050 20.5-20.5 51.25 3.075 50.225 37.925-1.025 22.55 14.35 48.175 25.625 42.025 3.075-2.050 6.15-19.475 6.15-37.925 0-44.075 14.35-57.4 56.375-49.2 16.4 3.075 35.875 3.075 43.050 1.025 7.175-1.025 21.525 1.025 31.775 6.15 15.375 9.225 18.45 8.2 23.575-2.050 6.15-9.225 10.25-10.25 24.6-5.125 11.275 4.1 22.55 4.1 33.825-2.050 10.25-4.1 25.625-5.125 34.85-2.050 33.825 8.2 29.725 53.3-4.1 53.3-9.225 0-12.3 4.1-11.275 12.3 2.050 6.15 8.2 11.275 13.325 10.25 6.15-1.025 17.425 4.1 24.6 12.3 11.275 13.325 11.275 14.35 0 27.675-17.425 19.475-51.25 18.45-71.75-1.025l-16.4-14.35-16.4 14.35c-20.5 18.45-33.825 19.475-50.225 1.025-12.3-13.325-12.3-13.325-30.75 0-8.2 8.2-24.6 14.35-35.875 15.375-13.325 0-15.375 1.025-6.15 5.125 17.425 6.15 254.2 2.050 261.375-6.15zM346.45 334.827c-13.325-3.075-27.675-8.2-31.775-12.3-6.15-4.1-17.425-2.050-33.825 7.175l-24.6 12.3 56.375-1.025c42.025 0 50.225-2.050 33.825-6.15zM468.425 335.852c-30.75-2.050-57.4-8.2-59.45-13.325-4.1-5.125-10.25-4.1-22.55 5.125l-17.425 14.35 76.875-1.025c75.85-1.025 76.875-1.025 22.55-5.125zM275.725 314.327c32.8-12.3 28.7-56.375-5.125-56.375-14.35 0-17.425-4.1-17.425-17.425 0-11.275-4.1-18.45-11.275-18.45-8.2 0-10.25 10.25-10.25 49.2 0 53.3 4.1 58.425 44.075 43.050zM386.425 307.152c16.4-17.425 18.45-54.325 2.050-71.75-14.35-15.375-49.2-16.4-66.625-1.025-15.375 13.325-17.425 50.225-4.1 66.625 17.425 22.55 49.2 25.625 68.675 6.15zM464.325 314.327c8.2-5.125 13.325-5.125 13.325-1.025 0 3.075 16.4 7.175 34.85 6.15 25.625 0 34.85-3.075 34.85-10.25 0-5.125-6.15-9.225-13.325-9.225-13.325 0-14.35-5.125-14.35-38.95 0-29.725-2.050-38.95-10.25-38.95s-11.275 9.225-11.275 37.925v38.95l-34.85-1.025c-39.975 0-44.075-7.175-14.35-22.55 35.875-19.475 24.6-53.3-18.45-53.3-16.4 0-23.575 4.1-23.575 11.275 0 9.225 5.125 10.25 21.525 7.175 16.4-4.1 20.5-2.050 20.5 6.15 0 6.15-2.050 11.275-6.15 11.275-9.225 0-35.875 25.625-35.875 33.825 0 11.275 21.525 28.7 32.8 28.7 6.15 0 16.4-3.075 24.6-6.15zM636.526 314.327c15.375-7.175 17.425-11.275 13.325-28.7-2.050-12.3 0-20.5 3.075-20.5 10.25 0 8.2-24.6-1.025-33.825-5.125-5.125-22.55-9.225-38.95-9.225h-29.725v49.2c0 48.175 0 49.2 16.4 49.2 10.25 0 25.625-3.075 36.9-6.15zM723.651 318.427c0-2.050 7.175-23.575 17.425-49.2 16.4-45.1 16.4-47.15 3.075-47.15-7.175 0-14.35 5.125-14.35 11.275 0 7.175-6.15 10.25-20.5 10.25s-21.525-3.075-21.525-10.25c0-6.15-5.125-11.275-13.325-11.275-11.275 0-11.275 3.075 5.125 49.2 13.325 37.925 20.5 49.2 30.75 49.2 7.175 0 13.325-1.025 13.325-2.050zM824.101 316.377c18.45-7.175 5.125-21.525-16.4-18.45-17.425 3.075-21.525 0-25.625-15.375-6.15-26.65 5.125-42.025 27.675-41 12.3 1.025 18.45-2.050 18.45-9.225 0-6.15-7.175-10.25-23.575-10.25-45.1 0-63.55 56.375-27.675 84.050 19.475 15.375 28.7 17.425 47.15 10.25zM253.175 285.627c0-10.25 3.075-14.35 12.3-12.3 6.15 1.025 12.3 7.175 12.3 12.3 0 6.15-6.15 11.275-12.3 12.3-9.225 2.050-12.3-2.050-12.3-12.3zM333.125 282.552c-5.125-21.525 0-37.925 14.35-43.050 17.425-7.175 32.8 11.275 30.75 34.85-2.050 17.425-6.15 22.55-21.525 23.575-15.375 2.050-20.5-1.025-23.575-15.375zM603.726 289.727c0-6.15 6.15-11.275 14.35-11.275 7.175 0 13.325 5.125 13.325 11.275 0 5.125-6.15 10.25-13.325 10.25-8.2 0-14.35-5.125-14.35-10.25zM603.726 250.777c0-11.275 4.1-15.375 16.4-12.3 8.2 1.025 15.375 6.15 15.375 12.3 0 5.125-7.175 11.275-15.375 12.3-12.3 2.050-16.4-1.025-16.4-12.3zM703.151 284.602c-7.175-19.475-4.1-26.65 10.25-26.65 7.175 0 9.225 5.125 5.125 19.475-6.15 25.625-8.2 27.675-15.375 7.175z" />
<glyph unicode="&#xe817;" glyph-name="chat-1" data-tags="chat-1" horiz-adv-x="1208" d="M1208.476 370.702q0-129.15-80.975-238.825t-220.375-174.25-303.4-63.55q-125.050 0-239.85 39.975l2.050-3.075-365.925-109.675q45.1 60.475 72.775 129.15t31.775 108.65l4.1 38.95q-108.65 123-108.65 272.65 0 129.15 80.975 238.825t220.375 173.225 302.375 63.55 303.4-63.55 220.375-173.225 80.975-238.825zM952.226 370.702q0 29.725-21.525 51.25t-52.275 21.525q-29.725 0-51.25-21.525t-21.525-51.25q0-30.75 21.525-52.275t51.25-21.525q30.75 0 52.275 21.525t21.525 52.275zM695.976 370.702q0 29.725-21.525 51.25t-52.275 21.525q-29.725 0-51.25-21.525t-21.525-51.25q0-30.75 21.525-52.275t51.25-21.525q30.75 0 52.275 21.525t21.525 52.275zM439.725 370.702q0 29.725-21.525 51.25t-52.275 21.525q-29.725 0-51.25-21.525t-21.525-51.25q0-30.75 21.525-52.275t51.25-21.525q30.75 0 52.275 21.525t21.525 52.275z" />
<glyph unicode="&#xe818;" glyph-name="award" data-tags="award" horiz-adv-x="951" d="M262.4 342.002q-43.050 93.275-43.050 212.175h-146.575v-54.325q0-45.1 54.325-93.275t135.3-64.575zM878.426 499.852v54.325h-146.575q0-118.9-42.025-212.175 80.975 16.4 134.275 64.575t54.325 93.275zM952.226 572.627v-72.775q0-41-24.6-82t-63.55-74.825-99.425-55.35-123-25.625q-23.575-30.75-54.325-54.325-21.525-19.475-29.725-41t-8.2-51.25q0-30.75 17.425-52.275t55.35-21.525q43.050 0 76.875-25.625t32.8-65.6v-36.9q0-8.2-5.125-13.325t-13.325-5.125h-475.6q-8.2 0-13.325 5.125t-5.125 13.325v36.9q0 39.975 33.825 65.6t75.85 25.625q38.95 0 56.375 21.525t17.425 52.275q0 28.7-8.2 51.25t-29.725 41q-30.75 23.575-54.325 54.325-65.6 3.075-124.025 25.625t-98.4 55.35-64.575 74.825-23.575 82v72.775q0 23.575 16.4 38.95t38.95 16.4h164v54.325q0 37.925 27.675 64.575t64.575 27.675h329.025q37.925 0 64.575-27.675t26.65-64.575v-54.325h165.025q22.55 0 38.95-16.4t16.4-38.95z" />
<glyph unicode="&#xe819;" glyph-name="flow-cascade" data-tags="flow-cascade" horiz-adv-x="656" d="M533.001 99.076q51.25 0 87.125-35.875t35.875-87.125-35.875-87.125-87.125-35.875q-82 0-112.75 75.85h-168.1q-90.2 0-134.275 55.35t-44.075 120.95v475.6q-73.8 34.85-73.8 112.75 0 51.25 35.875 87.125t87.125 35.875 87.125-35.875 35.875-87.125q0-77.9-73.8-112.75v-116.85q0-79.95 79.95-79.95h168.1q30.75 73.8 112.75 73.8 51.25 0 87.125-35.875t35.875-87.125-35.875-87.125-87.125-35.875q-82 0-112.75 75.85h-168.1q-43.050 0-79.95 16.4v-198.85q0-79.95 79.95-79.95h168.1q30.75 73.8 112.75 73.8zM533.001 406.577q-28.7 0-50.225-20.5t-21.525-51.25q0-28.7 21.525-49.2t50.225-20.5 50.225 20.5 21.525 49.2q0 30.75-21.525 51.25t-50.225 20.5zM51.25 693.577q0-28.7 21.525-49.2t50.225-20.5 50.225 20.5 21.525 49.2q0 30.75-21.525 51.25t-50.225 20.5-50.225-20.5-21.525-51.25zM533.001-93.624q28.7 0 50.225 20.5t21.525 49.2q0 30.75-21.525 51.25t-50.225 20.5-50.225-20.5-21.525-51.25q0-28.7 21.525-49.2t50.225-20.5z" />
<glyph unicode="&#xe81a;" glyph-name="cog-alt" data-tags="cog-alt" horiz-adv-x="1098" d="M512.5 334.827q0 60.475-43.050 103.525t-103.525 43.050-103.525-43.050-43.050-103.525 43.050-103.525 103.525-43.050 103.525 43.050 43.050 103.525zM952.226 41.676q0 29.725-22.55 52.275t-51.25 21.525-51.25-21.525-21.525-52.275q0-29.725 21.525-51.25t51.25-21.525 52.275 21.525 21.525 51.25zM952.226 627.977q0 29.725-22.55 51.25t-51.25 21.525-51.25-21.525-21.525-51.25q0-30.75 21.525-52.275t51.25-21.525 52.275 21.525 21.525 52.275zM731.851 387.102v-105.575q0-6.15-4.1-11.275t-8.2-6.15l-89.175-14.35q-6.15-19.475-18.45-43.050 19.475-27.675 51.25-65.6 4.1-6.15 4.1-11.275 0-7.175-4.1-11.275-12.3-17.425-47.15-51.25t-44.075-33.825q-7.175 0-12.3 4.1l-65.6 51.25q-21.525-11.275-44.075-17.425-6.15-61.5-13.325-89.175-4.1-13.325-17.425-13.325h-106.6q-6.15 0-11.275 4.1t-5.125 10.25l-13.325 87.125q-19.475 6.15-43.050 18.45l-67.65-51.25q-4.1-4.1-11.275-4.1-6.15 0-12.3 4.1-82 76.875-82 92.25 0 5.125 4.1 10.25 5.125 8.2 23.575 30.75t26.65 34.85q-13.325 24.6-20.5 47.15l-87.125 13.325q-5.125 1.025-9.225 5.125t-4.1 11.275v106.6q0 5.125 4.1 10.25t9.225 6.15l88.15 14.35q7.175 19.475 18.45 43.050-19.475 27.675-51.25 65.6-4.1 6.15-4.1 11.275 0 7.175 4.1 12.3 12.3 16.4 47.15 50.225t45.1 33.825q6.15 0 12.3-4.1l65.6-51.25q19.475 10.25 44.075 18.45 6.15 61.5 13.325 88.15 3.075 13.325 16.4 13.325h106.6q6.15 0 11.275-4.1t6.15-10.25l13.325-87.125q19.475-6.15 43.050-17.425l66.625 50.225q5.125 4.1 12.3 4.1 6.15 0 11.275-4.1 83.025-76.875 83.025-92.25 0-5.125-4.1-10.25-7.175-9.225-24.6-30.75t-25.625-34.85q13.325-27.675 19.475-47.15l87.125-12.3q6.15-2.050 9.225-6.15t4.1-11.275zM1097.776 81.651v-79.95q0-9.225-85.075-17.425-6.15-15.375-16.4-29.725 28.7-64.575 28.7-78.925 0-2.050-2.050-4.1-69.7-41-70.725-41-5.125 0-26.65 27.675t-29.725 37.925q-11.275-1.025-17.425-1.025t-17.425 1.025q-7.175-11.275-29.725-37.925t-25.625-27.675q-1.025 0-70.725 41-3.075 2.050-3.075 4.1 0 14.35 29.725 78.925-10.25 14.35-17.425 29.725-85.075 8.2-85.075 17.425v79.95q0 9.225 85.075 18.45 7.175 16.4 17.425 29.725-29.725 64.575-29.725 78.925 0 2.050 3.075 4.1 2.050 1.025 19.475 11.275t33.825 19.475 17.425 9.225q4.1 0 25.625-26.65t29.725-38.95q12.3 1.025 17.425 1.025t17.425-1.025q28.7 41 52.275 64.575l4.1 1.025q2.050 0 70.725-39.975 2.050-2.050 2.050-4.1 0-14.35-28.7-78.925 9.225-13.325 16.4-29.725 85.075-9.225 85.075-18.45zM1097.776 667.952v-79.95q0-9.225-85.075-18.45-6.15-15.375-16.4-29.725 28.7-64.575 28.7-78.925 0-2.050-2.050-4.1-69.7-39.975-70.725-39.975-5.125 0-26.65 26.65t-29.725 38.95q-11.275-1.025-17.425-1.025t-17.425 1.025q-7.175-12.3-29.725-38.95t-25.625-26.65q-1.025 0-70.725 39.975-3.075 2.050-3.075 4.1 0 14.35 29.725 78.925-10.25 14.35-17.425 29.725-85.075 9.225-85.075 18.45v79.95q0 9.225 85.075 17.425 7.175 16.4 17.425 29.725-29.725 64.575-29.725 78.925 0 2.050 3.075 4.1 2.050 1.025 19.475 11.275t33.825 19.475 17.425 9.225q4.1 0 25.625-26.65t29.725-37.925q12.3 1.025 17.425 1.025t17.425-1.025q28.7 39.975 52.275 63.55l4.1 1.025q2.050 0 70.725-39.975 2.050-2.050 2.050-4.1 0-14.35-28.7-78.925 9.225-13.325 16.4-29.725 85.075-8.2 85.075-17.425z" />
<glyph unicode="&#xe81b;" glyph-name="folder" data-tags="folder" horiz-adv-x="951" d="M952.226 499.852v-402.825q0-52.275-37.925-90.2t-90.2-37.925h-695.976q-52.275 0-90.2 37.925t-37.925 90.2v549.401q0 52.275 37.925 90.2t90.2 37.925h183.475q52.275 0 90.2-37.925t37.925-90.2v-18.45h384.375q52.275 0 90.2-37.925t37.925-90.2z" />
<glyph unicode="&#xe81c;" glyph-name="cerise" data-tags="cerise" horiz-adv-x="777" d="M470.475 803.252c-11.275-22.55-58.425-82-105.575-134.275-47.15-51.25-82-96.35-78.925-100.45 5.125-4.1 51.25 36.9 103.525 92.25 58.425 60.475 97.375 93.275 100.45 83.025 2.050-8.2 12.3-44.075 22.55-80.975 9.225-35.875 22.55-73.8 29.725-80.975 10.25-13.325-3.075-22.55-70.725-54.325-46.125-21.525-99.425-42.025-118.9-46.125-20.5-3.075-36.9-12.3-36.9-18.45 0-13.325 172.2 51.25 214.225 79.95 35.875 26.65 33.825 28.7 54.325-45.1 12.3-38.95 12.3-37.925 7.175 11.275-4.1 48.175-2.050 53.3 35.875 83.025l41 29.725 34.85-136.325c24.6-98.4 29.725-140.425 22.55-153.75-18.45-30.75-159.9-100.45-252.15-125.050-79.95-21.525-191.675-41-191.675-31.775 0 2.050 51.25 36.9 115.825 78.925 104.55 68.675 198.85 159.9 198.85 192.7 0 6.15-12.3-7.175-27.675-29.725-14.35-22.55-61.5-66.625-103.525-96.35-88.15-66.625-288.025-171.175-332.1-173.225-44.075-4.1-39.975-20.5 5.125-20.5 201.925 0 497.125 84.050 601.676 173.225l32.8 27.675-37.925 161.95c-20.5 88.15-41 167.075-43.050 175.275-4.1 10.25-24.6-2.050-63.55-35.875-32.8-28.7-61.5-52.275-64.575-52.275-4.1 0-13.325 29.725-20.5 65.6-29.725 140.425-43.050 192.7-47.15 196.8s-15.375-13.325-25.625-35.875zM225.5 767.377c0-70.725-52.275-169.125-134.275-258.3l-66.625-70.725 34.85-139.4c20.5-77.9 37.925-134.275 38.95-125.050 2.050 8.2-11.275 70.725-28.7 140.425l-31.775 125.050 75.85 37.925c42.025 19.475 97.375 53.3 123 75.85l47.15 41-20.5 101.475c-22.55 116.85-37.925 144.525-37.925 71.75zM251.125 625.927c7.175-33.825-20.5-65.6-87.125-101.475l-31.775-17.425 21.525 32.8c88.15 134.275 88.15 133.25 97.375 86.1zM239.85 456.802c-20.5-2.050-36.9-10.25-36.9-16.4s9.225-8.2 20.5-5.125c14.35 5.125 24.6-1.025 33.825-18.45 12.3-23.575 13.325-23.575 7.175-2.050-4.1 17.425 1.025 26.65 19.475 35.875 26.65 12.3 19.475 13.325-44.075 6.15zM304.425 336.877c-15.375-25.625-54.325-75.85-88.15-111.725s-58.425-64.575-54.325-64.575c20.5 0 125.050 112.75 149.65 160.925 33.825 68.675 28.7 80.975-7.175 15.375zM61.5 24.251c-36.9-21.525-50.225-46.125-50.225-95.325 0-70.725 23.575-95.325 92.25-95.325 47.15 0 55.35 3.075 50.225 18.45-4.1 9.225-7.175 18.45-7.175 19.475 0 2.050-13.325 1.025-30.75-2.050-54.325-10.25-80.975 64.575-37.925 103.525 13.325 12.3 30.75 17.425 44.075 13.325 14.35-5.125 24.6-1.025 28.7 11.275 5.125 10.25 6.15 20.5 4.1 22.55-12.3 13.325-73.8 15.375-93.275 4.1zM180.4-82.349v-84.050h50.225c37.925 0 51.25 4.1 51.25 16.4 0 10.25-10.25 17.425-28.7 17.425-17.425 0-27.675 6.15-27.675 16.4 0 9.225 10.25 17.425 22.55 17.425s22.55 8.2 22.55 16.4c0 9.225-10.25 17.425-22.55 17.425-13.325 0-22.55 8.2-22.55 17.425 0 14.35 8.2 17.425 27.675 14.35 21.525-5.125 28.7-1.025 28.7 14.35 0 18.45-9.225 21.525-51.25 21.525h-50.225v-85.075zM304.425-82.349c0-75.85 2.050-84.050 22.55-84.050s22.55 8.2 22.55 67.65c0 38.95 4.1 67.65 11.275 67.65 17.425 0 26.65-32.8 12.3-48.175-19.475-24.6 7.175-84.050 39.975-90.2 30.75-6.15 30.75-5.125 9.225 37.925-13.325 23.575-14.35 37.925-5.125 54.325 5.125 12.3 11.275 26.65 11.275 33.825 0 24.6-37.925 46.125-79.95 46.125h-44.075v-85.075zM456.125-82.349c0-75.85 2.050-84.050 22.55-84.050s22.55 8.2 22.55 84.050c0 76.875-2.050 85.075-22.55 85.075s-22.55-8.2-22.55-85.075zM541.201-13.674c-21.525-25.625-9.225-65.6 25.625-83.025 39.975-19.475 38.95-38.95-2.050-33.825-25.625 3.075-34.85 0-38.95-15.375-4.1-17.425 1.025-20.5 42.025-20.5 53.3 0 73.8 14.35 73.8 53.3 0 17.425-12.3 30.75-41 47.15-34.85 17.425-39.975 23.575-22.55 28.7 10.25 5.125 25.625 6.15 34.85 3.075 13.325-6.15 28.7 12.3 28.7 31.775 0 13.325-88.15 3.075-100.45-11.275zM664.201-82.349v-84.050h51.25c36.9 0 50.225 4.1 50.225 16.4 0 10.25-10.25 17.425-27.675 17.425-18.45 0-28.7 6.15-28.7 16.4 0 9.225 10.25 17.425 22.55 17.425 15.375 0 22.55 8.2 22.55 21.525 0 15.375-5.125 20.5-22.55 15.375-15.375-4.1-22.55 0-22.55 12.3 0 11.275 10.25 18.45 28.7 18.45 17.425 0 27.675 6.15 27.675 16.4 0 12.3-13.325 17.425-50.225 17.425h-51.25v-85.075z" />
<glyph unicode="&#xe81d;" glyph-name="file-archive" data-tags="file-archive" horiz-adv-x="879" d="M365.925 627.977v72.775h-72.775v-72.775h72.775zM439.725 554.177v73.8h-73.8v-73.8h73.8zM365.925 481.402v72.775h-72.775v-72.775h72.775zM439.725 407.602v73.8h-73.8v-73.8h73.8zM839.476 630.027q16.4-16.4 27.675-43.050t11.275-51.25v-658.051q0-23.575-15.375-38.95t-38.95-16.4h-768.751q-23.575 0-38.95 16.4t-16.4 38.95v914.301q0 23.575 16.4 38.95t38.95 16.4h512.5q22.55 0 50.225-11.275t43.050-27.675zM585.276 769.427v-215.25h215.25q-5.125 17.425-12.3 23.575l-179.375 179.375q-6.15 7.175-23.575 12.3zM805.651-104.899v586.301h-237.8q-23.575 0-38.95 16.4t-16.4 37.925v238.825h-72.775v-73.8h-73.8v73.8h-293.15v-879.451h732.876zM446.9 308.177l61.5-199.875q4.1-15.375 4.1-29.725 0-47.15-41-78.925t-105.575-30.75-104.55 30.75-42.025 78.925q0 14.35 5.125 29.725 12.3 35.875 68.675 226.525v72.775h72.775v-72.775h45.1q13.325 0 22.55-7.175t13.325-19.475zM365.925 41.676q30.75 0 52.275 11.275t21.525 25.625-21.525 25.625-52.275 11.275-51.25-11.275-21.525-25.625 21.525-25.625 51.25-11.275z" />
<glyph unicode="&#xe81e;" glyph-name="chat2" data-tags="chat" d="M805.651 407.602q0-78.925-54.325-146.575t-146.575-106.6-201.925-38.95q-49.2 0-100.45 9.225-71.75-50.225-158.875-73.8-21.525-5.125-49.2-9.225h-2.050q-6.15 0-12.3 5.125t-6.15 12.3q-1.025 1.025-1.025 3.075t1.025 4.1 1.025 3.075l1.025 3.075t2.050 3.075 2.050 3.075 3.075 3.075 2.050 2.050q3.075 3.075 13.325 14.35t15.375 16.4 12.3 17.425 14.35 21.525 11.275 25.625q-70.725 41-110.7 100.45t-41 128.125q0 79.95 54.325 147.6t146.575 106.6 201.925 38.95 201.925-38.95 146.575-106.6 54.325-147.6zM1025.001 262.052q0-68.675-41-129.15t-110.7-100.45q5.125-14.35 11.275-25.625t14.35-21.525 13.325-16.4 14.35-17.425 13.325-14.35q0 0 2.050-2.050t3.075-3.075 2.050-3.075 2.050-3.075l1.025-3.075t1.025-3.075 1.025-4.1-1.025-3.075q-2.050-8.2-7.175-13.325t-12.3-4.1q-28.7 4.1-49.2 9.225-88.15 23.575-159.9 73.8-51.25-9.225-100.45-9.225-154.775 0-269.575 75.85 32.8-3.075 50.225-3.075 92.25 0 176.3 25.625t151.7 73.8q70.725 53.3 109.675 121.975t37.925 144.525q0 44.075-13.325 87.125 73.8-39.975 116.85-101.475t43.050-131.2z" />
<glyph unicode="&#xe81f;" glyph-name="kne" data-tags="kne" d="M74.825 802.227v-888.676h888.676v435.625h-448.95v453.050h-439.725zM374.125 690.502c2.050 0 7.175-3.075 12.3-6.15 8.2-6.15 5.125-10.25-46.125-59.45l-55.35-52.275 62.525-65.6c64.575-67.65 66.625-70.725 37.925-73.8-11.275-1.025-18.45 5.125-64.575 55.35-27.675 30.75-56.375 61.5-63.55 68.675l-12.3 14.35v-141.45h-15.375c-9.225 0-17.425 2.050-18.45 5.125s-2.050 61.5-1.025 129.15l1.025 123h31.775l2.050-57.4 2.050-58.425 9.225 9.225c32.8 33.825 114.8 109.675 117.875 109.675zM80.975 357.377h424.35v-3.075h-424.35v3.075zM792.326 344.052c7.175 0 9.225-14.35 4.1-20.5-3.075-3.075-19.475-15.375-37.925-26.65-35.875-21.525-39.975-22.55-43.050-14.35-2.050 5.125 68.675 61.5 76.875 61.5zM511.475 342.002h5.125v-418.2h-5.125v418.2zM675.476 245.652h135.3v-22.55h-99.425v-89.175h99.425v-22.55h-99.425v-103.525h116.85v-22.55h-152.725v260.35zM407.95 243.602h10.25v-256.25l-12.3-1.025c-11.275-1.025-13.325 0-90.2 82-16.4 17.425-35.875 38.95-44.075 49.2-8.2 9.225-25.625 28.7-38.95 42.025-13.325 14.35-23.575 26.65-23.575 28.7s-2.050 4.1-4.1 4.1c-3.075 0-5.125-39.975-6.15-102.5l-1.025-102.5-11.275-1.025c-6.15-1.025-13.325 0-14.35 2.050-2.050 1.025-3.075 58.425-3.075 125.050 0 92.25 1.025 124.025 5.125 126.075 14.35 9.225 23.575 3.075 60.475-37.925 21.525-23.575 53.3-57.4 70.725-75.85s35.875-39.975 42.025-47.15c7.175-8.2 18.45-20.5 25.625-27.675l13.325-13.325 1.025 98.4c1.025 55.35 3.075 100.45 6.15 103.525 2.050 3.075 8.2 5.125 14.35 4.1z" />
<glyph unicode="&#xe820;" glyph-name="docs-1" data-tags="docs-1 copy" d="M969.651 627.977q23.575 0 38.95-16.4t16.4-38.95v-694.951q0-23.575-16.4-38.95t-38.95-16.4h-548.376q-23.575 0-38.95 16.4t-16.4 38.95v164h-310.575q-23.575 0-38.95 16.4t-16.4 38.95v384.375q0 22.55 11.275 50.225t27.675 43.050l233.7 233.7q15.375 16.4 43.050 27.675t50.225 11.275h237.8q23.575 0 38.95-16.4t16.4-38.95v-187.575q38.95 23.575 72.775 23.575h237.8zM659.076 506.002l-171.175-171.175h171.175v171.175zM293.15 725.352l-171.175-171.175h171.175v171.175zM404.875 355.327l180.4 180.4v238.825h-219.35v-238.825q0-22.55-15.375-37.925t-38.95-16.4h-238.825v-365.925h293.15v146.575q0 22.55 11.275 50.225t27.675 43.050zM952.226-104.899v659.076h-220.375v-237.8q0-22.55-15.375-38.95t-38.95-15.375h-237.8v-366.95h512.5z" />
<glyph unicode="&#xe821;" glyph-name="download-cloud" data-tags="download-cloud" horiz-adv-x="1235" d="M0 256.927q2.050 55.35 23.575 105.575t64.575 89.175 97.375 62.525q65.6 28.7 157.85 15.375 39.975 80.975 115.825 130.175t168.1 50.225q85.075 0 155.8-42.025t111.725-113.775 41-151.7v-29.725h7.175q82 32.8 162.975-4.1t114.8-115.825q31.775-83.025-4.1-162.975t-115.825-115.825l-17.425-4.1t-16.4-4.1-13.325-3.075-15.375-2.050-13.325-1.025h-742.101q-86.1 0-157.85 50.225t-104.55 137.35q-23.575 53.3-20.5 109.675zM459.2 362.502q-6.15-9.225 4.1-20.5l134.275-224.475q8.2-8.2 15.375-8.2 3.075 0 7.175 2.050t6.15 4.1l1.025 2.050 143.5 224.475q6.15 12.3 0 21.525t-22.55 9.225h-53.3v104.55h-156.825v-104.55h-60.475q-12.3 0-18.45-10.25z" />
<glyph unicode="&#xe822;" glyph-name="users" data-tags="users" horiz-adv-x="1098" d="M339.275 334.827q-92.25-3.075-151.7-72.775h-76.875q-46.125 0-78.925 22.55t-31.775 67.65q0 201.925 70.725 201.925 4.1 0 25.625-11.275t55.35-24.6 67.65-12.3q38.95 0 76.875 13.325-3.075-21.525-3.075-37.925 0-79.95 46.125-146.575zM952.226-30.074q0-67.65-42.025-107.625t-110.7-39.975h-500.2q-69.7 0-110.7 39.975t-42.025 107.625q0 30.75 2.050 59.45t8.2 62.525 14.35 62.525 24.6 55.35 35.875 46.125 49.2 30.75 63.55 11.275q6.15 0 24.6-12.3t42.025-26.65 60.475-27.675 77.9-12.3 76.875 12.3 61.5 27.675 42.025 26.65 24.6 12.3q34.85 0 63.55-11.275t48.175-30.75 35.875-46.125 24.6-55.35 15.375-62.525 8.2-62.525 2.050-59.45zM365.925 700.752q0-60.475-43.050-103.525t-103.525-43.050-103.525 43.050-43.050 103.525 43.050 103.525 103.525 43.050 103.525-43.050 43.050-103.525zM768.751 481.402q0-91.225-64.575-155.8t-154.775-63.55-155.8 63.55-64.575 155.8 64.575 154.775 155.8 64.575 154.775-64.575 64.575-154.775zM1097.776 352.252q0-44.075-31.775-67.65t-78.925-22.55h-76.875q-58.425 69.7-150.675 72.775 46.125 66.625 46.125 146.575 0 16.4-3.075 37.925 37.925-13.325 75.85-13.325 33.825 0 68.675 12.3t55.35 24.6 24.6 11.275q70.725 0 70.725-201.925zM1025.001 700.752q0-60.475-43.050-103.525t-103.525-43.050-103.525 43.050-43.050 103.525 43.050 103.525 103.525 43.050 103.525-43.050 43.050-103.525z" />
<glyph unicode="&#xe823;" glyph-name="right-open" data-tags="right-open" horiz-adv-x="732" d="M633.451 346.102l-424.35-425.375q-11.275-10.25-25.625-10.25t-25.625 10.25l-95.325 95.325q-11.275 11.275-11.275 25.625t11.275 25.625l303.4 304.425-303.4 303.4q-11.275 11.275-11.275 25.625t11.275 25.625l95.325 95.325q10.25 11.275 25.625 11.275t25.625-11.275l424.35-424.35q10.25-11.275 10.25-25.625t-10.25-25.625z" />
<glyph unicode="&#xe824;" glyph-name="college" data-tags="college" horiz-adv-x="974" d="M486.875 693.577l-486.875-256.25 486.875-256.25 281.875 142.475s0-129.15 0-193.725c0-102.5 102.5-102.5 102.5-102.5v51.25s-51.25 3.075-51.25 51.25c0 76.875 0 222.425 0 222.425l153.75 85.075zM256.25 232.327v-102.5c0-25.625 16.4-59.45 51.25-76.875l179.375-76.875 153.75 76.875c34.85 17.425 78.925 51.25 76.875 76.875v102.5l-230.625-111.725z" />
<glyph unicode="&#xe825;" glyph-name="maxicours" data-tags="maxicours" d="M196.8-112.074c-12.3 11.275-15.375 17.425-14.35 30.75 1.025 16.4 10.25 22.55 53.3 39.975 20.5 8.2 13.325 12.3-24.6 15.375l-32.8 3.075 18.45 12.3c24.6 15.375 38.95 14.35 58.425-3.075 13.325-12.3 17.425-20.5 19.475-42.025 5.125-58.425-37.925-89.175-77.9-56.375zM250.1-88.499c7.175 13.325 3.075 25.625-8.2 25.625-13.325 0-39.975-15.375-39.975-22.55 0-16.4 38.95-18.45 48.175-3.075zM481.75-117.199c-48.175 20.5-50.225 91.225-3.075 110.7 25.625 10.25 37.925 9.225 53.3-6.15 15.375-16.4 10.25-28.7-8.2-18.45-17.425 9.225-42.025 7.175-48.175-5.125-9.225-16.4-6.15-45.1 5.125-55.35 10.25-9.225 12.3-9.225 36.9-1.025 30.75 9.225 37.925 4.1 18.45-14.35-17.425-15.375-33.825-18.45-54.325-10.25zM730.826-120.274c-19.475 7.175-33.825 28.7-39.975 56.375-5.125 28.7-2.050 57.4 7.175 62.525 8.2 6.15 14.35-10.25 14.35-44.075 0-28.7 1.025-33.825 13.325-41 10.25-7.175 16.4-8.2 27.675-4.1s14.35 9.225 17.425 30.75c5.125 37.925 9.225 50.225 14.35 50.225 9.225 0 12.3-35.875 6.15-62.525-9.225-36.9-35.875-58.425-60.475-48.175zM937.876-119.249c-12.3 4.1-20.5 13.325-20.5 21.525 0 2.050 11.275 4.1 25.625 4.1 20.5 0 26.65 2.050 26.65 7.175s-6.15 11.275-14.35 14.35c-19.475 7.175-37.925 24.6-37.925 36.9 0 9.225 27.675 35.875 38.95 35.875 14.35 0 34.85-10.25 34.85-17.425 0-6.15-7.175-9.225-22.55-10.25-27.675-2.050-30.75-11.275-8.2-22.55 26.65-13.325 35.875-23.575 35.875-38.95 0-24.6-31.775-41-58.425-30.75zM147.6-117.199c-2.050 2.050-3.075 17.425-3.075 34.85v30.75l-16.4-18.45c-24.6-27.675-42.025-24.6-55.35 10.25-3.075 8.2-5.125 3.075-9.225-19.475-7.175-37.925-11.275-42.025-18.45-16.4-11.275 39.975-4.1 102.5 10.25 93.275 3.075-1.025 14.35-17.425 26.65-34.85l21.525-30.75 15.375 22.55c18.45 25.625 30.75 36.9 35.875 32.8 7.175-4.1 11.275-49.2 8.2-78.925-4.1-27.675-7.175-32.8-15.375-25.625zM355.675-98.749l-20.5 21.525-14.35-18.45c-8.2-10.25-19.475-19.475-24.6-19.475-11.275 0-9.225 10.25 9.225 34.85l12.3 16.4-15.375 25.625c-9.225 14.35-16.4 27.675-16.4 29.725 0 10.25 16.4 2.050 30.75-14.35 17.425-21.525 24.6-20.5 45.1 2.050 10.25 11.275 24.6 15.375 24.6 6.15 0-3.075-7.175-13.325-16.4-23.575-8.2-9.225-15.375-19.475-15.375-21.525s7.175-12.3 15.375-21.525c15.375-18.45 21.525-38.95 10.25-38.95-3.075 0-14.35 10.25-24.6 21.525zM408.975-112.074c-6.15 13.325-6.15 95.325 0 100.45 8.2 8.2 13.325-12.3 13.325-53.3 0-45.1-6.15-66.625-13.325-47.15zM577.076-102.849c-20.5 21.525-23.575 44.075-7.175 70.725 20.5 33.825 59.45 41 83.025 15.375 17.425-18.45 22.55-36.9 16.4-59.45-8.2-31.775-23.575-44.075-50.225-44.075-19.475 0-26.65 3.075-42.025 17.425zM641.651-86.449c7.175 7.175 12.3 19.475 12.3 26.65 0 15.375-20.5 39.975-33.825 39.975s-39.975-29.725-39.975-45.1c0-17.425 17.425-33.825 34.85-33.825 7.175 0 19.475 5.125 26.65 12.3zM813.851-105.924c-2.050 7.175-4.1 32.8-4.1 56.375v42.025l35.875-1.025c53.3-2.050 67.65-20.5 47.15-59.45-7.175-15.375-7.175-17.425 0-25.625 20.5-22.55 1.025-29.725-23.575-8.2-21.525 17.425-34.85 17.425-38.95-3.075-4.1-19.475-11.275-19.475-16.4-1.025zM872.276-59.799c10.25 10.25 10.25 20.5 0 28.7-16.4 14.35-49.2-8.2-41-28.7 4.1-10.25 29.725-10.25 41 0zM304.425 102.151c-1.025 3.075-4.1 26.65-6.15 51.25l-4.1 44.075-120.95 6.15v104.55l60.475 3.075 60.475 2.050 4.1 160.925c1.025 88.15 4.1 168.1 6.15 177.325l3.075 16.4h93.275c51.25 0 123-1.025 160.925-3.075l66.625-3.075-4.1-14.35c-6.15-20.5-5.125-59.45 2.050-61.5 3.075-1.025 6.15 26.65 9.225 90.2 1.025 50.225 4.1 94.3 6.15 98.4 3.075 10.25 35.875 25.625 53.3 25.625 34.85 0 53.3-29.725 57.4-90.2l3.075-42.025h54.325c68.675 0 76.875-5.125 79.95-51.25 2.050-28.7 1.025-32.8-11.275-46.125-14.35-13.325-15.375-13.325-69.7-11.275l-54.325 2.050-1.025-147.6c0-162.975-3.075-187.575-27.675-205-13.325-10.25-21.525-11.275-164-12.3l-148.625-2.050-2.050-48.175-1.025-48.175-51.25-2.050c-38.95-1.025-52.275 1.025-54.325 6.15zM632.426 262.052c0 23.575 0 24.6-5.125 9.225-4.1-14.35-2.050-33.825 4.1-33.825 1.025 0 2.050 11.275 1.025 24.6zM633.451 434.252v124.025h-219.35l-4.1-16.4c-1.025-9.225-3.075-64.575-3.075-124.025v-106.6l109.675-2.050c59.45 0 110.7 0 112.75 1.025s4.1 56.375 4.1 124.025zM375.15 430.152c0 8.2-33.825 9.225-38.95 1.025-2.050-3.075 0-9.225 5.125-13.325 10.25-7.175 33.825 1.025 33.825 12.3zM428.45 607.477c0 9.225-3.075 19.475-5.125 23.575-4.1 6.15-5.125-1.025-5.125-23.575 0-21.525 1.025-28.7 5.125-23.575 2.050 5.125 5.125 15.375 5.125 23.575zM771.826 616.702c0 8.2-4.1 19.475-9.225 24.6-8.2 8.2-8.2 6.15-8.2-28.7s0-35.875 8.2-23.575c5.125 7.175 9.225 19.475 9.225 27.675z" />
<glyph unicode="&#xe826;" glyph-name="esidoc" data-tags="esidoc" d="M725.701 811.452l-225.5-4.1c-157.85-2.050-227.55-5.125-232.675-10.25-24.6-19.475-42.025-171.175-31.775-272.65 15.375-149.65 79.95-326.975 149.65-407.95 20.5-23.575 22.55-24.6 45.1-21.525 56.375 9.225 400.775 118.9 428.45 137.35 7.175 4.1 3.075 13.325-20.5 51.25-90.2 144.525-112.75 230.625-112.75 420.25v107.625zM534.026 780.702c82 0 153.75-2.050 156.825-7.175 3.075-4.1 5.125-47.15 5.125-96.35 0-145.55 18.45-219.35 90.2-354.65l38.95-72.775-19.475-11.275c-10.25-6.15-23.575-11.275-28.7-11.275s-24.6-6.15-43.050-12.3c-19.475-6.15-83.025-26.65-142.475-44.075-118.9-35.875-153.75-43.050-175.275-35.875-25.625 8.2-80.975 107.625-110.7 197.825-28.7 86.1-34.85 140.425-35.875 275.725 0 129.15 2.050 148.625 25.625 160.925 11.275 6.15 133.25 10.25 238.825 11.275zM500.2 674.102c-36.9 0-56.375-11.275-89.175-45.1-39.975-39.975-66.625-91.225-75.85-144.525-3.075-19.475-11.275-43.050-18.45-53.3-10.25-13.325-11.275-18.45-5.125-28.7 3.075-7.175 8.2-12.3 11.275-12.3s33.825-26.65 67.65-58.425c37.925-34.85 67.65-58.425 74.825-58.425s16.4-3.075 20.5-6.15c14.35-9.225 76.875-6.15 108.65 5.125 68.675 23.575 119.925 96.35 101.475 141.45-14.35 33.825-36.9 29.725-92.25-20.5-34.85-29.725-61.5-36.9-91.225-23.575-25.625 12.3-29.725 24.6-11.275 31.775 8.2 3.075 18.45 6.15 22.55 6.15 12.3 0 73.8 43.050 98.4 68.675 35.875 36.9 41 85.075 14.35 136.325-6.15 12.3-14.35 23.575-19.475 25.625-4.1 2.050-8.2 7.175-8.2 11.275 0 11.275-5.125 13.325-63.55 20.5-17.425 2.050-32.8 4.1-45.1 4.1zM522.75 644.377c12.3 0 24.6-2.050 35.875-6.15 63.55-24.6 86.1-79.95 51.25-131.2-21.525-31.775-55.35-55.35-112.75-78.925-25.625-11.275-49.2-21.525-52.275-24.6-8.2-8.2-1.025-22.55 20.5-38.95 24.6-18.45 52.275-26.65 87.125-26.65 36.9 0 60.475 13.325 85.075 48.175 29.725 44.075 54.325 29.725 29.725-17.425-16.4-29.725-44.075-56.375-69.7-65.6-21.525-7.175-88.15-8.2-111.725-1.025-26.65 8.2-42.025 19.475-84.050 58.425-22.55 21.525-47.15 41-54.325 44.075-16.4 5.125-16.4 10.25 0 17.425 11.275 5.125 14.35 12.3 18.45 44.075 6.15 54.325 13.325 74.825 31.775 105.575 27.675 43.050 78.925 71.75 125.050 72.775zM513.525 607.477c-29.725 0-60.475-20.5-77.9-54.325-16.4-32.8-23.575-89.175-13.325-102.5 9.225-10.25 19.475-8.2 75.85 19.475 50.225 25.625 64.575 42.025 68.675 82 2.050 24.6 1.025 30.75-10.25 39.975-12.3 10.25-27.675 15.375-43.050 15.375zM509.425 574.677c17.425-1.025 34.85-9.225 34.85-18.45 0-12.3-37.925-54.325-58.425-64.575-27.675-14.35-31.775-11.275-31.775 20.5 1.025 32.8 16.4 55.35 44.075 61.5 3.075 1.025 7.175 1.025 11.275 1.025zM173.225 125.726l-4.1-22.55c-11.275-57.4 10.25-172.2 38.95-214.225 7.175-9.225 16.4-16.4 21.525-16.4 20.5 0 138.375 37.925 141.45 46.125 1.025 4.1-5.125 24.6-14.35 45.1-13.325 30.75-17.425 49.2-19.475 98.4l-3.075 60.475-80.975 1.025-79.95 2.050zM533.001 108.301c-3.075 0-5.125-4.1-6.15-9.225-2.050-7.175 0-10.25 5.125-8.2 9.225 3.075 11.275 15.375 2.050 17.425 0 1.025 0 1.025-1.025 0zM661.126 101.126c-3.075 0-6.15-7.175-7.175-15.375-2.050-13.325-7.175-17.425-33.825-26.65-38.95-13.325-59.45-34.85-59.45-63.55 0-29.725 5.125-39.975 25.625-48.175 18.45-8.2 42.025-6.15 54.325 4.1 4.1 3.075 11.275 5.125 15.375 4.1 6.15-2.050 8.2 13.325 9.225 71.75 1.025 45.1 0 73.8-4.1 73.8zM216.275 82.676c4.1 1.025 3.075-2.050-2.050-8.2-9.225-11.275-20.5-12.3-17.425-2.050 2.050 4.1 8.2 8.2 14.35 10.25 2.050 0 4.1 0 5.125 0zM470.475 70.376c-11.275 1.025-38.95-24.6-38.95-34.85 0-3.075 10.25-18.45 23.575-33.825 30.75-36.9 30.75-45.1-3.075-45.1-24.6 0-31.775-5.125-22.55-14.35 6.15-6.15 24.6-4.1 46.125 5.125 26.65 11.275 26.65 26.65 0 59.45-26.65 30.75-26.65 39.975-1.025 39.975 10.25 0 21.525 2.050 23.575 4.1 5.125 5.125-14.35 19.475-27.675 19.475zM265.475 64.226c7.175 1.025 14.35-2.050 21.525-8.2 18.45-19.475 8.2-44.075-27.675-66.625-18.45-12.3-21.525-17.425-16.4-23.575 12.3-15.375 28.7-16.4 46.125-4.1 9.225 7.175 19.475 12.3 20.5 12.3 7.175 0 4.1-17.425-5.125-26.65-13.325-13.325-45.1-11.275-67.65 5.125-36.9 24.6-37.925 60.475-5.125 93.275 12.3 12.3 23.575 18.45 33.825 18.45zM533.001 59.101c-10.25 0-13.325-16.4-13.325-67.65 0-33.825 2.050-47.15 6.15-43.050 8.2 8.2 15.375 110.7 7.175 110.7zM754.401 59.101c-23.575 0-31.775-3.075-44.075-15.375-26.65-26.65-14.35-79.95 22.55-96.35 38.95-16.4 69.7 11.275 69.7 64.575 0 36.9-10.25 47.15-48.175 47.15zM884.576 58.076c-17.425 0-34.85-1.025-38.95-4.1-20.5-13.325-26.65-71.75-10.25-96.35 7.175-11.275 14.35-13.325 42.025-12.3 28.7 0 30.75 1.025 14.35 5.125-22.55 5.125-48.175 21.525-52.275 33.825-4.1 11.275 8.2 41 22.55 54.325 6.15 5.125 20.5 12.3 32.8 14.35 20.5 4.1 20.5 5.125-10.25 5.125zM254.2 46.801c-9.225 0-23.575-19.475-23.575-33.825 0-16.4 14.35-19.475 34.85-5.125 20.5 15.375 14.35 38.95-11.275 38.95zM756.451 46.801c8.2 0 16.4-2.050 20.5-7.175 12.3-11.275 9.225-61.5-3.075-72.775-15.375-14.35-34.85-12.3-51.25 4.1-19.475 20.5-19.475 47.15 1.025 63.55 9.225 8.2 21.525 12.3 32.8 12.3zM627.301 45.776c1.025 0 2.050 0 4.1 0l20.5-2.050v-33.825c0-19.475-3.075-37.925-8.2-44.075-10.25-13.325-43.050-12.3-55.35 2.050-25.625 28.7 0 77.9 38.95 77.9zM395.65 4.776c-6.15 0-12.3-3.075-14.35-6.15s4.1-6.15 14.35-6.15c11.275 0 17.425 3.075 15.375 6.15s-9.225 6.15-15.375 6.15z" />
<glyph unicode="&#xe827;" glyph-name="aidedevoirs" data-tags="aidedevoirs" horiz-adv-x="893" d="M666.251 784.802c-4.1-10.25-7.175-23.575-7.175-28.7s-4.1-15.375-9.225-20.5c-5.125-5.125-18.45-32.8-29.725-61.5s-25.625-54.325-31.775-56.375c-5.125-2.050-10.25-9.225-10.25-15.375 0-5.125-5.125-12.3-11.275-14.35s-9.225-7.175-7.175-11.275c2.050-3.075-7.175-13.325-20.5-22.55-20.5-13.325-20.5-14.35-5.125-10.25 10.25 2.050 32.8 20.5 49.2 37.925 19.475 21.525 30.75 30.75 31.775 23.575 0-7.175 10.25-21.525 21.525-33.825 13.325-11.275 27.675-31.775 33.825-44.075 5.125-13.325 17.425-32.8 27.675-42.025 16.4-16.4 17.425-19.475 8.2-36.9-6.15-11.275-10.25-25.625-10.25-30.75s-5.125-10.25-11.275-10.25c-7.175 0-17.425-9.225-24.6-21.525-13.325-24.6-21.525-27.675-27.675-9.225-21.525 67.65-54.325 117.875-98.4 145.55-31.775 19.475-35.875 20.5-35.875 10.25 0-4.1 4.1-7.175 10.25-7.175 13.325 0 82-63.55 75.85-69.7-2.050-3.075-16.4 8.2-31.775 24.6-35.875 39.975-94.3 61.5-151.7 58.425-22.55-2.050-37.925-1.025-32.8 2.050 14.35 9.225 97.375 7.175 106.6-2.050 6.15-7.175 11.275-6.15 21.525 2.050 7.175 6.15 17.425 13.325 22.55 14.35 11.275 4.1 52.275 96.35 52.275 117.875 0 22.55-17.425 11.275-22.55-15.375-6.15-32.8-29.725-80.975-36.9-80.975-4.1 0-12.3 5.125-18.45 10.25-12.3 13.325-7.175 55.35 6.15 55.35 4.1 0 6.15 8.2 4.1 18.45-2.050 9.225-1.025 16.4 3.075 14.35 5.125-4.1 24.6 75.85 18.45 82-9.225 9.225-18.45-7.175-23.575-37.925-3.075-21.525-8.2-32.8-15.375-32.8-6.15 0-8.2-3.075-6.15-7.175s-1.025-7.175-7.175-7.175c-13.325 0-13.325 12.3-1.025 65.6 10.25 44.075 9.225 58.425-7.175 58.425-8.2 0-10.25-14.35-10.25-68.675 0-45.1 3.075-70.725 8.2-71.75 5.125-2.050 6.15-9.225 3.075-19.475-4.1-13.325-10.25-15.375-24.6-14.35l-19.475 2.050-4.1 80.975c-2.050 46.125-6.15 79.95-11.275 79.95-4.1 0-9.225-35.875-11.275-84.050-2.050-46.125-7.175-93.275-11.275-103.525-7.175-21.525-43.050-64.575-53.3-64.575-3.075 0-18.45 11.275-32.8 26.65-14.35 14.35-29.725 24.6-31.775 21.525-3.075-3.075 7.175-14.35 22.55-26.65 14.35-13.325 26.65-26.65 25.625-30.75 0-5.125-12.3-20.5-28.7-33.825-24.6-20.5-31.775-23.575-45.1-17.425-35.875 15.375-71.75 30.75-74.825 30.75-11.275 0-2.050-14.35 9.225-14.35 6.15 0 19.475-5.125 26.65-11.275 8.2-5.125 20.5-10.25 27.675-10.25s13.325-5.125 13.325-12.3c0-6.15-3.075-8.2-7.175-6.15s-8.2 0-8.2-4.1c0-6.15-15.375-7.175-58.425-3.075-41 3.075-58.425 2.050-58.425-3.075s17.425-8.2 44.075-8.2c46.125 0 55.35-9.225 32.8-32.8-6.15-5.125-11.275-20.5-11.275-32.8 0-20.5-2.050-21.525-41-29.725-61.5-11.275-70.725-15.375-63.55-22.55 4.1-4.1 25.625-2.050 50.225 4.1 62.525 15.375 91.225 14.35 91.225-2.050 0-10.25-13.325-19.475-51.25-34.85-51.25-20.5-72.775-35.875-62.525-45.1 3.075-3.075 20.5 4.1 41 14.35 20.5 12.3 38.95 18.45 44.075 16.4 9.225-6.15 37.925 10.25 32.8 19.475-3.075 3.075-2.050 6.15 1.025 6.15 4.1 0 11.275-11.275 16.4-26.65 11.275-32.8 56.375-76.875 96.35-97.375 16.4-9.225 50.225-18.45 75.85-22.55l44.075-6.15-49.2 2.050c-35.875 2.050-57.4 8.2-83.025 21.525-38.95 21.525-39.975 22.55-39.975 12.3 0-4.1 5.125-7.175 12.3-7.175 9.225 0 11.275-5.125 7.175-25.625-4.1-21.525-3.075-25.625 6.15-21.525 10.25 4.1 11.275 1.025 8.2-21.525-5.125-23.575-4.1-25.625 8.2-22.55 12.3 4.1 14.35-1.025 16.4-30.75 2.050-52.275 14.35-107.625 23.575-113.775 16.4-10.25 23.575 15.375 11.275 44.075-10.25 24.6-15.375 62.525-13.325 99.425 1.025 9.225 5.125 11.275 14.35 8.2 6.15-3.075 19.475-5.125 28.7-5.125 10.25 0 15.375-2.050 13.325-5.125-3.075-4.1-1.025-9.225 3.075-12.3 4.1-2.050 7.175-1.025 7.175 4.1s5.125 6.15 12.3 4.1c6.15-3.075 15.375-1.025 21.525 4.1 5.125 4.1 17.425 6.15 26.65 5.125 13.325-2.050 24.6-18.45 53.3-74.825 36.9-74.825 57.4-97.375 68.675-78.925 4.1 7.175-4.1 30.75-26.65 69.7-17.425 32.8-37.925 73.8-47.15 92.25-8.2 18.45-18.45 38.95-21.525 46.125-4.1 7.175-3.075 12.3 1.025 12.3s7.175-3.075 7.175-6.15c0-4.1 10.25-9.225 22.55-12.3 12.3-2.050 20.5-6.15 18.45-8.2-4.1-4.1 32.8-60.475 50.225-75.85 25.625-20.5 18.45 2.050-10.25 33.825-15.375 19.475-29.725 37.925-29.725 43.050 0 11.275 22.55 17.425 48.175 15.375 14.35-2.050 17.425 1.025 17.425 15.375 0 25.625 20.5 21.525 69.7-15.375 43.050-32.8 66.625-42.025 61.5-24.6-3.075 5.125-30.75 26.65-63.55 49.2-31.775 22.55-57.4 43.050-55.35 46.125s-1.025 6.15-7.175 6.15c-14.35 0-20.5 48.175-7.175 59.45 12.3 9.225 13.325 60.475 2.050 53.3-5.125-3.075-6.15-13.325-4.1-22.55 4.1-13.325 2.050-17.425-9.225-17.425-8.2 0-15.375-6.15-18.45-16.4-6.15-27.675-46.125-76.875-75.85-95.325-32.8-20.5-74.825-35.875-74.825-27.675 0 2.050 12.3 9.225 28.7 13.325 36.9 12.3 88.15 58.425 108.65 99.425 9.225 18.45 19.475 35.875 24.6 37.925 3.075 3.075 6.15 11.275 6.15 20.5 0 17.425 21.525 33.825 55.35 42.025 17.425 4.1 18.45 5.125 5.125 6.15-24.6 1.025-20.5 19.475 8.2 30.75 12.3 6.15 25.625 9.225 28.7 8.2s5.125 1.025 5.125 5.125c0 4.1-3.075 8.2-7.175 8.2-10.25 0-9.225 19.475 2.050 26.65 4.1 3.075 9.225 9.225 9.225 14.35s26.65 36.9 60.475 70.725c57.4 59.45 65.6 77.9 29.725 67.65-8.2-3.075-13.325-7.175-10.25-9.225 5.125-5.125-21.525-43.050-52.275-72.775-31.775-32.8-59.45-32.8-54.325 0 1.025 2.050-4.1 7.175-10.25 9.225-13.325 5.125-14.35 21.525-1.025 26.65 6.15 3.075 6.15 5.125-1.025 5.125-5.125 0-14.35 5.125-19.475 10.25-5.125 4.1-16.4 13.325-25.625 19.475-22.55 16.4-18.45 36.9 22.55 125.050 20.5 44.075 34.85 83.025 31.775 87.125-8.2 13.325-25.625 7.175-32.8-11.275zM455.1 580.827c10.25-14.35 19.475-18.45 29.725-14.35 11.275 3.075 13.325 1.025 11.275-5.125-3.075-10.25-20.5-11.275-54.325-3.075-13.325 3.075-31.775 34.85-31.775 56.375 0 9.225 26.65-10.25 45.1-33.825zM465.35 606.452c-3.075-4.1 1.025-11.275 7.175-17.425 15.375-17.425 13.325-24.6-4.1-9.225-15.375 14.35-19.475 32.8-6.15 32.8 3.075 0 5.125-2.050 3.075-6.15zM417.175 564.427c0-11.275-1.025-11.275-16.4-5.125-7.175 2.050-9.225 10.25-7.175 22.55 4.1 18.45 5.125 18.45 13.325 5.125 6.15-7.175 10.25-17.425 10.25-22.55zM485.85 514.202c61.5-25.625 105.575-86.1 112.75-152.725 14.35-145.55-139.4-250.1-269.575-181.425-171.175 89.175-107.625 345.425 85.075 345.425 24.6 0 57.4-5.125 71.75-11.275zM234.725 420.927c-4.1-9.225-10.25-30.75-15.375-49.2-4.1-16.4-9.225-29.725-10.25-28.7-5.125 5.125 10.25 74.825 18.45 84.050 12.3 14.35 14.35 12.3 7.175-6.15zM607.826 411.702c0-4.1-4.1-2.050-7.175 4.1-4.1 5.125-7.175 14.35-7.175 17.425 0 5.125 3.075 3.075 7.175-3.075 3.075-6.15 7.175-14.35 7.175-18.45zM621.151 353.277c0-12.3-2.050-11.275-6.15 3.075-3.075 10.25-6.15 25.625-6.15 33.825 0 11.275 2.050 10.25 6.15-4.1 3.075-10.25 6.15-24.6 6.15-32.8zM195.775 355.327c-2.050-5.125-4.1-1.025-4.1 9.225s2.050 13.325 4.1 9.225c1.025-5.125 1.025-14.35 0-18.45zM205 280.502c0-1.025-5.125-5.125-11.275-7.175s-9.225-1.025-7.175 3.075c4.1 7.175 18.45 10.25 18.45 4.1zM626.276 197.477c-2.050-2.050 0-8.2 3.075-12.3 10.25-11.275-8.2-26.65-45.1-39.975-43.050-14.35-45.1-3.075-7.175 34.85 24.6 25.625 36.9 33.825 44.075 27.675 5.125-3.075 7.175-8.2 5.125-10.25zM395.65 124.701c31.775-2.050 66.625-1.025 78.925 4.1 19.475 6.15 22.55 5.125 29.725-10.25 4.1-10.25 8.2-19.475 8.2-20.5 0-9.225-92.25-10.25-116.85-2.050-16.4 6.15-31.775 7.175-33.825 4.1-8.2-13.325-24.6-6.15-34.85 15.375s-10.25 22.55 1.025 18.45c6.15-3.075 36.9-7.175 67.65-9.225zM323.9 425.027c-7.175-20.5-7.175-20.5 28.7-22.55 28.7-1.025 35.875 1.025 43.050 13.325 10.25 19.475 10.25 18.45-30.75 24.6-32.8 5.125-33.825 4.1-41-15.375zM418.2 417.852l-9.225-18.45 45.1 3.075c36.9 3.075 44.075 1.025 42.025-7.175-1.025-8.2-13.325-11.275-44.075-12.3l-43.050-1.025-13.325-37.925-12.3-38.95h20.5c15.375 0 20.5 5.125 27.675 22.55 6.15 19.475 10.25 21.525 39.975 21.525 26.65 0 34.85 4.1 47.15 19.475 17.425 21.525 20.5 47.15 7.175 59.45-5.125 5.125-28.7 9.225-53.3 9.225-42.025 0-46.125-1.025-54.325-19.475zM308.525 369.677c-4.1-9.225-6.15-16.4-5.125-17.425 0-1.025 13.325-3.075 29.725-5.125 32.8-5.125 44.075-1.025 50.225 20.5 4.1 13.325 1.025 14.35-32.8 16.4-31.775 2.050-36.9 0-42.025-14.35zM347.475 266.152c-3.075-7.175-3.075-17.425 0-22.55 4.1-12.3 25.625-15.375 25.625-4.1 0 4.1-5.125 5.125-10.25 3.075-8.2-3.075-11.275 0-11.275 8.2s3.075 11.275 11.275 8.2c7.175-3.075 10.25-1.025 9.225 4.1-5.125 14.35-19.475 15.375-24.6 3.075zM285.975 250.777c0-21.525 4.1-22.55 18.45-8.2s12.3 26.65-4.1 26.65c-11.275 0-14.35-5.125-14.35-18.45zM321.85 250.777c0-10.25 4.1-18.45 7.175-18.45 5.125 0 8.2 8.2 8.2 18.45s-3.075 18.45-8.2 18.45c-3.075 0-7.175-8.2-7.175-18.45zM385.4 257.952c-7.175-19.475-5.125-21.525 13.325-21.525 13.325 0 15.375 2.050 11.275 13.325-6.15 19.475-19.475 22.55-24.6 8.2zM425.375 248.727c0-11.275 2.050-15.375 4.1-10.25 2.050 6.15 7.175 7.175 13.325 1.025 7.175-6.15 9.225-3.075 9.225 11.275 0 13.325-4.1 18.45-13.325 18.45-10.25 0-14.35-5.125-13.325-20.5zM461.25 250.777c0-21.525 24.6-26.65 31.775-7.175 6.15 15.375 0 25.625-17.425 25.625-10.25 0-14.35-5.125-14.35-18.45zM482.775 250.777c0-6.15-2.050-11.275-7.175-11.275-3.075 0-7.175 5.125-7.175 11.275s4.1 11.275 7.175 11.275c5.125 0 7.175-5.125 7.175-11.275zM506.35 250.777c0-12.3 2.050-16.4 4.1-9.225 1.025 7.175 1.025 17.425 0 22.55-2.050 4.1-4.1-1.025-4.1-13.325zM519.675 250.777c0-14.35 4.1-18.45 17.425-17.425 15.375 0 15.375 0 1.025 5.125-14.35 6.15-14.35 6.15 0 10.25s14.35 4.1 0 5.125-14.35 1.025 0 8.2c14.35 5.125 14.35 6.15-1.025 6.15-13.325 1.025-17.425-4.1-17.425-17.425zM753.376 784.802c-1.025-2.050-1.025-5.125-3.075-8.2-1.025-7.175-29.725-69.7-52.275-117.875-10.25-21.525-17.425-41-14.35-44.075 7.175-6.15 19.475 13.325 19.475 29.725 0 7.175 3.075 12.3 8.2 12.3 3.075 0 5.125 3.075 3.075 7.175-2.050 3.075 0 8.2 6.15 10.25 5.125 2.050 16.4 17.425 25.625 33.825 8.2 17.425 20.5 35.875 26.65 42.025 7.175 8.2 8.2 14.35 3.075 24.6-7.175 12.3-20.5 19.475-22.55 10.25zM770.801 658.727c-35.875-54.325-53.3-84.050-53.3-92.25 0-2.050 6.15-2.050 14.35 0 8.2 3.075 15.375 10.25 15.375 17.425s10.25 23.575 21.525 34.85c12.3 12.3 21.525 25.625 21.525 29.725 0 5.125 3.075 8.2 6.15 8.2 9.225 0 29.725 39.975 25.625 50.225-6.15 16.4-13.325 9.225-51.25-48.175zM298.275 644.377c-6.15-8.2 5.125-59.45 15.375-69.7 13.325-13.325 10.25 47.15-1.025 63.55-6.15 8.2-12.3 10.25-14.35 6.15zM205 563.402c0-7.175 66.625-47.15 71.75-42.025 2.050 2.050 2.050 4.1 1.025 6.15-59.45 41-72.775 47.15-72.775 35.875zM170.15 538.802c2.050-5.125 6.15-10.25 10.25-10.25 3.075 0 20.5-8.2 37.925-17.425 17.425-8.2 33.825-14.35 35.875-12.3 2.050 1.025-14.35 12.3-35.875 24.6-52.275 27.675-52.275 26.65-48.175 15.375zM102.5 401.452c-21.525-2.050-36.9-6.15-32.8-9.225 11.275-7.175 92.25 2.050 87.125 9.225-2.050 4.1-6.15 6.15-9.225 5.125s-23.575-3.075-45.1-5.125zM102.5 366.602c-43.050-5.125-60.475-10.25-54.325-17.425 4.1-3.075 24.6-2.050 49.2 4.1 39.975 9.225 65.6 19.475 41 16.4-6.15 0-21.525-2.050-35.875-3.075zM214.225 250.777c2.050-9.225 0-19.475-5.125-22.55-5.125-2.050-5.125-5.125 2.050-7.175 4.1-3.075 7.175-7.175 5.125-10.25s1.025-10.25 7.175-15.375c19.475-15.375 11.275-31.775-42.025-80.975-43.050-39.975-52.275-51.25-44.075-58.425 7.175-7.175 12.3-6.15 28.7 8.2 83.025 74.825 107.625 100.45 108.65 112.75 1.025 7.175-7.175 21.525-15.375 30.75-9.225 10.25-21.525 28.7-26.65 39.975-11.275 25.625-23.575 27.675-18.45 3.075zM659.076 263.077c0-7.175 31.775-23.575 47.15-23.575 6.15 0 11.275 3.075 11.275 7.175 0 6.15-6.15 8.2-45.1 19.475-7.175 2.050-13.325 1.025-13.325-3.075zM118.9 195.427c-44.075-29.725-56.375-44.075-35.875-44.075 11.275 0 95.325 54.325 102.5 65.6 11.275 17.425-22.55 6.15-66.625-21.525zM176.3 170.826c-5.125-6.15-26.65-21.525-48.175-34.85-42.025-25.625-50.225-34.85-39.975-50.225 4.1-7.175 19.475 4.1 59.45 43.050 29.725 27.675 50.225 52.275 46.125 52.275-5.125 0-13.325-4.1-17.425-10.25zM692.901 89.851c23.575-20.5 47.15-36.9 52.275-35.875 13.325 5.125 0 19.475-46.125 51.25-54.325 35.875-56.375 30.75-6.15-15.375zM621.151 103.176c13.325-23.575 65.6-69.7 74.825-66.625 5.125 1.025-6.15 17.425-29.725 41-39.975 37.925-57.4 48.175-45.1 25.625zM407.95 25.276c-5.125-14.35 39.975-146.575 52.275-150.675 17.425-5.125 7.175 56.375-22.55 126.075-15.375 34.85-23.575 41-29.725 24.6zM462.275 29.376c2.050-3.075 7.175-13.325 12.3-23.575 4.1-10.25 16.4-44.075 25.625-73.8 18.45-56.375 33.825-75.85 49.2-60.475 7.175 6.15 5.125 17.425-10.25 47.15-32.8 66.625-63.55 115.825-71.75 115.825-4.1 0-6.15-2.050-5.125-5.125z" />
<glyph unicode="&#xe828;" glyph-name="new-01" data-tags="new-01" horiz-adv-x="1264" d="M459.2 417.852l459.2 228.575v-480.725h-918.401v480.725l459.2-228.575zM0 847.327v-128.125l459.2-227.55 459.2 227.55v128.125h-918.401zM1080.351 67.301v185.525h-58.425v-185.525h-183.475v-58.425h183.475v-186.55h58.425v186.55h183.475v58.425h-183.475z" />
<glyph unicode="&#xe829;" glyph-name="pad1-1" data-tags="pad1-1" d="M643.701 92.926h-238.825v21.525h238.825v-21.525zM545.301 156.476h-140.425v21.525h140.425v-21.525zM587.326 220.027h-182.45v20.5h182.45v-20.5zM658.051 282.552h-253.175v21.525h253.175v-21.525zM545.301 346.102h-140.425v21.525h140.425v-21.525zM720.576 483.452h-379.25v-506.35h379.25v506.35zM278.8-85.424v631.401h505.325v-631.401h-505.325zM191.675 430.152c-25.625-25.625-41-53.3-43.050-75.85l156.825-164c0 0 15.375 19.475 14.35 53.3 39.975 20.5 47.15 38.95 54.325 55.35 34.85-1.025 49.2 12.3 49.2 12.3l-156.825 164c-10.25-2.050-39.975-9.225-74.825-45.1zM23.575 494.727c3.075-2.050 20.5-25.625 30.75-39.975 1.025 15.375 7.175 44.075 38.95 76.875 32.8 32.8 61.5 39.975 76.875 41-13.325 10.25-30.75 25.625-36.9 30.75-16.4 16.4-48.175 27.675-94.3-11.275s-32.8-78.925-15.375-97.375zM342.35 222.077c0-15.375-14.35-45.1-14.35-45.1l180.4-76.875-72.775 186.55c0 0-7.175-7.175-37.925-7.175-10.25-32.8-43.050-53.3-55.35-57.4zM112.75 511.127c-44.075-46.125-37.925-77.9-37.925-77.9l17.425-17.425c2.050 19.475 15.375 47.15 41 72.775 41 42.025 74.825 47.15 74.825 47.15l-18.45 18.45c0 0-33.825 1.025-76.875-43.050zM149.65 472.177c-42.025-44.075-35.875-74.825-35.875-74.825l15.375-16.4c3.075 18.45 16.4 45.1 39.975 69.7 38.95 39.975 71.75 45.1 71.75 45.1l-17.425 17.425c0 0-32.8 1.025-73.8-41zM765.676 595.177l-156.825-162.975c0 0 13.325-13.325 48.175-12.3 7.175-16.4 14.35-35.875 55.35-55.35-2.050-33.825 14.35-53.3 14.35-53.3l156.825 164c-2.050 21.525-18.45 50.225-44.075 75.85-34.85 35.875-64.575 43.050-73.8 44.075zM992.201 713.052c-46.125 38.95-77.9 27.675-94.3 11.275-5.125-6.15-23.575-20.5-35.875-31.775 14.35-1.025 44.075-7.175 75.85-39.975 32.8-32.8 38.95-61.5 38.95-76.875 11.275 14.35 27.675 36.9 30.75 39.975 17.425 18.45 30.75 58.425-15.375 97.375zM633.451 400.427c-30.75 0-37.925 7.175-37.925 7.175l-71.75-186.55 179.375 76.875c0 0-14.35 29.725-13.325 45.1-12.3 4.1-46.125 24.6-56.375 57.4zM841.526 675.127l-17.425-18.45c0 0 33.825-6.15 73.8-47.15 25.625-25.625 38.95-53.3 42.025-72.775l16.4 17.425c0 0 6.15 31.775-37.925 76.875-43.050 45.1-76.875 44.075-76.875 44.075zM807.701 634.127l-17.425-17.425c0 0 32.8-5.125 71.75-45.1 24.6-25.625 37.925-51.25 39.975-69.7l16.4 16.4c0 0 5.125 30.75-36.9 73.8-41 43.050-73.8 42.025-73.8 42.025z" />
<glyph unicode="&#xe82a;" glyph-name="pronote-1" data-tags="pronote-1" d="M223.45 766.352c-38.95 0-49.2-3.075-55.35-16.4-4.1-10.25-8.2-85.075-8.2-182.45 0-149.65 2.050-165.025 13.325-169.125 13.325-3.075 49.2 1.025 69.7 7.175 6.15 2.050 9.225 20.5 9.225 51.25v48.175l28.7 9.225c43.050 12.3 72.775 52.275 77.9 102.5 4.1 31.775 6.15 14.35 13.325-83.025 5.125-67.65 11.275-127.1 13.325-132.225 6.15-11.275 58.425-12.3 84.050-1.025 11.275 5.125 19.475 15.375 19.475 22.55 0 10.25 3.075 9.225 15.375-4.1 26.65-30.75 99.425-17.425 99.425 16.4 0 10.25-10.25 36.9-22.55 59.45l-22.55 41 15.375 26.65c19.475 36.9 19.475 103.525 0 140.425-25.625 48.175-49.2 59.45-117.875 57.4-67.65-2.050-85.075-12.3-93.275-55.35l-5.125-25.625-16.4 28.7c-23.575 39.975-60.475 58.425-117.875 58.425zM731.851 755.077c-4.1 0-8.2 0-12.3-1.025-70.725-19.475-106.6-85.075-112.75-201.925-3.075-67.65-2.050-80.975 12.3-105.575 8.2-16.4 26.65-34.85 39.975-41 61.5-30.75 135.3-1.025 165.025 64.575 24.6 55.35 24.6 180.4 0 224.475-17.425 32.8-60.475 59.45-92.25 60.475zM484.825 644.377c12.3 0 28.7-20.5 22.55-28.7-11.275-13.325-33.825-5.125-33.825 11.275 0 10.25 5.125 17.425 11.275 17.425zM254.2 644.377c9.225-1.025 20.5-10.25 20.5-21.525 0-17.425-21.525-16.4-27.675 0-2.050 8.2-2.050 16.4 0 18.45 2.050 3.075 5.125 3.075 7.175 3.075zM723.651 635.152c2.050 0 3.075 0 5.125-1.025 13.325-2.050 17.425-9.225 19.475-36.9 1.025-18.45 0-47.15-2.050-63.55-4.1-19.475-9.225-28.7-19.475-28.7-22.55 0-25.625 13.325-19.475 75.85 4.1 45.1 6.15 54.325 16.4 54.325zM249.075 369.677c-4.1 0-9.225-1.025-15.375-2.050-34.85-8.2-44.075-26.65-38.95-75.85 3.075-22.55 3.075-41 1.025-41s-14.35 23.575-27.675 52.275c-22.55 50.225-23.575 52.275-53.3 52.275-55.35 0-59.45-16.4-46.125-187.575 17.425-205 13.325-186.55 41-186.55 13.325 0 32.8 3.075 42.025 5.125 17.425 6.15 18.45 9.225 15.375 58.425-4.1 56.375-3.075 56.375 33.825-15.375 18.45-34.85 23.575-39.975 47.15-39.975 38.95 0 50.225 8.2 50.225 33.825v23.575l20.5-29.725c11.275-15.375 27.675-31.775 35.875-35.875 9.225-4.1 32.8-8.2 53.3-8.2 52.275-1.025 92.25 26.65 113.775 75.85 14.35 33.825 15.375 47.15 11.275 112.75-6.15 85.075-19.475 117.875-58.425 147.6-68.675 53.3-162.975-12.3-175.275-120.95-5.125-42.025-6.15-36.9-13.325 61.5s-11.275 120.95-36.9 119.925zM561.701 365.577l-10.25-22.55c-6.15-12.3-11.275-38.95-11.275-59.45-1.025-33.825 1.025-36.9 22.55-41l22.55-5.125v-116.85c0-64.575 1.025-120.95 2.050-124.025 3.075-11.275 68.675-7.175 76.875 4.1 4.1 6.15 10.25 59.45 14.35 119.925l6.15 108.65 22.55 3.075c33.825 4.1 42.025 16.4 42.025 61.5 0 23.575-4.1 46.125-9.225 50.225-5.125 5.125-47.15 11.275-94.3 15.375l-84.050 6.15zM880.476 328.677c-32.8 0-69.7-2.050-83.025-5.125-39.975-8.2-42.025-22.55-32.8-196.8 5.125-87.125 10.25-160.925 12.3-165.025 4.1-6.15 103.525-2.050 154.775 7.175l25.625 4.1-3.075 50.225-2.050 49.2-44.075 3.075c-50.225 3.075-57.4 14.35-13.325 22.55 29.725 6.15 30.75 7.175 30.75 39.975 0 50.225-6.15 60.475-34.85 60.475-42.025 0-29.725 16.4 14.35 19.475 37.925 2.050 39.975 4.1 42.025 27.675 2.050 14.35 1.025 37.925-2.050 54.325l-5.125 28.7h-59.45zM410 212.852c4.1 1.025 10.25-2.050 15.375-6.15 8.2-8.2 10.25-25.625 9.225-67.65-2.050-56.375-10.25-71.75-27.675-52.275-11.275 13.325-12.3 116.85-1.025 125.050 1.025 1.025 2.050 1.025 4.1 1.025z" />
<glyph unicode="&#xe82b;" glyph-name="home" data-tags="home" horiz-adv-x="951" d="M805.651 279.477v-273.675q0-15.375-11.275-25.625t-25.625-11.275h-219.35v219.35h-146.575v-219.35h-219.35q-15.375 0-25.625 11.275t-11.275 25.625v273.675q0 1.025 0 2.050t0 2.050l329.025 270.6 329.025-270.6q1.025-1.025 1.025-4.1zM932.751 319.452l-34.85-42.025q-5.125-5.125-12.3-6.15h-2.050q-7.175 0-12.3 3.075l-395.65 330.050-395.65-330.050q-7.175-4.1-13.325-3.075-7.175 1.025-12.3 6.15l-35.875 42.025q-4.1 6.15-3.075 13.325t6.15 12.3l411.025 342.35q18.45 15.375 43.050 15.375t44.075-15.375l139.4-115.825v110.7q0 8.2 5.125 13.325t13.325 5.125h109.675q8.2 0 13.325-5.125t5.125-13.325v-232.675l125.050-104.55q6.15-4.1 6.15-12.3t-4.1-13.325z" />
<glyph unicode="&#xe82c;" glyph-name="tdbase-1" data-tags="tdbase-1" horiz-adv-x="1019" d="M302.375 640.277c-97.375-17.425-180.4-34.85-185.525-38.95-9.225-6.15-6.15-558.626 4.1-567.851 2.050-2.050 100.45-24.6 217.3-50.225l212.175-44.075 186.55 54.325c102.5 29.725 187.575 56.375 190.65 58.425 2.050 2.050 5.125 132.225 6.15 288.025l1.025 283.925-212.175 25.625c-116.85 14.35-219.35 25.625-228.575 24.6-8.2 0-95.325-15.375-191.675-33.825zM710.326 635.152c104.55-12.3 191.675-24.6 193.725-26.65 1.025-1.025-77.9-16.4-177.325-32.8l-181.425-29.725-185.525 22.55c-102.5 11.275-188.6 23.575-192.7 26.65-5.125 5.125 284.95 61.5 326.975 63.55 14.35 0 109.675-10.25 216.275-23.575zM343.375 556.227c98.4-12.3 180.4-24.6 183.475-25.625 1.025-3.075 6.15-133.25 8.2-290.075l6.15-285.975-35.875 8.2c-19.475 5.125-110.7 24.6-202.95 44.075s-168.1 35.875-169.125 37.925c0 1.025-4.1 121.975-7.175 268.55l-5.125 265.475h22.55c11.275 0 102.5-10.25 199.875-22.55zM808.726 475.252c37.925-17.425 66.625-56.375 66.625-89.175 0-20.5-26.65-56.375-61.5-78.925-9.225-7.175-22.55-24.6-29.725-38.95-12.3-23.575-18.45-26.65-39.975-23.575-20.5 1.025-26.65 6.15-27.675 23.575-2.050 11.275 6.15 38.95 17.425 61.5 23.575 46.125 27.675 89.175 9.225 89.175-7.175 0-15.375-12.3-20.5-31.775-10.25-38.95-37.925-60.475-67.65-53.3-28.7 7.175-36.9 33.825-22.55 68.675 15.375 37.925 32.8 56.375 70.725 73.8 39.975 18.45 62.525 18.45 105.575-1.025zM787.201 189.277c42.025-55.35-31.775-139.4-82-93.275-21.525 19.475-19.475 67.65 5.125 93.275 25.625 27.675 54.325 27.675 76.875 0zM295.2 487.552c-41-11.275-65.6-28.7-82-62.525-14.35-27.675-14.35-50.225 1.025-65.6 28.7-28.7 69.7-8.2 79.95 42.025 4.1 18.45 9.225 25.625 18.45 23.575 21.525-4.1 20.5-43.050-2.050-82-22.55-37.925-26.65-75.85-11.275-91.225 17.425-16.4 43.050-11.275 57.4 14.35 7.175 12.3 29.725 32.8 48.175 44.075 59.45 33.825 68.675 92.25 20.5 140.425-34.85 34.85-83.025 48.175-130.175 36.9zM291.1 202.602c-25.625-10.25-35.875-44.075-24.6-77.9 21.525-65.6 103.525-53.3 103.525 15.375 0 47.15-38.95 77.9-78.925 62.525z" />
<glyph unicode="&#xe82d;" glyph-name="paraschool" data-tags="paraschool" d="M312.625 16.051c-35.875 12.3-69.7 45.1-85.075 83.025-3.075 8.2-37.925 129.15-76.875 269.575-37.925 140.425-75.85 276.75-84.050 303.4-7.175 26.65-12.3 49.2-12.3 50.225 0 0 39.975-9.225 87.125-20.5 48.175-12.3 241.9-59.45 431.525-105.575 238.825-58.425 348.5-87.125 357.725-93.275 15.375-9.225 24.6-20.5 32.8-36.9 14.35-29.725 15.375-42.025 15.375-255.225v-200.9l-325.95 1.025c-259.325 0-328 1.025-340.3 5.125zM705.201 101.126c0 1.025-3.075 30.75-6.15 65.6s-6.15 64.575-5.125 65.6c1.025 1.025 49.2-3.075 106.6-8.2 57.4-6.15 109.675-9.225 115.825-8.2 30.75 8.2 38.95 27.675 38.95 96.35 0 42.025-1.025 46.125-9.225 67.65s-11.275 24.6-29.725 36.9c-18.45 11.275-32.8 14.35-151.7 38.95-72.775 15.375-133.25 25.625-133.25 23.575-1.025-2.050 8.2-88.15 19.475-191.675l21.525-187.575h16.4c9.225 0 16.4 1.025 16.4 1.025zM773.876 260.002c-45.1 5.125-83.025 11.275-84.050 13.325-3.075 4.1-17.425 155.8-15.375 157.85 3.075 3.075 216.275-37.925 226.525-44.075 18.45-11.275 23.575-24.6 24.6-64.575 0-19.475-1.025-42.025-3.075-50.225-6.15-26.65-19.475-27.675-148.625-12.3z" />
<glyph unicode="&#xe82e;" glyph-name="network" data-tags="network" horiz-adv-x="943" d="M229.6 492.677q-22.55 0-43.050-10.25-49.2 53.3-94.3 131.2 55.35 75.85 131.2 120.95 94.3-38.95 155.8-84.050-6.15-16.4-6.15-32.8 0-6.15 4.1-22.55-63.55-49.2-118.9-106.6-16.4 4.1-28.7 4.1zM129.15 392.227q0-34.85 20.5-61.5-61.5-116.85-82-237.8-67.65 108.65-67.65 241.9 0 112.75 51.25 211.15 38.95-63.55 86.1-114.8-8.2-24.6-8.2-38.95zM473.55 718.177q-28.7 0-51.25-14.35-59.45 43.050-116.85 71.75 86.1 30.75 166.050 30.75 123 0 235.75-63.55-77.9-14.35-166.050-51.25-26.65 26.65-67.65 26.65zM623.201 246.677q-164 24.6-297.25 114.8 4.1 20.5 4.1 30.75 0 24.6-14.35 53.3 38.95 45.1 100.45 92.25 26.65-20.5 57.4-20.5 14.35 0 38.95 8.2 96.35-110.7 137.35-246-16.4-14.35-26.65-32.8zM754.401 111.376q38.95 14.35 55.35 61.5 59.45 4.1 110.7 18.45-47.15-149.65-170.15-237.8 6.15 49.2 6.15 100.45 0 10.25-1.025 28.7t-1.025 28.7zM600.651 179.026q-194.75-98.4-311.6-278.8-92.25 36.9-161.95 112.75 12.3 147.6 82 280.85 6.15-2.050 20.5-2.050 30.75 0 53.3 14.35 145.55-100.45 317.75-127.1zM789.251 683.327q153.75-139.4 153.75-348.5 0-22.55-4.1-67.65-65.6-18.45-133.25-24.6-24.6 57.4-90.2 61.5-49.2 149.65-151.7 270.6 10.25 20.5 10.25 43.050v10.25q102.5 43.050 215.25 55.35zM649.851 125.726q14.35-10.25 32.8-18.45 2.050-18.45 2.050-53.3 0-82-14.35-147.6-88.15-43.050-198.85-43.050-59.45 0-114.8 12.3 112.75 164 293.15 250.1z" />
<glyph unicode="&#xe82f;" glyph-name="supprimerdossier-1" data-tags="supprimerdossier-1" d="M6.15 347.127v-354.65h868.176l4.1 10.25c6.15 19.475 17.425 56.375 17.425 59.45 0 1.025 4.1 12.3 7.175 24.6 4.1 11.275 9.225 28.7 12.3 36.9 10.25 35.875 45.1 146.575 56.375 184.5 7.175 22.55 13.325 43.050 13.325 45.1 3.075 8.2 9.225 30.75 20.5 67.65 7.175 21.525 13.325 41 14.35 45.1l2.050 7.175h-869.201l-35.875-116.85c-19.475-64.575-35.875-118.9-36.9-119.925s-8.2 3.075-14.35 9.225l-12.3 11.275 17.425 66.625c9.225 36.9 18.45 69.7 19.475 72.775 1.025 4.1 6.15 25.625 12.3 49.2 6.15 22.55 12.3 46.125 14.35 52.275l3.075 10.25h754.401v14.35c0 8.2 0 18.45 0 22.55s0 11.275 0 15.375v6.15h-489.95l-6.15 10.25c-3.075 6.15-11.275 21.525-18.45 33.825-6.15 12.3-19.475 37.925-29.725 56.375l-18.45 33.825h-305.45v-353.625zM567.851 455.777c44.075-12.3 75.85-30.75 107.625-62.525 67.65-69.7 84.050-171.175 41-259.325-28.7-59.45-84.050-104.55-149.65-121.975-30.75-8.2-79.95-8.2-110.7 0-48.175 12.3-93.275 42.025-123 78.925-72.775 90.2-66.625 219.35 14.35 302.375 36.9 37.925 76.875 58.425 134.275 68.675 15.375 2.050 68.675-1.025 86.1-6.15zM380.275 364.552l-11.275-10.25 120.95-120.95-60.475-59.45-60.475-60.475 21.525-21.525 60.475 59.45 60.475 60.475 119.925-119.925 11.275 10.25 11.275 11.275-60.475 60.475-60.475 59.45 120.95 120.95-11.275 11.275-11.275 10.25-58.425-58.425c-32.8-32.8-60.475-59.45-61.5-59.45s-28.7 26.65-61.5 59.45l-59.45 58.425-10.25-11.275z" />
<glyph unicode="&#xe830;" glyph-name="install" data-tags="install" horiz-adv-x="924" d="M906.101 289.727q24.6-53.3 14.35-98.4l-34.85-188.6q-2.050-20.5-19.475-35.875t-39.975-15.375h-729.801q-22.55 0-39.975 15.375t-19.475 35.875l-34.85 188.6q-8.2 51.25 14.35 98.4l161.95 383.35q22.55 47.15 73.8 47.15h106.6l-20.5-209.1h-137.35l260.35-215.25 262.4 215.25h-139.4l-18.45 209.1h104.55q51.25 0 75.85-47.15zM836.401 154.426q2.050 22.55-10.25 38.95t-34.85 16.4h-660.101q-22.55 0-34.85-16.4t-10.25-38.95l14.35-75.85q2.050-22.55 19.475-37.925t37.925-15.375h606.801q22.55 0 39.975 15.375t19.475 37.925z" />
<glyph unicode="&#xe831;" glyph-name="universalis" data-tags="universalis" d="M551.451 147.251c-20.5 1.025-39.975-15.375-38.95-41 0-20.5 1.025-24.6 17.425-34.85 38.95-25.625 82 32.8 49.2 64.575-8.2 8.2-18.45 11.275-27.675 11.275zM112.75 147.251c-12.3 0-15.375-7.175-4.1-10.25 10.25-4.1 9.225-58.425-2.050-64.575-6.15-3.075-4.1-4.1 11.275-4.1 11.275 0 15.375 1.025 12.3 3.075-4.1 3.075-6.15 11.275-5.125 26.65l2.050 21.525 22.55-27.675c12.3-15.375 24.6-26.65 26.65-25.625s3.075 17.425 3.075 35.875c0 20.5 2.050 35.875 6.15 38.95 4.1 4.1 1.025 6.15-13.325 5.125-16.4 0-17.425 0-9.225-6.15 6.15-4.1 8.2-10.25 6.15-26.65l-1.025-20.5-22.55 26.65c-16.4 20.5-24.6 27.675-32.8 27.675zM285.975 147.251c-10.25 0-18.45-2.050-18.45-5.125 0-2.050 2.050-4.1 4.1-4.1 8.2 0 32.8-37.925 32.8-50.225 0-5.125-4.1-12.3-8.2-15.375-6.15-3.075-3.075-4.1 15.375-4.1 17.425 0 20.5 1.025 14.35 4.1-4.1 3.075-8.2 10.25-8.2 15.375 0 12.3 25.625 50.225 32.8 50.225 2.050 0 4.1 2.050 4.1 4.1 0 3.075-7.175 5.125-15.375 5.125-9.225 0-16.4-2.050-16.4-5.125 0-2.050 2.050-4.1 5.125-4.1 2.050 0 1.025-6.15-4.1-13.325l-8.2-13.325-11.275 12.3c-6.15 7.175-8.2 12.3-5.125 13.325 11.275 4.1 4.1 10.25-13.325 10.25zM617.051 147.251c-12.3 0-22.55-2.050-22.55-5.125 0-2.050 2.050-4.1 5.125-4.1 7.175 0 6.15-64.575-1.025-66.625-3.075-2.050 3.075-3.075 14.35-3.075 13.325 0 18.45 1.025 15.375 3.075-7.175 4.1-12.3 26.65-7.175 27.675 54.325 5.125 50.225 48.175-4.1 48.175zM723.651 147.251c-18.45 0-31.775-2.050-31.775-5.125 0-2.050 2.050-4.1 4.1-4.1 6.15 0-25.625-57.4-35.875-64.575-6.15-4.1-4.1-5.125 11.275-5.125 12.3 0 16.4 1.025 12.3 4.1-9.225 5.125 1.025 21.525 13.325 21.525 6.15 0 8.2-3.075 8.2-10.25 0-6.15-2.050-11.275-5.125-12.3-3.075-2.050 9.225-3.075 27.675-3.075 28.7 0 32.8 1.025 35.875 9.225 4.1 11.275-2.050 16.4-8.2 7.175-2.050-5.125-9.225-8.2-17.425-8.2-12.3 0-14.35 2.050-14.35 13.325 0 10.25 2.050 13.325 9.225 13.325 5.125 0 9.225-2.050 9.225-4.1 0-3.075 2.050-5.125 5.125-5.125 2.050 0 4.1 7.175 4.1 15.375s2.050 16.4 5.125 17.425c2.050 1.025 3.075 6.15 1.025 11.275-2.050 8.2-6.15 9.225-33.825 9.225zM790.276 147.251c-24.6 0-25.625-1.025-18.45-8.2 11.275-12.3 11.275-60.475 0-66.625-6.15-3.075-1.025-4.1 22.55-4.1 27.675 0 32.8 1.025 43.050 10.25 11.275 11.275 15.375 31.775 8.2 48.175-4.1 12.3-27.675 20.5-55.35 20.5zM871.251 147.251c-18.45 0-18.45-1.025-12.3-8.2 9.225-10.25 8.2-61.5-1.025-66.625-4.1-3.075 6.15-4.1 29.725-4.1 20.5 0 34.85 1.025 31.775 3.075-9.225 3.075-7.175 13.325 3.075 18.45 12.3 6.15 29.725-2.050 26.65-13.325-2.050-7.175 0-8.2 13.325-8.2 15.375 0 16.4 0 10.25 7.175-4.1 4.1-13.325 22.55-20.5 39.975s-14.35 31.775-15.375 31.775c-2.050 0-11.275-17.425-21.525-37.925-12.3-26.65-19.475-36.9-24.6-35.875-6.15 1.025-8.2 8.2-9.225 32.8 0 20.5 1.025 31.775 4.1 31.775 2.050 0 5.125 2.050 5.125 4.1 0 3.075-9.225 5.125-19.475 5.125zM453.050 146.226c-19.475 0-20.5 0-13.325-5.125 6.15-5.125 7.175-12.3 7.175-34.85s-1.025-29.725-7.175-33.825c-6.15-3.075 0-4.1 26.65-4.1 32.8 0 35.875 0 37.925 9.225 3.075 13.325-1.025 16.4-8.2 7.175-3.075-5.125-12.3-8.2-20.5-8.2h-14.35v30.75c0 24.6 1.025 30.75 7.175 30.75 3.075 0 6.15 2.050 6.15 4.1 0 3.075-9.225 5.125-21.525 4.1zM401.8 146.226c-25.625 0-39.975-11.275-44.075-31.775-4.1-19.475 4.1-36.9 20.5-45.1 6.15-3.075 17.425-5.125 24.6-3.075 16.4 2.050 31.775 14.35 27.675 20.5-2.050 3.075-5.125 2.050-8.2-2.050-10.25-13.325-24.6-13.325-36.9-2.050-13.325 13.325-15.375 30.75-5.125 46.125 10.25 12.3 30.75 12.3 41-1.025l7.175-9.225v13.325c0 13.325 0 13.325-21.525 14.35-2.050 0-4.1 0-5.125 0zM50.225 146.226c-11.275 0-18.45-1.025-18.45-3.075 0-3.075 2.050-5.125 5.125-5.125 6.15 0 6.15-58.425-1.025-64.575-4.1-4.1 2.050-5.125 26.65-5.125 25.625 0 33.825 1.025 35.875 7.175 5.125 12.3 3.075 16.4-5.125 8.2-5.125-4.1-15.375-7.175-23.575-7.175-13.325 0-14.35 2.050-14.35 13.325s1.025 13.325 13.325 13.325c7.175 0 14.35-2.050 15.375-5.125 2.050-3.075 3.075 1.025 3.075 9.225 0 11.275-1.025 14.35-5.125 10.25-3.075-3.075-10.25-6.15-16.4-6.15-8.2 0-10.25 3.075-10.25 13.325 0 12.3 1.025 13.325 14.35 13.325 8.2 0 17.425-3.075 20.5-7.175 6.15-7.175 7.175-7.175 5.125 3.075-1.025 10.25-3.075 11.275-31.775 12.3-5.125 0-9.225 0-13.325 0zM236.775 146.226c-23.575 0-36.9-8.2-43.050-28.7-5.125-19.475 4.1-43.050 19.475-49.2 14.35-6.15 35.875-2.050 47.15 8.2 11.275 11.275 6.15 17.425-6.15 7.175-4.1-4.1-9.225-5.125-11.275-4.1-2.050 2.050-3.075 1.025-3.075-2.050 0-8.2-9.225-6.15-21.525 6.15s-14.35 30.75-4.1 45.1c10.25 12.3 30.75 12.3 41-1.025l7.175-9.225v13.325c0 12.3-1.025 13.325-20.5 14.35-2.050 0-4.1 0-5.125 0zM802.576 139.051c3.075 0 8.2-2.050 14.35-5.125 14.35-8.2 18.45-24.6 11.275-42.025-5.125-12.3-9.225-15.375-20.5-15.375h-14.35v30.75c0 22.55 1.025 31.775 9.225 31.775zM734.926 138.026c15.375 0 18.45-6.15 11.275-17.425-9.225-13.325-22.55-11.275-22.55 4.1 0 11.275 2.050 13.325 11.275 13.325zM550.426 138.026c6.15 0 12.3-2.050 16.4-5.125 8.2-8.2 6.15-45.1-2.050-53.3-12.3-12.3-24.6-8.2-33.825 10.25-6.15 10.25-4.1 32.8 5.125 42.025 3.075 4.1 8.2 6.15 14.35 6.15zM626.276 137.001c3.075 0 6.15-1.025 9.225-5.125 6.15-5.125 6.15-9.225 3.075-14.35-8.2-12.3-14.35-11.275-18.45 1.025-2.050 11.275 1.025 18.45 6.15 18.45zM704.176 123.676c1.025 1.025 1.025-2.050 1.025-9.225s-2.050-11.275-6.15-11.275c-6.15 0-6.15 2.050-2.050 10.25 4.1 7.175 6.15 10.25 7.175 10.25zM935.826 118.551c0 0 0 0 0-1.025 0-3.075 2.050-8.2 3.075-12.3 2.050-4.1 0-6.15-7.175-6.15-5.125 0-9.225 1.025-9.225 3.075 0 5.125 10.25 17.425 13.325 16.4zM652.926 34.501c0 0-1.025-1.025-1.025-1.025-2.050-2.050-10.25-3.075-21.525-2.050-16.4 2.050-18.45 1.025-26.65-6.15-15.375-15.375-12.3-32.8 8.2-44.075 26.65-16.4 33.825-22.55 33.825-29.725 0-16.4-23.575-19.475-36.9-4.1-5.125 5.125-8.2 11.275-8.2 14.35 0 2.050-2.050 3.075-3.075 2.050-2.050-1.025-3.075-8.2-3.075-17.425v-15.375l24.6-1.025c23.575-1.025 25.625 0 33.825 7.175 6.15 5.125 8.2 10.25 8.2 17.425 0 16.4-2.050 19.475-22.55 31.775-31.775 18.45-35.875 26.65-21.525 35.875 6.15 4.1 8.2 4.1 15.375 1.025 5.125-2.050 11.275-9.225 14.35-14.35 7.175-15.375 8.2-15.375 8.2 7.175 0 12.3-1.025 17.425-2.050 18.45v0zM980.926 34.501c0 0-1.025-1.025-1.025-1.025-2.050-2.050-10.25-3.075-22.55-2.050-18.45 2.050-18.45 2.050-26.65-8.2-4.1-5.125-8.2-12.3-8.2-17.425 0-9.225 16.4-25.625 36.9-37.925 17.425-9.225 19.475-20.5 7.175-28.7-12.3-7.175-31.775 3.075-35.875 19.475-3.075 11.275-6.15 6.15-7.175-12.3v-15.375l24.6-1.025c28.7-1.025 35.875 3.075 41 19.475 4.1 15.375-2.050 24.6-27.675 41-24.6 15.375-29.725 23.575-16.4 31.775 5.125 3.075 9.225 4.1 15.375 1.025 10.25-3.075 16.4-11.275 16.4-18.45 0-3.075 2.050-6.15 3.075-7.175 2.050-1.025 3.075 6.15 3.075 18.45 0 13.325 0 18.45-2.050 18.45zM129.15 32.451c-29.725 0-41-3.075-25.625-7.175l8.2-2.050-1.025-36.9c-1.025-33.825-2.050-36.9-8.2-42.025-5.125-4.1-12.3-6.15-20.5-6.15-19.475 0-23.575 8.2-24.6 44.075-1.025 29.725 2.050 44.075 9.225 44.075 3.075 0 5.125 2.050 5.125 3.075 0 4.1-42.025 4.1-44.075 0-1.025-1.025 1.025-3.075 5.125-3.075 6.15-1.025 7.175-3.075 8.2-38.95 2.050-39.975 4.1-49.2 16.4-54.325 4.1-2.050 14.35-3.075 23.575-4.1 15.375 0 19.475 1.025 27.675 9.225l10.25 9.225 1.025 37.925c1.025 37.925 1.025 37.925 8.2 39.975 4.1 1.025 10.25 0 15.375-3.075 7.175-5.125 7.175-5.125 6.15-44.075-1.025-35.875-1.025-37.925-7.175-42.025-4.1-1.025-6.15-4.1-5.125-5.125 3.075-3.075 33.825-2.050 35.875 1.025 1.025 2.050-1.025 3.075-4.1 3.075-9.225 0-10.25 4.1-9.225 37.925l1.025 30.75 29.725-37.925c17.425-20.5 31.775-36.9 32.8-36.9 2.050 0 3.075 21.525 3.075 48.175 0 44.075 0 47.15 6.15 48.175 3.075 1.025 6.15 3.075 6.15 5.125 0 3.075-32.8 3.075-34.85-1.025-1.025-1.025 1.025-3.075 4.1-3.075 9.225 0 9.225-3.075 8.2-35.875v-28.7l-28.7 35.875-29.725 34.85h-28.7zM266.5 32.451c-20.5 0-32.8-4.1-18.45-6.15 7.175-1.025 7.175-2.050 8.2-45.1 1.025-41 1.025-43.050-5.125-45.1-4.1-1.025-6.15-3.075-6.15-4.1 0-2.050 9.225-3.075 21.525-3.075 20.5 0 27.675 4.1 14.35 8.2-5.125 1.025-6.15 4.1-6.15 44.075s1.025 43.050 6.15 44.075c13.325 4.1 5.125 7.175-14.35 7.175zM311.6 32.451c-20.5 0-27.675-3.075-15.375-7.175 3.075-1.025 10.25-12.3 18.45-31.775 7.175-16.4 16.4-36.9 20.5-47.15 4.1-9.225 9.225-17.425 10.25-16.4 2.050 0 11.275 20.5 21.525 45.1 9.225 23.575 19.475 45.1 21.525 47.15 2.050 3.075 7.175 4.1 12.3 4.1l9.225-1.025v-44.075c0-44.075 0-44.075-6.15-45.1-4.1-1.025-6.15-2.050-5.125-4.1s18.45-3.075 38.95-3.075c42.025 0 39.975-1.025 46.125 23.575 2.050 8.2 2.050 8.2-8.2-3.075-10.25-10.25-12.3-11.275-28.7-11.275h-16.4v39.975h15.375c12.3 0 15.375-1.025 16.4-6.15 4.1-12.3 7.175-6.15 7.175 12.3 0 19.475-3.075 22.55-8.2 10.25-3.075-6.15-6.15-7.175-17.425-7.175h-13.325v35.875h18.45c16.4 0 18.45 0 21.525-7.175 5.125-11.275 9.225-9.225 8.2 4.1l-1.025 11.275h-55.35c-51.25 1.025-68.675-1.025-52.275-6.15 4.1-2.050 5.125-4.1 4.1-7.175s-7.175-17.425-13.325-33.825l-11.275-28.7-9.225 21.525c-17.425 37.925-18.45 43.050-12.3 48.175 8.2 6.15 6.15 7.175-16.4 7.175zM888.676 32.451c-20.5 0-27.675-4.1-13.325-7.175l8.2-2.050-1.025-42.025c-1.025-38.95-1.025-41-8.2-45.1-3.075-1.025-5.125-4.1-4.1-5.125s10.25-2.050 20.5-2.050c20.5 0 25.625 3.075 15.375 7.175-6.15 4.1-6.15 5.125-6.15 45.1 0 38.95 0 41 6.15 44.075 11.275 5.125 5.125 7.175-17.425 7.175zM794.376 32.451c-8.2 0-14.35-1.025-15.375-2.050s1.025-3.075 4.1-5.125c7.175-3.075 7.175-5.125 7.175-44.075 0-39.975 0-41-7.175-44.075-3.075-2.050-6.15-4.1-6.15-5.125 0-2.050 17.425-3.075 38.95-3.075h38.95l5.125 14.35c2.050 8.2 4.1 15.375 3.075 16.4-1.025 0-5.125-3.075-10.25-9.225-6.15-7.175-11.275-10.25-22.55-11.275-21.525-2.050-23.575 0-23.575 41 0 34.85 3.075 46.125 11.275 46.125 2.050 0 4.1 2.050 4.1 3.075 0 2.050-15.375 3.075-27.675 3.075zM505.325 32.451c-15.375 0-22.55-3.075-11.275-6.15l7.175-2.050v-42.025c0-41 0-42.025-6.15-46.125-4.1-1.025-6.15-4.1-5.125-5.125 3.075-3.075 43.050-2.050 43.050 1.025 0 1.025-3.075 3.075-6.15 5.125-6.15 2.050-7.175 5.125-8.2 20.5-1.025 24.6 6.15 23.575 26.65-6.15 16.4-21.525 16.4-22.55 29.725-22.55s17.425 4.1 7.175 8.2c-6.15 1.025-36.9 36.9-36.9 41 0 1.025 4.1 3.075 8.2 4.1 9.225 2.050 14.35 11.275 13.325 25.625-2.050 16.4-12.3 21.525-43.050 23.575-7.175 1.025-13.325 1.025-18.45 1.025zM721.601 31.426c-2.050 0-12.3-21.525-23.575-47.15-13.325-30.75-21.525-46.125-25.625-47.15-3.075-1.025-4.1-3.075-3.075-5.125 1.025-3.075 31.775-4.1 31.775-1.025 0 1.025-3.075 4.1-5.125 6.15-4.1 3.075-5.125 5.125-2.050 14.35l4.1 11.275h38.95l3.075-11.275c3.075-9.225 3.075-11.275-1.025-14.35-8.2-6.15-6.15-8.2 14.35-8.2 19.475 0 25.625 3.075 15.375 9.225-3.075 1.025-9.225 11.275-14.35 21.525-4.1 11.275-13.325 31.775-19.475 46.125-6.15 15.375-12.3 26.65-13.325 25.625zM518.65 23.226h9.225c10.25 0 20.5-9.225 20.5-18.45s-2.050-13.325-11.275-17.425c-3.075-2.050-9.225-3.075-12.3-3.075-6.15 0-6.15 1.025-6.15 19.475v19.475zM717.501 5.801l6.15-13.325c2.050-7.175 6.15-14.35 6.15-17.425 1.025-2.050-2.050-3.075-12.3-3.075-7.175 0-13.325 0-13.325 1.025 0 0 3.075 8.2 6.15 17.425l7.175 15.375zM240.875 793.002v-285.975c0-272.65 1.025-285.975 19.475-304.425 17.425-18.45 31.775-19.475 263.425-19.475 214.225 0 246 2.050 261.375 16.4 16.4 14.35 17.425 36.9 17.425 304.425v289.050h-85.075v-533.001h-390.525v533.001h-86.1zM364.9 793.002v-485.85h314.675v104.55h-200.9v95.325l88.15 2.050 88.15 3.075v95.325l-88.15 3.075-88.15 2.050v85.075h190.65v95.325h-304.425z" />
<glyph unicode="&#xe832;" glyph-name="check-1" data-tags="check-1" horiz-adv-x="747" d="M587.326-39.299h-427.425q-66.625 0-112.75 47.15t-47.15 112.75v428.45q0 66.625 47.15 112.75t112.75 47.15h266.5q22.55 0 37.925-16.4t16.4-36.9-16.4-37.925-37.925-16.4h-266.5q-21.525 0-37.925-15.375t-15.375-36.9v-428.45q0-21.525 15.375-36.9t37.925-15.375h427.425q21.525 0 36.9 15.375t16.4 36.9v160.925q0 21.525 16.4 36.9t37.925 16.4 36.9-16.4 15.375-36.9v-160.925q0-66.625-47.15-112.75t-112.75-47.15zM435.625 184.152q-29.725 0-50.225 20.5l-141.45 141.45q-20.5 22.55-20.5 51.25t20.5 50.225 49.2 20.5 50.225-20.5l76.875-75.85 184.5 291.1q14.35 25.625 43.050 33.825t54.325-5.125 33.825-43.050-7.175-54.325l-230.625-373.1q-18.45-36.9-62.525-36.9z" />
<glyph unicode="&#xe833;" glyph-name="cubes" data-tags="cubes" horiz-adv-x="1317" d="M365.925-86.449l219.35 109.675v180.4l-219.35-94.3v-195.775zM329.025 173.901l231.65 98.4-231.65 99.425-230.625-99.425zM952.226-86.449l219.35 109.675v180.4l-219.35-94.3v-195.775zM915.326 173.901l230.625 98.4-230.625 99.425-231.65-99.425zM659.076 340.977l219.35 94.3v152.725l-219.35-94.3v-152.725zM622.176 558.277l252.15 107.625-252.15 108.65-252.15-108.65zM1244.351 262.052v-238.825q0-20.5-10.25-37.925t-29.725-26.65l-256.25-128.125q-14.35-8.2-32.8-8.2t-32.8 8.2l-256.25 128.125q-3.075 1.025-4.1 2.050-1.025-1.025-4.1-2.050l-256.25-128.125q-14.35-8.2-32.8-8.2t-31.775 8.2l-256.25 128.125q-19.475 9.225-29.725 26.65t-11.275 37.925v238.825q0 21.525 12.3 39.975t32.8 26.65l248.050 106.6v228.575q0 22.55 12.3 41t31.775 26.65l256.25 109.675q13.325 6.15 28.7 6.15t28.7-6.15l256.25-109.675q20.5-9.225 32.8-26.65t12.3-41v-228.575l248.050-106.6q20.5-8.2 32.8-26.65t11.275-39.975z" />
<glyph unicode="&#xe834;" glyph-name="calendar" data-tags="calendar" horiz-adv-x="951" d="M72.775-104.899h165.025v165.025h-165.025v-165.025zM274.7-104.899h182.45v165.025h-182.45v-165.025zM72.775 97.026h165.025v182.45h-165.025v-182.45zM274.7 97.026h182.45v182.45h-182.45v-182.45zM72.775 316.377h165.025v165.025h-165.025v-165.025zM494.050-104.899h183.475v165.025h-183.475v-165.025zM274.7 316.377h182.45v165.025h-182.45v-165.025zM713.401-104.899h165.025v165.025h-165.025v-165.025zM494.050 97.026h183.475v182.45h-183.475v-182.45zM293.15 591.077v165.025q0 7.175-6.15 12.3t-12.3 6.15h-36.9q-7.175 0-12.3-6.15t-6.15-12.3v-165.025q0-7.175 6.15-13.325t12.3-5.125h36.9q7.175 0 12.3 5.125t6.15 13.325zM713.401 97.026h165.025v182.45h-165.025v-182.45zM494.050 316.377h183.475v165.025h-183.475v-165.025zM713.401 316.377h165.025v165.025h-165.025v-165.025zM731.851 591.077v165.025q0 7.175-5.125 12.3t-13.325 6.15h-35.875q-7.175 0-13.325-6.15t-5.125-12.3v-165.025q0-7.175 5.125-13.325t13.325-5.125h35.875q8.2 0 13.325 5.125t5.125 13.325zM952.226 627.977v-732.876q0-29.725-22.55-51.25t-51.25-21.525h-805.651q-29.725 0-51.25 21.525t-21.525 51.25v732.876q0 29.725 21.525 51.25t51.25 21.525h73.8v55.35q0 37.925 26.65 64.575t64.575 26.65h36.9q37.925 0 64.575-26.65t26.65-64.575v-55.35h219.35v55.35q0 37.925 27.675 64.575t64.575 26.65h35.875q37.925 0 65.6-26.65t26.65-64.575v-55.35h72.775q29.725 0 51.25-21.525t22.55-51.25z" />
<glyph unicode="&#xe835;" glyph-name="help-circled" data-tags="help-circled" horiz-adv-x="879" d="M512.5 60.126v109.675q0 8.2-5.125 13.325t-13.325 5.125h-109.675q-8.2 0-13.325-5.125t-5.125-13.325v-109.675q0-8.2 5.125-13.325t13.325-5.125h109.675q8.2 0 13.325 5.125t5.125 13.325zM659.076 444.502q0 50.225-31.775 93.275t-78.925 66.625-97.375 23.575q-139.4 0-212.175-121.975-9.225-13.325 4.1-24.6l75.85-56.375q4.1-4.1 10.25-4.1 9.225 0 14.35 7.175 30.75 38.95 49.2 52.275 19.475 14.35 49.2 14.35 27.675 0 49.2-15.375t21.525-33.825q0-21.525-11.275-34.85t-38.95-25.625q-35.875-15.375-66.625-49.2t-29.725-71.75v-20.5q0-8.2 5.125-13.325t13.325-5.125h109.675q8.2 0 13.325 5.125t5.125 13.325q0 10.25 12.3 27.675t30.75 28.7q18.45 10.25 28.7 16.4t25.625 19.475 25.625 27.675 16.4 34.85 7.175 46.125zM878.426 334.827q0-119.925-58.425-220.375t-159.9-159.9-220.375-59.45-221.4 59.45-158.875 159.9-59.45 220.375 59.45 220.375 158.875 159.9 221.4 59.45 220.375-59.45 159.9-159.9 58.425-220.375z" />
<glyph unicode="&#xe836;" glyph-name="resize-full" data-tags="resize-full" d="M0-177.674v452.025l151.7-151.7 207.050 206.025 147.6-147.6-206.025-207.050 151.7-151.7h-452.025zM518.65 488.577l206.025 207.050-151.7 151.7h452.025v-452.025l-151.7 151.7-207.050-206.025z" />
<glyph unicode="&#xe837;" glyph-name="th" data-tags="th" horiz-adv-x="870" d="M164 652.577v-165.025h-164v165.025h164zM400.775 652.577v-165.025h-165.025v165.025h165.025zM164 416.827v-166.050h-164v166.050h164zM400.775 416.827v-166.050h-165.025v166.050h165.025zM164 181.076v-164h-164v164h164zM400.775 181.076v-164h-165.025v164h165.025zM635.501 652.577v-165.025h-165.025v165.025h165.025zM870.226 652.577v-165.025h-164v165.025h164zM635.501 417.852v-166.050h-165.025v166.050h165.025zM635.501 181.076v-164h-165.025v164h165.025zM870.226 417.852v-166.050h-164v166.050h164zM870.226 184.152v-167.075h-164v167.075h164z" />
<glyph unicode="&#xe838;" glyph-name="up" data-tags="up" horiz-adv-x="677" d="M676.501 320.477h-196.8v-358.75h-282.9v358.75h-196.8l338.25 389.5z" />
<glyph unicode="&#xe839;" glyph-name="music" data-tags="music" horiz-adv-x="879" d="M878.426 719.202v-640.626q0-28.7-19.475-51.25t-49.2-33.825-59.45-18.45-54.325-6.15-55.35 6.15-59.45 18.45-49.2 33.825-19.475 51.25 19.475 51.25 49.2 33.825 59.45 18.45 55.35 6.15q59.45 0 109.675-22.55v307.5l-439.725-135.3v-405.9q0-28.7-19.475-51.25t-49.2-33.825-59.45-18.45-54.325-6.15-55.35 6.15-59.45 18.45-49.2 33.825-19.475 51.25 19.475 51.25 49.2 34.85 59.45 17.425 55.35 6.15q59.45 0 109.675-21.525v552.476q0 17.425 10.25 32.8t28.7 20.5l475.6 145.55q7.175 3.075 16.4 3.075 22.55 0 38.95-16.4t15.375-38.95z" />
<glyph unicode="&#xe83a;" glyph-name="block" data-tags="block" horiz-adv-x="933" d="M0 333.802q0 192.7 137.35 330.050t330.050 137.35 329.025-137.35 136.325-330.050-136.325-329.025-329.025-136.325-330.050 136.325-137.35 329.025zM117.875 361.477q-9.225-129.15 64.575-230.625l487.9 487.9q-101.475 74.825-230.625 64.575t-220.375-101.475-101.475-220.375zM264.45 48.851q101.475-74.825 229.6-64.575t220.375 102.5 102.5 220.375-64.575 229.6z" />
<glyph unicode="&#xe83b;" glyph-name="brush" data-tags="brush" d="M923.526 847.327q39.975 0 70.725-26.65t29.725-66.625q0-35.875-25.625-86.1-189.625-359.775-266.5-430.5-55.35-52.275-124.025-52.275-72.775 0-124.025 53.3t-52.275 126.075q0 72.775 53.3 120.95l364.9 331.075q33.825 30.75 73.8 30.75zM403.85 255.902q22.55-43.050 60.475-74.825t86.1-43.050l1.025-41q2.050-120.95-73.8-197.825t-199.875-76.875q-69.7 0-124.025 26.65t-87.125 72.775-50.225 104.55-16.4 126.075q4.1-3.075 23.575-17.425t35.875-25.625 32.8-20.5 26.65-9.225q23.575 0 31.775 20.5 14.35 37.925 32.8 64.575t39.975 43.050 50.225 27.675 58.425 14.35 71.75 6.15z" />
</font>
</defs>
</svg>
