<?xml version="1.0" standalone="no"?>
<!DOCTYPE svg PUBLIC "-//W3C//DTD SVG 1.1//EN" "http://www.w3.org/Graphics/SVG/1.1/DTD/svg11.dtd" >
<svg xmlns="http://www.w3.org/2000/svg">
<metadata>Generated by IcoMoon</metadata>
<defs>
<font id="plato" horiz-adv-x="1024">
<font-face units-per-em="1024" ascent="896" descent="-128" />
<missing-glyph horiz-adv-x="1024" />
<glyph unicode="&#x20;" horiz-adv-x="0" d="" />
<glyph unicode="&#xe900;" glyph-name="alert" d="M1005.854 95.753l-438.286 767c-11.395 19.941-32.601 32.247-55.568 32.247s-44.173-12.306-55.567-32.247l-438.286-767c-11.319-19.809-11.238-44.144 0.213-63.876s32.539-31.877 55.354-31.877h876.572c22.814 0 43.903 12.145 55.354 31.877s11.533 44.067 0.214 63.876zM576 128h-128v128h128v-128zM576 320h-128v256h128v-256z" />
<glyph unicode="&#xe901;" glyph-name="alignment-align" horiz-adv-x="960" d="M192 832c-106.062 0-192-85.938-192-192s85.938-192 192-192c106.062 0 192 85.938 192 192s-85.938 192-192 192zM672 288l160 160h-448v-448l160 160 288-288 128 128-288 288z" />
<glyph unicode="&#xe902;" glyph-name="alignment-aligned-to" horiz-adv-x="960" d="M384 320l128 128 288-288 160 160v-448h-448l160 160-288 288zM192 448c-106.062 0-192 85.938-192 192s85.938 192 192 192c106.062 0 192-85.938 192-192s-85.938-192-192-192z" />
<glyph unicode="&#xe903;" glyph-name="alignment-unalign" horiz-adv-x="896" d="M512 704l-128-128-256 256-128-128 256-256-128-128 64-64 384 384-64 64zM640 320l128 128-64 64-384-384 64-64 128 128 256-256 128 128-256 256z" />
<glyph unicode="&#xe904;" glyph-name="arrow-down" horiz-adv-x="640" d="M448 448v256h-256v-256h-192l320-384 320 384h-192z" />
<glyph unicode="&#xe905;" glyph-name="arrow-left" horiz-adv-x="640" d="M384 512v192l-384-320 384-320v192h256v256h-256z" />
<glyph unicode="&#xe906;" glyph-name="arrow-right" horiz-adv-x="640" d="M640 384l-384 320v-192h-256v-256h256v-192l384 320z" />
<glyph unicode="&#xe907;" glyph-name="arrow-small-down" horiz-adv-x="384" d="M256 448v128h-128v-128h-128l192-256 192 256h-128z" />
<glyph unicode="&#xe908;" glyph-name="arrow-small-left" horiz-adv-x="384" d="M256 448v128l-256-192 256-192v128h128v128h-128z" />
<glyph unicode="&#xe909;" glyph-name="arrow-small-right" horiz-adv-x="384" d="M384 384l-256 192v-128h-128v-128h128v-128l256 192z" />
<glyph unicode="&#xe90a;" glyph-name="arrow-small-up" horiz-adv-x="384" d="M192 576l-192-256h128v-128h128v128h128l-192 256z" />
<glyph unicode="&#xe90b;" glyph-name="arrow-up" horiz-adv-x="640" d="M320 704l-320-384h192v-256h256v256h192l-320 384z" />
<glyph unicode="&#xe90c;" glyph-name="beer" d="M896 640c-31 0-192 0-192 0v128c0 71-158 128-352 128s-352-57-352-128v-768c0-71 158-128 352-128s352 57 352 128v128s160 0 192 0 64 30 64 64 0 350 0 384-29 64-64 64zM192 64h-64v512h64v-512zM384 0h-64v512h64v-512zM576 64h-64v512h64v-512zM352 704c-124 0-224 29-224 64s100 64 224 64 224-29 224-64-100-64-224-64zM832 256h-128v256h128v-256z" />
<glyph unicode="&#xe90d;" glyph-name="book" d="M768 320h-128c-34 0-64-32-64-64h256c0 34-32 64-64 64zM713 736c-167 0-209-32-233-56-24 24-66 56-233 56s-247-46-247-78v-586c29 16 119 48 214 56 115 9 234-9 234-32 0-16 8-31 31-32 0 0 0 0 1 0 0 0 0 0 1 0 23 1 31 16 31 32 0 23 119 41 234 32 94-7 185-40 214-56v586c0 32-80 78-247 78zM448 164c-30 16-103 28-192 28s-170-12-192-27c0 0 0 411 0 443s64 59 192 59 192-27 192-59 0-444 0-444zM896 165c-22 15-103 27-192 27s-162-12-192-28c0 0 0 412 0 444s64 59 192 59 192-27 192-59 0-443 0-443zM768 448h-128c-34 0-64-32-64-64h256c0 34-32 64-64 64zM768 576h-128c-34 0-64-32-64-64h256c0 34-32 64-64 64zM320 448h-128c-32 0-64-30-64-64h256c0 32-30 64-64 64zM320 320h-128c-32 0-64-30-64-64h256c0 32-30 64-64 64zM320 576h-128c-32 0-64-30-64-64h256c0 32-30 64-64 64z" />
<glyph unicode="&#xe90e;" glyph-name="bookmark" horiz-adv-x="384" d="M0 768v-768l192 128 192-128v768h-384zM316.25 571.25l-71.875-51.938 27.188-83.406c2.75-8.375-0.688-11.062-7.562-6.594l-72 52.094-72-52.031c-6.844-4.469-10.312-1.781-7.562 6.594l27.219 83.406-71.875 51.875c-6.469 5.125-5 9.219 3.906 9.219l88 0.125 27.125 83.094c2.812 8.812 7.562 8.812 10.375 0l27.188-83.094 87.938-0.125c8.935 0 10.373-4.094 3.935-9.219z" />
<glyph unicode="&#xe90f;" glyph-name="briefcase" d="M896 704h-256v66c0 34.2-27.8 62-62 62h-132c-34.2 0-62-27.8-62-62v-66h-256c-35.3 0-64-28.7-64-64v-512c0-35.3 28.7-64 64-64h768c35.3 0 64 28.7 64 64v512c0 35.3-28.7 64-64 64zM448 752c0 8.8 7.2 16 16 16h96c8.8 0 16-7.2 16-16v-48h-128v48zM896 384h-320v-64h-128v64h-320v256h64v-192h640v192h64v-256z" />
<glyph unicode="&#xe910;" glyph-name="broadcast" horiz-adv-x="896" d="M448 704c142 0 256-115 256-256 0-69-28-132-72-178l-16-93c91 56 152 156 152 271 0 177-143 320-320 320s-320-143-320-320c0-115 61-215 152-271l-16 93c-45 46-72 109-72 178 0 142 114 256 256 256zM384 384c-36 0-64-29-64-64v-128c0-36 30-64 64-64v-256h128v256c34 0 64 28 64 64v128c0 35-28 64-64 64s-64 0-64 0-28 0-64 0zM576 512c0 71-57 128-128 128s-128-57-128-128 57-128 128-128 128 57 128 128zM448 896c-247 0-448-201-448-448 0-197 128-363 305-423l-12 72c-135 60-229 194-229 351 0 212 172 384 384 384s384-172 384-384c0-157-94-291-229-351l-12-72c177 60 305 225 305 423 0 247-201 448-448 448z" />
<glyph unicode="&#xe911;" glyph-name="browser" horiz-adv-x="896" d="M320 704h64v-64h-64v64zM192 704h64v-64h-64v64zM64 704h64v-64h-64v64zM832 64h-768v512h768v-512zM832 640h-384v64h384v-64zM896 704c0 35.35-28.65 64-64 64h-768c-35.35 0-64-28.65-64-64v-640c0-35.35 28.65-64 64-64h768c35.35 0 64 28.65 64 64v640z" />
<glyph unicode="&#xe912;" glyph-name="bug" horiz-adv-x="733" d="M243.621 739.469c-52.874-56.781-38.281-147.469-38.281-147.469s53.968-64 160-64c106.031 0 160.031 64 160.031 64s14.375 89.469-37.375 146.312c32.375 18.031 51.438 44.094 43.562 61.812-8.938 19.969-48.375 21.75-88.25 3.969-14.812-6.594-27.438-14.969-37.25-23.875-12.438 2.25-25.625 3.781-40.72 3.781-14.061 0-26.561-1.344-38.344-3.25-9.656 8.75-22.062 16.875-36.531 23.344-39.875 17.719-79.375 15.938-88.25-3.969-7.748-17.343 10.284-42.686 41.408-60.655zM644.746 326.25c-8.25 1.75-16.125 2.75-23.75 3.5 0 2.125 0.375 4.125 0.375 6.312 0 33.594-4.75 65.654-12.438 96.125 16.438-1.406 37.375 2.375 58.562 11.779 39.875 17.781 65 48.375 56.125 68.219-8.875 19.969-48.375 21.75-88.25 3.969-18.625-8.312-33.812-19.469-44-30.906-7.75 18.25-16.5 35.781-26.812 51.719-30.188-25.156-87.312-62.719-167.062-71.062v-321.781c0 0-0.25-32-32.031-32-31.75 0-32 32-32 32v321.657c-79.811 8.344-136.968 45.969-167.093 71.062-9.875-15.312-18.375-32-25.938-49.344-10.281 10.625-24.625 20.844-41.969 28.594-39.875 17.719-79.375 15.938-88.25-3.969-8.906-19.906 16.25-50.438 56.125-68.219 19.844-8.846 39.531-12.812 55.469-12.096-7.656-30.404-12.469-62.344-12.469-95.812 0-2.188 0.375-4.25 0.438-6.5-6.719-0.75-13.688-1.75-20.781-3.25-51.969-10.75-91.781-37.625-88.844-59.812 2.938-22.312 47.5-31.5 99.594-20.688 6.781 1.375 13.438 3.125 19.781 5.062 9.156-40.809 23.812-78.684 44.094-111.309-12.031-6.062-24.531-15-36.031-26.625-31.876-31.875-44.812-70.625-28.876-86.563 15.938-15.937 54.656-3 86.531 28.812 9.344 9.375 16.844 19.25 22.656 29 43.532-42.624 98.063-68.124 157.563-68.124 60.343 0 115.781 26.25 159.531 69.938 5.875-10.312 13.75-20.812 23.625-30.688 31.812-31.875 70.625-44.812 86.562-28.875s3 54.625-28.875 86.5c-12.312 12.375-25.688 21.75-38.438 27.938 20.125 32.5 34.625 70.375 43.688 111.062 7.188-2.25 14.688-4.375 22.562-6.062 52.061-10.812 96.625-1.562 99.625 20.688 2.813 22.124-36.999 48.999-88.999 59.749z" />
<glyph unicode="&#xe913;" glyph-name="calendar" d="M704 384h-64v-128h64v128zM576 384h-64v-128h64v128zM704 576h-64v-128h64v128zM832 384h-64v-128h64v128zM576 192h-64v-128h64v128zM768 896h-64v-128h64v128zM256 896h-64v-128h64v128zM832 576h-64v-128h64v128zM576 576h-64v-128h64v128zM320 192h-64v-128h64v128zM192 384h-64v-128h64v128zM320 384h-64v-128h64v128zM832 832v-128h-192v128h-320v-128h-192v128h-128v-896h960v896h-128zM896 0h-832v640h832v-640zM192 192h-64v-128h64v128zM448 576h-64v-128h64v128zM448 192h-64v-128h64v128zM320 576h-64v-128h64v128zM448 384h-64v-128h64v128zM704 192h-64v-128h64v128z" />
<glyph unicode="&#xe914;" glyph-name="check" horiz-adv-x="768" d="M640 704l-384-384-128 128-128-128 256-256 512 512-128 128z" />
<glyph unicode="&#xe915;" glyph-name="checklist" horiz-adv-x="765" d="M760.688 379.781l-49.812 49.656c-6.438 6.529-16.938 6.594-23.375 0l-105.001-104.937-120.125-120.375-93.031 93.125c-6.531 6.562-17.031 6.562-23.5 0l-49.719-49.688c-6.531-6.562-6.531-17.062 0-23.562l154.438-154.562c6.562-6.562 17.188-6.562 23.562 0l286.5 286.782c6.625 6.468 6.625 16.968 0.063 23.561zM228.469 315.188l49.687 49.812c42.469 42.375 116.344 42.438 158.781-0.062l25.312-25.312 113.751 108.374v320h-576v-704h320l-91.531 92.125c-43.781 43.937-43.781 115.25 0 159.063zM192 704h320v-64h-320v64zM192 576h320v-64h-320v64zM128 384h-64v64h64v-64zM128 512h-64v64h64v-64zM128 640h-64v64h64v-64zM192 448h64v-64h-64v64z" />
<glyph unicode="&#xe916;" glyph-name="chevron-down" horiz-adv-x="640" d="M512 576l-192-192-192 192-128-128 320-320 320 320-128 128z" />
<glyph unicode="&#xe917;" glyph-name="chevron-left" horiz-adv-x="448" d="M448 576l-128 128-320-320 320-320 128 128-192 192 192 192z" />
<glyph unicode="&#xe918;" glyph-name="chevron-right" horiz-adv-x="448" d="M128 704l-128-128 192-192-192-192 128-128 320 320-320 320z" />
<glyph unicode="&#xe919;" glyph-name="chevron-up" horiz-adv-x="640" d="M320 640l-320-320 128-128 192 192 192-192 128 128-320 320z" />
<glyph unicode="&#xe91a;" glyph-name="circle-slash" horiz-adv-x="640" d="M320 704c-176.781 0-320-143.219-320-320 0-176.75 143.219-320 320-320 176.75 0 320 143.25 320 320 0 176.781-143.25 320-320 320zM320 576c27.656 0 53.688-6.094 77.438-16.562l-252.876-252.876c-10.468 23.75-16.562 49.782-16.562 77.438 0 106 85.938 192 192 192zM320 192c-28.031 0-54.531 6.375-78.594 17.125l253.906 252.5c10.563-23.813 16.688-49.906 16.688-77.625 0-106.062-85.938-192-192-192z" />
<glyph unicode="&#xe91b;" glyph-name="circuit-board" d="M320 640c35.346 0 64-28.654 64-64s-28.654-64-64-64-64 28.654-64 64c0 35.346 28.654 64 64 64zM960 128c0-106.039-85.961-192-192-192h-448l192 192h81.128c22.132-38.258 63.494-64 110.872-64 70.692 0 128 57.308 128 128s-57.308 128-128 128c-47.377 0-88.74-25.742-110.872-64h-145.128l-291.956-291.956c-55.199 33.724-92.044 94.536-92.044 163.956v512c0 106.039 85.961 192 192 192v-145.128c-38.258-22.132-64-63.495-64-110.872 0-70.692 57.308-128 128-128 47.276 0 88.56 25.633 110.727 63.756l162.416 0.219c22.136-38.244 63.49-63.975 110.857-63.975 70.692 0 128 57.308 128 128s-57.308 128-128 128c-47.388 0-88.758-25.753-110.887-64.025l-162.097-0.219c-11.246 19.54-27.503 35.828-47.016 47.116v145.128h384c106.039 0 192-85.961 192-192v-512zM640 192c0 35.346 28.654 64 64 64s64-28.654 64-64c0-35.346-28.654-64-64-64s-64 28.654-64 64zM640 576c0 35.346 28.654 64 64 64s64-28.654 64-64c0-35.346-28.654-64-64-64s-64 28.654-64 64z" />
<glyph unicode="&#xe91c;" glyph-name="clippy" horiz-adv-x="896" d="M704 0h-640v576h640v-192h64v320c0 35-29 64-64 64h-192c0 71-57 128-128 128s-128-57-128-128h-192c-35 0-64-29-64-64v-704c0-35 29-64 64-64h640c35 0 64 29 64 64v128h-64v-128zM192 704c29 0 29 0 64 0s64 29 64 64 29 64 64 64 64-29 64-64 32-64 64-64 33 0 64 0 64-29 64-64h-512c0 39 28 64 64 64zM128 192h128v64h-128v-64zM576 320v128l-256-192 256-192v128h320v128h-320zM128 64h192v64h-192v-64zM448 512h-320v-64h320v64zM256 384h-128v-64h128v64z" />
<glyph unicode="&#xe91d;" glyph-name="clock" horiz-adv-x="896" d="M384 320h256l64 64-64 64h-128v192l-64 64-64-64v-320zM448 832c-247.438 0-448-200.562-448-448s200.562-448 448-448c247.438 0 448 200.562 448 448s-200.562 448-448 448zM448 64c-176.25 0-320 143.75-320 320 0 175.938 144.188 319.5 320 320 175.812-0.5 320-144.062 320-320 0-176.25-143.75-320-320-320z" />
<glyph unicode="&#xe91e;" glyph-name="cloud-download" d="M832 576c-8.75 0-17.125-1.406-25.625-2.562-48.75 114.312-162.25 194.562-294.375 194.562-132.156 0-245.562-80.25-294.406-194.562-8.438 1.156-16.813 2.562-25.594 2.562-106.062 0-192-85.938-192-192s85.938-192 192-192c20.531 0 39.875 4.25 58.375 10.375 34.094-37.75 80.937-63.125 133.625-70.875v65.25c-49.844 10.375-91.594 42.812-112.625 87.875-21.844-17.625-49.156-28.625-79.375-28.625-70.656 0-128 57.375-128 128 0 70.656 57.344 128 128 128 25.281 0 48.625-7.562 68.406-20.094 20.938 120.313 125.188 212.094 251.594 212.094 126.5 0 229.75-92.219 250.5-212.75 20 13 43.875 20.75 69.5 20.75 70.625 0 128-57.344 128-128 0-70.625-57.375-128-128-128-10.25 0-20 1.5-29.625 3.75-28.937-40.875-76.437-67.75-130.375-67.75-11.062 0-21.625 1.625-32 4v-64.938c10.438-1.688 21.062-3.062 32-3.062 61.188 0 116.5 24.625 156.938 64.438 1.062-0.063 1.937-0.438 3.062-0.438 106.062 0 192 85.938 192 192s-85.938 192-192 192zM576 384h-128v-320h-128l192-192 192 192h-128v320z" />
<glyph unicode="&#xe91f;" glyph-name="cloud-upload" d="M512 512l-192-192h128v-320h128v320h128l-192 192zM832 576c-8.75 0-17.125-1.406-25.625-2.562-48.75 114.374-162.25 194.562-294.375 194.562-132.156 0-245.562-80.188-294.406-194.562-8.438 1.156-16.813 2.562-25.594 2.562-106.062 0-192-86-192-192 0-106.062 85.938-192 192-192 20.531 0 39.875 4.25 58.375 10.438 34.094-37.813 80.937-63.188 133.625-70.938v65.25c-49.844 10.375-91.594 42.812-112.625 87.75-21.844-17.5-49.156-28.5-79.375-28.5-70.656 0-128 57.375-128 128 0 70.656 57.344 128 128 128 25.281 0 48.625-7.562 68.406-20.156 20.938 120.375 125.188 212.156 251.594 212.156 126.5 0 229.75-92.219 250.5-212.75 20 13 43.875 20.75 69.5 20.75 70.625 0 128-57.344 128-128 0-70.625-57.375-128-128-128-10.25 0-20 1.5-29.625 3.75-28.937-40.875-76.437-67.75-130.375-67.75-11.062 0-21.625 1.625-32 4v-64.938c10.438-1.688 21.062-3.062 32-3.062 61.188 0 116.5 24.688 157 64.438 1 0 1.875-0.438 3-0.438 106.062 0 192 85.938 192 192 0 106-85.938 192-192 192z" />
<glyph unicode="&#xe920;" glyph-name="code" horiz-adv-x="896" d="M608 704l-96-96 224-224-224-224 96-96 288 320-288 320zM288 704l-288-320 288-320 96 96-224 224 224 224-96 96z" />
<glyph unicode="&#xe921;" glyph-name="color-mode" horiz-adv-x="768" d="M0 768v-768h768v768h-768zM64 64v640h640l-640-640z" />
<glyph unicode="&#xe922;" glyph-name="comment" horiz-adv-x="896" d="M768 768h-640c-62 0-128-64-128-128v-384c0-128 128-128 128-128h64v-256l256 256c0 0 258 0 320 0s128 68 128 128v384c0 62-64 128-128 128z" />
<glyph unicode="&#xe923;" glyph-name="comment-discussion" horiz-adv-x="896" d="M256 384c0 64 0 192 0 192s-160 0-192 0-64-32-64-64 0-288 0-320 32-64 64-64 64 0 64 0v-192l194 192s162 0 192 0 62 32 62 64 0 64 0 64-128 0-192 0-128 64-128 128zM832 768c-32 0-416 0-448 0s-64-32-64-64 0-288 0-320 32-64 64-64 190 0 190 0l194-192v192s32 0 64 0 64 32 64 64 0 288 0 320-32 64-64 64z" />
<glyph unicode="&#xe924;" glyph-name="credit-card" d="M128 192h128v64h-128v-64zM320 192h128v64h-128v-64zM384 384h-256v-64h256v64zM256 448h64l128 128h-64l-128-128zM448 320h192v64h-192v-64zM960 704c-32 0-864 0-896 0s-64-32-64-64 0-480 0-512 32-64 64-64 864 0 896 0 64 32 64 64 0 480 0 512-32 64-64 64zM960 448v-288s0-32-32-32h-832c-32 0-32 32-32 32v288h64l128 128h-192v32s0 32 32 32h832c32 0 32-32 32-32v-32h-384l-128-128h512z" />
<glyph unicode="&#xe925;" glyph-name="dash" horiz-adv-x="512" d="M0 448v-128h512v128h-512z" />
<glyph unicode="&#xe926;" glyph-name="dashboard" horiz-adv-x="832" d="M416 431.5c-61.562 0-111.5-49.938-111.5-111.5s49.938-111.5 111.5-111.5 111.5 49.938 111.5 111.5c0 8.5-1.125 16.75-3 24.688 81.625 94.937 208 242.968 275.5 327.312 23.125 28.875-2.312 56.188-32 32-85.188-69.375-232.312-194.688-326.906-275.594-8.063 1.875-16.469 3.094-25.094 3.094zM447.875 640.125c0 17.656-14.344 32-32 32s-32-14.344-32-32 14.344-32 32-32 32 14.344 32 32zM639.875 384.125c0-17.656 14.375-32 32-32s32 14.344 32 32-14.375 32-32 32-32-14.344-32-32zM287.875 640.125c-17.656 0-32-14.344-32-32s14.344-32 32-32 32 14.344 32 32-14.344 32-32 32zM223.875 512.125c0 17.656-14.344 32-32 32s-32-14.344-32-32 14.344-32 32-32 32 14.344 32 32zM127.875 384.125c0-17.656 14.344-32 32-32s32 14.344 32 32-14.344 32-32 32-32-14.344-32-32zM575.875 608.125c0 17.656-14.375 32-32 32s-32-14.344-32-32 14.375-32 32-32 32 14.344 32 32zM792.875 559.312l-68.75-89.938c7.5-27.186 11.875-55.749 11.875-85.374 0-176.75-143.312-320-320-320s-320 143.25-320 320c0 176.688 143.312 320 320 320 65.875 0 127-19.969 177.875-54.094l79.25 60.625c-70.75 55.875-159.875 89.469-257.125 89.469-229.75 0-416-186.25-416-416s186.25-416 416-416 416 186.25 416 416c0 62.719-14.25 122-39.125 175.312z" />
<glyph unicode="&#xe927;" glyph-name="database" horiz-adv-x="768" d="M384-64c-212.031 0-384 57.375-384 128 0 38.625 0 80.875 0 128 0 11.125 5.562 21.688 13.562 32 42.813-55.125 191.688-96 370.438-96s327.625 40.875 370.438 96c8-10.312 13.562-20.875 13.562-32 0-37.062 0-76.375 0-128 0-70.625-172-128-384-128zM384 192c-212.031 0-384 57.375-384 128 0 38.656 0 80.844 0 128 0 6.781 2.562 13.375 6 19.906v0c1.938 4.094 4.5 8.125 7.562 12.094 42.813-55.094 191.688-96 370.438-96s327.625 40.906 370.438 96c3.062-3.969 5.625-8 7.562-12.094v0c3.438-6.531 6-13.125 6-19.906 0-37.062 0-76.344 0-128 0-70.625-172-128-384-128zM384 448c-212.031 0-384 57.344-384 128 0 20.219 0 41.594 0 64 0 20.344 0 41.469 0 64 0 70.656 171.969 128 384 128 212 0 384-57.344 384-128 0-19.969 0-41.156 0-64 0-19.594 0-40.25 0-64 0-70.656-172-128-384-128zM384 768c-141.375 0-256-28.594-256-64s114.625-64 256-64 256 28.594 256 64-114.625 64-256 64z" />
<glyph unicode="&#xe928;" glyph-name="device-camera" d="M512 511.999c-70.691 0-127.999-57.308-127.999-127.999s57.308-127.999 127.999-127.999c5.713 0 11.337 0.38 16.852 1.105-46.344 7.058-81.851 47.079-81.851 95.394 0 53.295 43.204 96.499 96.499 96.499 48.314 0 88.336-35.507 95.394-81.851 0.726 5.515 1.105 11.139 1.105 16.852 0 70.691-57.308 127.999-127.999 127.999zM896 640h-128.001l-127.999 128h-256l-128.001-128h-127.999c-35.348 0-64-28.652-64-64v-448c0-35.347 28.652-64 64-64h768c35.347 0 64 28.653 64 64v448c0 35.348-28.653 64-64 64zM416 704h192l64-64h-320l64 64zM160.143 128c-17.752 0-32.143 14.391-32.143 32.143v287.857h64v64h-64v31.857c0 17.752 14.391 32.143 32.143 32.143h182.526c-3.98-3.518-7.881-7.174-11.688-10.98-99.974-99.975-99.974-262.064 0-362.039l74.98-74.98h-245.818zM512 192.001c-106.038 0-191.999 85.961-191.999 191.999s85.961 191.999 191.999 191.999 191.999-85.961 191.999-191.999-85.961-191.999-191.999-191.999zM832 416l-150.673 160h150.673v-160z" />
<glyph unicode="&#xe929;" glyph-name="device-camera-video" d="M576 704c-35.347 0-64-28.653-64-64s28.653-64 64-64 64 28.653 64 64-28.653 64-64 64zM896 512l-128-128v64c0 30.625-21.515 56.21-50.25 62.503 31.208 34.143 50.25 79.594 50.25 129.495 0 106.040-85.961 192.002-192 192.002-101.123 0-183.986-78.178-191.45-177.393-34.034 30.699-79.108 49.393-128.55 49.393-106.038 0-192-85.962-192-192.002 0-106.037 85.962-191.998 192-191.998h-64v-128h64v-128c0-35.347 28.653-64 64-64h384c35.347 0 64 28.653 64 64v64l128-128h64v512h-64zM256 576c-35.347 0-64-28.653-64-64s28.653-64 64-64v-64c-70.692 0-128 57.308-128 127.999 0 70.693 57.308 128.001 128 128.001s128-57.307 128-128h-64c0 35.347-28.653 64-64 64zM576 192h-128v128h128v-128zM704 301.213c-33.526 33.547-70.276 70.317-73.373 73.414-5.79 5.791-13.79 9.373-22.627 9.373h-192c-17.674 0-32-14.326-32-32v-192c0-8.329 3.183-15.915 8.396-21.607 0.53-0.58 39.123-39.164 74.409-74.393h-114.805c-17.674 0-32 14.326-32 32v320c0 17.674 14.326 32 32 32h320c17.674 0 32-14.326 32-32v-114.787zM576 512c-70.692 0-128 57.308-128 127.999 0 70.693 57.308 128.001 128 128.001s128-57.308 128-128.001c0-70.691-57.308-127.999-128-127.999zM896 192l-64 64 0.082 128.084 63.918 63.918v-256.002z" />
<glyph unicode="&#xe92a;" glyph-name="device-desktop" d="M960 832c-32 0-864 0-896 0s-64-32-64-64 0-544 0-576 32-64 64-64 320 0 320 0-192-64-192-128c0-32 32-64 64-64s480 0 512 0 64 32 64 64c0 64-192 128-192 128s288 0 320 0 64 32 64 64 0 544 0 576-32 64-64 64zM960 192h-896v576h896v-576zM896 704h-192c-384-64-542-300-576-384v-64h768v448z" />
<glyph unicode="&#xe92b;" glyph-name="device-mobile" horiz-adv-x="640" d="M576 896h-512c-35.312 0-64-28.688-64-64v-896c0-35.375 28.688-64 64-64h512c35.375 0 64 28.625 64 64v896c0 35.312-28.625 64-64 64zM288 832h64c17.625 0 32-14.344 32-32s-14.375-32-32-32h-64c-17.656 0-32 14.344-32 32s14.344 32 32 32zM352-64h-64c-17.656 0-32 14.375-32 32s14.344 32 32 32h64c17.625 0 32-14.375 32-32s-14.375-32-32-32zM576 64h-512v640h512v-640z" />
<glyph unicode="&#xe92c;" glyph-name="diff" horiz-adv-x="896" d="M448 640h-128v-128h-128v-128h128v-128h128v128h128v128h-128v128zM192 0h384v128h-384v-128zM640 896h-512v-64h480l224-224v-608h64v640l-256 256zM0 768v-896h768v704l-192 192h-576zM704-64h-640v768h480l160-160v-608z" />
<glyph unicode="&#xe92d;" glyph-name="diff-added" horiz-adv-x="896" d="M512 576h-128v-128h-128v-128h128v-128h128v128h128v128h-128v128zM832 832c-32 0-736 0-768 0s-64-32-64-64 0-736 0-768 32-64 64-64 736 0 768 0 64 32 64 64 0 736 0 768-32 64-64 64zM768 96c0-16-17-32-32-32s-558 0-576 0-32 12-32 32c0 16 0 560 0 576s16 32 32 32 561 0 576 0 32-16 32-32 0-560 0-576z" />
<glyph unicode="&#xe92e;" glyph-name="diff-ignored" horiz-adv-x="896" d="M832 832h-768c-32 0-64-32-64-64v-768c0-32 32-64 64-64h768c32 0 64 32 64 64v768c0 32-32 64-64 64zM768 96c0-16-17-32-32-32h-576c-18 0-32 12-32 32v576c0 16 16 32 32 32h576c15 0 32-16 32-32v-576zM256 290v-98h98l286 286v98h-98l-286-286z" />
<glyph unicode="&#xe92f;" glyph-name="diff-modified" horiz-adv-x="896" d="M832 832h-768c-32 0-64-32-64-64v-768c0-32 32-64 64-64h768c32 0 64 32 64 64v768c0 32-32 64-64 64zM768 96c0-16-17-32-32-32h-576c-18 0-32 12-32 32v576c0 16 16 32 32 32h576c15 0 32-16 32-32v-576zM448 512c-71 0-128-57-128-128s57-128 128-128 128 57 128 128-57 128-128 128z" />
<glyph unicode="&#xe930;" glyph-name="diff-removed" horiz-adv-x="896" d="M832 832h-768c-32 0-64-32-64-64v-768c0-32 32-64 64-64h768c32 0 64 32 64 64v768c0 32-32 64-64 64zM768 96c0-16-17-32-32-32h-576c-18 0-32 12-32 32v576c0 16 16 32 32 32h576c15 0 32-16 32-32v-576zM256 320h384v128h-384v-128z" />
<glyph unicode="&#xe931;" glyph-name="diff-renamed" horiz-adv-x="896" d="M832 832h-768c-32 0-64-32-64-64v-768c0-32 32-64 64-64h768c32 0 64 32 64 64v768c0 32-32 64-64 64zM768 96c0-16-17-32-32-32h-576c-18 0-32 12-32 32v576c0 16 16 32 32 32h576c15 0 32-16 32-32v-576zM448 448h-192v-128h192v-128l256 192-256 192v-128z" />
<glyph unicode="&#xe932;" glyph-name="ellipsis" horiz-adv-x="768" d="M640 576c-64 0-448 0-512 0s-128-64-128-128 0-64 0-128 64-128 128-128 448 0 512 0 128 64 128 128 0 64 0 128-64 128-128 128zM256 320h-128v128h128v-128zM448 320h-128v128h128v-128zM640 320h-128v128h128v-128z" />
<glyph unicode="&#xe933;" glyph-name="eye" d="M512 768c-192 0-416-128-512-384 96-192 288-320 512-320s416 128 512 320c-96 256-320 384-512 384zM512 128c-192 0-352 128-384 256 32 128 192 256 384 256s352-128 384-256c-32-128-192-256-384-256zM512 576c-20 0-38-4-56-9 33-15 56-48 56-87 0-53-43-96-96-96-39 0-72 23-87 56-5-18-9-36-9-56 0-106 86-192 192-192s192 86 192 192-86 192-192 192z" />
<glyph unicode="&#xe934;" glyph-name="file-binary" horiz-adv-x="768" d="M0-64v896h576l192-192v-704h-768zM704 576l-192 192h-448v-768h640v576zM320 384h-192v256h192v-256zM256 576h-64v-128h64v128zM256 128h64v-64h-192v64h64v128h-64v64h128v-192zM512 448h64v-64h-192v64h64v128h-64v64h128v-192zM576 64h-192v256h192v-256zM512 256h-64v-128h64v128z" />
<glyph unicode="&#xe935;" glyph-name="file-code" horiz-adv-x="768" d="M288 512l-160-160 160-160 64 64-96 96 96 96-64 64zM416 448l96-96-96-96 64-64 160 160-160 160-64-64zM576 832h-576v-896h768v704l-192 192zM704 0h-640v768h448l192-192v-576z" />
<glyph unicode="&#xe936;" glyph-name="file-directory" horiz-adv-x="896" d="M832 704c-32 0-336 0-352 0s-32 16-32 32 0 0 0 32-32 64-64 64-288 0-320 0-64-32-64-64 0-704 0-704h896s0 544 0 576-32 64-64 64zM384 704h-320s0 15 0 32 16 32 32 32 241 0 256 0 32-15 32-32 0-32 0-32z" />
<glyph unicode="&#xe937;" glyph-name="file-media" horiz-adv-x="768" d="M576 832h-576v-896h768v704l-192 192zM704 0h-640v768h448l192-192v-576zM128 640v-512h128c0 70.625 57.344 128 128 128-70.656 0-128 57.375-128 128 0 70.656 57.344 128 128 128 70.625 0 128-57.344 128-128 0-70.625-57.375-128-128-128 70.625 0 128-57.375 128-128h128v384l-128 128h-384z" />
<glyph unicode="&#xe938;" glyph-name="file-pdf" horiz-adv-x="768" d="M576 832h-576v-896h768v704l-192 192zM64 768h255.812c-13.188-4.094-27.281-15.031-34.625-42.875-13.25-49.406-7.031-130.75 15.625-209.344-24.124-81.219-122.624-276.656-129.281-288.281-15.625-4.875-65.344-23.625-107.531-59.812v600.312zM347.125 460.531c57.625-149.781 95-149.531 135.188-167.594-83.969-12.937-148.094-22.187-232.532-59.437-3.687-6.438 76.5 145.906 97.344 227.031zM704 0l-640 0.375c0.781-0.062 1.094-0.375 1.844-0.375 33.812 0 84.75 21 180.562 182.375 38.188 15.438 72.062 26.875 78.469 28.938 58.812 14.875 125 26.625 187.562 33.375 54.438-27.188 126.688-45.688 167.813-48.313 9.625-0.5 16.062 1.188 23.75 2v-198.375zM704 310.625c-23.688 14.688-54 25-89.125 25-24.25 0-50.625-1.375-78.688-4.375-26.938 13-92.562 32.719-147.188 190.219 17.094 103.625 12.719 173.562 12.719 173.562 6.781 52.938-23.344 72.844-51.625 72.844 0 0-0.279 0.125-0.344 0.125h162.251l192-192v-265.375z" />
<glyph unicode="&#xe939;" glyph-name="file-submodule" horiz-adv-x="896" d="M832 384c-32 0-192 0-192 0 0 32-32 64-64 64s-96 0-128 0-64-32-64-64 0-320 0-320h512s0 224 0 256-32 64-64 64zM576 320h-128s0 17 0 32 15 32 32 32 48 0 64 0 32-15 32-32 0-32 0-32zM832 640c-32 0-336 0-352 0s-32 17-32 32 0 0 0 32-32 64-64 64-288 0-320 0-64-32-64-64 0-640 0-640h320s0 352 0 384 32 64 64 64 224 0 256 0 64-32 64-64h192s0 96 0 128-32 64-64 64zM384 640h-320s0 16 0 32 16 32 32 32 240 0 256 0 32-17 32-32 0-32 0-32z" />
<glyph unicode="&#xe93a;" glyph-name="file-symlink-directory" horiz-adv-x="896" d="M832 704h-352c-16 0-32 16-32 32s0 0 0 32-32 64-64 64h-320c-32 0-64-32-64-64s0-704 0-704h896s0 544 0 576-32 64-64 64zM64 736c0 17 16 32 32 32h256c15 0 32-15 32-32s0-32 0-32h-320s0 15 0 32zM448 192v128c-125 0-224-56-256-192 0 209 107 320 256 320 0 49 0 128 0 128l256-192-256-192z" />
<glyph unicode="&#xe93b;" glyph-name="file-symlink-file" horiz-adv-x="768" d="M576 832h-576v-896h768v704l-192 192zM704 0h-640v768h448l192-192v-576zM384 448c-149 0-256-111-256-320 32 136 131 192 256 192v-128l256 192-256 192s0-79 0-128z" />
<glyph unicode="&#xe93c;" glyph-name="file-text" horiz-adv-x="768" d="M448 640h-320v-64h320v64zM576 832h-576v-896h768v704l-192 192zM704 0h-640v768h448l192-192v-576zM128 128h512v64h-512v-64zM128 256h512v64h-512v-64zM128 384h512v64h-512v-64z" />
<glyph unicode="&#xe93d;" glyph-name="file-zip" horiz-adv-x="768" d="M320 320v64h-64v-64h64zM320 448v64h-64v-64h64zM320 576v64h-64v-64h64zM192 512h64v64h-64v-64zM576 832h-576v-896h768v704l-192 192zM704 0h-640v768h192v-64h64v64h192l192-192v-576zM192 640h64v64h-64v-64zM192 384h64v64h-64v-64zM192 256l-64-64v-128h256v128l-64 64h-64v64h-64v-64zM320 192v-64h-128v64h128z" />
<glyph unicode="&#xe93e;" glyph-name="flame" d="M433 851c50-134 24-207-32-265-61-64-156-112-223-206-89-125-104-400 217-472-135 71-164 277-18 406-38-125 32-205 119-176 85 29 141-32 139-102-1-48-20-89-69-112 209 37 293 210 293 342 0 174-155 198-77 344-93-8-125-69-116-169 6-66-63-111-114-81-41 25-40 73-4 109 77 76 107 251-115 382z" />
<glyph unicode="&#xe93f;" glyph-name="fold" horiz-adv-x="896" d="M896 640h-224l-64-64h192l-128-128h-448l-128 128h192l-64 64h-224v-63.999l160-160.001-160-160v-64h224l64 64h-192l128 128h448l128-128h-192l64-64h224v64l-160 160 160 160.001v63.999zM640 704h-128v192h-128v-192h-128l192-192 192 192zM256 128h128v-192h128v192h128l-192 192-192-192z" />
<glyph unicode="&#xe940;" glyph-name="gear" horiz-adv-x="896" d="M447.938 546c-89.407 0-161.938-72.531-161.938-162 0-89.375 72.531-162.062 161.938-162.062 89.438 0 161.438 72.688 161.438 162.062-0.001 89.469-72.001 162-161.438 162zM772.625 290.938l-29.188-70.312 58.937-115.75-72.188-72.188-118.436 55.937-70.312-28.875-35.688-109.25-4.562-14.5h-102.032l-44.156 123.312-70.312 29-115.904-58.688-72.156 72.125 55.875 118.5-28.969 70.25-123.534 40.313v101.969l123.406 44.219 28.969 70.188-51.906 102.469-6.844 13.438 72.062 72.062 118.594-55.844 70.219 29.031 35.656 109.188 4.594 14.468h102l44.188-123.469 70.125-29.031 116.062 58.813 72.125-72.062-55.875-118.406 28.875-70.345 123.75-40.25v-101.938l-123.375-44.374z" />
<glyph unicode="&#xe941;" glyph-name="gift" horiz-adv-x="896" d="M448-64h320v320h-320v-320zM64-64h320v320h-320v-320zM447.75 519.812c31.469 3.5 66.875 7.406 87.375 9.719 83.875 9.344 159.375 84.875 168.687 168.719 9.312 83.75-51 144.125-134.688 134.719-65.436-7.313-125.28-54.969-153.124-115.344-27.844 60.375-87.688 108.031-153.094 115.406-83.718 9.344-144.125-51.031-134.718-134.781 9.344-83.844 84.875-159.312 168.656-168.719 20.531-2.312 55.938-6.281 87.406-9.719-0.5-4.218-0.25-7.812-0.25-7.812h64c0 0 0.25 3.594-0.25 7.812zM555.375 755.312c45.25 5.062 78-27.562 72.875-72.875-5-45.312-45.875-86.156-91.125-91.219-45.375-5.031-78 27.594-72.938 72.906s45.938 86.157 91.188 91.188zM294.906 591.219c-45.25 5.062-86.062 45.906-91.125 91.219s27.594 77.938 72.812 72.875c45.312-5.031 86.156-45.875 91.222-91.188 5.060-45.313-27.596-77.937-72.909-72.906zM448 512v-192h384v192h-384zM0 320h384v192h-384v-192z" />
<glyph unicode="&#xe942;" glyph-name="gist" horiz-adv-x="768" d="M416 512l96-96-96-96 64-64 160 160-160 160-64-64zM0 832v-832h768v832h-768zM704 64h-640v704h640v-704zM352 320l-96 96 96 96-64 64-160-160 160-160 64 64z" />
<glyph unicode="&#xe943;" glyph-name="gist-secret" horiz-adv-x="896" d="M193 192l128-192h-256l-65 256 257 64-64-128zM641 320l64-128-128-192h256l64 256-256 64zM557 320h-216l44-102-64-218h256l-64 218 44 102zM641 512h-384l-128-64h640l-128 64zM577 768l-128-64-128 64-64-192h384l-64 192z" />
<glyph unicode="&#xe944;" glyph-name="git-branch" horiz-adv-x="640" d="M512 704c-71 0-128-57-128-128 0-47 26-88 64-110v-18c0-64-64-128-128-128-53 0-95-11-128-29v303c38 22 64 63 64 110 0 71-57 128-128 128s-128-57-128-128c0-47 26-88 64-110v-419c-38-22-64-63-64-110 0-71 57-128 128-128s128 57 128 128c0 34-13 64-34 87 19 23 49 41 98 41 128 0 256 128 256 256v18c38 22 64 63 64 110 0 71-57 128-128 128zM128 768c35 0 64-29 64-64s-29-64-64-64-64 29-64 64 29 64 64 64zM128 0c-35 0-64 29-64 64s29 64 64 64 64-29 64-64-29-64-64-64zM512 512c-35 0-64 29-64 64s29 64 64 64 64-29 64-64-29-64-64-64z" />
<glyph unicode="&#xe945;" glyph-name="git-commit" horiz-adv-x="896" d="M694.875 448c-28.5 110.219-127.75 192-246.875 192-119.094 0-218.375-81.781-246.906-192h-201.094v-128h201.094c28.531-110.25 127.812-192 246.906-192 119.125 0 218.375 81.75 246.875 192h201.125v128h-201.125zM448 256c-70.656 0-128 57.375-128 128 0 70.656 57.344 128 128 128 70.625 0 128-57.344 128-128 0-70.625-57.375-128-128-128z" />
<glyph unicode="&#xe946;" glyph-name="git-compare" horiz-adv-x="896" d="M832 174s0 306 0 402-96 192-192 192c-64 0-64 0-64 0v128l-192-192 192-192v128s32 0 64 0 64-32 64-64 0-402 0-402c-38-22-64-63-64-110 0-71 57-128 128-128s128 57 128 128c0 47-26 88-64 110zM768 0c-35 0-64 29-64 64s29 64 64 64 64-29 64-64-29-64-64-64zM320 128s-32 0-64 0-64 32-64 64 0 402 0 402c38 22 64 63 64 110 0 71-57 128-128 128s-128-57-128-128c0-47 26-88 64-110 0 0 0-306 0-402s96-192 192-192c64 0 64 0 64 0v-128l192 192-192 192v-128zM128 640c-35 0-64 29-64 64s29 64 64 64 64-29 64-64-29-64-64-64z" />
<glyph unicode="&#xe947;" glyph-name="git-merge" horiz-adv-x="768" d="M640 448c-47.625 0-88.625-26.312-110.625-64.906-5.75 0.406-11.375 0.906-17.375 0.906-131.062 0-255.438 99.844-300.812 223.438 27.281 23.468 44.812 57.843 44.812 96.562 0 70.656-57.344 128-128 128s-128-57.344-128-128c0-47.219 25.844-88.062 64-110.281v-419.469c-38.156-22.188-64-63-64-110.25 0-70.625 57.344-128 128-128s128 57.375 128 128c0 47.25-25.844 88.062-64 110.25v230.281c84.156-89.031 200.375-148.531 320-148.531 6.375 0 11.625 0.438 17.375 0.625 22.125-38.437 63.125-64.625 110.625-64.625 70.625 0 128 57.375 128 128 0 70.656-57.375 128-128 128zM128 0c-35.312 0-64 28.625-64 64 0 35.312 28.688 64 64 64 35.406 0 64-28.688 64-64 0-35.375-28.594-64-64-64zM128 640c-35.312 0-64 28.594-64 64s28.688 64 64 64c35.406 0 64-28.594 64-64s-28.594-64-64-64zM640 256c-35.312 0-64 28.625-64 64 0 35.406 28.688 64 64 64 35.375 0 64-28.594 64-64 0-35.375-28.625-64-64-64z" />
<glyph unicode="&#xe948;" glyph-name="git-pull-request" horiz-adv-x="768" d="M704 174s0 306 0 402-96 192-192 192c-64 0-64 0-64 0v128l-192-192 192-192v128s32 0 64 0 64-32 64-64 0-402 0-402c-38-22-64-63-64-110 0-71 57-128 128-128s128 57 128 128c0 47-26 88-64 110zM640 0c-35 0-64 29-64 64s29 64 64 64 64-29 64-64-29-64-64-64zM128 832c-71 0-128-57-128-128 0-47 26-88 64-110v-419c-38-22-64-63-64-110 0-71 57-128 128-128s128 57 128 128c0 47-26 88-64 110v419c38 22 64 63 64 110 0 71-57 128-128 128zM128 0c-35 0-64 29-64 64s29 64 64 64 64-29 64-64-29-64-64-64zM128 640c-35 0-64 29-64 64s29 64 64 64 64-29 64-64-29-64-64-64z" />
<glyph unicode="&#xe949;" glyph-name="globe" d="M512 768c-212.077 0-384-171.923-384-384s171.923-384 384-384c25.953 0 51.303 2.582 75.812 7.49-9.879 4.725-10.957 40.174-1.188 60.385 10.875 22.5 45 79.5 11.25 98.625s-24.375 27.75-45 49.875-12.19 25.451-13.5 31.125c-4.5 19.5 19.875 48.75 21 51.75s1.125 14.25 0.75 17.625-15.374 12.375-19.124 12.75-5.625-6-10.875-6.375-28.125 13.875-33 17.625-7.125 12.75-13.875 19.5-7.5 1.5-18 5.625-44.25 16.5-70.125 27-28.125 25.219-28.5 35.625-15.75 25.5-22.961 36.375c-7.209 10.875-8.539 25.875-11.164 22.5s13.5-42.75 10.875-43.875-8.25 10.875-15.75 20.625 7.875 4.5-16.125 51.75 7.5 71.344 9 96 20.25-9 10.5 6.75 0.75 48.75-6.75 60.75-50.25-13.5-50.25-13.5c1.125 11.625 37.5 31.5 63.75 49.875s42.281 4.125 63.375-2.625 22.5-4.5 15.375 2.25 3 10.125 19.5 7.5 21-22.5 46.125-20.625 2.625-4.875 6-11.25-3.75-5.625-20.25-16.875 0.375-11.25 29.625-32.625 20.25 14.25 17.25 30 21.375 3.375 21.375 3.375c18-12 14.674-0.66 27.799-4.785s48.701-34.215 48.701-34.215c-44.625-24.375-16.5-27-9-32.625s-15.375-16.5-15.375-16.5c-9.375 9.375-10.875-0.375-16.875-3.75s-0.375-12-0.375-12c-31.031-4.875-24-37.5-23.625-45.375s-19.875-19.875-25.125-31.125 13.5-35.625 3.75-37.125-19.5 36.75-72 22.5c-15.828-4.297-51-22.5-32.25-59.625s49.875 10.5 60.375 5.25-3-28.875-0.75-29.25 29.625-1.031 31.125-33 41.625-29.25 50.25-30 37.5 23.625 41.625 24.75 20.625 15 56.625-5.625 54.375-17.625 66.75-26.25 3.75-25.875 15.375-31.5 58.125 1.875 69.75-17.25-48-115.125-66.75-125.625-27.375-34.5-46.125-49.875-45-34.406-69.75-49.125c-21.908-13.027-25.85-36.365-35.609-43.732 171.855 38.177 300.359 191.507 300.359 374.857 0 212.077-171.923 384-384 384zM602 407.625c-5.25-1.5-16.125-11.25-42.75 4.5s-45 12.75-47.25 15.375c0 0-2.25 6.375 9.375 7.5 23.871 2.311 54-22.125 60.75-22.5s10.125 6.75 22.125 2.883c12-3.863 3-6.258-2.25-7.758zM476.375 729.75c-2.615 1.902 2.166 4.092 5.016 7.875 1.645 2.186 0.425 5.815 2.484 7.875 5.625 5.625 33.375 13.5 27.949-1.875-5.424-15.375-31.324-16.875-35.449-13.875zM543.5 681c-9.375 0.375-31.443 2.707-27.375 6.75 15.844 15.75-6 20.25-19.5 21.375s-19.125 8.625-12.375 9.375 33.75-0.375 38.25-4.125 28.875-13.5 30.375-20.625 0-13.125-9.375-12.75zM624.875 683.625c-7.5-6-45.24 21.529-52.5 27.75-31.5 27-48.375 18-54.99 22.5-6.617 4.5-4.26 10.5 5.865 19.5s38.625-3 55.125-4.875 35.625-14.625 36-29.781c0.375-15.155 18-29.094 10.5-35.094z" />
<glyph unicode="&#xe94a;" glyph-name="graph" d="M704 640h-192v-640h192v640zM960 448h-192v-448h192v448zM64-64v128h64v64h-64v128h64v64h-64v128h64v64h-64v128h64v64h-64v128h64v64h-128v-1024h1024v64h-960zM448 320h-192v-320h192v320z" />
<glyph unicode="&#xe94b;" glyph-name="heart" horiz-adv-x="768" d="M384 32c399 314 384 425 384 512s-72 192-192 192-192-128-192-128-72 128-192 128-192-105-192-192-15-198 384-512z" />
<glyph unicode="&#xe94c;" glyph-name="history" horiz-adv-x="896" d="M448 832c-90.938 0-175.312-27.531-245.938-74.062l-74.062 74.062v-256h256l-88 88c45.438 24.688 96.688 40 152 40 176.75 0 320-143.219 320-320 0-176.75-143.25-320-320-320-176.781 0-320 143.25-320 320 0 45.562 9.781 88.781 27 128h-91v99.406c-39.688-66.906-64-144-64-227.406 0-247.438 200.562-448 448-448s448 200.562 448 448c0 247.438-200.562 448-448 448zM447.031 65l64.969 63v192h128l64 64-64 64h-128l-64 64-128-128 64-64v-192l63.031-63z" />
<glyph unicode="&#xe94d;" glyph-name="home" d="M192 320l64-384h192v320h128v-320h192l64 384-320 320-320-320zM832 512v256h-128l0.312-128.312-192.312 192.312-512-512h128l384 384 384-384h128l-192 192z" />
<glyph unicode="&#xe94e;" glyph-name="horizontal-rule" horiz-adv-x="639" d="M63.938 448h128v-128h64v383.938h-64v-191.938h-128v191.938h-63.938v-383.938h63.938v128zM639.875 320v128h-63.938v-128h63.938zM639.875 512v127.938h-63.938v-127.938h63.938zM447.938 512v127.938h128v64h-192v-383.938h64v128h128v64h-128zM0 64h639.875v128h-639.875v-128z" />
<glyph unicode="&#xe94f;" glyph-name="hourglass" horiz-adv-x="768" d="M571 384c118 85 197 240 197 384 0 71-172 128-384 128s-384-57-384-128c0-144 80-299 197-384-118-85-197-240-197-384 0-71 172-128 384-128s384 57 384 128c0 144-80 299-197 384zM384 832c141 0 256-29 256-64s-115-64-256-64-256 29-256 64 115 64 256 64zM320 126c-154-7-238-40-253-82 16 114 75 189 141 251 73 68 112 60 112 103v-273zM215 478c-70 55-122 130-142 215 70-32 183-53 311-53s241 21 311 53c-20-85-72-160-142-215-24 17-70 34-169 34s-145-17-169-34zM448 126v273c0-43 39-35 112-103 66-62 125-138 141-251-14 41-99 75-253 82z" />
<glyph unicode="&#xe950;" glyph-name="hubot" d="M512 832c-283 0-512-229-512-512 0 0 0-192 0-256s64-128 128-128 704 0 768 0 128 64 128 128 0 256 0 256c0 283-229 512-512 512zM608 64h-192c-18 0-32 14-32 32s14 32 32 32h192c18 0 32-14 32-32s-14-32-32-32zM896 192c0-32-32-64-64-64s-128 0-128 0c0 32-32 64-64 64s-224 0-256 0-64-32-64-64c0 0-96 0-128 0s-64 32-64 64 0 360 0 360c78 129 220 216 384 216s306-87 384-216c0 0 0-328 0-360zM768 576c-32 0-480 0-512 0s-64-32-64-64 0-96 0-128 32-64 64-64 480 0 512 0 64 32 64 64 0 96 0 128-32 64-64 64zM768 448l-64-64h-128l-64 64-64-64h-128l-64 64v64h64l64-64 64 64h128l64-64 64 64h64v-64z" />
<glyph unicode="&#xe951;" glyph-name="inbox" horiz-adv-x="768" d="M704 704h-640l-64-384v-256h768v256l-64 384zM576 320l-64-128h-256l-64 128h-113l49 320h512l49-320h-113z" />
<glyph unicode="&#xe952;" glyph-name="info" horiz-adv-x="896" d="M448 512c35 0 64 29 64 64s-29 64-64 64-64-29-64-64 29-64 64-64zM448 832c-247 0-448-201-448-448s201-448 448-448 448 201 448 448-201 448-448 448zM448 64c-177 0-320 143-320 320s143 320 320 320 320-143 320-320-143-320-320-320zM512 384c0 32-32 64-64 64s-32 0-64 0-64-32-64-64h64s0-160 0-192 32-64 64-64 32 0 64 0 64 32 64 64h-64s0 160 0 192z" />
<glyph unicode="&#xe953;" glyph-name="issue-closed" d="M704 579.969l-96-96 160-163.969 256 256-96 96-158.75-158.781-65.25 66.75zM512 64c-176.781 0-320 143.25-320 320 0 176.781 143.219 320 320 320 88.375 0 168.375-35.844 226.25-93.75l90.562 90.5c-81.062 81.125-193.062 131.25-316.812 131.25-247.438 0-448-200.562-448-448s200.562-448 448-448c247.438 0 448 200.562 448 448l-200.25-200.25c8.938 11-75-119.75-247.75-119.75zM576 640h-128v-320h128v320zM448 128h128v128h-128v-128z" />
<glyph unicode="&#xe954;" glyph-name="issue-opened" horiz-adv-x="896" d="M448 832c-247.438 0-448-200.562-448-448s200.562-448 448-448c247.438 0 448 200.562 448 448s-200.562 448-448 448zM448 64c-176.781 0-320 143.25-320 320 0 176.781 143.219 320 320 320 176.75 0 320-143.219 320-320 0-176.75-143.25-320-320-320zM384 128h128v128h-128v-128zM384 320h128v320h-128v-320z" />
<glyph unicode="&#xe955;" glyph-name="issue-reopened" horiz-adv-x="896" d="M639.125 128.75c-53.375-40.125-119.125-64.75-191.125-64.75-176.781 0-320 143.25-320 320 0 45.562 9.781 88.781 27 128h-91v99.469c-39.688-66.907-64-144.063-64-227.469 0-247.438 200.562-448 448-448 107.375 0 204.5 39.312 281.75 102.25l38.25-38.25v192h-192l63.125-63.25zM384 128h128v128h-128v-128zM512 640h-128v-320h128v320zM896 384c0 247.438-200.562 448-448 448-107.406 0-204.531-39.312-281.656-102.344l-38.344 38.344v-192h192l-63.156 63.156c53.437 40.156 119.156 64.844 191.156 64.844 176.75 0 320-143.219 320-320 0-45.562-9.75-88.75-27-128h91v-99.5c39.688 66.938 64 144 64 227.5z" />
<glyph unicode="&#xe956;" glyph-name="jersey" horiz-adv-x="896" d="M704 896h-192c0-32-33-64-97-64s-95 32-95 64h-192c0-128-2-384-128-384 0 0-1-544-1-576s32-64 64-64 672 0 704 0 64 32 64 64 0 576 0 576c-126 0-128 256-128 384zM95-64c-16 0-31 10-31 32 0 32 0 480 0 480 119 64 128 192 128 384h64c0-96 32-191 160-192s160 96 160 192h64c0-186 32-276 64-339v-557s-593 0-609 0zM480 512l-32-32v-320l32-32h128l32 32v320l-32 32h-128zM576 192h-64v256h64v-256zM224 512l-32-32v-320l32-32h128l32 32v320l-32 32h-128zM320 192h-64v256h64v-256z" />
<glyph unicode="&#xe957;" glyph-name="jump-down" horiz-adv-x="768" d="M767.75 704h-767.5l383.75-383.75 383.75 383.75zM0 192v-128h768v128h-768z" />
<glyph unicode="&#xe958;" glyph-name="jump-left" horiz-adv-x="640" d="M256.25 384l383.75-383.75v767.5l-383.75-383.75zM0 0h128v768h-128v-768z" />
<glyph unicode="&#xe959;" glyph-name="jump-right" horiz-adv-x="640" d="M0 0.25l383.75 383.75-383.75 383.812v-767.562zM512 768v-768h128v768h-128z" />
<glyph unicode="&#xe95a;" glyph-name="jump-up" horiz-adv-x="768" d="M0.188 64h767.5l-383.688 383.75-383.812-383.75zM0 704v-128h768v128h-768z" />
<glyph unicode="&#xe95b;" glyph-name="key" horiz-adv-x="896" d="M640.9 832.1c-141.4 0-256-114.6-256-256 0-19.6 2.2-38.6 6.4-56.9l-391.3-391.2v-64l64-64h128l64 64v64h64v64h64v64h128l70.8 70.8c18.7-4.3 38.1-6.6 58.1-6.6 141.4 0 256 114.6 256 256s-114.7 255.9-256 255.9zM384 384l-320-320v64l320 320v-64zM704 576c-35.3 0-64 28.7-64 64s28.7 64 64 64 64-28.7 64-64c0-35.3-28.7-64-64-64z" />
<glyph unicode="&#xe95c;" glyph-name="keyboard" d="M640 320h64v128h-64v-128zM768 640h-64v-128h64v128zM640 640h-64v-128h64v128zM512 320h64v128h-64v-128zM384 128h320v128h-320v-128zM768 320h128v320h-64v-192h-64v-128zM256 128h64v128h-64v-128zM768 128h128v128h-128v-128zM512 640h-64v-128h64v128zM192 448h-64v-128h64v128zM192 256h-64v-128h64v128zM0 768v-768h1024v768h-1024zM960 64h-896v640h896v-640zM384 320h64v128h-64v-128zM256 640h-128v-128h128v128zM384 640h-64v-128h64v128zM256 320h64v128h-64v-128z" />
<glyph unicode="&#xe95d;" glyph-name="law" d="M514 704c34 1 61 28 62 62 1 37-29 67-66 66-34-1-61-28-62-62-1-37 29-67 66-66zM978 320h-18l-127 246c18 2 36 9 52 16 24 11 29 43 11 62l-1 1c-11 11-28 15-43 8-14-6-34-13-53-13-56 0-81 64-287 64s-231-64-287-64c-20 0-39 6-53 13-15 6-32 3-43-8l-1-1c-18-19-13-50 11-62 16-8 34-14 52-16l-127-246h-18c-8 0-14-7-13-15 11-64 92-113 191-113s180 49 191 113c1 8-5 15-13 15h-18l-127 245c83 7 127 49 191 49v-486c-35 0-64-29-64-64h-71c-28 0-57-29-57-64h512c0 35-29 64-71 64h-57c0 35-29 64-64 64v486c64 0 108-42 191-49l-127-245h-18c-8 0-14-7-13-15 11-64 92-113 191-113s180 49 191 113c1 8-5 15-13 15zM320 320h-192l96 180 96-180zM704 320l96 180 96-180h-192z" />
<glyph unicode="&#xe95e;" glyph-name="light-bulb" d="M512 832c-176.731 0-320-143.269-320-320 0-104.69 50.278-197.633 128-256.015v-191.985c0-35.346 28.653-64 64-64 0-35.346 28.653-64 64-64h128c35.347 0 64 28.654 64 64 35.347 0 64 28.654 64 64v191.985c77.722 58.382 128 151.325 128 256.015 0 176.731-143.269 320-320 320zM640 96c0-17.673-14.326-32-32-32h-192c-17.674 0-32 14.327-32 32v32h256v-32zM704 342.693c-33.234-33.030-64-42.389-64-124.041v-26.652h-64v128l128 128v64l-64 64-64-64-64 64-64-64-64 64-64-64v-64l128-128v-128h-64v26.652c0 81.652-30.766 91.011-64 124.041-39.823 45.127-64 104.389-64 169.307 0 141.385 114.615 256 256 256s256-114.615 256-256c0-64.918-24.177-124.18-64-169.307zM512 320l-128 128v64l64-64 64 64 64-64 64 64v-64l-128-128z" />
<glyph unicode="&#xe95f;" glyph-name="link" d="M768 640h-138c48-32 93-89 107-128h30c65 0 128-64 128-128s-65-128-128-128h-192c-63 0-128 64-128 128 0 23 7 45 18 64h-137c-5-21-8-42-8-64 0-128 127-256 255-256s65 0 193 0 256 128 256 256-128 256-256 256zM287 256h-30c-65 0-128 64-128 128s65 128 128 128h192c63 0 128-64 128-128 0-23-7-45-18-64h137c5 21 8 42 8 64 0 128-127 256-255 256s-65 0-193 0-256-128-256-256 128-256 256-256h138c-48 32-93 89-107 128z" />
<glyph unicode="&#xe960;" glyph-name="link-external" horiz-adv-x="768" d="M640 128h-512v510.094l128 1.906v128h-256v-768h768v320h-128v-192zM384 768l128-128-192-192 128-128 192 192 128-128v384h-384z" />
<glyph unicode="&#xe961;" glyph-name="list-ordered" horiz-adv-x="768" d="M320 320h448v128h-448v-128zM320 64h448v128h-448v-128zM320 704v-128h448v128h-448zM79 448h78v256h-36l-85-23v-50l43 2v-185zM189 242c0 36-12 78-96 78-33 0-64-6-83-16l1-66c21 10 42 15 67 15s32-11 32-28c0-26-30-58-110-112v-50h192v67l-91-2c49 30 87 66 87 113l1 1z" />
<glyph unicode="&#xe962;" glyph-name="list-unordered" horiz-adv-x="768" d="M0 320h128v128h-128v-128zM0 576h128v128h-128v-128zM0 64h128v128h-128v-128zM256 320h512v128h-512v-128zM256 576h512v128h-512v-128zM256 64h512v128h-512v-128z" />
<glyph unicode="&#xe963;" glyph-name="location" horiz-adv-x="640" d="M320 896c-177 0-320-143-320-320s160-416 320-704c160 288 320 527 320 704s-143 320-320 320zM320 448c-71 0-128 57-128 128s57 128 128 128 128-57 128-128-57-128-128-128z" />
<glyph unicode="&#xe964;" glyph-name="lock" horiz-adv-x="768" d="M704 448c-32 0-64 0-64 0s0 64 0 192-128 256-256 256-256-128-256-256 0-192 0-192-32 0-64 0-64-32-64-64 0-416 0-448 32-64 64-64 608 0 640 0 64 32 64 64 0 416 0 448-32 64-64 64zM512 320h-384v-64h384v-64h-384v-64h384v-64h-384v-64h384v-64h-448v448h448v-64zM512 448h-256s0 128 0 192 64 128 128 128 128-64 128-128 0-192 0-192z" />
<glyph unicode="&#xe965;" glyph-name="logo-github" horiz-adv-x="2856" d="M552.73 563.865h-241.173c-6.205 0-11.25-5.045-11.25-11.297v-117.887c0-6.252 5.045-11.272 11.25-11.272h94.109v-146.542c0 0-21.145-7.057-79.496-7.057-68.914 0-165.156 25.244-165.156 236.795 0 211.642 100.197 239.491 194.307 239.491 81.465 0 116.514-14.304 138.869-21.241 7.010-2.203 13.404 4.831 13.404 11.105l26.949 113.91c0 2.912-1.041 6.417-4.262 8.785-9.095 6.393-64.416 37.345-204.113 37.345-161.035 0-326.168-68.487-326.168-397.757 0-329.222 189.051-378.243 348.381-378.243 131.883 0 212.021 56.314 212.021 56.314 3.268 1.801 3.6 6.395 3.6 8.479v367.775c-0.047 6.205-5.115 11.297-11.272 11.297zM1772.381 867.866h-135.695c-6.252 0-11.271-5.044-11.271-11.296v-262.393h-211.619v262.393c0 6.252-5.068 11.296-11.178 11.296h-135.838c-6.111 0-11.084-5.044-11.084-11.296v-710.473c0-6.299 5.021-11.32 11.084-11.32h135.838c6.203 0 11.178 5.068 11.178 11.32v303.836h211.619l-0.475-303.883c0-6.3 5.021-11.272 11.084-11.272h135.885c6.252 0 11.131 5.068 11.131 11.272l0.473 710.521c0.094 6.251-4.974 11.295-11.132 11.295zM714.949 851.763c-48.357 0-87.574-39.572-87.574-88.403 0-48.855 39.217-88.428 87.574-88.428s87.527 39.572 87.527 88.428c0.001 48.83-39.169 88.403-87.527 88.403zM792.861 623.874c0 6.205-5.020 11.344-11.131 11.344h-135.41c-6.348 0-11.746-6.394-11.746-12.67 0 0 0-394.654 0-469.867 0-13.735 8.572-17.903 19.703-17.903 0 0 57.688 0 121.959 0 13.311 0 16.814 6.536 16.814 18.188-0.094 25.197-0.094 123.808-0.094 142.942-0.095 18.187-0.095 327.966-0.095 327.966zM2297.973 634.152h-134.701c-6.158 0-11.084-5.092-11.084-11.344v-348.31c0 0-34.244-25.197-82.934-25.197-48.547 0-61.525 22.024-61.525 69.719 0 47.553 0 303.835 0 303.835 0 6.252-5.068 11.345-11.131 11.345h-136.643c-6.252 0-11.178-5.093-11.178-11.345 0 0 0-185.521 0-326.807 0-141.284 78.766-175.906 186.99-175.906 88.854 0 160.609 49.115 160.609 49.115s3.363-25.766 5.068-28.844c1.422-3.078 5.447-6.158 9.852-6.158h86.58c6.158 0 11.178 5.069 11.178 11.321l0.379 477.278c-0.283 6.207-5.304 11.298-11.46 11.298zM2666.932 650.161c-76.539 0-128.592-34.148-128.592-34.148v240.557c0 6.252-5.068 11.296-11.131 11.296h-136.264c-6.109 0-11.131-5.044-11.131-11.296l-0.379-710.521c0-6.3 5.068-11.272 11.225-11.272 0 0 94.773 0 94.869 0 4.215 0 7.389 2.179 9.805 5.968 2.369 3.837 5.73 32.775 5.73 32.775s55.557-52.763 161.035-52.763c123.807 0 194.758 62.804 194.758 281.906 0.002 218.819-113.386 247.498-189.925 247.498zM2613.791 249.775c-46.701 1.421-78.34 22.64-78.34 22.64v225.070c0 0 31.307 19.206 69.672 22.593 48.547 4.31 95.438-10.326 95.438-126.13-0.239-122.007-21.362-146.114-86.77-144.173zM1185.125 252.333c-5.969 0-21.219-2.368-36.85-2.368-49.92 0-66.971 23.256-66.971 53.331 0 30.218 0 199.85 0 199.85h101.926c6.252 0 11.178 5.044 11.178 11.343v109.48c0.094 6.299-4.926 11.344-11.178 11.344h-101.926l-0.143 134.535c0 5.092-2.699 7.625-8.572 7.625h-138.728c-5.352 0-8.336-2.391-8.336-7.578v-139.035c0 0-69.576-16.79-74.266-18.188-4.641-1.326-8.051-5.684-8.051-10.822v-87.408c0-6.252 5.068-11.344 11.178-11.344h71.139c0 0 0-91.34 0-210.222 0-156.109 109.553-171.455 183.439-171.455 33.723 0 74.076 10.988 80.848 13.356 4.074 1.421 6.395 5.637 6.395 10.136l0.047 96.101c0 6.298-5.256 11.414-11.129 11.319z" />
<glyph unicode="&#xe966;" glyph-name="mail" horiz-adv-x="896" d="M0 704v-640h896v640h-896zM768 640l-320-264-320 264h640zM64 576l252.031-191.625-252.031-192.375v384zM128 128l254 206.25 66-50.25 65.875 50.125 254.125-206.125h-640zM832 192l-252.375 192.062 252.375 191.938v-384z" />
<glyph unicode="&#xe967;" glyph-name="mail-read" horiz-adv-x="896" d="M576 512h-320v-64h320v64zM384 640h-128v-64h128v64zM768 667.469v100.531h-140.812l-179.188 128-179.188-128h-140.812v-100.531l-128-91.469v-640h896v640l-128 91.469zM192 704h512v-244.812l-256-211.188-256 211.188v244.812zM64 448l252.031-191.625-252.031-192.375v384zM128 0l254 206.25 66-50.25 65.875 50.125 254.125-206.125h-640zM832 64l-252.375 192.062 252.375 191.938v-384z" />
<glyph unicode="&#xe968;" glyph-name="mail-reply" horiz-adv-x="768" d="M384 736l-384-288 384-288v192c111 0 329-61 384-280 0 291-196 451-384 472v192z" />
<glyph unicode="&#xe969;" glyph-name="mark-github" d="M512 896c-282.75 0-512-229.25-512-512 0-226.25 146.688-418.125 350.156-485.812 25.594-4.688 34.938 11.125 34.938 24.625 0 12.188-0.469 52.562-0.719 95.312-142.375-30.937-172.469 60.375-172.469 60.375-23.312 59.125-56.844 74.875-56.844 74.875-46.531 31.75 3.53 31.125 3.53 31.125 51.406-3.562 78.47-52.75 78.47-52.75 45.688-78.25 119.875-55.625 149-42.5 4.654 33 17.904 55.625 32.5 68.375-113.656 12.937-233.218 56.875-233.218 253.063 0 55.938 19.969 101.562 52.656 137.406-5.219 13-22.844 65.094 5.062 135.562 0 0 42.938 13.75 140.812-52.5 40.812 11.406 84.594 17.031 128.125 17.219 43.5-0.188 87.312-5.875 128.188-17.281 97.688 66.312 140.688 52.5 140.688 52.5 28-70.531 10.375-122.562 5.125-135.5 32.812-35.844 52.625-81.469 52.625-137.406 0-196.688-119.75-240-233.812-252.688 18.438-15.875 34.75-47 34.75-94.75 0-68.438-0.688-123.625-0.688-140.5 0-13.625 9.312-29.562 35.25-24.562 203.313 67.812 349.875 259.687 349.875 485.812 0 282.75-229.25 512-512 512z" />
<glyph unicode="&#xe96a;" glyph-name="markdown" d="M950.154 704h-876.308c-40.719 0-73.846-33.127-73.846-73.846v-492.308c0-40.721 33.127-73.846 73.846-73.846h876.308c40.721 0 73.846 33.125 73.846 73.846v492.308c0 40.719-33.125 73.846-73.846 73.846zM576 192.125l-128-0.125v192l-96-123.077-96 123.077v-192h-128v384h128l96-128 96 128 128 0.125v-384zM767.091 160.125l-159.091 223.875h96v192h128v-192h96l-160.909-223.875z" />
<glyph unicode="&#xe96b;" glyph-name="megaphone" d="M832 864c-130 0-124-130-704-128-70.656 0-128-114.625-128-256s57.344-256 128-256c22.781 0 43.188-0.5 64.188-0.875l63.812-287.125 192-32 64 96-45.125 203.125c242.5-36.25 266.875-107.125 365.125-107.125 106 0 192 172 192 384 0 212.031-86 384-192 384zM197 413.062c-39.188 1.469-82.188 2.25-127.562 2.625-3.438 19.719-5.438 41.407-5.438 64.313 0 88.375 28.688 192 64 192 39.031-0.125 75 0.438 109 1.406-27.344-46.968-45-115.718-45-193.406 0-23.312 2.062-45.438 5-66.938zM261.312 410.062c-3.187 22.25-5.312 45.563-5.312 69.938 0 79.5 18.438 149.5 46.906 196.219 155.156 8.312 251.906 28.469 319.031 50.188-28.312-66.876-45.937-152.063-45.937-246.407 0-40 3.875-78 9.5-114.312-72.156 18.687-172.688 35.718-324.188 44.374zM832 192c-12.125 0-23.688 5.062-34.812 12.125-15.25 67.312-83.438 418.344 117.438 494.188 27.499-52.813 45.374-130.501 45.374-218.313 0-159-57.375-288-128-288z" />
<glyph unicode="&#xe96c;" glyph-name="mention" horiz-adv-x="832" d="M466.697 796.899c-228.037 27.999-435.597-134.164-463.595-362.201-28-228.038 134.163-435.598 362.2-463.597 71.429-8.756 145.115 0.913 213.325 29.946l-0.016 0.032c24.404 10.357 35.788 38.538 25.431 62.939-10.359 24.403-38.538 35.787-62.94 25.43l-0.001 0.004c-52.472-22.339-109.15-29.799-164.1-23.067-175.413 21.538-300.153 181.2-278.616 356.613s181.199 300.154 356.613 278.616c175.412-21.538 300.154-181.199 278.617-356.612-4.309-35.083-21.542-55.725-61.6-55.725-42.5 0-64 45.889-64 81.222v125.501c0 26.51-21.49 48-48 48-9.699 0-18.72-2.887-26.269-7.833-25.684 20.259-57.437 33.87-94.349 38.402-105.246 12.923-201.045-61.924-213.967-167.17s61.924-201.045 167.17-213.967c57.379-7.045 116.216 14.707 157.871 53.13 24.959-28.124 59.866-47.624 100.121-52.567 87.707-10.769 167.537 51.602 178.307 139.309 27.999 228.036-134.165 435.595-362.202 463.595zM511.285 372.301c-6.462-52.623-54.361-90.047-106.985-83.585-52.623 6.461-90.046 54.36-83.585 106.984s54.361 90.046 106.984 83.585c52.623-6.462 90.047-54.361 83.586-106.984z" />
<glyph unicode="&#xe96d;" glyph-name="microscope" horiz-adv-x="768" d="M617 0c86.312 18.75 151 100 151 192 0 58.438-26.625 110.125-67.875 145.375 2.375 15.25 3.875 30.75 3.875 46.625 0 104.844-49.875 197.875-128 256l64 64v64l64 64-64 64-64-64h-64l-256-256-128-64v-128l64-64h128l64 128 96 96c55.5-33.406 96-90.438 96-160-106.062 0-192-85.938-192-192h-384v-64h192c19.125-14.25 42.062-22.125 64-32v-96h-128l-128-128h768l-128 128h-23zM512 192c0 35.375 28.625 64 64 64s64-28.625 64-64c0-35.312-28.625-64-64-64s-64 28.688-64 64z" />
<glyph unicode="&#xe96e;" glyph-name="milestone" horiz-adv-x="832" d="M704 704h-704v-256h704l128 128-128 128zM448 512h-128v128h128v-128zM448 896h-128v-128h128v128zM320-128h128v512h-128v-512z" />
<glyph unicode="&#xe96f;" glyph-name="mirror" d="M320 576l-192-192 192-192v128h384v-128l192 192-192 192v-128h-384v128zM512 896l-512-320v-704l512 256 512-256v704l-512 320zM960 0l-384 192v64h-128v-64l-384-192v512l384 256v-256h128v256l384-256v-512z" />
<glyph unicode="&#xe970;" glyph-name="mortar-board" d="M501 308l-245 76s0-96 0-160 115-96 256-96 256 32 256 96 0 160 0 160l-245-76c-7-2-15-2-23 0h1zM519 717c-4 1-9 1-13 0l-489-152c-21-7-21-36 0-43l111-35v-113c-19-11-32-32-32-55 0-12 3-23 9-32-5-9-9-20-9-32v-165c0-35 128-35 128 0v165c0 12-3 23-9 32 5 9 9 20 9 32 0 24-13 44-32 55v93l313-98c4-1 9-1 13 0l489 152c21 7 21 36 0 43l-488 153zM513 512c-35 0-64 14-64 32s29 32 64 32 64-14 64-32-29-32-64-32z" />
<glyph unicode="&#xe971;" glyph-name="move-down" horiz-adv-x="640" d="M640 576h-192v320h-256v-320h-192l320-384 320 384zM0-128h640v192h-640v-192z" />
<glyph unicode="&#xe972;" glyph-name="move-left" d="M0 64h192v640h-192v-640zM704 512v192l-384-320 384-320v192h320v256h-320z" />
<glyph unicode="&#xe973;" glyph-name="move-right" d="M832 704v-640h192v640h-192zM320 512h-320v-256h320v-192l384 320-384 320v-192z" />
<glyph unicode="&#xe974;" glyph-name="move-up" horiz-adv-x="640" d="M0 192h192v-320h256v320h192l-320 384-320-384zM0 896v-192h640v192h-640z" />
<glyph unicode="&#xe975;" glyph-name="mute" horiz-adv-x="896" d="M128 512h-128v-256h128l256-192h64v640h-64l-256-192zM864 480l-64 64-96-96-96 96-63-63.5 95-96.5-96-96 64-64 96 96 96-96 64 64-96 96 96 96z" />
<glyph unicode="&#xe976;" glyph-name="no-newline" d="M896 576v-128h-128v128l-192-192 192-192v128h192c0 0 64 0.375 64 64s0 192 0 192h-128zM224 608c-123.719 0-224-100.281-224-224 0-123.75 100.281-224 224-224s224 100.25 224 224c0 123.719-100.281 224-224 224zM96 384c0 70.656 57.344 128 128 128 18.75 0 36.406-4.219 52.469-11.531l-168.938-168.969c-7.312 16.125-11.531 33.75-11.531 52.5zM224 256c-18.75 0-36.406 4.25-52.469 11.5l168.938 168.969c7.312-16.063 11.531-33.719 11.531-52.469 0-70.625-57.344-128-128-128z" />
<glyph unicode="&#xe977;" glyph-name="octoface" d="M940.812 618.312c8.25 20.219 35.375 101.75-8.562 211.906 0 0-67.375 21.312-219.875-82.906-63.875 17.563-132.5 20.188-200.375 20.188-67.906 0-136.438-2.625-200.5-20.25-152.469 104.281-219.781 82.969-219.781 82.969-43.907-110.219-16.781-191.688-8.531-211.907-51.688-55.874-83.188-127.187-83.188-214.656 0-329.218 213.25-403.656 510.844-403.656 297.718 0 513.156 74.438 513.156 403.656 0 87.469-31.5 158.782-83.188 214.656zM512 63c-211.406 0-382.781 9.875-382.781 214.688 0 48.938 24.062 94.595 65.344 132.312 68.75 62.969 185.281 29.688 317.438 29.688 132.25 0 248.625 33.281 317.438-29.625 41.312-37.78 65.438-83.312 65.438-132.312-0.002-204.876-171.502-214.751-382.877-214.751zM351.156 383.562c-42.469 0-76.906-51.062-76.906-114.188s34.438-114.312 76.906-114.312c42.375 0 76.812 51.188 76.812 114.312s-34.437 114.188-76.812 114.188zM672.875 383.562c-42.375 0-76.875-51.062-76.875-114.187s34.5-114.312 76.875-114.312 76.812 51.188 76.812 114.312c0.063 63.125-34.375 114.187-76.812 114.187z" />
<glyph unicode="&#xe978;" glyph-name="organization" horiz-adv-x="896" d="M768 512h-640c-70.656 0-128-57.344-128-128v-64c0-47.25 25.844-88.062 64-110.25v-209.75h256v-128h256v128h256v209.75c38.125 22.188 64 62.938 64 110.25v64c0 70.656-57.375 128-128 128zM256 64h-128v256h-64v64c0 35.312 28.688 64 64 64h81.719c-11-18.875-17.719-40.562-17.719-64v-128c0-47.25 25.844-88.062 64-110.25v-81.75zM576 192v128h-64v-384h-128v384h-64v-128c-35.312 0-64 28.625-64 64v128c0 35.312 28.688 64 64 64h256c35.375 0 64-28.688 64-64v-128c0-35.375-28.625-64-64-64zM832 320h-64v-256h-128v81.75c38.125 22.188 64 62.938 64 110.25v128c0 23.438-6.75 45.125-17.75 64h81.75c35.375 0 64-28.688 64-64v-64zM303.688 578.625c35.187-40.5 86.468-66.625 144.312-66.625 57.875 0 109.125 26.125 144.312 66.625 21.813-39.563 63.376-66.625 111.688-66.625 70.625 0 128 57.344 128 128s-57.375 128-128 128c-25.625 0-49.375-7.688-69.375-20.688-19.75 85.126-95.563 148.688-186.625 148.688s-166.906-63.562-186.625-148.688c-20.031 13-43.781 20.688-69.375 20.688-70.656 0-128-57.344-128-128s57.344-128 128-128c48.312 0 89.844 27.062 111.688 66.625zM704 704c35.375 0 64-28.594 64-64s-28.625-64-64-64c-35.312 0-64 28.594-64 64s28.688 64 64 64zM448 832c70.625 0 128-57.344 128-128s-57.375-128-128-128c-70.656 0-128 57.344-128 128s57.344 128 128 128zM192 576c-35.312 0-64 28.594-64 64s28.688 64 64 64c35.406 0 64-28.594 64-64s-28.594-64-64-64z" />
<glyph unicode="&#xe979;" glyph-name="package" d="M480 832l-480-128v-576l480-128 480 128v576l-480 128zM63.875 175.066l-0.375 432.934 384.498-102.533 0.001-432.833-384.124 102.432zM63.5 672l160.254 42.734 416.246-111.134-160-42.667-416.5 111.067zM896.125 175.066l-384.124-102.432 0.001 432.833 127.998 34.133v-156l128 34.135v155.998l128.5 34.267-0.375-432.934zM768 637.733v0.125l-416.266 111.004 128.266 34.204 416.5-111.066-128.5-34.267z" />
<glyph unicode="&#xe97a;" glyph-name="paintcan" horiz-adv-x="768" d="M384 896c-212.077 0-384-171.923-384-384v-64c0-35.346 28.654-64 64-64v-320c0-70.692 143.269-128 320-128s320 57.308 320 128v320c35.346 0 64 28.654 64 64v64c0 212.077-171.923 384-384 384zM576 256v-32c0-17.673-14.327-32-32-32s-32 14.327-32 32v32c0 17.673-14.327 32-32 32s-32-14.327-32-32v-160c0-17.673-14.327-32-32-32s-32 14.327-32 32v128c0 17.673-14.327 32-32 32s-32-14.327-32-32v-32c0-35.346-28.654-64-64-64s-64 28.654-64 64v64c-35.346 0-64 28.654-64 64v115.193c58.382-31.085 151.318-51.193 256-51.193s197.618 20.108 256 51.193v-115.193c0-35.346-28.654-64-64-64zM384 448c-107.433 0-199.393 26.474-237.372 64 37.979 37.526 129.939 64 237.372 64s199.393-26.474 237.372-64c-37.979-37.526-129.939-64-237.372-64zM384 640c-176.62 0-319.816-57.236-319.996-127.867-0.001 0.001-0.002 0.001-0.003 0.002 0.074 176.669 143.313 319.865 319.999 319.865 176.731 0 320-143.269 320-320 0 70.692-143.269 128-320 128z" />
<glyph unicode="&#xe97b;" glyph-name="pencil" horiz-adv-x="896" d="M704 832l-128-128 192-192 128 128-192 192zM0 128l0.688-192.562 191.312 0.562 512 512-192 192-512-512zM192 0h-128v128h64v-64h64v-64z" />
<glyph unicode="&#xe97c;" glyph-name="person" horiz-adv-x="512" d="M448 704c0 106-85.938 192-192 192s-192-86-192-192c0-106.062 85.938-192 192-192s192 85.938 192 192zM256 576c-70.656 0-128 57.344-128 128s57.344 128 128 128c70.625 0 128-57.344 128-128s-57.375-128-128-128zM384 512h-256c-70.656 0-128-57.344-128-128v-128c0-70.625 57.344-128 128-128v-256h256v256c70.625 0 128 57.375 128 128v128c0 70.656-57.375 128-128 128zM448 256c0-35.375-28.625-64-64-64v128h-64v-384h-128v384h-64v-128c-35.312 0-64 28.625-64 64v128c0 35.312 28.688 64 64 64h256c35.375 0 64-28.688 64-64v-128z" />
<glyph unicode="&#xe97d;" glyph-name="pin" horiz-adv-x="519" d="M196 192l64-320 64 320c-20-2-43-3-64-3s-44 1-64 3zM450 491c-33 17-62 59-62 85v64c0 22 12 39 23 52 15 13 24 29 24 45 0 53-61 95-175 95s-175-42-175-95c0-16 9-32 24-45 11-13 23-30 23-52v-64c0-26-29-68-62-85-38-19-70-54-70-88 0-74 101-148 260-148s260 73 260 148c0 33-31 68-70 88z" />
<glyph unicode="&#xe97e;" glyph-name="playback-fast-forward" horiz-adv-x="768" d="M0 128l384 256-384 256v-512zM768 384l-384 256v-512l384 256z" />
<glyph unicode="&#xe97f;" glyph-name="playback-pause" horiz-adv-x="512" d="M0 64h192v640h-192v-640zM320 704v-640h192v640h-192z" />
<glyph unicode="&#xe980;" glyph-name="playback-play" horiz-adv-x="512" d="M0 704l512-320-512-320v640z" />
<glyph unicode="&#xe981;" glyph-name="playback-rewind" horiz-adv-x="768" d="M384 384l384-256v512l-384-256zM0 384l384-256v512l-384-256z" />
<glyph unicode="&#xe982;" glyph-name="plug" d="M1003.386 691.336l-0.905 0.905c-24.744 24.744-64.861 24.744-89.605 0l-45.707-45.707-90.51 90.51 45.707 45.707c24.744 24.744 24.744 64.861 0 89.605l-0.905 0.905c-24.744 24.744-64.861 24.744-89.605 0l-47.973-47.973c-62.123 41.158-146.646 34.372-201.381-20.362l-24.89-24.89c-109.011-109.011-121.948-277.692-38.854-400.892l-4.138-4.138c-62.392-62.392-62.484-163.493-0.275-225.999 12.41-12.469 12.642-33.327 0.121-45.683-12.509-12.343-32.655-12.292-45.101 0.153l-89.427 89.427c-62.637 62.638-164.63 63.747-227.299 1.141-62.542-62.479-62.562-163.829-0.058-226.332l8.763-8.763c24.744-24.744 64.861-24.744 89.605 0l0.905 0.905c24.744 24.744 24.744 64.861 0 89.605l-8.292 8.292c-12.329 12.329-13.085 32.418-1.098 45.081 12.437 13.138 33.174 13.353 45.882 0.645l89.328-89.328c62.92-62.92 165.504-63.814 228.081-0.553 61.793 62.468 61.65 163.161-0.431 225.451-12.55 12.592-12.777 32.866-0.207 45.437l4.151 4.151c123.2-83.095 291.881-70.158 400.892 38.854l24.89 24.89c54.734 54.735 61.52 139.258 20.362 201.382l47.973 47.973c24.744 24.74 24.744 64.858 0.001 89.601zM889.796 397.632c-37.49-37.49-98.274-37.49-135.765 0l-226.274 226.274c-37.49 37.49-37.49 98.274 0 135.765 29.556 29.556 73.585 35.804 109.269 18.759l-41.839-41.839c-24.744-24.744-24.744-64.861 0-89.604l0.905-0.905c24.744-24.744 64.861-24.744 89.605 0l45.707 45.707 90.51-90.51-45.707-45.707c-24.744-24.744-24.744-64.861 0-89.605l0.905-0.905c24.744-24.744 64.861-24.744 89.604 0l41.839 41.839c17.045-35.683 10.796-79.713-18.759-109.269z" />
<glyph unicode="&#xe983;" glyph-name="plus" horiz-adv-x="640" d="M384 448v256h-128v-256h-256v-128h256v-256h128v256h256v128h-256z" />
<glyph unicode="&#xe984;" glyph-name="podium" horiz-adv-x="768" d="M320 896c-32 0-64-32-64-64s0-64 0-64h-64l-192-192v-128h192l64-384-128-64v-64h512v64l-128 64 64 384h192v128l-192 192h-256v64s14 0 32 0 32 17 32 32-16 32-32 32 0 0-32 0zM320 64l-53 320h118l-1-320h-64zM96 576l128 128h32v-64h64v64h224l128-128h-576z" />
<glyph unicode="&#xe985;" glyph-name="primitive-dot" horiz-adv-x="511" d="M-0.088 384c0 141.5 114.5 256 256 256 141.438 0 256-114.5 256-256s-114.562-256-256-256c-141.499 0-256 114.5-256 256z" />
<glyph unicode="&#xe986;" glyph-name="primitive-square" horiz-adv-x="512" d="M512 128h-512v512h512v-512z" />
<glyph unicode="&#xe987;" glyph-name="pulse" horiz-adv-x="896" d="M736 384.062l-172.812 166.344-140.782-198.406-70.406 441.594-199.562-409.532h-152.438v-128.062h230.406l57.594 115.188 57.594-345.562 230.406 326.374 102.375-96h217.625v128.062h-160z" />
<glyph unicode="&#xe988;" glyph-name="puzzle" d="M755.75 320.85c-13.95 9.96-28.52 16.59-43.47 19.92-8.84 1.69-18.060 2.33-27.57 1.81-8.99-0.5-17.56-1.68-25.69-3.52-6.1-1.69-12.22-3.89-18.35-6.59-18.18-8.020-33.89-18.12-46.79-30.33-12.22-12.9-22.32-28.62-30.34-46.79-2.7-6.12-4.9-12.24-6.59-18.34-1.84-8.14-3.030-16.7-3.52-25.69-0.52-9.51 0.12-18.73 1.81-27.57 3.33-14.95 9.96-29.52 19.92-43.47 3.89-5.44 8.080-10.4 12.56-14.88 20.060-20.030 45.83-30.7 75.42-34.11 8.92-1.020 18.12-1.68 26.53-4.48 5.12-1.7 9.16-4.080 12.080-7.020 6.65-6.6 7.63-16.1 2.5-27.24-3.15-6.84-7.7-13.45-12.96-18.84l-2.79-2.86c-3.93-3.92-6.41-6.4-7.050-7.040-3.13-3.16-6.1-6.15-9.060-9.15l-2.96-2.92c-10.52-10.58-21.090-21.12-31.66-31.65-22.76-22.82-45.57-45.58-68.38-68.36-7.5-7.5-15-15-22.5-22.49-3.46-3.45-7.070-6.38-10.78-8.79-1.8-1.22-3.49-2.24-5.18-3.16-19.6-9.89-41.43-5.92-59.24 11.88-5.4 5.4-10.62 10.62-15.85 15.84-30.25 30.25-60.48 60.52-90.77 90.73-8.59 8.57-17.13 17.080-25.68 25.59-6.12 6.090-12.67 11.85-19.56 17.060-5.72 4.33-11.59 7.56-17.46 9.73-21.16 7.32-41.41 2.010-54.67-13.26-3.81-4.8-7-10.47-9.39-16.94-3.43-9.26-4.6-19.47-5.9-29.36-4.9-37.53-25.8-68.43-55.98-82.65-7.48-3.65-15.49-6.29-23.9-7.78-7.95-1.41-15.95-1.71-23.85-1.040-26.61 1.35-49.48 13.090-68.51 32.57-1.68 1.67-2.1 2.090-2.51 2.51-19.48 19.020-31.22 41.9-32.57 68.5-0.68 7.9-0.37 15.9 1.040 23.85 1.49 8.41 4.13 16.43 7.78 23.9 14.22 30.18 45.13 51.070 82.65 55.97 9.89 1.29 20.1 2.47 29.36 5.9 6.94 2.56 12.96 6.050 17.97 10.23 14.54 13.15 19.59 32.63 12.84 52.34-2.78 7.35-6 13.22-10.33 18.94-5.21 6.88-10.97 13.43-17.060 19.55-8.51 8.55-17.030 17.090-25.55 25.63-26.92 26.98-53.84 53.88-80.75 80.78l-10.030 10.030c-5.22 5.22-10.45 10.45-15.26 15.27-18.39 18.4-22.35 40.22-12.46 59.82 0.92 1.69 1.94 3.37 3.080 5.050 2.49 3.84 5.42 7.45 8.87 10.91 7.49 7.5 14.99 15 22.49 22.5 22.77 22.81 45.54 45.62 68.36 68.38 10.53 10.57 21.060 21.14 31.65 31.66l2.92 2.96c2.99 2.97 5.99 5.93 8.98 8.9 0.8 0.81 3.28 3.29 7.2 7.22l2.86 2.79c5.39 5.26 12 9.8 18.84 12.96 11.14 5.13 20.63 4.15 27.24-2.5 2.94-2.92 5.32-6.96 7.020-12.080 2.79-8.41 3.45-17.61 4.48-26.53 3.41-29.59 14.080-55.35 34.11-75.41 4.49-4.48 9.44-8.67 14.88-12.56 13.95-9.96 28.52-16.59 43.47-19.92 8.84-1.69 18.060-2.33 27.57-1.81 8.99 0.5 17.56 1.68 25.69 3.52 6.1 1.69 12.22 3.89 18.35 6.59 18.18 8.020 33.89 18.12 46.79 30.33 12.22 12.9 22.32 28.62 30.34 46.79 2.7 6.12 4.9 12.24 6.59 18.34 1.84 8.14 3.030 16.7 3.52 25.69 0.52 9.51-0.12 18.73-1.81 27.57-3.33 14.95-9.96 29.52-19.92 43.47-3.89 5.44-8.080 10.4-12.56 14.88-20.060 20.030-45.83 30.7-75.42 34.11-8.92 1.020-18.12 1.68-26.53 4.48-5.12 1.7-9.16 4.080-12.080 7.020-6.65 6.6-7.63 16.1-2.5 27.24 3.15 6.84 7.7 13.45 12.96 18.84l2.79 2.86c3.93 3.92 6.41 6.4 7.050 7.040 3.13 3.16 6.1 6.15 9.060 9.15l2.96 2.92c10.52 10.58 21.090 21.12 31.66 31.65 22.76 22.82 45.57 45.58 68.38 68.35 7.5 7.5 15 15 22.5 22.49 3.46 3.45 7.070 6.38 10.78 8.79 1.8 1.22 3.49 2.24 5.18 3.16 19.6 9.89 41.43 5.92 59.24-11.88 5.4-5.4 10.62-10.62 15.85-15.84 30.25-30.25 60.48-60.52 90.77-90.73 8.59-8.57 17.13-17.080 25.68-25.59 6.12-6.090 12.67-11.85 19.56-17.060 5.72-4.33 11.59-7.56 17.46-9.73 21.16-7.32 41.41-2.010 54.67 13.26 3.81 4.8 7 10.47 9.39 16.94 3.43 9.26 4.6 19.47 5.9 29.36 4.9 37.53 25.8 68.43 55.98 82.65 7.48 3.65 15.49 6.28 23.9 7.78 7.95 1.41 15.95 1.71 23.85 1.040 26.61-1.35 49.48-13.090 68.51-32.57 1.68-1.67 2.1-2.090 2.51-2.51 19.48-19.020 31.22-41.9 32.57-68.5 0.68-7.9 0.37-15.9-1.040-23.85-1.49-8.41-4.13-16.43-7.78-23.9-14.22-30.18-45.13-51.070-82.65-55.97-9.89-1.29-20.1-2.47-29.36-5.9-6.94-2.56-12.96-6.050-17.97-10.23-14.54-13.15-19.59-32.63-12.84-52.34 2.78-7.35 6-13.22 10.33-18.94 5.21-6.88 10.97-13.43 17.060-19.55 8.51-8.55 17.030-17.090 25.55-25.63 30.26-30.33 60.54-60.56 90.78-90.81 5.22-5.22 10.45-10.45 15.26-15.27 18.39-18.4 22.35-40.22 12.46-59.82-0.92-1.69-1.94-3.37-3.080-5.050-2.49-3.84-5.42-7.45-8.87-10.91-7.49-7.5-14.99-15-22.49-22.5-22.77-22.81-45.54-45.62-68.36-68.38-10.53-10.57-21.060-21.14-31.65-31.66l-2.92-2.96c-2.99-2.97-5.99-5.93-8.98-8.9-0.8-0.81-3.28-3.29-7.2-7.22l-2.86-2.79c-5.39-5.26-12-9.8-18.84-12.96-11.14-5.13-20.63-4.15-27.24 2.5-2.94 2.92-5.32 6.96-7.020 12.080-2.79 8.41-3.45 17.61-4.48 26.53-3.41 29.59-14.080 55.35-34.11 75.41-4.48 4.49-9.44 8.69-14.88 12.57z" />
<glyph unicode="&#xe989;" glyph-name="question" d="M448 128h128v128h-128v-128zM512 640c-96 0-192-96-192-192h128c0 32 32 64 64 64s64-32 64-64c0-64-128-64-128-128h128c64 22 128 64 128 160s-96 160-192 160zM512 896c-283 0-512-229-512-512s229-512 512-512 512 229 512 512-229 512-512 512zM512 0c-212 0-384 172-384 384s172 384 384 384 384-172 384-384-172-384-384-384z" />
<glyph unicode="&#xe98a;" glyph-name="quote" horiz-adv-x="640" d="M0 384v-256h256v256h-128c0 0 0 128 128 128v128c0 0-256 0-256-256zM640 512v128c0 0-256 0-256-256v-256h256v256h-128c0 0 0 128 128 128z" />
<glyph unicode="&#xe98b;" glyph-name="radio-tower" d="M306.838 505.261c15.868 16.306 15.868 42.731 0 59.037-20.521 21.116-30.643 48.417-30.705 76.124 0.062 27.77 10.183 55.039 30.705 76.186 15.868 16.337 15.868 42.764 0 59.069-7.934 8.184-18.272 12.275-28.706 12.275-10.371 0-20.804-4.029-28.738-12.213-36.266-37.297-54.633-86.433-54.57-135.317-0.062-48.792 18.305-97.927 54.57-135.161 15.868-16.306 41.576-16.306 57.444 0zM149.093 862.858c-8.121 8.309-18.68 12.463-29.3 12.463-10.558 0-21.179-4.154-29.237-12.463-59.756-61.349-89.805-142.002-89.743-222.436-0.062-80.341 29.987-161.15 89.681-222.437 16.181-16.618 42.356-16.618 58.537 0 16.118 16.587 16.118 43.513 0 60.067-43.7 44.98-65.44 103.456-65.44 162.368s21.74 117.449 65.44 162.368c16.118 16.651 16.118 43.577 0.062 60.070zM513.031 536.153c57.351 0 103.956 46.574 103.956 103.956s-46.605 103.955-103.956 103.955c-57.381 0-103.956-46.573-103.956-103.955s46.575-103.956 103.956-103.956zM933.539 862.233c-16.181 16.618-42.355 16.618-58.475 0-16.181-16.587-16.181-43.513 0-60.068 43.668-44.918 65.409-103.456 65.409-162.368 0-58.85-21.805-117.387-65.473-162.306-16.117-16.618-16.117-43.575 0.062-60.068 8.059-8.309 18.616-12.463 29.237-12.463 10.558 0 21.178 4.154 29.236 12.463 59.726 61.287 89.774 142.096 89.649 222.437 0.129 80.278-29.92 161.087-89.645 222.373zM513.281 453.127v0c-26.489-0.062-53.040 6.466-77.091 19.429l-201.133-536.146h95.209l54.819 63.973h255.891l53.977-63.973h95.272l-201.101 536.021c-23.74-12.776-49.729-19.304-75.843-19.304zM512.656 422.483l64.348-230.183h-127.945l63.597 230.183zM385.086 64.355l63.974 63.973h127.944l63.974-63.973h-255.892zM717.194 774.958c-15.868-16.306-15.868-42.731 0-59.037 20.491-21.116 30.611-48.511 30.674-76.124-0.062-27.77-10.183-55.102-30.674-76.187-15.868-16.336-15.868-42.763 0-59.068 7.871-8.184 18.242-12.213 28.737-12.213 10.309 0 20.741 4.029 28.675 12.213 36.298 37.234 54.665 86.433 54.54 135.255 0.125 48.792-18.181 97.927-54.54 135.161-15.805 16.306-41.544 16.306-57.412 0z" />
<glyph unicode="&#xe98c;" glyph-name="repo" horiz-adv-x="768" d="M320 640h-64v-64h64v64zM320 768h-64v-64h64v64zM704 896c-32 0-608 0-640 0s-64-32-64-64 0-736 0-768 32-64 64-64 128 0 128 0v-128l96 96 96-96v128s288 0 320 0 64 32 64 64 0 736 0 768-32 64-64 64zM704 96c0-16-15-32-32-32s-288 0-288 0v64h-192v-64s-79 0-96 0-32 17-32 32 0 96 0 96h640s0-80 0-96zM704 256h-512v576h513l-1-576zM320 384h-64v-64h64v64zM320 512h-64v-64h64v64z" />
<glyph unicode="&#xe98d;" glyph-name="repo-clone" d="M320 512h-64v-64h64v64zM192 832h256v64s-352 0-384 0-64-32-64-64 0-736 0-768 32-64 64-64 128 0 128 0v-128l96 96 96-96v128s286 0 320 0 64 32 64 64 0 192 0 192h-576v576zM704 192s0-79 0-96-14-32-32-32-288 0-288 0v64h-192v-64s-80 0-96 0-32 16-32 32 0 96 0 96h640zM320 640h-64v-64h64v64zM256 320h64v64h-64v-64zM960 896c-32 0-288 0-320 0s-64-32-64-64 0-352 0-384 32-64 64-64 64 0 64 0v-64l32 32 32-32v64s160 0 192 0 64 32 64 64 0 352 0 384-32 64-64 64zM704 448s-15 0-32 0-32 15-32 32 0 32 0 32h64v-64zM960 480c0-16-15-32-32-32s-160 0-160 0v64h192s0-16 0-32zM960 576h-256v256h224s32 0 32-32 0-224 0-224zM320 768h-64v-64h64v64z" />
<glyph unicode="&#xe98e;" glyph-name="repo-force-push" horiz-adv-x="767" d="M768 832c0 32-32 64-64 64s-608 0-640 0-64-32-64-64 0-768 0-768 0 32 0 0 32-64 64-64 128 0 128 0v-128l128 128v128h-128v-64s-79 0-96 0-32 15-32 32 0 96 0 96h256v64h-128v576h512v-576h-128v-64h128s0-80 0-96-15-32-32-32-96 0-96 0v-64s96 0 128 0 64 32 64 64 0 736 0 768zM496 512h144l-192 256-192-256h144l-144-192h128v-448h128v448h128l-144 192z" />
<glyph unicode="&#xe98f;" glyph-name="repo-forked" horiz-adv-x="768" d="M768 768c0 71-57 128-128 128s-128-57-128-128c0-47 26-89 64-111v-106l-192-212-192 212v106c38 22 64 63 64 111 0 71-57 128-128 128s-128-57-128-128c0-47 26-89 64-111v-156l256-282v-109c-38-22-64-63-64-111 0-71 57-128 128-128s128 57 128 128c0 47-26 89-64 111v109l256 282v156c38 22 64 63 64 111zM128 831c34 0 62-28 62-62s-28-62-62-62-62 28-62 62 28 62 62 62zM384-60c-34 0-62 28-62 62s28 62 62 62 62-28 62-62-28-62-62-62zM640 831c34 0 62-28 62-62s-28-62-62-62-62 28-62 62 28 62 62 62z" />
<glyph unicode="&#xe990;" glyph-name="repo-pull" d="M1024 576l-192 192v-128h-384v-128h384v-128l192 192zM704 256h-512v576h512v-128h64s0 96 0 128-32 64-64 64-608 0-640 0-64-32-64-64 0-736 0-768 32-64 64-64 128 0 128 0v-128l96 96 96-96v128s288 0 320 0 64 32 64 64 0 384 0 384h-64v-192zM704 96c0-15-15-32-32-32s-288 0-288 0v64h-192v-64s-79 0-96 0-32 16-32 32 0 96 0 96h640s0-81 0-96zM320 640h-64v-64h64v64zM320 768h-64v-64h64v64zM320 512h-64v-64h64v64zM256 320h64v64h-64v-64z" />
<glyph unicode="&#xe991;" glyph-name="repo-push" horiz-adv-x="768" d="M448 576l-192-256h128v-448h128v448h128l-192 256zM256 576h64v64h-64v-64zM320 768h-64v-64h64v64zM704 896c-32 0-608 0-640 0s-64-32-64-64 0-736 0-768 32-64 64-64 128 0 128 0v-128l128 128v128h-128v-64s-79 0-96 0-32 14-32 32 0 96 0 96h256v64h-128v576h513l-1-576h-128v-64h128s0-79 0-96-15-32-32-32-96 0-96 0v-64s96 0 128 0 64 32 64 64 0 736 0 768-32 64-64 64z" />
<glyph unicode="&#xe992;" glyph-name="rocket" d="M716.737 771.944c-71.926-41.686-148.041-96.13-218.436-166.555-45-45.031-81.213-88.78-110.39-129.778l-178.373-32.961-209.491-209.647 186.818-5.815 131.562 131.562c-46.439-96.224-50.536-160.019-50.536-160.019l58.854-58.792c0 0 65.827 6.255 162.737 53.163l-134.375-134.221 5.88-186.881 209.585 209.521 33.086 179.252c41.403 29.020 85.185 65.046 129.716 109.545 70.425 70.455 124.837 146.541 166.555 218.466-45.97 9.351-88.125 28.488-121.397 61.668-33.275 33.367-52.538 75.523-61.795 121.492zM786.161 809.157c5.004-45 19.952-81.274 44.78-105.98 24.769-24.985 60.98-39.902 106.138-44.844 65.984 133.344 86.874 237.667 86.874 237.667s-104.323-20.858-237.792-86.843z" />
<glyph unicode="&#xe993;" glyph-name="rss" horiz-adv-x="768" d="M128 256c-70.656 0-128-57.375-128-128s57.344-128 128-128 128 57.375 128 128-57.344 128-128 128zM128 512c0 0-64-2-64-64s64-64 64-64c141.375 0 256-114.625 256-256 0 0 0-64 64-64s64 64 64 64c0 212-171.969 384-384 384zM128 768c0 0-64 0-64-64s64-64 64-64c282.75 0 512-229.25 512-512 0 0 0-64 64-64s64 64 64 64c0 353.406-286.5 640-640 640z" />
<glyph unicode="&#xe994;" glyph-name="ruby" d="M768 768h-512l-256-256 512-512 512 512-256 256zM128 512l192 192h384l192-192-384-384-384 384zM704 640h-192v-448l320 320-128 128z" />
<glyph unicode="&#xe995;" glyph-name="screen-full" horiz-adv-x="895" d="M128 128h639.875v512h-639.875v-512zM255.938 512h384v-256h-384v256zM64 703.938h191.938v64h-255.938v-255.938h64v191.938zM64 256h-64v-255.938h255.938v63.938h-191.938v192zM639.938 767.938v-64h191.938v-191.938h64v255.938h-255.938zM831.875 64h-191.937v-63.938h255.938v255.938h-64v-192z" />
<glyph unicode="&#xe996;" glyph-name="screen-normal" horiz-adv-x="896" d="M127.938 704.062h-127.938v-64h191.938v191.938h-64v-127.938zM0 63.938h127.938v-127.938h64v191.938h-191.938v-64zM768.062 704.062v127.938h-64v-191.938h191.938v64h-127.938zM704.062-64h64v127.938h127.938v64h-191.938v-191.938zM192.062 192h511.938v384h-511.938v-384zM320 448h256v-128h-256v128z" />
<glyph unicode="&#xe997;" glyph-name="search" horiz-adv-x="973" d="M960 64l-249.125 249.125c35.563 58.063 57.125 125.719 57.125 198.875 0 212.031-172 384-384 384-212.031 0-384-171.969-384-384 0-212 171.969-384 384-384 73.156 0 140.812 21.562 198.875 57l249.125-249c17.5-17.5 46.5-17.375 64 0l64 64c17.5 17.5 17.5 46.5 0 64zM384 256c-141.375 0-256 114.625-256 256s114.625 256 256 256 256-114.625 256-256-114.625-256-256-256z" />
<glyph unicode="&#xe998;" glyph-name="server" horiz-adv-x="768" d="M704 512h-640c-35 0-64-32-64-64v-128c0-32 32-64 64-64h640c32 0 64 32 64 64v128c0 32-32 64-64 64zM128 320h-64v128h64v-128zM256 320h-64v128h64v-128zM384 320h-64v128h64v-128zM512 320h-64v128h64v-128zM704 192h-640c-35 0-64-32-64-64v-128c0-32 32-64 64-64h640c32 0 64 32 64 64v128c0 32-32 64-64 64zM128 0h-64v128h64v-128zM256 0h-64v128h64v-128zM384 0h-64v128h64v-128zM512 0h-64v128h64v-128zM704 832h-640c-35 0-64-32-64-64v-128c0-32 32-64 64-64h640c32 0 64 32 64 64v128c0 32-32 64-64 64zM128 640h-64v128h64v-128zM256 640h-64v128h64v-128zM384 640h-64v128h64v-128zM512 640h-64v128h64v-128zM704 704h-64v64h64v-64z" />
<glyph unicode="&#xe999;" glyph-name="settings" horiz-adv-x="896" d="M64 0h128v192h-128v-192zM192 768h-128v-320h128v320zM512 768h-128v-128h128v128zM0 256h256v128h-256v-128zM384 0h128v384h-128v-384zM320 448h256v128h-256v-128zM832 768h-128v-384h128v384zM640 320v-128h256v128h-256zM704 0h128v128h-128v-128z" />
<glyph unicode="&#xe99a;" glyph-name="sign-in" horiz-adv-x="896" d="M640 320v128h256v128h-256v128l-192-144v144l-256 128h512v-192h64v256h-704v-832l384-192v192h320v320h-64v-256h-256v336z" />
<glyph unicode="&#xe99b;" glyph-name="sign-out" d="M640 128h-256v576l-256 128h512v-192h64v256h-704v-832l384-192v192h320v320h-64v-256zM1024 512l-256 192v-128h-256v-128h256v-128l256 192z" />
<glyph unicode="&#xe99c;" glyph-name="split" d="M448 640l-256 256-192-192 311-300c15 81 43 136 133 230l5 6zM576 896l133-133-197-197c-99-99-128-162-128-309v-384h256v384c0 52 19 94 53 128l197 197 133-133v448h-448z" />
<glyph unicode="&#xe99d;" glyph-name="squirrel" d="M768 832c-141.385 0-256-83.75-256-186.875 0-123.875 32-194.125 0-389.125 0 288-177 405.783-256 405.783 3.266 32.17-30.955 42.217-30.955 42.217s-14-7.124-19.354-21.583c-17.231 20.053-36.154 17.54-36.154 17.54l-8.491-37.081c0 0-117.045-40.876-118.635-206.292 13.589-21.584 98.9-38.686 159.476-27.702 57.157-2.956 42.991-50.648 30.193-63.446-53.997-53.998-104.080 18.564-168.080 18.564s-64-64 0-64 64-64 192-64c-198-77 0-256 0-256h-64c-64 0-64-64-64-64s256 0 384 0c192 0 320 64 320 222.182 0 54.34-27.699 114.629-64 162.228-70.943 93.023 14.453 171.156 64 127.59s192-64 192 128c0 141.385-114.615 256-256 256zM160 512c-17.674 0-32 14.327-32 32s14.326 32 32 32c17.673 0 32-14.326 32-32s-14.327-32-32-32z" />
<glyph unicode="&#xe99e;" glyph-name="star" horiz-adv-x="896" d="M896 512l-313.5 40.781-134.5 279.219-134.531-279.219-313.469-40.781 230.469-208.875-59.469-303.063 277 148.812 277.062-148.812-59.562 303.063 230.5 208.875z" />
<glyph unicode="&#xe99f;" glyph-name="steps" horiz-adv-x="640" d="M136 832c-75.11 0-136-100.29-136-224 0-68.83 17.020-141.84 34-254.54 13.3-88.29 45.67-161.46 102-161.46s94.080 48.79 94.080 137.97c0 30.37-24.97 78.75-26.080 120.030-2.020 74.46 49.93 104.17 49.93 173 0 123.71-42.83 209-117.93 209zM502.97 576c-75.1 0-117.93-85.29-117.93-209 0-68.83 51.95-98.54 49.93-173-1.109-41.28-26.080-89.66-26.080-120.030 0-89.18 37.75-137.97 94.080-137.97s88.7 73.17 102 161.46c16.98 112.7 34 185.71 34 254.54 0 123.71-60.89 224-136 224z" />
<glyph unicode="&#xe9a0;" glyph-name="stop" d="M704 896h-384l-320-320v-384l320-320h384l320 320v384l-320 320zM896 256l-256-256h-256l-256 256v256l256 256h256l256-256v-256zM448 320h128v320h-128v-320zM448 128h128v128h-128v-128z" />
<glyph unicode="&#xe9a1;" glyph-name="sync" horiz-adv-x="768" d="M655.461 422.531c11.875-81.719-13.062-167.781-76.812-230.594-94.188-92.938-239.5-104.375-346.375-34.562l74.875 73-275.189 38.375 38.407-268.75 84.031 80.5c150.907-111.25 364.938-100.75 502.063 34.562 79.5 78.438 115.75 182.562 111.25 285.312l-112.25 22.157zM189.46 575.938c94.156 92.938 239.438 104.438 346.313 34.562l-75-72.969 275.188-38.406-38.375 268.875-83.938-80.688c-150.937 111.344-364.906 100.719-502.063-34.562-79.5-78.406-115.718-182.531-111.25-285.25l112.25-22.125c-11.875 81.75 13.125 167.719 76.875 230.563z" />
<glyph unicode="&#xe9a2;" glyph-name="tag" horiz-adv-x="896" d="M384 832h-256l-128-128v-256l512-512 384 384-512 512zM64 480v192l96 96h192l448-448-288-288-448 448zM448 576l-192-192 256-256 192 192-256 256zM352 384l96 96 160-160-96-96-160 160zM320 608c0 53-43 96-96 96s-96-43-96-96 43-96 96-96 96 43 96 96zM224 576c-17.656 0-32 14.344-32 32s14.344 32 32 32 32-14.344 32-32-14.344-32-32-32z" />
<glyph unicode="&#xe9a3;" glyph-name="telescope" horiz-adv-x="929" d="M76 473c32 8 229 59 229 59-1-6-2-19-2-19 0-71 49-128 128-128s128 59 128 128c0 11-8 22-19 32l49-3s7 2 31 8c-51-14-108 31-126 99s8 135 60 149c-24-6-31-8-31-8l-168-110c-34-9-55-46-46-80 2-9 7-17 12-23-7-12-12-26-15-40-27 1-51 19-59 46-9 34 11 69 45 78l-245-65c-34-9-54-43-45-77s41-54 73-46zM495 320h-128v-64l-320-320h128l192 128v-128h128v128l192-128h128l-320 320v64zM924 768c-18 68-70 110-122 96-69-18-98-28-186-51-51-14-79-80-61-148s74-115 125-102c87 23 117 33 186 51 51 14 76 85 58 154zM854 678c-17-5-42 17-51 51s-4 66 13 70 42-17 51-51 4-66-13-70z" />
<glyph unicode="&#xe9a4;" glyph-name="terminal" horiz-adv-x="896" d="M831 769h-768c-35.35 0-64-28.65-64-64v-640c0-35.35 28.65-64 64-64h768c35.35 0 64 28.65 64 64v640c0 35.35-28.65 64-64 64zM127 321l128 128-128 128 64 64 192-192-192-192-64 64zM639 257h-256v64h256v-64z" />
<glyph unicode="&#xe9a5;" glyph-name="three-bars" horiz-adv-x="768" d="M0 704v-128h768v128h-768zM0 320h768v128h-768v-128zM0 64h768v128h-768v-128z" />
<glyph unicode="&#xe9a6;" glyph-name="tools" d="M286.547 430.984c16.843-16.812 81.716-85.279 81.716-85.279l35.968 37.093-56.373 58.248 108.214 114.934c0 0-48.842 47.623-27.468 28.655 20.438 75.903 1.812 160.589-55.842 220.243-57.154 59.186-138.37 78.592-211.337 58.218l123.653-127.715-32.53-125.309-121.060-33.438-123.59 127.748c-19.718-75.436-0.969-159.339 56.311-218.556 60.093-62.123 146.621-80.373 222.338-54.842zM698.815 306.769l-149.121-147.308 245.932-254.805c20.062-20.812 46.498-31.188 72.872-31.188 26.25 0 52.624 10.375 72.811 31.188 40.249 41.624 40.249 108.997 0 150.62l-242.494 251.493zM1023.681 734.162l-156.621 161.839-461.673-477.298 56.373-58.248-276.335-285.616-63.154-33.749-89.217-145.559 22.719-23.562 140.839 92.247 32.655 65.312 276.336 285.554 56.404-58.248 461.674 477.328z" />
<glyph unicode="&#xe9a7;" glyph-name="trashcan" horiz-adv-x="768" d="M704 768h-256c0 0 0 24.057 0 32 0 17.673-14.327 32-32 32s-32-14.327-32-32c0-17.673 0-32 0-32h-256c-35.346 0-64-28.654-64-64v-64c0-35.346 28.654-64 64-64v-576c0-35.346 28.654-64 64-64h448c35.346 0 64 28.654 64 64v576c35.346 0 64 28.654 64 64v64c0 35.346-28.654 64-64 64zM640 32c0-17.673-14.327-32-32-32h-384c-17.673 0-32 14.327-32 32v544h64v-480c0-17.673 14.327-32 32-32s32 14.327 32 32l0.387 480h63.613v-480c0-17.673 14.327-32 32-32s32 14.327 32 32l0.387 480h64l-0.387-480c0-17.673 14.327-32 32-32s32 14.327 32 32v480h64v-544zM704 656c0-8.837-7.163-16-16-16h-544c-8.837 0-16 7.163-16 16v32c0 8.837 7.163 16 16 16h544c8.837 0 16-7.163 16-16v-32z" />
<glyph unicode="&#xe9a8;" glyph-name="triangle-down" horiz-adv-x="767" d="M0 512l383.75-383.75 383.75 383.75h-767.5z" />
<glyph unicode="&#xe9a9;" glyph-name="triangle-left" horiz-adv-x="383" d="M0 384.125l383.75-383.75v767.5l-383.75-383.75z" />
<glyph unicode="&#xe9aa;" glyph-name="triangle-right" horiz-adv-x="383" d="M0.062 767.75l383.75-383.75-383.75-383.75v767.5z" />
<glyph unicode="&#xe9ab;" glyph-name="triangle-up" horiz-adv-x="767" d="M383.75 640l-383.75-383.75h767.5l-383.75 383.75z" />
<glyph unicode="&#xe9ac;" glyph-name="unfold" horiz-adv-x="896" d="M384 512h128v192h128l-192 192-192-192h128v-192zM576 640v-64h224l-128-128h-448l-128 128h224v64h-320v-63.999l160-160.001-160-160v-64h320v64h-224l128 128h448l128-128h-224v-64h320v64l-160 160 160 160.001v63.999h-320zM512 320h-128v-192h-128l192-192 192 192h-128v192z" />
<glyph unicode="&#xe9ad;" glyph-name="unmute" horiz-adv-x="896" d="M128 512h-128v-256h128l256-192h64v640h-64l-256-192zM538.51 474.51c-12.496 12.497-32.758 12.497-45.255 0-12.496-12.496-12.496-32.758 0-45.255 24.994-24.993 24.994-65.516 0-90.51-12.496-12.496-12.496-32.758 0-45.255 12.497-12.496 32.759-12.496 45.255 0 49.987 49.989 49.987 131.033 0 181.020zM629.020 565.019c-12.495 12.497-32.758 12.497-45.255 0-12.495-12.496-12.495-32.758 0-45.255 74.981-74.98 74.981-196.548 0-271.528-12.495-12.497-12.495-32.76 0-45.256 12.497-12.496 32.76-12.496 45.255 0 99.974 99.974 99.974 262.065 0 362.039zM719.529 655.529c-12.497 12.497-32.76 12.497-45.255 0s-12.496-32.758 0-45.255c124.968-124.968 124.968-327.58 0-452.548-12.496-12.497-12.496-32.759 0-45.255s32.758-12.497 45.255 0c149.961 149.962 149.961 393.097 0 543.058z" />
<glyph unicode="&#xe9ae;" glyph-name="versions" horiz-adv-x="896" d="M0 192h128v64h-64v256h64v64h-128v-384zM384 704v-640h512v640h-512zM768 192h-256v384h256v-384zM192 128h128v64h-64v384h64v64h-128v-512z" />
<glyph unicode="&#xe9af;" glyph-name="x" horiz-adv-x="640" d="M640 576l-128 128-192-192-192 192-128-128 192-192-192-192 128-128 192 192 192-192 128 128-192 192 192 192z" />
<glyph unicode="&#xe9b0;" glyph-name="zap" horiz-adv-x="640" d="M640 448h-256l192 448-576-576h256l-192-448 576 576z" />
</font>
</defs>
</svg>
