<?xml version="1.0" standalone="no"?>
<!DOCTYPE svg PUBLIC "-//W3C//DTD SVG 1.1//EN" "http://www.w3.org/Graphics/SVG/1.1/DTD/svg11.dtd" >
<!--
2013-9-30: Created.
-->
<svg>
<metadata>
Created by iconfont
</metadata>
<defs>

<font id="iconfont" horiz-adv-x="1024" >
  <font-face
    font-family="iconfont"
    font-weight="500"
    font-stretch="normal"
    units-per-em="1024"
    ascent="896"
    descent="-128"
  />
    <missing-glyph />
    
    <glyph glyph-name="ios-alert-outline" unicode="&#59575;" d="M512 800C282.2 800 96 613.8 96 384s186.2-416 416-416 416 186.2 416 416S741.8 800 512 800z m0-797.4c-210.2 0-381.4 171-381.4 381.4 0 210.2 171 381.4 381.4 381.4 210.2 0 381.4-171 381.4-381.4 0-210.2-171.2-381.4-381.4-381.4zM512 229.8c-17.6 0-32-14.4-32-32s14.4-32 32-32 32 14.4 32 32-14.4 32-32 32z m-23.6 199.8V608h48v-178.4l-12-141.6h-24l-12 141.6z"  horiz-adv-x="1024" />

    
    <glyph glyph-name="rabbit" unicode="&#58880;" d="M459.629563 201.03339100000005c-26.185134 1.755428-50.761125-20.735993-56.246837-52.516553-5.814855-33.718845 12.068567-65.133691 39.972557-70.180546 27.90399-5.010284 55.222837 18.249136 61.074264 51.93141a71.423974 71.423974 0 0 1-2.633142 35.364559 315.501602 315.501602 0 0 1 62.134835 4.754284c146.249091 25.819419 247.076483 147.382805 225.170206 271.615903-13.055995 73.947402-66.66969 132.132524-138.788522 161.682228l-30.354275 171.849081a63.999977 63.999977 0 0 1-126.025098-22.23542l22.783992-129.097097a319.378172 319.378172 0 0 1-52.553124-8.301711l-21.577135 122.514242a63.999977 63.999977 0 0 1-87.259398 48.164554l104.301677-585.508363zM987.428232 381.87904100000003c0-243.858199-570.696939-602.843213-782.482006-487.716397-38.399986 20.845707-70.655975 61.951978-96.292537 116.041101-101.083392 213.028495-100.132536 627.492347 30.171417 800.182571C148.114246 822.63774 174.811379 859.977156 213.284508 877.860578 254.756494 897.097142 308.735903 896.548571 333.71418 895.634286 597.394085 886.125718 987.428232 588.03211 987.428232 381.80589799999996z m-509.805532-403.016999c23.149706-4.315427 45.787412 15.542852 50.578267 44.324555 4.790855 28.781704-10.057139 55.588552-33.170274 59.903979-23.113135 4.315427-45.714269-15.542852-50.541696-44.324556-4.827427-28.781704 10.020568-55.588552 33.170274-59.903978z m177.883365 508.854675c19.675422 0 35.620559-14.189709 35.620558-31.707417s-15.945137-31.707417-35.620558-31.707417-35.620559 14.189709-35.620559 31.707417 15.945137 31.707417 35.620559 31.707417z m-146.870805 0c19.63885 0 35.583987-14.189709 35.583987-31.707417s-15.945137-31.707417-35.583987-31.707417c-19.675422 0-35.620559 14.189709-35.620559 31.707417s15.945137 31.707417 35.620559 31.707417z"  horiz-adv-x="1024" />

    
    <glyph glyph-name="403" unicode="&#59574;" d="M983.58745518 632.79288374m-699.89359443 0a699.8935944 699.8935944 0 1 1 1399.78719071 0 699.8935944 699.8935944 0 1 1-1399.78719071 0ZM1633.88229191 1089.32190432a59.9042778 55.10973157000001 90 1 1 110.21946503 0 59.9042778 55.10973157000001 90 1 1-110.21946503 0ZM972.56550923 1057.13782031h148.79627676a27.55486577 27.55486577 0 1 0 0-55.1097316h-148.79627676a27.55486577 27.55486577 0 1 0 0 55.1097316zM1080.02948731 1013.0500346599999h181.86211459a24.79937887 24.79937887 0 0 0 24.79937878-24.79937884 24.74426884 24.74426884 0 0 0-24.79937878-24.79937883h-181.86211459a24.74426884 24.74426884 0 0 0-24.79937882 24.79937883 24.79937887 24.79937887 0 0 0 24.79937882 24.79937884zM217.06619545 1136.05495699H934.53979528a21.49279601 21.49279601 0 0 0 21.49279408-21.54790597v-337.21644894a21.43768605 21.43768605 0 0 0-21.49279408-21.492796H217.06619545a21.49279601 21.49279601 0 0 0-21.54790597 21.492796V1114.50705102a21.54790597 21.54790597 0 0 0 21.54790597 21.54790597zM316.75970046 1015.08909585m14.32853067 0l86.24673 0q14.32853067 0 14.32853068-14.32853067l0-86.24673194q0-14.32853067-14.32853068-14.32852876l-86.24673 0q-14.32853067 0-14.32853067 14.32852876l0 86.24673194q0 14.32853067 14.32853067 14.32853067ZM1462.32569749 90.12735498999996c-21.49279601 113.58115787-26.28734224 149.0718247-33.78226549 177.06756835-308.89004741 7.93580107-394.97144944 9.47887446-394.97144942 9.47887444s-11.46282378-82.66459734-28.27129157-202.41804681a37.97060591 37.97060591 0 0 1 14.9898465-35.9866547c27.16909792-19.83950267 90.21463057-50.75606318 219.77761045-50.75606315a352.70228512 352.70228512 0 0 1 207.43303106 64.58860604 38.2461538 38.2461538 0 0 1 14.82451847 38.02571583M1412.67182796 267.19492333999995l-2.700377 58.36120631-377.88742988 15.98182208-4.90476621-58.03054843s199.44212-18.57197914 385.76812293-16.53291985M741.10463509 443.8216138c71.64265142-63.70685036 138.93163446 15.4307243 138.93163442 15.43072431s49.26809974 51.8582568 106.91288035 116.61219277c45.02465126 50.5356233 79.7437824 89.22265684 105.48002686 124.32755584 27.55486577 37.86038596 25.95668433 90.1595206-6.94382547 119.42278964-49.98452742 44.47355351-97.59933578 32.51474194-130.16918766-0.93686563-31.74320621-32.51474194-73.18572481-77.75983119-107.35375815-114.35269359C782.43693379 633.67464134 740.55353922 581.59594466 740.55353922 581.59594466s-69.49337221-75.44522207 0.55109587-137.77433086zM474.75930186 892.24950341s38.57681172-80.4050982 80.5704281-80.23977019c37.97060591 0 44.08778564 48.60678396 44.08778563 48.60678392a342.78253279 342.78253279 0 0 1-9.86464231 80.07444031c-6.88871741 27.22420787-12.28946947 81.01130594-27.22420787 81.2317439-19.39862484 0.27554794-4.90476619-53.78709806-16.147152-62.38421684-22.76031954-17.35956559-55.10973157 64.47838608-67.23387306 75.11456607-24.08295303 20.77636831-51.52759891-46.34728479-4.40877838-142.40354717M456.90374848 1023.13511492c2.97592493 1.59818144 5.51097393-1.26752353 10.4157382-9.86464041l0.66131772-1.21241546a696.25635365 696.25635365 0 0 0 29.86947491-72.63462514 2.70037699 2.70037699 0 0 0-1.59818338-3.52702461 2.75548697 2.75548697 0 0 0-3.52702268 1.65329332l-1.59818147 4.29855845a652.77477388 652.77477388 0 0 1-27.55486577 67.17876309l-0.88175565 1.70840135a41.6078485 41.6078485 0 0 1-4.35366844 6.8887174l-0.33065977 0.3306579a3.69235262 3.69235262 0 0 0-0.99197371 0.38576787 2.75548697 2.75548697 0 0 0-0.44087786 3.85768253 2.86570689 2.86570689 0 0 0 0.3306579 0.93686371zM863.88911756 569.0860353s56.87324292-88.61644913-15.65116228-138.5458666c-74.78390626-51.47248893-133.25533253 31.02677852-133.25533253 31.02677853s-39.67900726 59.02252213-88.94710703 131.60204112c-30.08991287 44.08778564-62.27399692 93.68654331-80.5153181 133.25533062-19.78439462 42.59982221-1.10219555 61.06158333 35.16000894 85.97118211 43.04070006 29.64903504 63.81707029 37.52972803 95.50516461 3.19636478 30.2001328-32.79028987 64.80904399-81.83795165 93.35588539-118.59614396 54.3933058-70.154688 94.34786099-127.90968851 94.347861-127.9096866M520.169721 819.44954646l83.87701095 57.69988863 45.02465126-52.46446456-95.89093248-66.07656752zM1166.55176529 984.9991810500001h111.87275645v-123.44580015h-111.87275645zM1161.86743896 956.83810752l115.01400937-6.50294762 7.10915729-23.09097745-130.05896772-21.27235611zM1215.93008494 930.05477938c45.74107706-4.02301051 105.48002687 26.78333004 113.52604789 120.58009328 8.04602099 93.79676323 20.72125836 125.98084726-99.19751722 136.45169544-109.55814735 9.58909249-105.86579474-44.08778564-109.88880522-108.45595182-0.38576787-6.17228972-0.82664572-12.50990937-1.3777435-18.90263895-1.98395123-22.42966163 5.95185175-46.78816263 13.83254286-64.53349604 17.69022347-40.11988512 51.36227091-62.38421685 83.10547519-65.13970191zM1316.67067555 1290.36220576a127.68924863 127.68924863 0 0 0-4.1883404-24.35850099 25.46069653 25.46069653 0 0 0-8.32156896-11.35260573c2.09416924-3.19636479 7.7153631-4.35366842 16.9737977-3.47191273a49.59875957 49.59875957 0 0 1 22.92564946 7.21937529 50.9213931 50.9213931 0 0 0-9.86464234-22.98075941c15.54094425-11.02194592 25.6811345-22.53987967 29.04282731-31.90853419 8.10113099-22.70520956 15.65116418-82.66459734 6.99893731-120.24943538 0-0.66131771-0.38576787-1.8186213-0.6613177-3.1963629-1.8186213-9.2033246-5.84163184-30.4205727-10.08508028-23.36652728-4.8496562 8.10113099-17.35956559-47.72502828-19.56395474-53.29111026-4.8496562-12.12414149-14.82451847-17.6351135-29.92458489-16.53291983 15.21028635 38.86889475 22.19268858 60.7474567 20.94169824 65.63568969-1.87373127 7.32959521-16.09204203-0.49598779-25.84646441 19.94972452-6.54152442 13.59557171-9.9197523 37.80527598-10.14019027 72.63462512a430.18656645 430.18656645 0 0 0-75.88610179-10.41573817 345.97889762 345.97889762 0 0 0-89.99419071 10.41573817c-2.97592493-21.54790597-5.01498612-36.81330037-6.0069617-45.85129697-3.08614485-27.99574364-4.07812048-49.1578817-5.51097392-52.46446456-2.31460914-5.51097393-24.63405085 31.68809622-22.98075752 80.57042812 1.37774349 40.89142084 9.14821466 88.83688706 41.16697067 111.48698859A175.24894703 175.24894703 0 0 0 1204.02638334 1266.00370477a89.60842471 89.60842471 0 0 0 21.10702813 1.92883936h8.43178888a245.07297711 245.07297711 0 0 1 46.29217484 8.87266671c11.9037016 3.89625739 24.17663981 8.41525569 36.81330036 13.55699492zM1251.87859376 1045.23645251a15.10006642 9.2033246 83.00000000000001 1 1 3.68046992 29.97502527 15.10006642 9.2033246 83.00000000000001 1 1-3.68046992-29.97502527ZM1154.99535007 1058.02904285a9.2033246 15.10006642 2.000000000000014 1 1 18.39543773 0.64238393 9.2033246 15.10006642 2.000000000000014 1 1-18.39543773-0.64238393ZM1309.06553239 1008.97191419c-13.2814451 3.08614485-19.83950267 36.4275325-16.53291989 49.59875955 3.30658471 13.17122515 38.1359339 27.94063364 51.36227093 24.90959876 13.22633513-3.03103489 18.84752897-19.45373482 15.76138414-33.0658397s-37.36439813-44.47355351-50.59073518-41.44251861zM1148.14511603 1094.44710848c11.68326365 9.09310658 23.69718517 6.55805758 34.99467906-6.77849745 1.62573737-2.09416924 1.62573737-5.01498612 0-7.10915539a3.63724261 3.63724261 0 0 0-5.84163182 0c-8.76244678 10.36063013-16.53291985 12.01392157-24.79937882 5.5109739a3.69235262 3.69235262 0 0 0-5.51097392 1.43285345 5.51097393 5.51097393 0 0 0 1.1573055 6.94382549zM1243.70539064 1090.86497581c11.62815366 13.00589715 24.46872092 11.51793374 35.98665464-3.63724265a5.51097393 5.51097393 0 0 0-0.55109779-6.99893541 4.18834041 4.18834041 0 0 0-6.3376177 0.49598778c-8.37667891 11.02194592-15.10006642 11.79348357-22.76031956 3.19636481a4.24344847 4.24344847 0 0 0-6.39272959 0 5.51097393 5.51097393 0 0 0 0.05511 6.94382547zM1317.38710132 908.50687342l12.06903151-43.15091999s95.56027457-22.48476973 142.95464497-45.68596708c51.03161109-25.0198187 12.62012929-361.96071969-8.15624097-464.29949173 21.10702813-106.63733045-42.8202621-108.51106177-42.82026017-108.51106178l-385.32724699 1.76351136s-75.00434421 8.10113099-38.57681171 90.3248505c2.47993712 70.32001792-41.00164078 436.02819825-15.10006639 492.51567331 15.10006642 33.06583969 139.26229235 36.04176464 139.26229231 36.04176464l8.87266672 39.23812944a2.14927922 2.14927922 0 0 0 1.92884124 1.81862129c10.0850803 1.10219555 63.70685036-2.14927922 182.74387027 1.76351137a2.20438915 2.20438915 0 0 0 2.14927921-1.98395123M1212.8439401 367.93551391999995l-297.59255165 0.4959859a19.06796694 19.06796694 0 0 0-18.24132123 13.39166501L796.21436666 700.24719667a19.17818687 19.17818687 0 0 0 18.2964312 24.96470873l297.59255352-0.49598781a19.17818687 19.17818687 0 0 0 18.24132128-13.39166501l100.85080861-318.42402995a19.17818687 19.17818687 0 0 0-18.2964312-24.96470871M1192.23290168 367.99062199l-297.59255353 0.49598778a19.06796694 19.06796694 0 0 0-18.24132124 13.33655506l-100.90591861 318.42403184a19.17818687 19.17818687 0 0 0 18.29643119 24.96470873l297.59255165-0.44087783a19.17818687 19.17818687 0 0 0 18.24132126-13.39166504l100.90592048-318.42403182a19.17818687 19.17818687 0 0 0-18.2964312-24.96470872M1379.22022231 363.36140562s24.5238309-111.37676865 120.52498328-95.50516647c97.8748837 16.14715198 71.09155365 176.35114256 61.28202128 298.80496709-5.51097393 69.87914006-22.04389187 130.27940567-33.56182749 173.81609548-12.39968941 47.00860059-60.62070549 99.52817511-105.81068478 92.08836184-68.33606669-11.29749577-98.48109143-79.96422036-92.80478761-128.01990846 5.51097393-46.73305265 14.43875059-123.55601822 21.71323399-174.91828909 13.94276281-98.75663938 28.65706132-166.26606036 28.65706133-166.26606039M959.22895417 333.98791854s90.3248505-19.17818687 116.66730271 15.32050434c23.86251316 31.19210844-11.79348357 67.06854316-11.79348168 67.0685451a357.66215936 357.66215936 0 0 1-71.64265142 42.48960226c-26.72822006 11.57304371-74.23280849 41.11186071-83.82190287 29.04282921-12.50990937-15.76138412 41.00164078-38.02571584 40.94653081-52.6849044 0-29.64903504-88.17557127-3.41680277-104.70849113-6.83360554-32.29430207-6.61316755 5.84163184-72.30396914 114.40780354-94.40297097M1464.47497673 452.96983037s108.56617172-9.42376451 103.66140553-100.46504265c-5.07009607-93.68654331-109.66836729-89.60842471-109.66836728-89.60842282s-73.46127273 4.5741083-164.11678113 10.08508027c-55.10973157 3.36169278-116.33664479 8.32156896-160.14888062 18.24132125-47.39437037 11.02194592-50.70095319 37.69505604-48.27612413 83.21569515 2.92081498 54.00753793 9.64420243 76.05142979 57.81010855 80.29488014 45.96151691 4.02301051 108.01507395 1.37774349 156.23609005 1.48796151 91.92303195 0.27554794 164.502549-3.47191275 164.50254903-3.47191271M1047.62496532 325.1703618l5.67630192 105.20447702 71.53243148 3.74746258-6.55805759-120.35965532zM821.28929534 364.73914913c-0.42434467-180.10962598-146.70210561-325.81424556-326.81724201-325.53318721-180.11513639 0.28657067-325.93548823 146.44860128-325.79220387 326.56373962 0.14328441 180.10962598 146.18958653 326.04570627 326.30472294 326.04570627 180.4072175-0.21492754 326.48658414-146.61393117 326.30472294-327.02114873M145.91953184 23.22413984000002h690.8004878V715.457483H145.91953184zM583.21525363 410.14956828h-23.1460874v23.14608742c0 37.49666166-30.39852718 67.89518885-67.89518884 67.89518883s-67.89518885-30.39852718-67.89519075-67.89518883v-23.14608742h-23.14608745a30.86145053 30.86145053 0 0 1-30.86144859-30.86145051V261.95949925a30.86145053 30.86145053 0 0 1 30.86144859-30.86145054h181.86211648A30.86145053 30.86145053 0 0 1 614.3522521 261.95949925V379.28811777a30.80634055 30.80634055 0 0 1-31.13699847 30.86145051z m-137.33345106 23.14608742a46.29217484 46.29217484 0 0 0 92.58434961 0v-23.14608742h-92.58434961v23.14608742zM592.30836023 261.95949925a9.25843458 9.25843458 0 0 0-9.25843652-9.25843459h-181.86211452A9.31354454 9.31354454 0 0 0 391.87426461 261.95949925V379.28811777A9.26394501 9.26394501 0 0 0 401.13269919 388.71188223h181.86211648A9.25843458 9.25843458 0 0 0 592.30836023 379.28811777V261.95949925zM492.17397739 354.59895887000005a11.02194592 11.02194592 0 0 1-11.02194786-11.02194784v-52.46446453a11.02194592 11.02194592 0 0 1 21.60301594 0v52.46446453a11.02194592 11.02194592 0 0 1-11.02194592 11.02194784h0.44087784zM1352.82266012 92.99305996999999h43.70201776v43.81223774H1352.82266012zM1474.50494703 201.33879376000004h-64.80904401v222.09221958a32.0738641 32.0738641 0 0 0 32.23919402 32.01875415h0.33065789a32.12897407 32.12897407 0 0 0 32.2391921-32.01875415V201.33879376000004zM1506.74414103 162.76198203h-65.02948386v115.73043707a31.35743833 31.35743833 0 0 0 31.52276631 31.19210651h1.98395123a31.35743833 31.35743833 0 0 0 31.52276632-31.19210651v-115.73043707zM1418.95433762 201.33879376000004h-65.19481185v126.31150515a31.46765635 31.46765635 0 0 0 31.57787628 31.35743833h2.20438919a31.5227663 31.5227663 0 0 0 31.63298627-31.35743833L1418.95433762 201.33879376000004zM1510.60182162 17.382508020000046h-170.23396088a12.12414149 12.12414149 0 0 0-12.17925145 12.06903155V196.93001539a12.0690315 12.0690315 0 0 0 12.17925145 12.01392152h170.23396088a12.0690315 12.0690315 0 0 0 12.17925147-12.01392152v-167.47847582a12.12414149 12.12414149 0 0 0-12.17925147-12.06903155"  horiz-adv-x="2023" />

    
    <glyph glyph-name="500" unicode="&#59580;" d="M513.3455565 557.06799787s-141.00911104-250.84479943-423.04428032-751.88194987h724.75454805l92.87205888 656.28571307c18.9887579 52.88212366-35.25333675 99.65920483-164.06083698 140.33971655-204.07619129 65.76583907-230.51725369-44.74347975-230.51725254-44.74347975zM1119.46061485-118.87586644999999h81.3525504v10.85011399H1119.46485193v-10.84587691zM21.81973107-189.37830400000007H103.17228261v10.84587805H21.81973107v-10.84587805zM1119.46061485-118.18952590000004h10.84163982v59.66079772h-10.84587691v-59.66079772zM21.81973107-188.70043648h10.84587692v59.66079773h-10.8458769v-59.66079773zM572.33272265-163.61934507c-0.02542023-12.35413219 38.21053269-22.37385842 85.38586226-22.3780955 47.17956551-0.00847303 85.45364765 10.00701611 85.46212068 22.3611483v0.0169472c0.02542023 12.35836814-38.19782258 22.37809437-85.38586112 22.38233032-47.17956551 0.00423709-85.43670158-10.00701611-85.46212182-22.36114717v-0.02118315zM-198.52103905-147.3462931900001c15.59518435 217.62506411 92.20266439 309.8277285 228.47517809 277.29009778 28.47466382 84.74612395 65.08797155 265.76635335 158.64637099 265.76635335 93.56263538 0 206.7791872-242.03676103 280.67943424-224.40797412 73.90448413 17.62454983 107.79784989 216.27780323 235.94019157 148.4783616 85.41975438-44.7477157 132.19683555-71.1887781 140.33548061-78.64531854 44.7477157 75.92961251 94.91837042 103.05277838 149.1604662 82.03465501 62.3637925-26.44529835 94.23202987-105.76848441 113.89865529-145.76265558 19.65815239-40.00264533 53.5557541-133.56528071 115.25015325-106.45058788 61.69439915 27.1316389 132.20107264 46.78555421 172.88158435-42.70987718 27.12316587-59.65656064 36.61330773-115.25015325 29.16100437-168.136514-221.02711069 83.39462599-498.99507598 119.32159431-835.26810282 109.15782088C253.68848272-41.58204587-9.36640169-80.90258659000006-198.52103905-147.3462931900001M1124.88355273-13.103144960000009c18.30241735 0 33.90183879-14.91308089 33.90183993-33.21973533 0-18.30241735-14.91731797-33.23244544-33.22397241-33.23244544-18.30241735 0-33.21549824 14.92579101-33.21549824 33.23244544-0.67786752 18.30241735 14.23521337 33.21549824 32.53763072 33.21549824m-1095.60304412-21.01388629c27.11469283 0 49.48431417-22.37385842 49.48431416-49.49702428s-22.3611483-49.4927872-49.48431416-49.4927872c-27.11469283 0-49.48855011 22.37809437-49.48855126 49.4927872 0 27.80103339 21.6959909 49.49702429 49.49702428 49.49702428M640.1279272-149.3841316999999l3.39357355-15.59094841s3.38933646-7.45654045-8.13440796-6.77867292h-49.49702314s-2.71146894 10.84587691 14.23521336 11.52798037c0 0 18.30241735-0.68210347 19.66662542 14.23521337l20.33601877-3.38933646z m78.65379157 1.36420807l8.80380246-16.27728896s4.7450715-7.45654045-4.74083442-7.45654044h-37.97327986s-6.10080541 2.03360142-1.35573504 7.45654044l16.27728896 17.62454984 18.98028488-1.34726088h0.00847302zM648.26233517 21.468087179999998c11.53221746-23.72959232 22.37385842-48.13705216 27.12316586-73.90024704 2.03360142-13.55734585 2.71146894-27.12316587 5.43141206-39.99417116 4.05449387-18.98452195 12.87524238-36.61330773 15.5909484-56.27993316 14.91308089-5.41870194 28.47042674-0.67786752 28.47042674-0.67786752-7.45654045 21.01388629-8.13440797 43.39198179-12.8879525 65.08797156-1.34302493 7.46501347-3.38086343 14.23521337-4.74507036 21.01388743-10.16800939 46.10768782-7.45654045 99.66344192-23.0432529 144.41115762l-5.42293789 4.06720398-71.1887781-2.03360256c-0.67363043 0.68210347-1.36420807 0-1.36420807-0.67786752-2.03360142-16.94668231-1.35573504-34.57123328-1.3557339-51.52215268 0.67786752-61.02076871 1.35573504-122.71940381 13.55734586-183.05383082 9.49861603-0.68210347 23.068672 1.35573504 23.068672 1.35573504 7.44383033 37.96056974-4.75778162 77.28534755-2.71994312 115.93225671 0.67786752 18.9887579 5.42717497 37.96480569 9.490143 56.27146012M605.55669506 77.06168092999997c3.38933646-4.7450715 8.13440797-6.77867293 13.55734585-8.81227549 5.42293902-2.03360142 11.52374443-2.71570603 16.9509194-3.38933646 3.38933646-0.67786752 6.10080541-1.35573504 8.81651142-3.39780949 3.38933646-2.03360142 5.42293902-6.10080541 6.77443698-9.49014301 1.35997099-4.05873095 2.03360142-7.45654045 4.06720398-11.52374443a27.94507947 27.94507947 0 0 1 12.87947834-13.55734584c3.39780949-2.03783851 7.45654045-2.71146894 10.85435107-5.42293903 6.77019989-4.7450715 9.49014187-14.23521337 10.84587691-22.36962133 2.03360142-8.13864391 4.7450715-17.62878691 11.52374442-21.70022684l-3.38933646 29.14829425s-5.43141205 51.53062571-12.20161194 81.36102457l-80.00105359-4.06720398-0.67786638-6.77443698v-0.00423594zM639.45006082-77.51748722000002c-3.38933646 9.49437895-6.77867293 19.65815239-6.77867405 30.50826639 0 5.43141205 0.67786752 10.16800939 1.35573504 15.59942144 0 5.41870194 0 10.84163982-0.67786752 16.26881592-0.66939449 4.7450715-2.03360142 9.48590592-2.03360144 14.91308089 0 4.7450715 2.03360142 9.49014187 3.39357242 14.91308089 2.03360142 12.87947947-3.38933646 27.12316587 0.67786752 39.99840711 3.39357355-10.16800939 8.81227549-23.04748885 12.87947946-32.53763072l-2.71146894-11.52798037s-7.45654045-33.21549824-6.77867406-51.52215268l0.67786752-36.61330887zM560.13534779 191.64667677s-10.85434994 4.74083442-16.95515648-8.142881l21.01812338-14.23521337-4.06720285 22.37809437zM549.90378783 179.11460408999994c-2.71146894 4.06720398-5.43141205 8.13440797-9.49437896 10.16801052a20.27670642 20.27670642 0 0 1-5.42293788 2.71146894c-2.03360142 1.35573504-3.38933646 2.71146894-4.06720398 4.74507151-0.67786752 2.03360142-0.67786752 4.06720398-1.35573504 6.1008054-0.67786752 1.35573504-2.03360142 2.71146894-2.03360142 4.07144107v0.66939335c0.66939449 0.67363043 2.03360142 0.67363043 2.71146894 0 2.03360142-1.35573504 2.71146894-2.71146894 4.7450715-4.74083442 1.35573504-1.35573504 2.71146894-2.03360142 4.06720398-2.71146894 1.35573504-0.67786752 2.71146894-1.35573504 4.06720398-1.35573504 0.67363043 0 0.67363043 0 1.3557339 0.66939449 0.67363043 0.68210347 0.67363043 1.36844515 0.67363044 2.04631154 0 0.66939449-0.67363043 1.35573504-0.67363044 2.03360256-0.67786752 1.35149795-0.67786752 2.70723299-0.67786752 4.06720284v0.66939449h0.67363158c1.35997099 0 2.71994311-1.34726087 4.07567701-2.71146894 2.03360142-2.70723299 4.7450715-4.73659733 6.77443584-7.45654045 0.67786752-0.67363043 1.35573504-1.35149795 1.35573504-2.03360256 0.67786752-1.34726087 0.67786752-2.71146894 0.67786752-4.74507036 0-2.70723299 0-6.10080541 2.04207445-8.13440796 0 0-4.07144107-6.10080541-4.74507036-6.10080655-0.67786752 0-4.74930745 2.03360142-4.74930858 2.03360256M735.72416514 191.64667677s10.84587691 4.74083442 16.94668345-8.142881l-21.01388744-14.23521337 4.06720399 22.37809437zM746.57427913 178.75872427000002c2.71146894 4.0629669 5.42293902 8.13440797 9.49437895 10.16800938 2.03360142 1.35573504 3.38933646 2.03360142 5.41870194 2.71147008 2.03783851 1.35573504 3.38933646 2.71570603 4.06720398 4.74507037 0.68634055 2.03360142 0.68634055 4.07144107 1.36420807 6.10080654 0.66939449 1.35573504 2.03360142 2.71146894 2.03360142 4.07143993v0.67786752a2.07596885 2.07596885 0 0 1-2.71146894 0c-2.03783851-1.35573504-2.71570603-2.71146894-4.76201756-4.7450715-1.33878784-1.35997099-2.70299591-2.03360142-4.05449387-2.71570603-1.35573504-0.67363043-2.71146894-1.35573504-4.06720398-1.3557339-0.67786752 0-0.67786752 0-1.35573504 0.67786752s-0.67786752 1.35997099-0.67786752 2.03360142c0 0.67786752 0.67786752 1.35573504 0.67786752 2.03360142 0.67786752 1.35573504 0.67786752 2.71146894 0.67786752 4.06720399 0 0.67786752-0.67786752 0.67786752-0.67786752 0.67786752-1.35573504 0-2.71994311-1.34302493-4.06720399-2.71146895-2.03360142-2.71146894-4.75778162-4.74083442-6.78291-7.45654044-0.67786752-0.66939449-1.35573504-1.35573504-1.3557339-2.03360256-0.67786752-1.34726087-0.67786752-2.71146894-0.67786752-4.74507037 0-2.71146894 0-6.10080541-2.03783851-8.13864504 0 0 4.06720398-6.10080541 4.75354453-6.10080541 0.66939449 0 4.74083442 2.03360142 4.74083442 2.03360142M659.11668624 215.36779605000004h-8.81227549c-33.21973533-1.35573504-42.71411427-16.27305187-42.71411427-16.27305187l-23.72959232-38.63843727-23.72959232 31.19036986c-2.71146894-17.63725995-16.94668231-8.14288099-16.94668345-8.142881l26.43682532-46.10345074c6.77867293-14.23521337 21.69175381-4.7450715 21.69175381-4.7450715l18.30665443 12.20584789-2.71146894-50.84428515c-3.38933646-7.46077753-4.7450715-10.16800939-4.7450715-10.16800939 16.95091939-10.85858702 52.88636075-10.17648355 71.1887781-6.78714595 1.35573504 0 2.71146894 0.67786752 4.07143993 1.3557339 2.03360142 0.67786752 4.06720398 2.03360142 6.10080654 2.71147008 2.03360142 1.35573504 3.38933646 4.06720398 2.03360143 6.1008054a22.72973824 22.72973824 0 0 0-2.03360143 5.42293902l-1.35997213 8.81227435c-0.67786752 18.30665443 2.03783851 37.97327986 3.38933647 50.17489181l18.98452195-18.98028488s10.84587691-13.56582002 21.70022685 4.74083442l26.43682531 46.10345074s-14.23521337-9.49014187-16.9466823 8.142881l-23.72535638-31.19460694-16.27305188 29.83039886c0.67786752-0.67786752-9.49437895 20.33601991-33.90183878 24.40745984l-2.71146895 0.67786752zM630.63778533 240.46159645c-4.05873095 4.73659733-6.10080541 10.84163982-6.1008054 16.94244636 0 2.03360142 0.67363043 4.7450715 1.36420694 6.1008054 1.34302493 2.03360142 3.38509938 3.38933646 6.10080654 3.38933646 2.03360142 0.67786752 4.74083442 0.67786752 7.44383032 0.67786752 4.07567701 0 8.8249856 0 12.89218845-0.67786752 1.35573504 0 3.38933646 0 4.7450715-0.67363043 3.38933646-0.68210347 5.42717497-3.38933646 6.10080541-6.78714595 0-0.66939449 0-2.03360142 0.67786752-2.707233 1.35573504-1.35573504 3.38933646-0.67786752 5.42293902-1.35573504s2.71146894-4.06720398 2.03360142-6.1008054c-0.67786752-5.41870194-2.02936547-11.52374443-3.38933646-16.94668232-0.67786752-1.35573504-0.67786752-3.39780949-2.03360142-4.7450715-0.67786752-1.35997099-2.03360142-2.71146894-4.06720398-2.71146894l-31.18613277 15.59094727zM662.50602271 233.67445049000003s-0.67363043-14.2436864 2.71146894-21.01388743c0 0-13.56158293-12.20161195-21.69175382 0 0 0 2.02936547 7.44806741 0 11.51950734l18.98028488 9.49014301zM629.95991781 251.97686783999995c-1.35573504-3.38933646-0.67363043-6.77019989 0-11.52374443 0.67786752-2.71570603 0.67786752-4.7450715 1.35573504-7.45654044 0.67786752-2.03360142 0.67786752-4.06720398 1.3557339-6.10080654 0.67786752-4.06720398 3.38933646-8.81651143 6.77867407-10.85011286 0.67786752-0.66939449 1.35573504-0.66939449 2.03783851-0.66939448h2.03360142c4.06720398 1.34726087 8.13440797 2.70299591 11.52374442 5.41446485 3.38933646 2.71146894 6.10080541 6.10080541 7.45654045 10.17224647 0.67786752 0 1.35573504 0 1.35573504 0.67786752 0.67786752 0.67363043 0.67786752 1.35573504 0.67786638 2.03360256 0 2.03360142 0.67786752 4.0629669 0 6.1008054 0 0.67786752 0 1.35573504-0.66939335 1.35573504-0.68634055 1.35573504-2.03783851 1.35573504-3.3978095 0.67786638a5.26618169 5.26618169 0 0 1-2.71147008-2.71146894c-2.03360142 4.06720398-2.71146894 8.13440797-2.03360142 12.20161195 0.67786752 0.67786752-12.88371541-2.71146894-25.76743196 0.67786752M676.06336855 167.23921693l10.84587691-15.59942144s-7.45654045-35.92696718-4.06720399-54.22938568c0 0-1.34726087 8.81227549-4.06720398 15.58247538 0 0-4.7450715 14.2436864-0.67786752 22.37385728-0.67363043-0.67786752 7.45654045 9.49437895-2.03360142 31.87247446M775.72681047 788.93251243c100.33707235-23.04748885 189.83250489-59.66079659 256.95407787-101.01917582-4.06720398 88.81756501-89.49543253 174.919424-210.17699669 205.42768924l9.49437894 31.8597632c8.81227549-0.66939449 17.62454983 5.435648 20.34449295 14.24368754 3.38086343 10.84587691-2.71994311 22.36962133-13.56582002 25.08532736-10.84163982 3.38933646-22.37385842-2.71146894-25.08109027-13.56582002-2.71570603-8.81227549 1.35573504-18.30241735 8.81227548-23.04748886l-10.16801052-32.5418678c-119.32583026 26.43682531-231.86875165-8.81227549-278.65006877-82.034655 71.86664562 2.71146894 155.25279858-4.7450715 242.04099698-24.40322276M1068.61209261 480.46051897c-8.13864391-8.81227549-30.5040293-0.67786752-50.17489067 18.30241735-19.65391531 18.98028487-28.47466382 40.68051171-20.33601991 49.48431417 8.13440797 8.8249856 30.50826525 0.68634055 50.17065472-18.30241849 19.66238834-18.30241735 28.47466382-40.67203869 20.34025586-49.48431303m-146.4405231 160.67573646c-4.7450715-10.84587691-28.47890091-10.84587691-53.55999118 0-24.40745984 10.84587691-40.67627577 28.47890091-35.9354402 40.0026442 4.7450715 11.52374443 28.47890091 10.85011399 53.551517 0 25.09380039-11.53221746 40.6847488-29.15253134 35.94391438-40.0026442m-12.2016108-175.58881735c-10.85011399-48.14552633-109.15782087-66.44794368-218.3114058-41.35837923-109.15358379 25.08109027-189.15463737 84.74612395-178.30452338 132.8831761 10.84163982 48.12857913 109.15358379 66.43523357 218.30293164 41.3499062 109.83145131-25.08109027 189.15463737-84.75036103 178.30876045-132.87470307M455.72259842 658.7650423499999c-25.75895779-6.77867293-49.4927872-3.38933646-52.87788658 8.13864391-3.38933646 11.52374443 15.59094841 26.43682531 41.35837923 33.89336576 25.75895779 6.77867293 49.48431417 3.39357355 52.87365064-8.13440797 3.39357355-11.52798151-15.59094841-27.11469283-41.35414329-33.8976017m236.61382201 50.85275818c-1.35997099-12.20161195-23.72959232-19.66662542-50.8485211-17.633024-27.11892878 2.03360142-47.45918578 14.23945045-46.78131826 25.76743197 1.35573504 12.20161195 23.72959232 19.65815239 50.84852224 17.62031275 27.11469283-2.03360142 47.45918578-13.5531099 46.78131712-25.7589578m340.33599488-22.36962134c-67.78673152 42.02777373-156.60853248 77.96745102-256.94560484 101.01070394-86.78396245 20.34449294-170.17011541 27.80103339-242.03676103 24.40745984-126.10026723-5.41870194-217.62506411-45.41711019-233.2202496-110.50931883-23.72959232-103.05701547 150.50348999-231.19512007 389.15515165-286.11084629 238.64318749-54.91572622 451.53165426-16.26034176 475.25700949 86.79243548 13.56158293 58.97869312-38.64267321 127.45176519-132.20954567 184.40532992"  horiz-adv-x="1429" />

    
    <glyph glyph-name="4042" unicode="&#61189;" d="M147.456-72.687616h169.90208l-4.358144 830.58688L147.456-72.679424zM410.886144 17.883136h136.35584a20.93056 20.93056 0 0 1 20.93056 20.93056V591.0528a20.93056 20.93056 0 0 1-20.93056 20.93056H410.886144a20.93056 20.93056 0 0 1-20.93056-20.93056v-552.239104a20.93056 20.93056 0 0 1 20.93056-20.93056M660.389888 17.883136h605.323264a19.628032 19.628032 0 0 1 19.61984 19.628032v554.84416a19.61984 19.61984 0 0 1-19.61984 19.628032H660.389888a19.628032 19.628032 0 0 1-19.628032-19.628032v-554.84416a19.628032 19.628032 0 0 1 19.628032-19.628032M477.42976 819.724288a27.131904 27.131904 0 1 1 54.263808 0 27.131904 27.131904 0 0 1-54.255616 0M393.076736 819.724288a27.123712 27.123712 0 1 1 54.255616-0.008192 27.123712 27.123712 0 0 1-54.255616 0.008192M308.723712 819.724288a27.131904 27.131904 0 1 1 54.255616 0 27.131904 27.131904 0 0 1-54.255616 0M312.999936 684.11392h1055.244288v51.920896a21.87264 21.87264 0 0 1-21.864448 21.87264H334.864384a21.87264 21.87264 0 0 1-21.87264-21.87264v-51.920896zM1627.01312 606.339072s-13.88544-61.308928-40.46848-93.88032c-26.591232-32.571392 20.23424-78.544896 20.23424-78.544896s-5.627904-42.14784-71.729152-39.28064c-66.093056 2.875392-75.677696 51.73248-75.677696 51.73248s70.688768 31.62112 49.23392 47.890432c-21.454848 16.285696-34.381824 35.446784-23.371776 103.46496 11.01824 68.009984 59.875328 73.752576 101.310464 64.176128 41.426944-9.576448 40.46848-55.558144 40.46848-55.558144zM1758.45376 357.343232c25.444352-49.9712 108.634112-173.42464 86.605824-206.954496-22.03648-33.521664-178.077696-148.48-178.077696-148.48l14.630912 145.580032 38.313984 30.654464-22.60992 65.69984 15.908864 157.499392s30.154752-14.385152 45.228032-43.99104M1627.004928 606.33088s31.29344-12.45184 19.800064-39.264256c-11.501568-26.8288-38.060032-15.998976-38.060032-15.998976l18.259968 55.271424zM1666.981888 642.29376c-0.155648-2.8672-23.06048-113.803264-113.41824-91.267072-90.35776 22.544384-84.795392 209.379328 32.710656 182.632448 37.085184-8.43776 84.385792-22.528 80.707584-91.357184M1523.54816 605.372416s68.968448-28.737536 49.815552-45.981696c-19.161088-17.24416-59.392 24.90368-124.534784 0l-176.259072-80.470016 138.412032-18.137088-52.379648-145.178624s-329.342976 100.098048-268.034048 170.983424c61.300736 70.885376 457.498624 260.01408 469.385216 241.688576 11.395072-17.580032-58.130432-72.237056-63.709184-62.554112-9.09312 15.802368 91.488256 61.333504 98.189312 43.106304 7.995392-21.725184-75.292672-81.96096-83.320832-68.091904-8.634368 14.925824 83.320832 48.939008 92.905472 29.77792 9.576448-19.16928-80.470016-65.142784-80.470016-65.142784M1130.225664 514.74432c-16.662528-11.8784-29.229056-22.36416-36.560896-30.834688-6.742016-7.806976-7.962624-15.622144-5.292032-23.740416 2.793472-8.47872 9.977856-17.6128 20.897792-27.11552 21.782528-18.939904 56.737792-37.896192 94.019584-54.80448 37.183488-16.87552 76.30848-31.563776 106.16832-42.033152a1595.277312 1595.277312 0 0 1 46.620672-15.540224l49.324032 136.708096-133.36576 17.473536a4.096 4.096 0 0 0-1.171456 7.7824l176.259072 80.478208a4.42368 4.42368 0 0 0 0.24576 0.098304c33.693696 12.886016 61.005824 8.380416 81.985536 3.014656 3.506176-0.90112 6.750208-1.794048 9.797632-2.629632 6.234112-1.72032 11.59168-3.19488 16.441344-3.93216 7.036928-1.06496 11.599872-0.32768 15.03232 2.760704 1.654784 1.499136 2.023424 2.74432 1.998848 3.801088-0.024576 1.253376-0.630784 2.973696-2.260992 5.185536-3.293184 4.46464-9.551872 9.33888-16.908288 13.959168a220.086272 220.086272 0 0 1-21.209088 11.55072 282.33728 282.33728 0 0 1-7.430144 3.432448l-2.113536 0.917504-0.548864 0.24576-0.139264 0.049152-0.032768 0.016384h-0.008192a4.104192 4.104192 0 0 0-0.28672 7.430144l0.057344 0.032768 0.188416 0.090112 0.73728 0.385024 2.809856 1.47456a542.96576 542.96576 0 0 1 9.99424 5.431296 505.962496 505.962496 0 0 1 29.663232 17.760256c10.592256 6.897664 20.676608 14.262272 27.467776 20.97152 3.416064 3.375104 5.783552 6.373376 7.036928 8.880128 1.261568 2.506752 1.097728 3.866624 0.712704 4.636672-0.45056 0.90112-1.613824 1.96608-4.448256 2.70336-2.809856 0.712704-6.660096 0.925696-11.362304 0.57344-2.58048-0.188416-5.332992-0.540672-8.216576-1.032192-4.702208-4.399104-9.8304-8.716288-15.048704-12.73856-10.56768-8.134656-21.74976-15.23712-30.932992-19.439616-4.54656-2.08896-8.880128-3.588096-12.53376-4.022272-3.39968-0.4096-7.938048-0.032768-10.248192 3.956736-2.277376 3.948544-0.73728 7.962624 1.368064 10.829824 2.12992 2.899968 5.521408 5.69344 9.445376 8.290304 7.94624 5.24288 19.267584 10.428416 31.014912 14.475264a170.450944 170.450944 0 0 0 23.068672 6.275072c3.883008 3.743744 7.3728 7.487488 10.256384 11.083776 3.2768 4.079616 5.65248 7.82336 6.971392 11.026432 1.35168 3.260416 1.39264 5.423104 0.90112 6.750208-0.049152 0.139264-0.4096 0.991232-3.23584 1.39264-2.727936 0.376832-6.660096 0.12288-11.599872-0.8192-6.119424-1.171456-13.312-3.301376-20.840448-6.06208-4.95616-6.18496-11.239424-12.500992-17.743872-18.2272-8.47872-7.45472-17.563648-14.114816-24.993792-18.317312-3.678208-2.08896-7.184384-3.710976-10.133504-4.448256a11.927552 11.927552 0 0 0-4.66944-0.344064 6.38976 6.38976 0 0 0-4.677632 3.088384c-2.359296 4.104192-0.647168 8.413184 1.51552 11.526144 2.260992 3.244032 5.873664 6.5536 10.133504 9.756672 8.585216 6.455296 20.815872 13.205504 33.398784 18.817024 4.01408 1.794048 8.101888 3.4816 12.140544 5.013504 0.827392 1.089536 1.59744 2.162688 2.310144 3.219456 2.367488 3.530752 3.899392 6.63552 4.554752 9.166848 0.516096 1.96608 0.434176 3.301376 0.098304 4.210688a14.655488 14.655488 0 0 1-2.998272-0.098304c-3.211264-0.352256-7.831552-1.39264-13.811712-3.15392-11.886592-3.497984-28.42624-9.592832-48.267264-17.711104-39.657472-16.211968-92.110848-40.30464-146.153472-67.198976-54.042624-26.894336-109.584384-56.56576-155.418624-83.910656-22.921216-13.672448-43.368448-26.738688-59.973632-38.576128z m432.08704 198.295552c1.040384 2.048 1.851392 4.096 2.367488 6.070272 0.991232 3.792896 0.98304 7.880704-1.286144 11.38688-1.318912 2.039808-3.506176 2.70336-5.005312 2.94912a20.6848 20.6848 0 0 1-5.439488-0.016384c-3.93216-0.434176-9.101312-1.6384-15.220736-3.44064-12.288-3.612672-29.130752-9.8304-49.061888-17.98144-39.89504-16.310272-92.545024-40.493056-146.702336-67.452928-54.157312-26.95168-109.89568-56.721408-155.959296-84.205568-23.035904-13.737984-43.687936-26.935296-60.530688-38.936576-16.785408-11.96032-30.007296-22.904832-38.002688-32.145408-8.577024-9.920512-10.477568-20.733952-6.88128-31.66208 3.4816-10.559488 11.976704-20.873216 23.30624-30.728192 22.7328-19.767296 58.61376-39.124992 96.002048-56.090624 37.494784-17.014784 76.865536-31.78496 106.848256-42.303488a1598.922752 1598.922752 0 0 1 46.948352-15.64672l2.760704-0.86016 0.712704-0.212992 0.229376-0.073728h0.008192l1.196032 3.915776-1.196032-3.915776a4.096 4.096 0 0 1 5.046272 2.523136l52.379648 145.178624a4.071424 4.071424 0 0 1-3.31776 5.455872l-124.248064 16.277504 163.14368 74.481664c31.391744 11.968512 56.7296 7.856128 76.914688 2.686976 3.072-0.786432 6.10304-1.613824 9.043968-2.424832 6.529024-1.80224 12.65664-3.489792 17.997824-4.3008 7.929856-1.204224 15.589376-0.761856 21.741568 4.775936 3.121152 2.818048 4.79232 6.242304 4.7104 10.059776-0.08192 3.620864-1.72032 6.9632-3.858432 9.879552-4.25984 5.767168-11.649024 11.313152-19.136512 16.031744a229.105664 229.105664 0 0 1-24.928256 13.361152c1.908736 1.032192 4.120576 2.244608 6.561792 3.60448a514.015232 514.015232 0 0 1 30.154752 18.046976c10.715136 6.979584 21.356544 14.70464 28.75392 22.011904 3.678208 3.629056 6.774784 7.3728 8.609792 11.042816 1.835008 3.670016 2.719744 7.94624 0.704512 11.96032-1.941504 3.899392-5.750784 5.947392-9.740288 6.971392-3.620864 0.925696-7.90528 1.14688-12.468224 0.909312 1.286144 1.441792 2.506752 2.8672 3.637248 4.284416 3.538944 4.407296 6.422528 8.830976 8.159232 13.02528 1.703936 4.128768 2.523136 8.6016 1.007616 12.705792m-61.743104-16.031744c-10.551296-4.980736-20.324352-10.575872-27.262976-15.794176-3.997696-3.006464-6.79936-5.701632-8.331264-7.888896-0.466944-0.679936-0.761856-1.2288-0.933888-1.654784a0.598016 0.598016 0 0 0 0.057344 0.016384c1.875968 0.466944 4.62848 1.662976 8.077312 3.620864 6.815744 3.858432 15.44192 10.149888 23.617536 17.342464 1.630208 1.425408 3.219456 2.883584 4.775936 4.358144z m22.396928-27.451392c-2.285568-0.688128-4.579328-1.4336-6.856704-2.220032-11.362304-3.923968-22.003712-8.839168-29.179904-13.574144-3.629056-2.392064-6.078464-4.554752-7.356416-6.30784a4.571136 4.571136 0 0 1-0.884736-1.67936l-0.008192-0.08192c0.24576-0.08192 0.868352-0.196608 2.195456-0.032768 2.408448 0.28672 5.840896 1.384448 10.100736 3.334144 8.43776 3.866624 19.08736 10.584064 29.343744 18.481152 0.884736 0.688128 1.769472 1.376256 2.646016 2.080768z m-44.433408-23.781376s0.016384 0 0.049152-0.032768c-0.04096 0.016384-0.057344 0.032768-0.049152 0.032768z m0.155648-0.180224l-0.008192 0.024576zM1904.074752 685.441024a4.096 4.096 0 0 0-3.93216-4.25984l-73.678848-2.899968a4.096 4.096 0 1 0-0.319488 8.183808l73.678848 2.90816a4.096 4.096 0 0 0 4.251648-3.93216zM1850.32704 793.116672a4.096 4.096 0 0 0 0.155648-5.791744l-50.028544-52.781056a4.096 4.096 0 0 0-5.947392 5.636096l50.028544 52.781056a4.096 4.096 0 0 0 5.791744 0.155648zM1856.454656 720.887808a4.096 4.096 0 0 0-3.072-4.9152l-39.657472-9.13408a4.096 4.096 0 0 0-1.8432 7.9872l39.657472 9.13408a4.096 4.096 0 0 0 4.9152-3.072zM1751.851008 729.53856a71.548928 71.548928 0 0 0-71.548928-71.55712 71.55712 71.55712 0 1 0 71.548928 71.548928M1258.668032 39.550976l-34.48832-114.950144h442.810368l7.970816 114.950144h-416.292864zM1410.981888 460.783616s26.70592-3.170304 62.0544-7.692288c21.54496-2.768896 22.110208-31.277056 62.472192-38.043648 52.043776-8.72448 53.4528 21.962752 71.262208 18.857984 65.978368-11.501568 106.45504-32.571392 106.45504-32.571392l-15.908864-157.499392-22.355968-204.292096h-416.292864l152.313856 421.240832zM1502.224384 235.044864c-2.359296-15.450112 7.471104-30.285824 22.790144-33.75104 16.031744-3.637248 32.006144 6.5536 35.67616 22.749184 3.670016 16.203776-6.3488 32.284672-22.380544 35.92192a29.597696 29.597696 0 0 1-23.625728-4.718592l6.987776 30.834688a55.181312 55.181312 0 0 0 22.462464-0.4096c30.081024-6.823936 48.881664-36.98688 41.992192-67.387392-6.889472-30.39232-36.855808-49.512448-66.936832-42.696704-29.24544 6.63552-47.833088 35.332096-42.508288 64.856064l-0.057344 0.016384 16.564224 73.097216 27.295744 2.056192-18.259968-80.56832z m-31.768576-21.848064s4.292608-19.161088 19.857408-30.703616l-3.64544-16.113664-27.295744-2.080768 11.083776 48.90624zM1078.861824-75.40736a4.096 4.096 0 0 0 4.096 4.096h674.89792a4.096 4.096 0 1 0 0-8.192h-674.89792a4.096 4.096 0 0 0-4.096 4.096zM431.169536 529.997824a4.096 4.096 0 0 0 4.096 4.096h84.344832a4.096 4.096 0 0 0 0-8.192H435.257344a4.096 4.096 0 0 0-4.096 4.096zM431.169536 495.394816a4.096 4.096 0 0 0 4.096 4.096h84.344832a4.096 4.096 0 0 0 0-8.192H435.257344a4.096 4.096 0 0 0-4.096 4.096zM431.169536 460.8a4.096 4.096 0 0 0 4.096 4.096h84.344832a4.096 4.096 0 0 0 0-8.192H435.257344a4.096 4.096 0 0 0-4.096 4.096z"  horiz-adv-x="2048" />

    
    <glyph glyph-name="loading-solid" unicode="&#59572;" d="M537.568 831.68a25.6 25.6 0 0 1 0-51.136c204.48 0 370.816-166.368 370.816-370.816a25.6 25.6 0 0 1 51.136 0c0 232.672-189.312 421.984-421.984 421.984z"  horiz-adv-x="1024" />

    
    <glyph glyph-name="loading1" unicode="&#59573;" d="M849.6 176.8c0-3.1 2.5-5.6 5.6-5.6 3.1 0 5.6 2.5 5.6 5.6 0 3.1-2.5 5.6-5.6 5.6-3.1 0-5.6-2.5-5.6-5.6zM725.9 49.2c0-6.2 5-11.1 11.1-11.1 6.2 0 11.1 5 11.1 11.1 0 6.2-5 11.1-11.1 11.1s-11.1-4.9-11.1-11.1c0-6.1 0 0 0 0z m-166.7-65.7c0-9.2 7.5-16.7 16.7-16.7s16.7 7.5 16.7 16.7-7.5 16.7-16.7 16.7c-9.2 0.1-16.7-7.4-16.7-16.7z m-179.4 8.8c0-12.3 10-22.3 22.3-22.3s22.3 10 22.3 22.3-10 22.3-22.3 22.3-22.3-10-22.3-22.3zM220.6 74c0-15.4 12.5-27.9 27.9-27.9 15.4 0 27.9 12.5 27.9 27.9 0 15.4-12.5 27.9-27.9 27.9-15.4 0-27.9-12.5-27.9-27.9zM110.4 212.9c0-18.5 15-33.5 33.5-33.5s33.5 15 33.5 33.5-15 33.5-33.5 33.5-33.5-15-33.5-33.5zM69 383.4c0-21.6 17.5-39 39-39s39 17.5 39 39c0 21.6-17.5 39-39 39s-39-17.5-39-39z m34 169.4c0-24.7 20-44.6 44.6-44.6s44.6 20 44.6 44.6-20 44.6-44.6 44.6-44.6-20-44.6-44.6z m102.2 136.6c0-27.7 22.5-50.2 50.2-50.2s50.2 22.5 50.2 50.2c0 27.7-22.5 50.2-50.2 50.2-27.8 0-50.2-22.5-50.2-50.2z m149.9 78.2c0-30.8 25-55.8 55.8-55.8 30.8 0 55.8 25 55.8 55.8 0 30.8-25 55.8-55.8 55.8-30.8 0-55.8-25-55.8-55.8z m168.4 4.9c0-33.9 27.5-61.4 61.4-61.4s61.4 27.5 61.4 61.4-27.5 61.4-61.4 61.4c-33.9-0.1-61.4-27.5-61.4-61.4z m154.2-69.4c0-36.9 30-66.9 66.9-66.9 36.9 0 66.9 30 66.9 66.9 0 37-30 66.9-66.9 66.9-36.9 0-66.9-29.9-66.9-66.9z m109.6-130.3c0-40 32.5-72.5 72.5-72.5s72.5 32.5 72.5 72.5-32.5 72.5-72.5 72.5c-40.1 0-72.5-32.5-72.5-72.5zM830.9 404c0-43.1 35-78.1 78.1-78.1 43.1 0 78.1 35 78.1 78.1 0 43.1-35 78.1-78.1 78.1-43.2 0-78.1-35-78.1-78.1z"  horiz-adv-x="1024" />

    
    <glyph glyph-name="md-arrow-dropup-circle" unicode="&#58936;" d="M928 384c0 229.75-186.25 416-416 416S96 613.75 96 384s186.25-416 416-416 416 186.25 416 416z m-224-64H320l192 192 192-192z"  horiz-adv-x="1024" />

    
    <glyph glyph-name="md-swap" unicode="&#59192;" d="M262.6 433.8L64 234.8l198.6-198.8v149.2h349v99.4H262.6v149.2zM960 533.2L761.4 732v-149.2H412.4v-99.4h349v-149.2l198.6 199z"  horiz-adv-x="1024" />

    
    <glyph glyph-name="ios-person-add" unicode="&#59448;" d="M770.6 124c-31.2 11-75.6 13.6-104.2 20-16.4 3.6-40.2 12.6-48.2 22.2-7 8.4-4.2 76.8-3.4 94.4 0.2 2.6 1 5.2 2.2 7.6 4.4 7.2 14.4 24.4 20.6 40 6 15.2 12.4 50 15.2 66.6 0.8 4.8 3.8 9 8 11.2 5.2 3 12.2 9.8 15.6 26.8 6.2 31.4 16 43.6 14.8 67-0.6 10.4-3.4 16-6.4 19-4 3.8-5.4 9.6-4 14.8 3.8 15.2 9.4 45.2 10.4 91.2 1.8 82.2-62.6 163.2-179 163.2-118.2 0-181-81-179.2-163.2 1-46 6.6-76 10.2-91.2 1.2-5.4-0.2-11-4-14.8-3-3-6-8.6-6.4-19-1.2-23.4 8.6-35.6 14.8-67 3.4-16.8 10.4-23.8 15.6-26.8 4.2-2.4 7.2-6.4 8-11.2 2.8-16.6 9.2-51.4 15.2-66.6 6.2-15.6 16.4-33 20.6-40 1.4-2.2 2.2-4.8 2.2-7.6 0.8-17.6 3.6-86.2-3.4-94.4-8-9.6-31.8-18.6-48.2-22.2-28.6-6.4-73-9-104.2-20-28.4-10-110.6-41-125-104.6-2.2-10 5.4-19.4 15.8-19.4H880c10.2 0 17.8 9.4 15.6 19.4-14.4 63.6-96.6 94.6-125 104.6zM875 309h-54v54c0 11.6-9.4 21-21 21s-21-9.4-21-21v-54h-54c-11.6 0-21-9.4-21-21s9.4-21 21-21h54v-54c0-11.6 9.4-21 21-21s21 9.4 21 21v54h54c11.6 0 21 9.4 21 21s-9.4 21-21 21z"  horiz-adv-x="1024" />

    
    <glyph glyph-name="md-arrow-dropup" unicode="&#58937;" d="M256 256l256 256 256-256z"  horiz-adv-x="1024" />

    
    <glyph glyph-name="md-sunny" unicode="&#59193;" d="M554.6 832h-85.4v-128h85.4V832z m258.2-87.4L736 667.8l59.8-59.8 76.8 76.8-59.8 59.8z m-601.6 0l-59.8-59.8 76.8-76.8 59.8 59.8-76.8 76.8zM512 640c-140.8 0-256-115.2-256-256s115.2-256 256-256 256 115.2 256 256-115.2 256-256 256z m448-213.4h-128v-85.4h128v85.4z m-768 0H64v-85.4h128v85.4zM795.8 160L736 100.2l76.8-76.8 59.8 59.8-76.8 76.8z m-567.6 0l-76.8-76.8 59.8-59.8 76.8 76.8-59.8 59.8z m326.4-96h-85.4v-128h85.4v128z"  horiz-adv-x="1024" />

    
    <glyph glyph-name="ios-phone-landscape" unicode="&#59449;" d="M64 543.4v-317c0-36.6 29.2-66.2 65.8-66.2h762c36.8 0 68.2 29.6 68.2 66.2V543.4c0 36.6-31.4 64.6-68.2 64.6h-762C93.2 608 64 580 64 543.4zM110 354v60c0 4.4 3.6 8 8 8s8-3.6 8-8v-60c0-4.4-3.6-8-8-8s-8 3.6-8 8z m828 31c0-19.2-15.6-34.8-34.8-34.8-19.2 0-34.8 15.6-34.8 34.8 0 19.2 15.6 34.8 34.8 34.8 19.2 0 34.8-15.6 34.8-34.8zM848 576v-384H166V576h682zM883.2 385c0-11 9-20 19.8-20 11 0 20 9 20 20s-9 20-20 20c-10.8-0.2-19.8-9-19.8-20z"  horiz-adv-x="1024" />

    
    <glyph glyph-name="md-arrow-round-down" unicode="&#58938;" d="M198.8 326.2l268-276.2c11.6-12 27.4-18 44.8-18h0.8c17.4 0 33.2 6 44.8 18l268 276.2c25 24 25 62.6 0 86.4-25 23.8-65.4 23.8-90.4 0l-158.8-166v428c0 33.8-28.6 61.2-64 61.2-36 0-64-27.4-64-61.2v-428l-158.8 166c-25 23.8-65.4 23.8-90.4 0s-25-62.4 0-86.4z"  horiz-adv-x="1024" />

    
    <glyph glyph-name="md-subway" unicode="&#59194;" d="M512 800c-187.728 0-352-21.336-352-170.668v-426.664c0-83.208 66.124-149.332 149.334-149.332L256 0v-32h512v32l-53.334 53.336c83.208 0 149.334 66.124 149.334 149.332V629.332C864 778.664 699.728 800 512 800z m-192-672c-36.272 0-64 27.73-64 64 0 36.274 27.728 64 64 64s64-27.726 64-64c0-36.27-27.728-64-64-64z m160 288H256v192h224v-192z m224-288c-36.272 0-64 27.73-64 64 0 36.274 27.728 64 64 64s64-27.726 64-64c0-36.27-27.728-64-64-64z m64 288H544v192h224v-192z"  horiz-adv-x="1024" />

    
    <glyph glyph-name="ios-photos" unicode="&#59450;" d="M928 608H256c-35.2 0-64-28.8-64-64v-480c0-35.2 28.8-64 64-64h672c35.2 0 64 28.8 64 64V544c0 35.2-28.8 64-64 64zM200 664h664V704c0 35.2-28.8 64-64 64H96c-35.2 0-64-28.8-64-64v-512c0-35.2 28.8-64 64-64h40V600c0 35.2 28.8 64 64 64z"  horiz-adv-x="1024" />

    
    <glyph glyph-name="md-arrow-forward" unicode="&#58939;" d="M170 341.25h519.408L450.004 101.846 512 42l342 342L512 726l-59.844-59.848 237.252-239.402H170v-85.5z"  horiz-adv-x="1024" />

    
    <glyph glyph-name="md-switch" unicode="&#59195;" d="M336 464h189.8c29-29.6 69.4-48 114.2-48 88.4 0 160 71.6 160 160s-71.6 160-160 160c-44.8 0-85.2-18.4-114.2-48H336c-61.6 0-112-50.4-112-112s50.4-112 112-112z m-33.8 145.8c9.2 9.2 21.2 14.2 33.8 14.2h151.4c-4.8-15.2-7.4-31.2-7.4-48s2.6-32.8 7.4-48H336c-12.6 0-24.8 5-33.8 14.2-9.2 9.2-14.2 21.2-14.2 33.8s5 24.8 14.2 33.8zM688 304h-189.8c-29 29.6-69.4 48-114.2 48-88.4 0-160-71.6-160-160s71.6-160 160-160c44.8 0 85.2 18.4 114.2 48H688c61.6 0 112 50.4 112 112s-50.4 112-112 112z m33.8-145.8c-9.2-9.2-21.2-14.2-33.8-14.2h-151.4c4.8 15.2 7.4 31.2 7.4 48s-2.6 32.8-7.4 48H688c12.6 0 24.8-5 33.8-14.2 9.2-9.2 14.2-21.2 14.2-33.8s-5-24.8-14.2-33.8z"  horiz-adv-x="1024" />

    
    <glyph glyph-name="ios-pin" unicode="&#59451;" d="M512 800c-159 0-288-119.8-288-267.4 0-208 288-564.6 288-564.6s288 356.6 288 564.6C800 680.2 671 800 512 800z m0-381.8c-51.8 0-93.8 42-93.8 93.8s42 93.8 93.8 93.8 93.8-42 93.8-93.8-42-93.8-93.8-93.8z"  horiz-adv-x="1024" />

    
    <glyph glyph-name="md-arrow-round-back" unicode="&#58940;" d="M802.8 448h-428l166 158.8c23.8 25 23.8 65.4 0 90.4s-62.4 25-86.4 0L178 429.2c-12-11.6-18-27.4-18-44.8v-0.8c0-17.4 6-33.2 18-44.8l276.2-268c24-25 62.6-25 86.4 0 23.8 25 23.8 65.4 0 90.4l-166 158.8h428c33.8 0 61.2 28.6 61.2 64 0.2 36-27.2 64-61 64z"  horiz-adv-x="1024" />

    
    <glyph glyph-name="md-tablet-landscape" unicode="&#59196;" d="M64 656v-544c0-26.6 21.4-48 48-48h800c26.6 0 48 21.4 48 48V656c0 26.6-21.4 48-48 48H112c-26.6 0-48-21.4-48-48z m768-16v-512H160V640h672z m92-256c0-15.4-13-28-28.2-28-15 0-28 12.4-28 28 0 15.4 12.8 28.2 28 28.2 15.2-0.2 28.2-12.8 28.2-28.2z"  horiz-adv-x="1024" />

    
    <glyph glyph-name="ios-pie" unicode="&#59452;" d="M552 759.8v-438c0-7.4-5-13.6-12-15.4L162.2 209.2c-4.6-1.2-7.2-6.2-5.4-10.8C218.2 44 369.8-65.2 546.4-64c229.2 1.4 413.6 187 413.6 416 0 224.2-177.2 407-399.6 415.6-4.6 0.2-8.4-3.4-8.4-7.8zM64 417.4s0.4-97.6 30.4-162.2c1.6-3.6 5.6-5.4 9.2-4.4l387.6 99.4c7 1.8 12.8 9.2 12.8 16.4V824c0 4.4-3.6 8-8 8C182 828.2 64 598 64 417.4z"  horiz-adv-x="1024" />

    
    <glyph glyph-name="md-arrow-up" unicode="&#58941;" d="M554.75 42V561.408l239.404-239.404L854 384 512 726 170 384l59.848-59.844 239.402 237.252V42h85.5z"  horiz-adv-x="1024" />

    
    <glyph glyph-name="md-sync" unicode="&#59197;" d="M512 709.82V832l-160-162.908 160-162.912v122.186c131.992 0 240-109.964 240-244.366 0-40.726-10-79.428-28.008-114.032L782 210.906c31.992 50.914 50 109.976 50 173.094 0 179.198-144.004 325.82-320 325.82z m0-570.188c-132.002 0-240 109.976-240 244.368 0 40.726 10 79.418 27.998 114.04L242 557.092C209.998 508.22 192 447.128 192 384c0-179.198 144.004-325.82 320-325.82V-64l160 162.906-160 162.914v-122.188z"  horiz-adv-x="1024" />

    
    <glyph glyph-name="ios-pint" unicode="&#59453;" d="M744 545.6c0 39-2 163.4-38.6 231.2-9 16.4-19 23.2-57.4 23.2H376c-38.6 0-48.4-6.8-57.4-23.2-36.6-67.8-38.6-193-38.6-232 0-182 72-186.2 72-335.6 0-73.4-32-133.4-32-185.4 0-50.2 12-55.6 58-55.6h268c46 0 58 5.8 58 55.8 0 52-32 111.4-32 184.8 0 149.4 72 154.8 72 336.8zM376 744h272c4.8 0 8.6-0.2 11.4-0.4 10.8-23.2 18.8-58.6 23.6-101.6h-342c4.8 43.2 13 78.6 23.6 101.6 2.8 0.2 6.6 0.4 11.4 0.4z"  horiz-adv-x="1024" />

    
    <glyph glyph-name="md-arrow-round-up" unicode="&#58942;" d="M825.2 441.8L557.2 718c-11.6 12-27.4 18-44.8 18h-0.8c-17.4 0-33.2-6-44.8-18l-268-276.2c-25-24-25-62.6 0-86.4 25-23.8 65.4-23.8 90.4 0l158.8 166v-428c0-33.8 28.6-61.2 64-61.2 36 0 64 27.4 64 61.2v428l158.8-166c25-23.8 65.4-23.8 90.4 0s25 62.4 0 86.4z"  horiz-adv-x="1024" />

    
    <glyph glyph-name="md-text" unicode="&#59198;" d="M816 768H192c-44.004 0-64-35.996-64-80v-688l128 128h560c44.004 0 80 35.996 80 80V688c0 44.004-35.996 80-80 80zM396.8 412H320v80h76.8v-80z m153.6 0h-76.8v80h76.8v-80z m153.6 0h-76.8v80H704v-80z"  horiz-adv-x="1024" />

    
    <glyph glyph-name="ios-partly-sunny" unicode="&#59454;" d="M336.4 768h-0.6c-17.4 0-31.6-14.2-31.6-31.6v-60.6c0-17.4 14.2-31.6 31.6-31.6h0.6c17.4 0 31.6 14.2 31.6 31.6V736.4c0 17.4-14.2 31.6-31.6 31.6zM158 463.6v0.6c0 17.4-14.2 31.6-31.6 31.6H63.6c-17.4 0-31.6-14.2-31.6-31.6v-0.6c0-17.4 14.2-31.6 31.6-31.6h62.6c17.6 0 31.8 14.2 31.8 31.6z m1.4 134.4c6-6 14-9.4 22.4-9.4 8.4 0 16.4 3.4 22.4 9.4 12.2 12.4 12.2 32.4 0 44.6l-40.6 41c-6 6-14 9.4-22.4 9.4-8.4 0-16.4-3.4-22.4-9.4-12.2-12.4-12.2-32.4 0-44.6L159.4 598zM542 685.6c-6 6-14 9.4-22.4 9.4-8.4 0-16.4-3.4-22.4-9.4l-40.6-40.8c-12.2-12.4-12.2-32.4 0-44.6l0.6-0.6h0.2c5.8-5.6 13.6-8.6 21.6-8.6 8.4 0 16.4 3.4 22.4 9.4l40.6 40.8c12.2 12 12.2 32 0 44.4zM185.8 349.4c-8.4 0-16.4-3.4-22.4-9.4l-40.6-41c-12.2-12.4-12.2-32.4 0-44.6 6-6 14-9.4 22.4-9.4 8.4 0 16.4 3.4 22.4 9.4l40.6 41c12.2 12.4 12.2 32.4 0 44.6-6 6-14 9.4-22.4 9.4z m620.8 28.2h-4.8c-6.2 0-12.2 0-18-0.8-22.6 100.6-112.2 176.4-219.4 176.4-29.2 0-57.2-5.6-82.8-15.8-10.2-4-20-8.8-29.4-14.2-64-37-108.2-104.8-112.4-183.2-0.2-4.2-0.4-8.2-0.4-12.4 0-6.8 0.4-13.6 1-20.2 0-0.8 0.2-1.6 0.2-2.2-75.8-6.8-135.2-74.2-135.2-152 0-82.2 66.6-153.4 148.6-153.4h452.8c102.4 0 185.4 86.8 185.4 189.6-0.2 102.8-83.2 188.2-185.6 188.2zM301.4 328.8v0.6c-0.6 6.8-1 13.6-1 20.4 0 4.2 0.2 8.4 0.4 12.6 4.4 79.8 49.2 148.6 114.4 186.2 9.6 5.6 19.6 10.4 29.8 14.4h0.2c-26.8 34-68.4 56-115.2 56-81 0-146.6-65.6-146.6-146.6 0-71 50.6-130.2 118-143.6z"  horiz-adv-x="1024" />

    
    <glyph glyph-name="md-arrow-round-forward" unicode="&#58943;" d="M569.8 70.8l276.2 268c12 11.6 18 27.4 18 44.8v0.8c0 17.4-6 33.2-18 44.8l-276.2 268c-24 25-62.6 25-86.4 0-23.8-25-23.8-65.4 0-90.4l166-158.8h-428c-34 0-61.4-28.6-61.4-64 0-36 27.4-64 61.2-64h428l-166-158.8c-23.8-25-23.8-65.4 0-90.4 24-25 62.6-25 86.6 0z"  horiz-adv-x="1024" />

    
    <glyph glyph-name="md-tablet-portrait" unicode="&#59199;" d="M784 832H240c-26.6 0-48-21.4-48-48v-800c0-26.6 21.4-48 48-48h544c26.6 0 48 21.4 48 48V784c0 26.6-21.4 48-48 48z m-16-768H256V736h512v-672z m-256-92c-15.4 0-28 13-28 28.2 0 15 12.4 28 28 28 15.4 0 28.2-12.8 28.2-28-0.2-15.2-12.8-28.2-28.2-28.2z"  horiz-adv-x="1024" />

    
    <glyph glyph-name="ios-planet" unicode="&#59455;" d="M925 191.4c-3.8 11-11.2 23-22.8 36.6-20.4 24-61.6 58.6-109.6 94.4-5.2 4-12.8 1.6-15-4.6l-9.4-26.8c-1.4-4 0-8.6 3.4-11 31.8-23.2 71.8-55.8 83.6-71.8 4-5.6-1-13.2-7.8-11.6-20 4.6-58 14.6-88.4 25.6-17.2 6.2-35.4 13.4-54.4 21.2 32 41.6 49.4 92.6 49.4 145.2 0 65.6-26.4 127.2-74.2 172.8-45.8 43.8-107.6 68.2-171.4 67.4-51.4-0.6-100.2-16.8-141.4-47-36.6-26.8-64.4-62.6-81.2-104-16.6 12-32.2 23.8-46.4 35.2-27.4 21.8-56.8 44-77.4 69.4-4.4 5.6 1.8 13.4 8.8 11.8 22.6-5.2 70.8-21.8 112.8-37.8 3-1.2 6.4-0.6 9 1.6l22.2 20.2c4.8 4.2 3.4 12-2.6 14.4C242 621.2 178.4 640 146.4 640c-23 0-38.6-7-46.6-20.8-15.2-26.6 14.2-70.4 90.2-133.6 68.2-57 165.2-123.6 273-184 175-98.2 342.2-162 416-162 22.4 0 37.4 6.2 44.2 18.2 5.6 9.4 6.2 20.8 1.8 33.6zM624 188c-58.2 25.6-118.6 52-185.2 89.6-60.2 33.8-118.8 73-168.8 107.2-2 1.4-4.4 2.2-6.8 2.2-1.8 0-3.8-0.4-5.6-1.4-4-2-6.6-6-6.6-10.4 0-2.4-0.2-4.8-0.2-7 0-64.2 25.2-124.6 71-169.8 45.8-45.4 106.8-70.4 171.6-70.4 47.2 0 93 13.4 132.4 39 3.8 2.4 5.8 6.6 5.4 11-0.2 4.4-3 8.2-7.2 10z"  horiz-adv-x="1024" />

    
    <glyph glyph-name="md-backspace" unicode="&#58944;" d="M867 704H334.4c-24.4 0-43.6-12.4-56.4-31.2L86 384l192-288.4c12.8-18.8 32-31.6 56.4-31.6h532.4c39 0 71 32 71 71.2V632.8C938 672 906 704 867 704z m-106.6-447.6l-50-50.2-127.4 127.6-127.4-127.6-50 50.2 127.4 127.6-127.4 127.6 50 50.2 127.4-127.6 127.4 127.6 50-50.2-127.4-127.6 127.4-127.6z"  horiz-adv-x="1024" />

    
    <glyph glyph-name="md-tennisball" unicode="&#59200;" d="M767.6 711.6C697 767 608.2 800 512 800c-96 0-184.6-33-255.2-88 83.2-89.6 128.6-206 128-328.6-0.6-122-46.6-237.2-129.8-325.8 70.8-56 160.2-89.6 257-89.6 97 0 186.6 33.6 257.6 90-83 88.6-129 203.6-129.6 325.4-0.6 122.4 44.6 238.6 127.6 328.2zM706.2 385.8c0-53.8 10.2-106 30.2-155.6 19.2-47.2 46.6-89.8 81.6-127.2 68.2 74.2 110 173 110 281 0 109-42.4 208.4-111.6 282.8-34.2-37-61.2-79.2-80-125.4-20-49.6-30.2-102-30.2-155.6z m-387.6 0c0 53.8-10.2 106-30.2 155.6-18.8 46.4-45.8 88.8-80.4 125.8-69.4-74.4-112-174-112-283.2 0-108.4 42-207.2 110.4-281.4 35.2 37.4 62.8 80.2 82 127.6 20 49.4 30.2 101.8 30.2 155.6z"  horiz-adv-x="1024" />

    
    <glyph glyph-name="ios-pizza" unicode="&#59456;" d="M893.2 676.4c-5.4 14.6-28.4 28-50 37.4-54 23.2-147 54.2-329.8 54.2-188 0-275-29-330-54.2-24.6-11.4-48.4-25-53.4-39-5.8-16 1.6-30.6 8.2-43.6l3-6c6.2-12.8 25.8-25.6 45.6-27.6L502.6 6c2-3.8 6.2-6.2 10.6-6.2 4.4 0 8.6 2.4 10.6 6.2l315.2 590.2c11.2 1.2 34.4 5.2 46.2 28.6 7.8 15.4 14.8 33.4 8 51.6z m-532-225.6c-2.4-7-5.8-13.2-10.2-19-3.6-4.6-10.6-4-13.4 1.2-17.6 33.2-34.6 64.8-49.6 93-2.8 5.2 1 11.6 6.8 11.8h2c7.4 0 14.6-1.2 21.8-3.4 17.2-5.6 31-17.4 39.2-33.2 7.8-15.8 9.2-33.6 3.4-50.4z m233.2-195c-1.6-2.8-4.6-4.6-7.8-4.2-34 3.6-60.4 31.6-60.4 65.6 0 36.4 30.4 66 67.8 66 19.8 0 38-8 50.6-22 2.2-2.4 2.6-6.2 1-9l-51.2-96.4z m70.4 353.6c-11.4-8.2-24.8-12.6-39-12.6-3.2 0-6.6 0.2-9.8 0.6-17.4 2.4-32.6 11.4-43 25-4 5.2-7.2 11-9.2 16.8-2 5.4 2.4 11 8 10.6 36.6-2 70.6-5.8 102.8-11.8 6.2-1.2 9-8.2 5.4-13.4-4-5.6-9.2-10.8-15.2-15.2z"  horiz-adv-x="1024" />

    
    <glyph glyph-name="md-at" unicode="&#58945;" d="M531.2 471.4c-21 0-37-8.8-48-26.4-11-17.6-18.2-44-21.6-79.2-1.8-23.4 0-41 5.4-53s14.2-18 26.2-18c11 0 20.6 3 29.2 8.8 8.6 5.8 16.2 16.6 22.6 32.4l12.2 132c-4.4 1-8.8 1.8-13 2.4-4.6 0.8-8.8 1-13 1zM512 800C282.2 800 96 613.8 96 384s186.2-416 416-416 416 186.2 416 416S741.8 800 512 800z m255.6-403.8c-1.8-42.8-15.2-79.8-40-111.2-24.8-31.2-62-46.8-111.2-46.8-16.4 0-30.6 4.4-42.4 13.2-12 8.8-20.4 21.4-25.2 37.6-8.2-16.6-18.8-29-31.4-37.2-12.6-8.2-27.4-12.4-44.4-12.4-30.2 0-53.2 11.6-69.2 34.6s-21.8 53.6-17.6 91.8c5.2 48.8 20 88 44.4 117.4 24.4 29.4 54 44 88.8 44 24.4 0 44.2-2.6 59-7.6 14.8-5 31.2-11.4 49-22l-1 0.2h1.6l-15.4-166.8c-1-17 0.2-29.2 3.4-35.6 3.4-6.4 7.8-9.8 13.4-9.8 22.6 0 40.8 10.2 54.4 31.2 13.6 21 21.2 47.2 22.8 79.2 3.2 66-10.2 117.4-40.4 154.2-30.2 36.8-76.6 55.4-139.4 55.4-61 0-109.6-19.8-145.6-59.6s-55.4-93.8-58.6-162.4c-3.4-66.8 11.2-119.6 43.8-158.2 32.6-38.8 79.4-58.2 140.6-58.2 17 0 34.6 1.8 53 5.4 18.2 3.6 34.2 8.2 47.4 13.6l11.6-48.4c-13.6-8.2-30.8-14.6-51.8-19.2-21-4.6-41.4-6.8-61.4-6.8-81.6 0-144.6 24.2-188.6 72.8-44 48.4-64.4 114.8-61 199.2 3.6 83.6 29.8 149.8 78.2 198.8 48.6 49 113 73.4 193.4 73.4 79 0 139.6-23.2 181.4-69.4 42.4-46.4 61.6-109.8 58.4-190.4z"  horiz-adv-x="1024" />

    
    <glyph glyph-name="md-thermometer" unicode="&#59201;" d="M606 295.6V739.2c0 51.4-42 93-94 93s-94-41.6-94-93v-443.8c-58-33-97.8-95.6-97.8-167.4 0-106 86-192 192-192s192 86 192 192c0 72-40.2 134.6-98.2 167.6zM480 739.2c0 16 15.4 29 32 29s32-13 32-29V640h-64V739.2z"  horiz-adv-x="1024" />

    
    <glyph glyph-name="ios-play" unicode="&#59457;" d="M256 687.4v-606.8c0-12.8 13-20.8 23.4-14.4l481 303.4c10.2 6.4 10.2 22.2 0 28.6L279.4 701.6c-10.4 6.6-23.4-1.4-23.4-14.2z"  horiz-adv-x="1024" />

    
    <glyph glyph-name="md-attach" unicode="&#58946;" d="M682.668 640v-469.332C682.668 76.792 605.876 0 512 0c-93.874 0-170.666 76.792-170.666 170.668V661.332C341.334 721.062 388.27 768 448 768c59.728 0 106.666-46.938 106.666-106.668v-490.666c0-23.458-19.21-42.666-42.668-42.666s-42.666 19.208-42.666 42.666V576h-64v-405.334C405.334 110.938 452.27 64 512 64c59.73 0 106.668 46.938 106.668 106.666V661.332C618.668 755.198 541.876 832 448 832s-170.668-76.802-170.668-170.668v-490.664C277.334 40.542 381.876-64 512-64c130.124 0 234.668 104.542 234.668 234.668V640h-64z"  horiz-adv-x="1024" />

    
    <glyph glyph-name="md-thumbs-up" unicode="&#59202;" d="M396 0h344c31.4 0 57.2 19.2 68.4 46.8l114.2 270.8c3.4 8.8 5.2 18 5.2 28v77.2c0 42.2-34 89.2-75.6 89.2H613.8l36 163 1.2 12c0 15.8-6.4 30.2-16.6 40.6L594 768 342 513.4c-13.6-13.8-22-33-22-54.2v-384c0-42.2 34.4-75.2 76-75.2zM96 448h128v-448H96z"  horiz-adv-x="1024" />

    
    <glyph glyph-name="ios-play-circle" unicode="&#59458;" d="M512 800C282.2 800 96 613.8 96 384s186.2-416 416-416 416 186.2 416 416S741.8 800 512 800z m167.6-423.8l-274.4-166c-5.8-3.6-13.4 0.8-13.4 7.8V550c0 7 7.4 11.4 13.4 7.8l274.4-166c5.8-3.4 5.8-12.2 0-15.6z"  horiz-adv-x="1024" />

    
    <glyph glyph-name="md-basket" unicode="&#58947;" d="M724.2 485.6L545.8 751C538 762.4 525 768 512 768c-13 0-26-5.6-33.8-17.4l-178.4-265H104.8c-22.4 0-40.8-18.2-40.8-40.4 0-3.6 0.4-7.2 1.6-11l103.4-375c9.4-34 40.8-59 78.2-59h529.4c37.4 0 68.8 25 78.6 59l103.4 375 1.2 11c0 22.2-18.4 40.4-40.8 40.4h-194.8z m-334.4 0l122.2 178 122.2-178H389.8zM512 161.8c-44.8 0-81.4 36.4-81.4 81s36.6 81 81.4 81 81.4-36.4 81.4-81-36.6-81-81.4-81z"  horiz-adv-x="1024" />

    
    <glyph glyph-name="md-thumbs-down" unicode="&#59203;" d="M628 768H284c-31.4 0-57.2-19.2-68.4-46.8L101.2 450.4c-3.4-8.8-5.2-18-5.2-28v-77.2c0-42.2 34-89.2 75.6-89.2h238.6l-36-163-1.2-12c0-15.8 6.4-30.2 16.6-40.6l40-40.2L682 254.6c13.6 13.8 22 33 22 54.2v384c0 42.2-34.4 75.2-76 75.2z m172 0h128v-448h-128z"  horiz-adv-x="1024" />

    
    <glyph glyph-name="ios-podium" unicode="&#59459;" d="M128 496.2v-416.4c0-8.8 7-15.8 15.8-15.8h192.4c8.8 0 15.8 7 15.8 15.8V496.2c0 8.8-7 15.8-15.8 15.8H143.8c-8.8 0-15.8-7-15.8-15.8zM399.8 704c-8.8 0-15.8-7-15.8-15.8V64h240.2c8.8 0 15.8 7 15.8 15.8V688.2c0 8.8-7 15.8-15.8 15.8H399.8z m480.4-320h-192.4c-8.8 0-15.8-7-15.8-15.8v-288.4c0-8.8 7-15.8 15.8-15.8h192.4c8.8 0 15.8 7 15.8 15.8V368.2c0 8.8-7 15.8-15.8 15.8z"  horiz-adv-x="1024" />

    
    <glyph glyph-name="md-battery-dead" unicode="&#58948;" d="M676.4 742.4h-74.8V832h-179.2v-89.6h-74.8c-32.8 0-59.6-26.8-59.6-59.6V-4c0-33.2 26.8-60 59.6-60H676c33.2 0 60 26.8 60 59.6V682.8c0 32.8-26.8 59.6-59.6 59.6zM640 32H384V646.4h256V32z"  horiz-adv-x="1024" />

    
    <glyph glyph-name="md-stats" unicode="&#59204;" d="M352 768h128v-768h-128zM160 224h128v-224H160z m384 128h128v-352h-128z m192 192h128v-544h-128z"  horiz-adv-x="1024" />

    
    <glyph glyph-name="ios-power" unicode="&#59460;" d="M760.8 672.6c-6.6 5.6-15 8.6-23.6 8.6-10.6 0-20.8-4.6-27.6-12.8-6.4-7.4-9.4-16.8-8.6-26.6 0.8-9.6 5.4-18.6 12.8-24.8 69.6-59 109.6-144.6 109.6-234.8 0-170.8-139.6-309.6-311.2-309.6s-311.2 139-311.2 309.6c0 90.4 40 176 109.6 234.8 7.4 6.2 12 15 12.8 24.8 0.8 9.6-2.2 19.2-8.6 26.6-7 8-17 12.8-27.6 12.8-8.6 0-17-3-23.6-8.6C177.4 599.8 128 494 128 382.4 128 171.6 300.2 0 512 0s384 171.6 384 382.4c0 111.6-49.4 217.4-135.2 290.2zM513.8 347c20.4 0 37 16.6 37 37V731c0 20.4-16.6 37-37 37s-37-16.6-37-37V384c0-20.4 16.6-37 37-37z"  horiz-adv-x="1024" />

    
    <glyph glyph-name="md-basketball" unicode="&#58949;" d="M383.2 352c-7.6-110-52.8-214.2-129-295.4 63.2-50 141.8-82 225.8-88.6V352h-96.8zM544-32c84 6.6 163 38.8 226.2 89-76 81.2-121 185-128.6 295H544v-384zM480 800c-84-6.4-161-38-223.8-87.2 76-81.8 120.6-186.8 127.4-296.8H480V800z m161.4-384c6.8 110 51.2 214.8 127 296.6C705.4 761.8 628 793.6 544 800v-384h97.4z m175.8 251.6c-34.4-37-61.4-79.4-80.2-125.8-16.4-40.4-26.2-81.8-29.2-125.8H928c-7.4 96-48.2 184.4-110.8 251.6z m-80.2-437.8c19.2-47.4 46.6-90.2 81.8-127.6C880.6 169.2 920.6 256 928 352H708.2c3.2-42 13-83 28.8-122.2z m-449.2 312c-19 46.6-46 89-80.6 126.2-62.8-67.2-103.8-156-111.2-252h221c-3.2 44-13 85.6-29.2 125.8z m-82.4-440c35.4 37.6 63 80.6 82.2 128 16 39.2 25.6 80.2 29 122.2H96c7.4-96 47.6-183.2 109.4-250.2z"  horiz-adv-x="1024" />

    
    <glyph glyph-name="md-thunderstorm" unicode="&#59205;" d="M786.4 573.6C761 702.8 647.8 800 512 800c-79.4 0-152-28-201.8-90.8 68.6-5.2 132.2-30.4 181.4-79.6 36.4-36.4 62-81 74.8-129.6h-67c-30.6 87.4-112 150-211.4 150-12 0-28.6-1.4-41.2-4C140 624 64 535.2 64 425 64 300.8 164.4 224 288 224h136V430h198.2l-66.4-134H622l-36-72h187.4c103 0 186.6 60 186.6 163.6 0 98.8-76.6 179.2-173.6 186zM424 160h44v-192l118 256h-162z"  horiz-adv-x="1024" />

    
    <glyph glyph-name="ios-pricetag" unicode="&#59461;" d="M870.4 800H624.6c-7.6 0-15-3-20.4-8.4L112.8 300.2c-22.4-22.4-22.4-59 0-81.4l234-234c22.4-22.4 59-22.4 81.4 0L919.4 476c5.4 5.4 8.4 12.8 8.4 20.4v246C928 774.2 902.2 800 870.4 800z m-95.4-223.6c-40.8-4.4-74.8 29.8-70.6 70.6 3.2 29.6 27 53.6 56.6 56.6 40.8 4.4 74.8-29.8 70.6-70.6-3.2-29.6-27-53.4-56.6-56.6z"  horiz-adv-x="1024" />

    
    <glyph glyph-name="md-battery-charging" unicode="&#58950;" d="M676.4 742.4h-74.8V832h-179.2v-89.6h-74.8c-32.8 0-59.6-26.8-59.6-59.6V-4c0-33.2 26.8-60 59.6-60H676c33.2 0 60 26.8 60 59.6V682.8c0 32.8-26.8 59.6-59.6 59.6zM467.2 25.6V272h-89.6l179.2 336v-246.4h89.6l-179.2-336z"  horiz-adv-x="1024" />

    
    <glyph glyph-name="md-time" unicode="&#59206;" d="M511.6 800C282 800 96 613.6 96 384s186-416 415.6-416c230 0 416.4 186.4 416.4 416S741.6 800 511.6 800z m0.4-748.8c-183.8 0-332.8 149-332.8 332.8S328.2 716.8 512 716.8 844.8 567.8 844.8 384 695.8 51.2 512 51.2zM532.8 592h-62.4v-249.6l218.4-131 31.2 51.2-187.2 111V592z"  horiz-adv-x="1024" />

    
    <glyph glyph-name="ios-pricetags" unicode="&#59462;" d="M806.6 832H570.2c-7.4 0-14.4-3-19.6-8.2L80.2 351.6c-21.6-21.6-21.6-56.8 0-78.4l223-225C324.8 26.6 358 16 390 44l463.8 464.6c5.2 5.2 8.2 12.2 8.2 19.6V776.6c0 30.6-24.8 55.4-55.4 55.4z m-91.8-215c-39.2-4.2-72 28.8-67.8 67.8 3 28.6 26 51.4 54.6 54.6 39.2 4.2 72-28.8 67.8-67.8-3-28.6-26-51.6-54.6-54.6zM912 735.4V508c0-7.4-3-14.4-8.2-19.6L385.4-30l17.6-17.6c21.6-21.6 56.8-21.6 78.4 0l470.4 472.4c5.2 5.2 8.2 12.2 8.2 19.6V680.6c0 28-21 51.2-48 54.8z"  horiz-adv-x="1024" />

    
    <glyph glyph-name="md-battery-full" unicode="&#58951;" d="M676.4 742.4h-74.8V832h-179.2v-89.6h-74.8c-32.8 0-59.6-26.8-59.6-59.6V-4c0-33.2 26.8-60 59.6-60H676c33.2 0 60 26.8 60 59.6V682.8c0 32.8-26.8 59.6-59.6 59.6z"  horiz-adv-x="1024" />

    
    <glyph glyph-name="md-timer" unicode="&#59207;" d="M465.8 152.8c0-25.4 20.8-46.2 46.2-46.2s46.2 20.8 46.2 46.2c0 25.4-20.8 46.2-46.2 46.2s-46.2-20.6-46.2-46.2z m0 647.2v-184.8h92.4V703.8c156.6-22.6 277.4-156.6 277.4-319.8 0-178.8-144.6-323.6-323.6-323.6S188.4 205.2 188.4 384c0 77.6 27.2 148.8 73 204.4L512 337.8l65.2 65.2L262.8 717.2v-1C161.6 640.6 96 520.4 96 384c0-229.8 185.8-416 416-416 229.8 0 416 186.2 416 416S741.8 800 512 800h-46.2z m323.6-416c0 25.4-20.8 46.2-46.2 46.2-25.4 0-46.2-20.8-46.2-46.2s20.8-46.2 46.2-46.2c25.4 0 46.2 20.8 46.2 46.2z m-554.8 0c0-25.4 20.8-46.2 46.2-46.2s46.2 20.8 46.2 46.2-20.8 46.2-46.2 46.2-46.2-20.8-46.2-46.2z"  horiz-adv-x="1024" />

    
    <glyph glyph-name="ios-print" unicode="&#59463;" d="M256 400v-400c0-17.6 14.4-32 32-32h448c17.6 0 32 14.4 32 32V400c0 17.6-14.4 32-32 32H288c-17.6 0-32-14.4-32-32zM768 800H256c-17.6 0-32-14.4-32-32v-40c0-4.4 3.6-8 8-8h560c4.4 0 8 3.6 8 8V768c0 17.6-14.4 32-32 32zM865 672h-704C125.8 672 96 644.4 96 609.4v-348.8c0-35 29.8-64.6 65-64.6H192c8.8 0 16 7.2 16 16V424c0 31 25 56 56 56h496c31 0 56-25 56-56v-212c0-8.8 7.2-16 16-16h33c35.2 0 63 29.6 63 64.6V609.4c0 35-27.8 62.6-63 62.6z"  horiz-adv-x="1024" />

    
    <glyph glyph-name="md-bed" unicode="&#58952;" d="M337.4 367c58 0 104.8 45.8 104.8 102.4s-46.8 102.4-104.8 102.4-104.8-45.8-104.8-102.4 47-102.4 104.8-102.4z m419 204.8H477v-239H197.8V640H128v-512h69.8v102.4h628.4V128H896V435.2c0 75.4-62.4 136.6-139.6 136.6z"  horiz-adv-x="1024" />

    
    <glyph glyph-name="md-today" unicode="&#59208;" d="M810.6 832H213.4C166.4 832 128 793.6 128 746.6v-725.4c0-47 38.4-85.4 85.4-85.4h597.4c47 0 85.4 38.4 85.4 85.4V746.6C896 793.6 857.6 832 810.6 832z m-8-810.6H221.4c-4.4 0-8 3.6-8 8V738.6c0 4.4 3.6 8 8 8h581.4c4.4 0 8-3.6 8-8v-709.4c-0.2-4.2-3.8-7.8-8.2-7.8zM290 508v-408c0-2.2 1.8-4 4-4h436c2.2 0 4 1.8 4 4V508c0 2.2-1.8 4-4 4H294c-2.2 0-4-1.8-4-4z m0 158.6v-68c0-2.2 1.8-4 4-4h342c2.2 0 4 1.8 4 4v68c0 2.2-1.8 4-4 4H294c-2.2 0-4-1.8-4-4z"  horiz-adv-x="1024" />

    
    <glyph glyph-name="ios-pulse" unicode="&#59464;" d="M869.2 351.8c-44.8 2.4-83.2-26.4-96.4-65.8h-77.8l-56.8 170.8c-4.4 13.2-16.6 22-30.4 22h-0.6c-14-0.2-26.2-9.6-30-23.2l-89-310.6-104.6 628.2c-2.4 15-15.2 26.2-30.4 26.8-15.2 0.6-28.6-9.6-32.4-24.2l-106-489.8H96c-17.6 0-32-14.4-32-32s14.4-32 32-32h144c14.6 0 27.6 10 31 24.2l74.8 364.4 102.6-615.8c2.4-14.8 14.8-25.8 29.8-26.6h1.8c14.2 0 26.8 9.4 30.8 23.2l99.4 347.2 31.4-94.6c4.4-13 16.6-22 30.4-22h102.2c13.8-36 48.8-62 89.8-62 54 0 97.6 44.6 96 99-1.6 49.6-41.4 90.2-90.8 92.8z"  horiz-adv-x="1024" />

    
    <glyph glyph-name="md-baseball" unicode="&#58953;" d="M731.8 90.8L686 63.8l-32 56 40.4 23.8c-10.4 17-19.6 34.8-27.8 53.4-2.8 6.2-5.4 12.6-7.8 19l-50.2-11.6-14.2 63.2 45.2 10.4c-5.6 24.2-9.4 48-11 74H580v64h48.6c1.6 24 5.4 49.6 11 73.6l-45.2 10.4 14.2 63.2 50.2-11.6c2.6 6.4 5.2 12.8 8 19.2 8.2 18.4 17.4 36.2 27.6 53.2L654 647.8l32 56 45.6-27c10.4 12.8 21.6 25 33.4 36.6C694.8 767.8 607 800 512 800s-182.8-32.2-253-86.4c11.8-11.6 23-24 33.4-36.6L338 703.8l32-56-40.4-23.8c10.2-17 19.6-34.8 27.6-53.2 2.8-6.4 5.4-12.8 8-19.2l50.2 11.6 14.2-63.2-45.2-10.4c5.6-24.2 9.2-49.6 11-73.6H444v-64h-48.6c-1.6-26-5.4-49.8-11-74l45.2-10.4-14.2-63.2-50.2 11.6c-2.4-6.4-5-12.6-7.8-19-8.2-18.4-17.4-36.2-27.8-53.4l40.4-23.8-32-56-45.8 27c-10.4-12.6-21.4-24.8-33.2-36.4 70.2-54.2 158-86.4 253-86.4s182.8 32.2 253 86.4c-11.8 11.6-22.8 23.8-33.2 36.4zM787.6 644l36.2-21.4-32-56-42.4 25c-10-16.6-19-33.8-26.6-51.8-0.4-0.8-0.8-1.8-1-2.6l42-9.8-14.2-63.2-47.8 11c-4.6-19.4-7.6-39.2-9.2-59.2H740v-64h-47.2c1.6-20 4.6-40 9.2-59.6l47.8 11 14.2-63.2-42-9.8c0.4-0.8 0.6-1.6 1-2.4 7.6-18 16.6-35.4 26.6-52l42.2 24.8 32-56-36-21.2c6.6-7.8 13.6-15.4 21-22.6l4-4C884 172 928 273.2 928 384s-44 212-115.4 286.8c-1.4-1.4-2.8-2.6-4-4-7.4-7.4-14.4-15-21-22.8zM236.4 123.8l-36 21.2 32 56 42.2-24.8c10.2 16.6 19 34 26.6 52 0.4 0.8 0.6 1.6 1 2.4l-42 9.8 14.2 63.2 47.8-11c4.6 19.6 7.6 39.6 9.2 59.6H284v64h47.2c-1.6 20-4.6 39.8-9.2 59.2l-47.8-11-14.2 63.2 42 9.8c-0.4 0.8-0.6 1.8-1 2.6-7.6 18-16.4 35.4-26.6 51.8L232 566.8l-32 56 36.2 21.4c-6.8 7.8-13.8 15.4-21.2 22.8l-4 4C140 596 96 494.8 96 384s44-212 115.4-286.8c1.4 1.4 2.8 2.6 4 4 7.2 7.2 14.2 14.8 21 22.6z"  horiz-adv-x="1024" />

    
    <glyph glyph-name="md-transgender" unicode="&#59209;" d="M704 832v-70h126.2l-162.8-161c-15 14.4-26.4 22-26.4 22C604.4 648.8 560 664 512 664c-60.4 0-115.2-24-155.6-62.8l-30.4 30 62.8 62.8-57 57-63-63-75 74H320V832H64v-256h70V713.4l80.6-79.8-62.4-62.4 57-57 62.8 62.8 38.8-38.4c-14.6-29.8-23-63.4-23-99 0-109.6 79-200.8 182.2-220.4v-90.6h-126V48h126v-112h84v112h126v80.4h-126v90.6c101.6 19.8 182.4 111 182.4 220.6 0 35.4-8.4 69.6-23 99.2L890 713.4V576h70V832H704z m-192-516c-70.6 0-128 57.4-128 128s57.4 128 128 128 128-57.4 128-128-57.4-128-128-128z"  horiz-adv-x="1024" />

    
    <glyph glyph-name="ios-qr-scanner" unicode="&#59465;" d="M348 768h-117.6C156.2 768 96 707.8 96 633.6V516c0-15.4 12.6-28 28-28s28 12.6 28 28v119.6c0 18.2 8.6 37.4 23.4 52.4 15 15.2 34.4 24 53 24H348c15.4 0 28 12.6 28 28s-12.6 28-28 28z m447.6 0H676c-15.4 0-28-12.6-28-28s12.6-28 28-28h119.6c18.6 0 38-8.8 53-24 14.8-15 23.4-34.2 23.4-52.4V516c0-15.4 12.6-28 28-28s28 12.6 28 28v119.6c0 73-59.4 132.4-132.4 132.4zM348 56h-119.6c-18.6 0-38 8.8-53 24-14.8 15-23.4 34.2-23.4 52.4V252c0 15.4-12.6 28-28 28s-28-12.6-28-28v-119.6c0-73 59.4-132.4 132.4-132.4H348c15.4 0 28 12.6 28 28s-12.6 28-28 28z m552 224c-15.4 0-28-12.6-28-28v-119.6c0-18.2-8.6-37.4-23.4-52.4-15-15.2-34.4-24-53-24H676c-15.4 0-28-12.6-28-28s12.6-28 28-28h117.6c74 0 134.4 60.2 134.4 134.4V252c0 15.4-12.6 28-28 28z"  horiz-adv-x="1024" />

    
    <glyph glyph-name="md-barcode" unicode="&#58954;" d="M176 640h96v-512H176z m288 0h96v-512h-96z m-144-32h96v-448h-96z m288 0h96v-448h-96z m144 32h96v-512h-96zM208 688V784H32v-800h176v96H128V688z m608 96v-96h80v-608h-80v-96h176V784z"  horiz-adv-x="1024" />

    
    <glyph glyph-name="md-trash" unicode="&#59210;" d="M256 85.142C256 38.308 294.396 0 341.334 0h341.334C729.604 0 768 38.308 768 85.142V576H256v-490.858zM832 704h-160l-53.57 64H405.572L352 704H192v-64h640V704z"  horiz-adv-x="1024" />

    
    <glyph glyph-name="ios-quote" unicode="&#59466;" d="M418 704h-130c-52.8 0-96-43.2-96-96v-256c0-52.8 43.2-96 96-96h77.4c9.2 0 16.6-7.8 16-17.2-4.6-71-37.6-120.4-62.6-148.2-9.4-10.4-2-26.8 11.8-26.8h79.8c5 0 9.6 2.2 12.6 6.2 14.8 19.2 57 83.2 57 187.8v384c0 35.6-26.6 62.2-62 62.2z m352 0h-130c-52.8 0-96-43.2-96-96v-256c0-52.8 43.2-96 96-96h77.4c9.2 0 16.6-7.8 16-17.2-4.6-71-37.6-120.4-62.6-148.2-9.4-10.4-2-26.8 11.8-26.8h79.8c5 0 9.6 2.2 12.6 6.2 14.8 19.2 57 83.2 57 187.8v384c0 35.6-26.6 62.2-62 62.2z"  horiz-adv-x="1024" />

    
    <glyph glyph-name="md-beaker" unicode="&#58955;" d="M896.2 826.2c0 2.4-0.8 5.8-5.8 5.8H257c-108.6 0-128.8-54.8-128.8-79.6C188.8 744 192 743 192 679v-614c0-70.6 57.8-129 128.6-129H736c70.6 0 128 58.4 128 129V749.4c4.4 35 24 63.6 26.2 67 2.4 3.8 6 7.6 6 9.8zM708.4 32H352.6c-31.8 0-59.4 23.8-64.6 54.2V736h480v-639.4c0-36-24.8-64.6-59.6-64.6zM364 576v-452c0-8.8 7.2-16 16-16h296c8.8 0 16 7.2 16 16V576H364z"  horiz-adv-x="1024" />

    
    <glyph glyph-name="md-trending-down" unicode="&#59211;" d="M960 102V371l-102.6-102.6-282.2 282-179.2-179.4L127.2 640 64 576.8l332-332.6 179.2 179.4 218.6-218.8-102.6-102.8H960z"  horiz-adv-x="1024" />

    
    <glyph glyph-name="ios-radio-button-off" unicode="&#59467;" d="M512 744c96.2 0 186.6-37.4 254.6-105.4S872 480.2 872 384s-37.4-186.6-105.4-254.6S608.2 24 512 24c-96.2 0-186.6 37.4-254.6 105.4S152 287.8 152 384s37.4 186.6 105.4 254.6S415.8 744 512 744m0 56C282.2 800 96 613.8 96 384s186.2-416 416-416 416 186.2 416 416S741.8 800 512 800z"  horiz-adv-x="1024" />

    
    <glyph glyph-name="md-bluetooth" unicode="&#58956;" d="M798 576.2L541 832H496v-340L289.4 697.6 226 634.4 477.6 384 226 133.6l63.4-63.2L496 276v-340h45L798 191.8 604.4 384l193.6 192.2z m-212 84.2l84.6-84.2L586 492v168.4z m84.6-468.6L586 107.6V276l84.6-84.2z"  horiz-adv-x="1024" />

    
    <glyph glyph-name="md-trending-up" unicode="&#59212;" d="M691.2 640l102.6-102.6-218.6-218.8-179.2 179.2L64 165.2 127.2 102 396 371l179.2-179.4 282.2 282 102.6-102.6V640H691.2z"  horiz-adv-x="1024" />

    
    <glyph glyph-name="ios-radio-button-on" unicode="&#59468;" d="M512 744c96.2 0 186.6-37.4 254.6-105.4S872 480.2 872 384s-37.4-186.6-105.4-254.6S608.2 24 512 24c-96.2 0-186.6 37.4-254.6 105.4S152 287.8 152 384s37.4 186.6 105.4 254.6S415.8 744 512 744m0 56C282.2 800 96 613.8 96 384s186.2-416 416-416 416 186.2 416 416S741.8 800 512 800zM727 599C669.6 656.4 593.2 688 512 688c-81.2 0-157.6-31.6-215-89C239.6 541.6 208 465.2 208 384s31.6-157.6 89-215C354.4 111.6 430.8 80 512 80c81.2 0 157.6 31.6 215 89C784.4 226.4 816 302.8 816 384s-31.6 157.6-89 215z"  horiz-adv-x="1024" />

    
    <glyph glyph-name="md-body" unicode="&#58957;" d="M512 800c44 0 80-36 80-80s-36-80-80-80-80 36-80 80 36 80 80 80z m384-288.2H640V-32h-85.4V256h-85.4v-288H384V511.8H128v85.4h768v-85.4z"  horiz-adv-x="1024" />

    
    <glyph glyph-name="md-tv" unicode="&#59213;" d="M878.6 744H145.4C100.6 744 64 708 64 664v-480c0-44 36.6-80 81.4-80h203.6v-80h325.8v80h203.6c44.8 0 81 36 81 80l0.4 480c0.2 44-36.4 80-81.2 80z m0-560H145.4V664h733v-480z"  horiz-adv-x="1024" />

    
    <glyph glyph-name="ios-radio" unicode="&#59469;" d="M120 384c0 102 37.2 195.8 108 271.2 10.6 11.4 10.4 29.6-0.8 40.6-5.2 5.2-12.2 8.2-19.4 8.2-7.6 0-14.8-3.2-20.2-8.8C106.6 608.6 64 501.2 64 384c0-117 42.6-224.6 123.4-311 5.4-5.8 12.6-9 20.4-9 7.2 0 14.2 2.8 19.4 7.8 5.4 5.2 8.6 12.4 8.8 20 0.2 7.8-2.6 15.2-8 20.6C157.2 188.2 120 282 120 384z m716.4 311.2c-5.2 5.6-12.4 8.8-20 8.8-7.2 0-14.2-2.8-19.4-7.8-5.4-5.2-8.6-12.4-8.8-20-0.2-7.8 2.6-15.2 8-20.6 70.6-75.6 108-169.4 108-271.4s-37.2-195.8-108-271.4c-10.6-11.2-10.4-29.4 0.6-40.4 5-5.2 12-8 19.4-8 7.8 0 15.2 3.2 20.4 9.2 80.8 86 123.4 193.4 123.4 310.4 0 117-42.6 224.8-123.6 311.2zM318.4 200.6c-48.2 48.6-74.6 113.2-74.6 181.8 0 70 27.6 135.8 77.6 184.8 11 10.6 11.2 28.4 0.4 39.6-5.2 5.4-12.4 8.4-20 8.4-7.4 0-14.4-2.8-19.6-8C221.4 547.6 188 467.8 188 382.4c0-83.2 32.2-161.8 90.6-221.2 5.4-5.4 12.4-8.4 19.8-8.4s14.4 3 19.6 8.4c5.2 5.2 8.2 12.2 8.2 19.6 0.4 7.4-2.4 14.4-7.8 19.8zM742 607c-5.2 5.2-12 8-19.6 8-7.6 0-14.6-3-20-8.2-10.8-10.8-10.8-28.6 0.2-39.6 50-49 77.4-113 77.4-183 0-68.4-26.2-134.8-74.2-183.6-10.8-10.8-10.6-28.6 0.2-39.4 5.2-5.2 12.4-8.2 19.6-8.2 7.6 0 14.8 3 19.8 8.2C804 220.6 836 300.8 836 384c0 85-33.4 163-94 223zM414.2 529.2c-5.2 5.4-12.4 8.4-20 8.4-7.4 0-14.4-2.8-19.6-8.2-39.6-39-61.6-91.2-61.6-146.6 0-54.2 21-105.4 59-144.2 5.4-5.4 12.4-8.4 20-8.4 7.4 0 14.4 2.8 19.6 8 5.4 5.2 8.4 12.2 8.4 19.8 0 7.6-2.8 14.6-8.2 20-27.6 28-42.8 65.2-42.8 105 0 40.6 16 78.4 44.8 106.8 10.8 10.4 11 28.2 0.4 39.4z m237.2 0.4c-5.2 5.2-12 8-19.6 8-7.6 0-14.6-3-20-8.2-10.8-10.8-10.8-28.6 0.2-39.6 29-28.6 44.8-66.6 44.8-107 0-39.6-15.2-77-43-105-5.2-5.2-8.2-12.4-8-19.8 0-7.4 3-14.4 8.2-19.6 5.2-5.2 12.4-8.2 19.6-8.2 7.4 0 14.6 3 19.8 8.4 38.2 38.8 59.2 90 59.2 144.2 0.2 55.6-21.6 107.6-61.2 146.8zM512 460c-42 0-76-34-76-76s34-76 76-76 76 34 76 76-34.2 76-76 76z"  horiz-adv-x="1024" />

    
    <glyph glyph-name="md-bonfire" unicode="&#58958;" d="M544.4 194.8c-1.6 16.4-16.4 29.2-34.6 29.2-16.6 0-30.4-10.8-33.8-25L442.2 14c-1-4.6-1.6-9.2-1.6-14 0-35.4 31-64 69.4-64s69.4 28.6 69.4 64c0 5.8-0.8 11.4-2.4 16.8l-32.6 178z m75.8-8.8z m188.4-70.6c-3.8 2.8-7.2 5.8-11.2 7.8l-137.8 95c-12.6 7.6-26 7.4-35.8-1.8-9-8.2-10.2-20.8-3.6-30.8l106-131.6c2-3 4.6-5.6 7.2-8.4 17-18.2 54.4-19.2 75 0 20.8 19.6 20.6 54.4 0.2 69.8zM764.4 226z m136.4 25l-129 4.6c-8.4 1.2-16-4.2-17.4-12-1.4-7.2 3-14.2 10.2-17.6h0.2l125-35.6c18-3.8 38.2 4.6 38.2 23.2 0 23.8-6.6 35-27.2 37.4zM259 226z m0 0c7.2 3.2 11.4 10.4 10.2 17.6-1.4 8-9 13.2-17.4 12l-129-4.6C102 248.6 96 237.4 96 213.8c0-18.6 19.8-27.2 37.6-23.2l125 35.6c0.2-0.2 0.2-0.2 0.4-0.2z m105.4-7.6l-137.8-94.8c-4-2.2-7.8-4.8-11.2-7.8-20.8-19.2-20.8-50.2 0-69.2 20.8-19.2 54.2-19.2 75 0 2.8 2.6 5.2 5.4 7.2 8.4l106 131.2c6.6 10 5.4 22.4-3.6 30.6-9.6 9-25.2 9.6-35.6 1.6zM512 832s60.4-70.8 60.4-128.8c0-55.6-36.4-100.6-91.8-100.6-55.8 0-97.8 45-97.8 100.6l0.8 13.8c-54.4-64.6-87-152.4-87-243.6 0-119.2 96.4-215.6 215.6-215.6s215.6 96.4 215.6 215.6C727.6 618.6 656 788.6 512 832z m-7.8-493.4c-48 0-86.8 37.8-86.8 84.6 0 43.6 28.2 74.4 75.8 84 47.6 9.8 97 32.6 124.6 69.6 10.6-34.8 15.8-71.4 15.8-108.8 0-71.4-58-129.4-129.4-129.4z"  horiz-adv-x="1024" />

    
    <glyph glyph-name="md-trophy" unicode="&#59214;" d="M784 686c1.8 54 0.4 112 0.2 114H238.6c0-2-1.6-60 0.2-114H96c0-136 19.8-204.6 42-253.4S190.8 342 255.4 292c60.2-46.6 191-107.2 208.6-115.2v-56.6c-9.2-20-47-56.4-166.6-56.4H256v-96h512v96h-51.4c-121.4 0-150 38.2-156.6 56.4v56.6c18.6 9.2 161.8 80.6 208.8 115 50.4 36.8 101.8 103 117.4 140.6S928 562 928 686h-144zM219.2 472.2c-17.6 36.4-28 75.8-31.4 123.8h57.4c1.4-12 2.8-22.6 4.6-32.6 13.2-78.4 29.6-140.4 51.4-193-34.6 27-62.6 61.6-82 101.8z m585.6 0c-19.8-40.6-48-75.4-83.2-102.6 22 52.4 38 113.6 51.6 193.8 1.6 10 3.2 20.6 4.6 32.6h58.6c-3.6-48-13.8-87.4-31.6-123.8z"  horiz-adv-x="1024" />

    
    <glyph glyph-name="ios-recording" unicode="&#59470;" d="M772.4 604h-0.2c-121.2 0-219.6-98.4-219.6-220.2 0-61 24.6-116 64.6-155.8H407c39.8 39.8 64.6 95 64.6 155.8 0 121.6-98.4 220.2-219.6 220.2h-0.4C130.4 604 32 505.6 32 384s98.4-220 219.6-220h520.8c121.2 0 219.6 98.4 219.6 220s-98.4 220-219.6 220zM928 384c0-86.2-69.8-156.4-155.8-156.4s-155.8 70.2-155.8 156.4 69.8 156.4 155.8 156.4S928 470.2 928 384z m-676.2-156.4C166 227.6 96 297.8 96 384s69.8 156.4 155.8 156.4 155.8-70.2 155.8-156.4-69.8-156.4-155.8-156.4z"  horiz-adv-x="1024" />

    
    <glyph glyph-name="md-bicycle" unicode="&#58959;" d="M661.332 633.596c37.336 0 67.196 29.87 67.196 67.202S698.668 768 661.332 768C624 768 594.14 738.13 594.14 700.798s29.86-67.202 67.192-67.202z m112-260.264c-102.664 0-186.664-84-186.664-186.666s84-186.666 186.664-186.666C876 0 960 84 960 186.666s-84 186.666-186.668 186.666z m0-317.332c-72.804 0-130.664 57.86-130.664 130.666s57.86 130.666 130.664 130.666c72.808 0 130.668-57.86 130.668-130.666S846.14 56 773.332 56z m-162.138 392H768v64h-117.69l-69.24 120.268c-11.21 18.666-31.738 31.728-54.14 31.728-16.798 0-33.596-7.464-44.798-18.666L338.668 507.2c-11.202-11.202-18.666-28-18.666-44.798 0-24.262 18.404-42.93 37.07-54.13L480 331.732V160h64V384l-78.666 64 85.858 89.066L611.194 448z m-360.528-74.668C148 373.332 64 289.332 64 186.666S148 0 250.666 0s186.666 84 186.666 186.666-83.998 186.666-186.666 186.666z m0-317.332C177.868 56 120 113.86 120 186.666s57.868 130.666 130.666 130.666 130.666-57.86 130.666-130.666S323.464 56 250.666 56z"  horiz-adv-x="1024" />

    
    <glyph glyph-name="md-umbrella" unicode="&#59215;" d="M820.2 407.8c24 0 53.2-21.8 67.6-51.8H928c-0.6 100-42.4 203-118.8 281.8-72.6 74.8-166 121-265.2 131.4-6 18-23 30.8-43.2 30.8-20 0-37-13-43-30.6C250.6 748.4 96 576.6 96 363.6c0-2.2 0.2-3.6 0.8-7.6h43.6c13.6 30 44.4 51.8 70.6 51.8 34 0 63-21.8 73-51.8h39.6c8.2 30 33.8 51.4 66 51.4 35.6 0 66.2-29 68.2-65.2v-236.6c0-18.6 0.2-48.2-26.8-48.2-13.8 0-33.2 3.6-33.2 32V132h-86v-42.6c0-69.2 47.2-121.4 120-121.4 39 0 66.6 17 87 37.4 26.2 26.4 27 69.4 27 100.2V343.8c4 51.6 47.8 63.4 83.8 63.4 34.4 0 64.6-23.2 75.6-51.2h41c10.2 30 39.6 51.8 74 51.8z"  horiz-adv-x="1024" />

    
    <glyph glyph-name="ios-redo" unicode="&#59471;" d="M64 32h5.8c3.6 0 7 2.2 8.2 5.6 4.4 11.4 16.6 39.6 42.8 79.4 43 65.4 116.8 134.8 189 167 55.2 24.8 106 43 194.2 46.4 4.6 0.2 8.4-3.4 8.4-8v-163.2c0-6.4 7.2-10.2 12.4-6.8l431.8 284.4c4.8 3.2 4.8 10.2 0 13.4l-432 284.4c-5.4 3.6-12.4-0.2-12.4-6.8v-165.2c0-4.4-3.4-7.8-7.6-8-143.2-7.6-246.2-49.6-326.8-131-122-123.2-113.6-278.2-113.6-317.4 0-20.6-0.2-50.6-0.2-74.2z"  horiz-adv-x="1024" />

    
    <glyph glyph-name="md-beer" unicode="&#58960;" d="M832 616h-32v12c17.8 18 32 45.8 32 76 0 70.6-57.4 128-128 128-32.6 0-62.2-12.2-84.8-32.2C594.4 820 562.8 832 528.4 832c-31.6 0-60.8-10.2-84.6-27.4C424 821.6 398 832 369.8 832c-34.2 0-64.8-15.2-85.6-39-23.4 24-56 39-92.2 39-70.6 0-128-57.4-128-128 0-32.4 12.2-62 32-84.6V510c0-53 43-96 96-96v-349c0-70.6 57.6-129 128.4-129H672c70.6 0 128.2 58.4 128.2 129V152h32c100 0 128 65.4 128 136v192c-0.2 70.6-34.2 136-128.2 136z m-128-104H288v107.4c0.6 0.8 1.4 1.6 2 2.4 2.4 3 4.8 6 7 9.2 3-2.4 6-4.8 9.2-6.8 18.2-12.2 40-19.4 63.4-19.4 12.8 0 25.2 2.2 36.6 6 25.6-40.4 70.6-67.4 122-67.4 44 0 83.4 19.8 109.8 50.8 11.4 13.4 20.4 28.8 26.2 45.8H704v-128zM192 639.8v-150c-18 0-32 14.4-32 32v126.6c-16 9-26.8 24.2-30.6 42-1 4.2-1.4 8.8-1.4 13.4 0 35.2 28.8 64 64 64 23.6 0 46.6-15.4 60.2-30.8s53.4-15.4 67.8 0c13.6 14.6 28.6 30.8 49.6 30.8 12 0 23.2-4.4 31.8-11.6 3.8-3.2 7.2-7 9.8-11.2 2.2-3.6 4-8.4 6.2-11.6 5.4-6.8 13-11 22.4-11 8.8 0 16.6 3.8 22 10 1.2 1.4 2.4 3 3.4 4.6 4 5 8.4 9.6 13.4 13.6 13.6 10.8 31 17.2 49.6 17.2 21.2 0 40.4-8.2 54.8-21.8 3.4-3.2 13.4-9 26.4-10.2 9-0.8 12.2-0.6 16.4 0 20.6 2.6 28.8 9.4 32.8 13.2 11.6 11.6 27.6 18.8 45.2 18.8 35.2 0 64-28.8 64-64 0.4-6.2-0.6-12.4-2.4-18.2-5 11-16.2 18.4-29.2 18.4h-110s-17.4 1.4-17.4-16.4c0-17.8-5.8-34.2-15.6-47.4-14.6-19.8-38.2-32.8-64.8-32.8-29.8 0-55.8 16.2-69.6 40.4-3.2 5.4-5.6 11.2-7.4 17.2-0.2 1.2-0.6 2.2-0.8 3.2-4 11.8-15 20.4-28.2 20.4-7.8 0-15-3-20.4-8l-0.2-0.2c-4.8-4.2-10.6-7.4-16.8-9.4-4.8-1.6-10-2.4-15.4-2.4-15 0-29.4 8-37.6 17.2-20 22.8-47.4 13.6-59.4 11-12-2.6-24.4-23.4-24.4-23.4-2.2-4.2-4.8-8-7.8-11.6-12-13.4-30.4-22-48.4-22zM864 288c0-35.4-12.6-48-48-48h-16V528h16c35.4 0 48-12.6 48-48v-192z"  horiz-adv-x="1024" />

    
    <glyph glyph-name="md-undo" unicode="&#59216;" d="M524.6 536.8c-115.8 0-220.6-43.2-301.4-113.6L64 576v-384h395l-158.2 153.6c60.8 50.6 138 82.2 223.6 82.2 154.6 0 286.2-96.4 332-235.6l103.6 29.6c-60.8 182.8-232.4 315-435.4 315z"  horiz-adv-x="1024" />

    
    <glyph glyph-name="ios-refresh" unicode="&#59472;" d="M866 318.4c-15.4 0-28.6-11.8-29.8-27.2-13.8-166.2-153.6-295.8-323.6-295.8-179 0-324.8 144.8-324.8 322.8 0 175.2 141.2 318.4 316.4 322.8 4.6 0.2 8.2-3.4 8.2-8v-100.6c0-25.2 27.8-40.4 49.2-27L754 640c20 12.6 20 41.6 0 54.2l-192.2 132.8c-21.4 13.4-49.2-1.8-49.2-27v-91.4c0-4.4-3.4-8-7.8-8C296 696.4 128 526.8 128 318.2 128 107 300.2-64 512.6-64c201.6 0 366.8 153.4 383.2 350.2 1.6 17.4-12.4 32.2-29.8 32.2z"  horiz-adv-x="1024" />

    
    <glyph glyph-name="md-book" unicode="&#58961;" d="M852.4 735.2l-340.4-64-340.4 64C128 742 96 701.4 96 660v-489c0-41.4 32-65.2 75.6-75.2L512 32l340.4 64c43.6 10 75.6 33.8 75.6 75.2V660c0 41.4-32 82-75.6 75.2z m0-564l-302.4-64V596.2l302.4 64v-489z m-378.4-64l-302.4 64V660L474 596v-488.8z"  horiz-adv-x="1024" />

    
    <glyph glyph-name="md-videocam" unicode="&#59217;" d="M768 457v170.4c0 26.8-22.4 48.6-49.8 48.6H113.8C86.4 676 64 654.2 64 627.4v-486.6C64 114 86.4 92 113.8 92h604.4c27.4 0 49.8 22 49.8 48.6v170.4l192-194.6V651.6l-192-194.6z"  horiz-adv-x="1024" />

    
    <glyph glyph-name="ios-refresh-circle" unicode="&#59473;" d="M512 800C282.2 800 96 613.8 96 384s186.2-416 416-416 416 186.2 416 416S741.8 800 512 800z m0-672.2c-141.4 0-256 114.6-256 256.2s114.6 256.2 256 256.2v74c0 12.8 14.2 20.4 24.8 13.4l145.8-105.2c9.8-6.6 9.4-21.2-0.8-27.2L536 502.6c-10.6-6.2-24 1.6-24 13.8v83.8c-120.6 0-218.4-99.4-216.2-220.4 2.2-118.2 100.6-213.4 219-212 111.8 1.4 203.6 87.4 212.6 198 0.8 10.4 9.4 18.2 19.8 18.2 11.6 0 20.8-9.8 19.8-21.4-10.8-132-120.8-234.8-255-234.8z"  horiz-adv-x="1024" />

    
    <glyph glyph-name="md-boat" unicode="&#58962;" d="M168.51 70h2.126c68.246 0 127.954 38.042 170.61 84.988 42.65-46.946 102.36-85.524 170.608-85.524s127.958 38.668 170.61 85.612C725.118 108.132 784.824 70 853.07 70h2.124l102.506 277.56c4.252 10.658 2.126 23.282-2.14 33.952-4.272 10.666-14.474 16.974-25.134 21.246L854 427.734v196.3C854 670.98 814.688 710 767.768 710h-127.958l-31.986 106h-191.938l-31.99-106h-127.958C209.022 710 170 670.98 170 624.036v-196.3l-76.148-25.066c-10.66-4.272-21.164-10.668-25.436-21.334-4.27-10.67-6.316-20.98-2.062-33.774L168.51 70zM256 624h512v-168.522l-256 83.21-256-83.21V624zM682.462 79.986c-104.506-72.534-236.712-72.516-341.216 0.018 0 0-115.276-128.004-213.264-128.004h42.654c59.708 0 117.292 23.452 170.61 51.188 106.63-55.468 234.586-55.456 341.216 0.014C735.78-24.536 793.362-48 853.07-48h42.656c-95.302 0-213.264 127.986-213.264 127.986z"  horiz-adv-x="1024" />

    
    <glyph glyph-name="md-volume-mute" unicode="&#59218;" d="M128 512v-256h170.668L512 32.914V735.084L298.668 512H128z"  horiz-adv-x="1024" />

    
    <glyph glyph-name="ios-remove" unicode="&#59474;" d="M737 416h-450c-17.6 0-32-14.4-32-32 0-8.8 3.6-16.8 9.4-22.6 5.8-5.8 13.8-9.4 22.6-9.4h450c17.6 0 32 14.4 32 32s-14.4 32-32 32z"  horiz-adv-x="1024" />

    
    <glyph glyph-name="md-bookmark" unicode="&#58963;" d="M720 768H304c-44.004 0-80-35.996-80-80v-688l288 128 288-128V688c0 44.004-35.996 80-80 80z"  horiz-adv-x="1024" />

    
    <glyph glyph-name="md-volume-low" unicode="&#59219;" d="M128 512v-256h170.668L512 32.914V735.084L298.668 512H128z m576-128c0 76.798-42.666 144.814-106.666 177.726v-353.272C661.334 239.184 704 307.2 704 384z"  horiz-adv-x="1024" />

    
    <glyph glyph-name="ios-remove-circle-outline" unicode="&#59475;" d="M693 416h-362c-17.6 0-32-12-32-32s15-32 32-32h362c17.6 0 32 14.4 32 32s-14.4 32-32 32zM512 744c96.2 0 186.6-37.4 254.6-105.4S872 480.2 872 384s-37.4-186.6-105.4-254.6S608.2 24 512 24c-96.2 0-186.6 37.4-254.6 105.4S152 287.8 152 384s37.4 186.6 105.4 254.6S415.8 744 512 744m0 56C282.2 800 96 613.8 96 384s186.2-416 416-416 416 186.2 416 416S741.8 800 512 800z"  horiz-adv-x="1024" />

    
    <glyph glyph-name="md-bookmarks" unicode="&#58964;" d="M810.4 768h-42c30-11.4 45.6-41.2 45.6-85.4v-597.4c0-44.2-14-74.6-45.6-85.4h42c47.4 0 85.6 38.4 85.6 85.4V682.6c0 47-38.2 85.4-85.6 85.4z m-119.4-0.4c-2.8 0.2-5.6 0.4-8.4 0.4H213.4C166.4 768 128 729.6 128 682.6v-597.4c0-47 38.4-85.4 85.4-85.4h469.4c2.8 0 5.6 0.2 8.4 0.4 43 4.2 77 40.8 77 85V682.6c-0.2 44.2-34.2 80.8-77.2 85zM416 384l-112 64-112-64V704h224v-320z"  horiz-adv-x="1024" />

    
    <glyph glyph-name="md-volume-high" unicode="&#59220;" d="M128 512v-256h170.668L512 32.914V735.084L298.668 512H128z m576-128c0 76.798-42.666 144.814-106.666 177.726v-353.272C661.334 239.184 704 307.2 704 384zM597.334 768v-89.956C721.062 640.736 810.668 522.236 810.668 384c0-138.238-89.606-256.738-213.334-294.044V0C768 39.492 896 197.486 896 384c0 186.512-128 344.508-298.666 384z"  horiz-adv-x="1024" />

    
    <glyph glyph-name="ios-remove-circle" unicode="&#59476;" d="M512 800C282.2 800 96 613.8 96 384s186.2-416 416-416 416 186.2 416 416S741.8 800 512 800z m181-448h-362c-17 0-32 12-32 32s14.4 32 32 32h362c17.6 0 32-14.4 32-32s-14.4-32-32-32z"  horiz-adv-x="1024" />

    
    <glyph glyph-name="md-bowtie" unicode="&#58965;" d="M552 288h-80c-30.8 0-56 25.2-56 56v80c0 30.8 25.2 56 56 56h80c30.8 0 56-25.2 56-56v-80c0-30.8-25.2-56-56-56z m-200 48v96c0 36.4 17.4 68.8 44.4 89.2C384 576 192 704 128 704c-35.2 0-64-28.8-64-64v-512c0-35.2 28.6-64 64-64 64 0 256 128 268.4 182.8-27 20.4-44.4 52.8-44.4 89.2zM896 704c-64 0-256-128-268.4-182.8 27-20.4 44.4-52.8 44.4-89.2v-96c0-36.4-17.4-68.8-44.4-89.2C640 192 832 64 896 64c35.4 0 64 28.8 64 64V640c0 35.2-28.8 64-64 64z"  horiz-adv-x="1024" />

    
    <glyph glyph-name="md-train" unicode="&#59221;" d="M512 800c-176 0-352-21.8-352-175.2v-416c0-84.6 69-153.2 154-153.2L248-10v-22h98.2l88 87.6H600l88-87.6h88v21.8l-66 65.6c85 0 154 68.8 154 153.2v416C864 778.2 706.4 800 512 800z m-198-656.8c-36.6 0-66 29.4-66 65.6s29.4 65.6 66 65.6 66-29.4 66-65.6-29.4-65.6-66-65.6z m154 306.4H248v175.2h220v-175.2z m88 0v175.2h220v-175.2H556z m154-306.4c-36.6 0-66 29.4-66 65.6s29.4 65.6 66 65.6 66-29.4 66-65.6-29.4-65.6-66-65.6z"  horiz-adv-x="1024" />

    
    <glyph glyph-name="ios-reorder" unicode="&#59477;" d="M160 288h704v-32H160z m0 112h704v-32H160z m0 112h704v-32H160z"  horiz-adv-x="1024" />

    
    <glyph glyph-name="md-briefcase" unicode="&#58966;" d="M704 608v79.2C704 732 668 768 623.2 768H400.8C356 768 320 732 320 687.2V608H96v-527.2C96 36 132 0 176.8 0h670.4c44.8 0 80.8 36 80.8 80.8V608H704z m-80 0H400v80h224v-80z"  horiz-adv-x="1024" />

    
    <glyph glyph-name="md-walk" unicode="&#59222;" d="M576 672c44.446 0 79.994 35.552 79.994 80 0 44.45-35.548 80-79.994 80s-80.006-35.55-80.006-80c0-44.448 35.56-80 80.006-80z m0-240h208v80h-144l-89.604 138.666c-15.396 23.334-36.272 36.272-61.866 36.272-6.396 0-17.656-1.062-25.598-3.494L240 608v-224h80v160l81.062 32L240-64h80l113.396 328.542L534 128v-192h76V192l-114.062 192 39.49 123.728L576 432z"  horiz-adv-x="1024" />

    
    <glyph glyph-name="ios-resize" unicode="&#59478;" d="M836.6 736H615.6c-15 0-27.4-12.2-27.4-27.4v-0.4c0-15 12.2-27.4 27.4-27.4h153L215.2 127.4v153c0 15-12.2 27.4-27.4 27.4h-0.4c-15 0-27.4-12.2-27.4-27.4v-221c0-15 12.2-27.4 27.4-27.4h221c15 0 27.4 12.2 27.4 27.4v0.4c0 15-12.2 27.4-27.4 27.4h-153l553.4 553.4v-153c0-15 12.2-27.4 27.4-27.4h0.4c15 0 27.4 12.2 27.4 27.4V708.6c0 15.2-12.2 27.4-27.4 27.4z"  horiz-adv-x="1024" />

    
    <glyph glyph-name="md-browsers" unicode="&#58967;" d="M848 768H176c-53.2 0-96-43.2-96-96v-576c0-52.8 42.8-96 96-96h672c52.8 0 96 43.2 96 96V672c0 52.8-42.8 96-96 96z m0-672H176V544h672v-448z"  horiz-adv-x="1024" />

    
    <glyph glyph-name="md-wallet" unicode="&#59223;" d="M405.4 213.4V554.6c0 47 38 85.4 85.4 85.4h394v42.6c0 47-37.8 85.4-84.6 85.4H184c-47.4 0-88-37-88-84v-600c0-47 40.6-84 88-84h616c47 0 84.6 38.4 84.6 85.4V128h-394c-47.2 0-85.2 38.4-85.2 85.4zM490 524v-280c0-17.6 14.4-32 32-32h374c17.6 0 32 14.4 32 32V524c0 17.6-14.4 32-32 32H522c-17.6 0-32-14.4-32-32z m154.2-203.8c-38.6-2.4-70.4 29.4-68 68 2 31.8 27.8 57.6 59.8 59.8 38.6 2.4 70.4-29.4 68-68-2.2-32-28-57.8-59.8-59.8z"  horiz-adv-x="1024" />

    
    <glyph glyph-name="ios-repeat" unicode="&#59479;" d="M673.2 581L606 647.8c-7 7-17 9.8-27.2 7.2-2.4-0.6-4.8-1.6-7-3-9.4-5.8-14.4-15.6-13.6-26.2 0.4-6.8 3.8-13.2 8.6-18.2l32-31.8H284c-41.6 0-80.6-16.2-110.2-45.8C144.2 500.6 128 461.6 128 420v-32c0-15.4 12.6-28 28-28s28 12.6 28 28v32c0 26.6 10.4 51.6 29.4 70.6 19 19 44 29.4 70.6 29.4h310.8l-32-31.8c-4.8-4.8-8-10.8-8.6-17.4-0.8-8.4 2.2-16.6 8.2-22.6 5.2-5.2 12.4-8.2 19.8-8.2s14.4 2.8 19.8 8.2l71.2 70.8c8.4 8.2 13 19.4 13 31-0.2 11.8-4.8 22.8-13 31zM868 408c-15.4 0-28-12.6-28-28v-32c0-26.6-10.4-51.6-29.4-70.6-19-19-44-29.4-70.6-29.4H429.2l32 31.8c4.8 4.8 8 10.8 8.6 17.6 0.8 8.4-2.2 16.6-8.2 22.6-5.2 5.2-12.4 8.2-19.8 8.2s-14.4-2.8-19.8-8.2l-71.2-70.8c-8.4-8.2-13-19.4-13-31 0-11.8 4.6-22.8 13-31l67.2-66.8c7-7 17-9.8 27.2-7.2 2.4 0.6 4.8 1.6 7 3 9.4 5.8 14.4 15.6 13.6 26.2-0.4 6.8-3.8 13.2-8.6 18.2l-32 31.8H740c86 0 156 70 156 156v32c0 15-12.6 27.6-28 27.6z"  horiz-adv-x="1024" />

    
    <glyph glyph-name="md-brush" unicode="&#58968;" d="M299.8 291.6c-78.2 0-141.4-62-141.4-138.6 0-60.6-54.6-92.4-94.4-92.4C107.4 4 181.4-32 252.6-32c104.2 0 188.6 82.8 188.6 184.8 0 76.8-63.2 138.8-141.4 138.8zM946.2 724.6l-63.2 62c-18.4 18-48 18-66.4 0L394 372.4l129.6-127 422.4 414c18.6 18 18.6 47.2 0.2 65.2z"  horiz-adv-x="1024" />

    
    <glyph glyph-name="md-unlock" unicode="&#59224;" d="M752 524h-40v80c0 110-90 200-200 200S312 714 312 604h75.996c0 68.008 56.006 124.004 124.004 124.004 68.008 0 124.004-55.996 124.004-124.004H636v-80H272c-44.004 0-80-35.996-80-80v-400c0-44.004 35.996-80 80-80h480c44.004 0 80 35.996 80 80V444c0 44.004-35.996 80-80 80zM512 160c-44.004 0-80 35.996-80 80s35.996 80 80 80 80-35.996 80-80-35.996-80-80-80z"  horiz-adv-x="1024" />

    
    <glyph glyph-name="ios-rainy" unicode="&#59480;" d="M867.8 544.8c-38 35.2-89.2 54.6-144.2 54.6h-11.2c-13 47-38.8 87-75.2 116.4C594.6 750 539 768 476.2 768c-65.4 0-126.4-23.4-172-65.8-45.6-42.4-71-100-72.2-162.8-35-8-67.2-27.4-92-55.8-28.4-32.4-44-73.2-44-114.8 0-89.2 69.8-165.2 154.8-172L202.4 132c-4.8-6.4-6.6-14.4-5.4-22.2 1.2-7.8 5.6-14.6 12-19.2 5-3.6 11-5.4 17.2-5.4 10.4 0 19.6 4.2 25 11.6l74.2 100h70.2l-110.6-150.2c-4.6-6.4-6.8-13.8-5.8-21.2 1-7.8 5.2-14.8 11.8-19.6 7-5 15-5.6 18-5.6 14.4 0 22.4 7 26.8 12.8l134.8 183.6H540L492 132c-4.8-6.6-6.8-14.4-5.4-22.2 1.2-7.8 5.6-14.6 12-19.2 5-3.6 11-5.4 17.2-5.4 10.4 0 19.6 4.2 25 11.6l74 100h70.2l-110.6-150.2c-4.6-6.4-6.8-14-5.8-21.2 1-7.6 5.2-14.4 11.8-19.2 5.2-3.8 11.8-6 17.8-6 10.2 0 19.4 4.4 25 12l139.4 190.2c44.8 9 86 33.2 116.2 69 31.8 37.6 49.4 85.2 49.4 134.2-0.2 53.6-21.6 103.2-60.4 139.2z"  horiz-adv-x="1024" />

    
    <glyph glyph-name="md-bug" unicode="&#58969;" d="M896 576h-134.8c-21.6 37.4-51.4 69.6-87.4 94L752 748.4 684.4 816l-104.2-104.2C558 717.2 535.6 720 512 720s-46-2.8-67.6-8.2L339.6 816 272 748.4l77.8-78.2c-35.6-24.4-65.2-56.6-86.8-94H128v-96h100.4c-2.4-15.8-4.4-31.6-4.4-48v-48H128v-96h96v-48c0-16.4 2-32.2 4.4-48H128v-96h134.8c50-86 142.6-144 249.2-144s199.2 58 249.2 144H896v96h-100.4c2.4 15.8 4.4 31.6 4.4 48v48h96v96h-96v48c0 16.4-2 32.2-4.4 48H896V576z"  horiz-adv-x="1024" />

    
    <glyph glyph-name="md-warning" unicode="&#59225;" d="M64-32h896L512 800 64-32z m496 128h-96v96h96v-96z m0 160h-96v192h96v-192z"  horiz-adv-x="1024" />

    
    <glyph glyph-name="ios-return-left" unicode="&#59481;" d="M141 365.2l119.2 118.8c5.2 5.2 12.2 8.2 19.8 8.2 7.4 0 14.6-2.8 19.8-8.2 5.2-5.2 8.2-12.2 8.2-19.8s-3-14.6-8.2-19.8l-0.2-0.2-82.2-80.2H740c26.4 0 51.6 10.4 70.6 29.4 19 18.8 29.4 43.8 29.4 70.6v96c0 15.4 12.6 28 28 28s28-12.6 28-28v-96c0-41.6-16.2-80.6-45.8-110.2-29.6-29.6-68.6-45.8-110.2-45.8H216.6l79.2-80.4c5.2-5.2 8.2-12.2 8.2-19.8 0-7.4-2.8-14.6-8.2-19.8l-0.2-0.2c-5.4-5-12.4-7.8-19.6-7.8-7.8 0-14.6 2.8-19.8 8.2l-115.2 114.8c-8.4 8.4-13 19.6-13 31.4 0 11.6 4.6 22.6 13 30.8z"  horiz-adv-x="1024" />

    
    <glyph glyph-name="md-build" unicode="&#58970;" d="M948.2 99.6L578.2 472c36.6 94 16.2 204.6-61 282.2C435.8 836 313.8 852.4 216.2 807.4l174.8-176-122-122.8-179 176c-48.6-98-28.2-220.8 53-302.6 77.2-77.8 187-98.2 280.6-61.4l370-372.4c16.2-16.4 40.6-16.4 57 0l93.6 94c20.4 16.6 20.4 45.2 4 57.4z"  horiz-adv-x="1024" />

    
    <glyph glyph-name="md-volume-off" unicode="&#59226;" d="M811 384c0-45.434-9.766-88.724-27.206-127.71l63.76-63.76C878.566 249.34 896 314.694 896 384c0 186.512-128 344.508-298 384v-89.956C722 640.736 811 522.236 811 384zM512 735.084l-102.042-104.96L512 528.086z m329.684-632.854L182.232 761.686l-48-48 180.998-180.826-16.56-20.86H128v-256h170.668L512 32.914V336l189.83-189.372C671.59 121.114 636 101.574 598 89.956V0c62 14.344 117.992 44.326 164.63 85.618l79.22-79.386 48 48.086-48.004 48.078-0.162-0.166zM704.376 384c0 76.798-42.376 144.814-106.376 177.726v-119.64l101.602-101.602A201.192 201.192 0 0 1 704.376 384z"  horiz-adv-x="1024" />

    
    <glyph glyph-name="ios-restaurant" unicode="&#59482;" d="M768 768c-49.6 0-96-154.6-96-320 0-114 64-160 64-160v-256c0-17.6 14.4-32 32-32s32 14.4 32 32V746c0 22-22 22-32 22z m-192 0l20-208c0-8.8-7.2-16-16-16s-16 7.2-16 16l-12 208h-16l-12-208c0-8.8-7.2-16-16-16s-16 7.2-16 16l20 208h-16s-48-214.4-48-256 26.8-77.2 64-90.4V32c0-17.6 14.4-32 32-32s32 14.4 32 32V421.6c37.2 13.2 64 48.4 64 90.4S592 768 592 768h-16z m-256 0c-53 0-96-128-96-256 0-41.6 26.8-77.2 64-90.4V32c0-17.6 14.4-32 32-32s32 14.4 32 32V421.6c37.2 13.2 64 48.4 64 90.4 0 128-43 256-96 256z"  horiz-adv-x="1024" />

    
    <glyph glyph-name="md-bulb" unicode="&#58971;" d="M384 40c0-21.2 17.2-40 40-40h176c22.8 0 40 18.8 40 40v36H384v-36z m128 728c-159.4 0-288-119.8-288-268 0-91.4 48.2-172.4 122.8-221.2V192c0-21.2 18.6-38.4 41.2-38.4h247.8c22.8 0 41.2 17.2 41.2 38.4v86.8C751.8 327.6 800 408.6 800 500c0 148.2-128.6 268-288 268z"  horiz-adv-x="1024" />

    
    <glyph glyph-name="md-water" unicode="&#59227;" d="M761 569.4L512 832 263 569.4c-137.2-144.8-137.2-380 0-524.8C331.6-27.8 421.8-64 512-64s180.4 36.2 249 108.6c137.4 144.8 137.4 380 0 524.8z"  horiz-adv-x="1024" />

    
    <glyph glyph-name="ios-return-right" unicode="&#59483;" d="M883 365.2L763.8 484c-5.2 5.2-12.2 8.2-19.8 8.2-7.4 0-14.6-2.8-19.8-8.2-5.2-5.2-8.2-12.2-8.2-19.8s3-14.6 8.2-19.8l0.2-0.2 82.2-80.2H284c-26.4 0-51.6 10.4-70.6 29.4-19 19-29.4 44-29.4 70.6v96c0 15.4-12.6 28-28 28s-28-12.6-28-28v-96c0-41.6 16.2-80.6 45.8-110.2 29.6-29.6 68.6-45.8 110.2-45.8h523.4L728 227.6c-5.2-5.2-8.2-12.2-8.2-19.8 0-7.4 2.8-14.6 8.2-19.8l0.2-0.2c5.4-5 12.4-7.8 19.6-7.8 7.8 0 14.6 2.8 19.8 8.2l115.2 114.8c8.4 8.4 13 19.6 13 31.4 0.2 11.6-4.4 22.6-12.8 30.8z"  horiz-adv-x="1024" />

    
    <glyph glyph-name="md-business" unicode="&#58972;" d="M522 597.4V768H96v-768h832V597.4H522z m-255.6-512H181.2v85.4h85.2v-85.4z m0 170.6H181.2v85.4h85.2V256z m0 170.6H181.2V512h85.2v-85.4z m0 170.8H181.2v85.4h85.2v-85.4z m170.4-512h-85.2v85.4h85.2v-85.4z m0 170.6h-85.2v85.4h85.2V256z m0 170.6h-85.2V512h85.2v-85.4z m0 170.8h-85.2v85.4h85.2v-85.4z m406-512H522v85.4h85.2V256H522v85.4h85.2v85.4H522V512h320.8v-426.6z m-75.2 341.2h-85.2v-85.4h85.2v85.4z m0-170.6h-85.2v-85.4h85.2V256z"  horiz-adv-x="1024" />

    
    <glyph glyph-name="md-watch" unicode="&#59228;" d="M832 384c0 102.002-48.008 192.002-121.992 250L672 864H352l-38.008-230C240.008 576.002 192 486.002 192 384c0-101.992 48.008-191.992 121.992-250L352-96h320l38.008 230C783.992 192.008 832 282.008 832 384z m-560 0c0 132.002 108.008 240 240 240s240-107.998 240-240c0-131.992-108.008-240-240-240s-240 108.008-240 240z"  horiz-adv-x="1024" />

    
    <glyph glyph-name="ios-rewind" unicode="&#59484;" d="M71.8 397.4L488 637.8c10.8 6.2 24.6-1.2 24.6-13.4V394l422.6 243.8c10.8 6.2 24.6-1.2 24.6-13.4v-480.6c0-12.2-13.8-19.6-24.6-13.4L512.8 374v-230.4c0-12.2-13.8-19.6-24.6-13.4L71.8 370.6c-10.4 6-10.4 20.8 0 26.8z"  horiz-adv-x="1024" />

    
    <glyph glyph-name="md-cafe" unicode="&#58973;" d="M96 96h736v-96H96zM848 768H160v-448c0-88 72-160 160-160h288c88 0 160 72 160 160v128h80c44 0 80 36 80 80v160c0 44-36 80-80 80z m0-224h-80v128h80v-128z"  horiz-adv-x="1024" />

    
    <glyph glyph-name="md-woman" unicode="&#59229;" d="M380.8 598.8L322 390.2c-12.6-45.6 41.4-63.4 54.6-20.6l52.6 192.4h14.8l-90.4-338H438v-254c0-46 64-46 64 0V224h20v-254c0-46 62-46 62 0V224h86.8l-92.4 338h16.8l52.6-192.4c13-43.8 66.6-25 54.6 20.4l-58.8 208.8c-8 23.6-36.4 65.2-84 67.2h-94.6c-49.2-2-77.4-43.2-84.2-67.2z m204.4 158.8c0 41.2-32.8 74.6-73.2 74.6-40.4 0-73.2-33.4-73.2-74.6 0-41.2 32.8-74.6 73.2-74.6 40.4 0 73.2 33.4 73.2 74.6z"  horiz-adv-x="1024" />

    
    <glyph glyph-name="ios-reverse-camera" unicode="&#59485;" d="M835 576H726c-9.2 0-17.8 4-24 10.8-56.8 63.6-78.2 85.2-101.4 85.2h-171c-23.4 0-46.4-21.6-103.4-85.4-6-6.8-14.8-10.6-23.8-10.6h-8.2v16c0 8.8-7.2 16-16 16h-52c-8.8 0-16-7.2-16-16v-16h-15C159.8 576 128 549.6 128 514.6v-352c0-35 31.8-66.6 67-66.6h640c35.2 0 61 31.6 61 66.6v352c0 35-25.8 61.4-61 61.4zM616.6 215c-1.6-5-5.2-9.2-9.6-12.2-28.2-19.4-61-29.6-95-29.6-42 0-82.4 16.2-114.2 45.4-29.2 27-48.2 62.4-54 100.4h-40.8c-6.4 0-12 5.6-11.2 13.2 0.2 1.4 0.6 2.6 1.4 3.6l63 84.6c2.2 2.8 5.4 4.4 8.8 4.4 3.4 0 6.6-1.6 8.8-4.4l64.4-83.6c4-5.2 3-12.8-3.6-17-1.2-0.8-2.4-1-3.8-1h-41.6c5.4-25.6 19.4-49.6 39.8-68 23.2-21.2 52.6-32.8 82.8-32.8 24.6 0 48.8 8 70.2 23 3.8 2.6 8.4 4.2 13 4.2 6.4 0 12.4-2.6 16.6-7.4 5.8-6 7.8-14.6 5-22.8z m113.2 135l-62.4-85.8c-3.6-5-11-6.4-16.6-1.6-0.4 0.4-0.8 0.8-1 1.2L585 350c-4 5.2-2.8 13 3.8 17 1.2 0.6 2.4 1 3.8 1h42c-5.4 27.2-19.4 52.2-39.8 71.2-23 21.4-52.4 33.2-82.6 33.2-25 0-49.2-7.8-70.4-22.6-3.8-2.6-8.2-4-12.8-4-6.2 0-12.2 2.6-16.4 7.2-5.6 6-7.6 14.8-5 23 1.6 5 5.2 9.2 9.4 12 28.2 19.4 61.2 29.6 95.2 29.6 43.4 0 84.4-15.8 115.6-44.6 26.6-24.6 46.4-64.2 52.4-104.8h42.2c1.2 0 2.6-0.4 3.6-1 6.4-4.2 7.6-12 3.8-17.2z"  horiz-adv-x="1024" />

    
    </font>
</defs>
</svg>
