<?xml version="1.0" standalone="no"?>
<!DOCTYPE svg PUBLIC "-//W3C//DTD SVG 1.1//EN" "http://www.w3.org/Graphics/SVG/1.1/DTD/svg11.dtd" >
<svg xmlns="http://www.w3.org/2000/svg">
<metadata>Generated by IcoMoon</metadata>
<defs>
<font id="dynamics_icon" horiz-adv-x="1024">
<font-face units-per-em="1024" ascent="791.2727272727273" descent="-232.72727272727272" />
<missing-glyph horiz-adv-x="1024" />
<glyph unicode="&#x20;" horiz-adv-x="186.1818181818182" d="" />
<glyph unicode="&#xe900;" glyph-name="Arrow-left" d="M133.060 345.143l348.492 365.714h-101.379l-380.173-402.286 380.173-402.286h101.107l-348.22 365.714h890.94v73.143z" />
<glyph unicode="&#xe901;" glyph-name="clear" d="M512 730.105c-252.605 0-458.105-205.501-458.105-458.105s205.501-458.105 458.105-458.105c252.605 0 458.105 205.501 458.105 458.105s-205.501 458.105-458.105 458.105zM512-240c-282.301 0-512 229.699-512 512s229.699 512 512 512c282.301 0 512-229.699 512-512s-229.699-512-512-512zM512 233.866l144.605-144.629c5.282-5.228 12.18-7.869 19.079-7.869s13.797 2.641 19.079 7.869c10.509 10.563 10.509 27.594 0 38.157l-144.632 144.608 144.621 144.645c10.509 10.509 10.509 27.54 0 38.104-10.563 10.509-27.594 10.509-38.104 0l-144.648-144.624-144.648 144.624c-10.509 10.509-27.54 10.509-38.104 0-10.509-10.563-10.509-27.594 0-38.104l144.621-144.645-144.632-144.608c-10.509-10.563-10.509-27.594 0-38.157 5.282-5.228 12.18-7.869 19.079-7.869s13.797 2.641 19.079 7.869l144.605 144.629z" />
<glyph unicode="&#xe902;" glyph-name="Expand" d="M710.868 405.536c-8.738 0-17.476-3.345-24.166-9.967l-174.694-174.694-174.694 174.694c-13.312 13.312-34.884 13.312-48.265 0-13.312-13.38-13.312-34.953 0-48.333l198.793-198.793c13.38-13.312 34.953-13.312 48.265 0l198.929 198.793c13.312 13.38 13.312 34.953 0 48.333-6.69 6.622-15.428 9.967-24.166 9.967zM512-171.733c-244.668 0-443.733 199.066-443.733 443.733s199.066 443.733 443.733 443.733c244.668 0 443.733-199.066 443.733-443.733s-199.066-443.733-443.733-443.733zM512 784c-282.351 0-512-229.649-512-512s229.649-512 512-512c282.351 0 512 229.649 512 512s-229.649 512-512 512z" />
<glyph unicode="&#xe903;" glyph-name="Information" d="M512-240c-282.133 0-512 229.882-512 512 0 282.133 229.882 512 512 512s512-229.882 512-512c0-282.119-229.882-512-512-512zM512 742.209c-259.129 0-470.208-211.079-470.208-470.208 0-259.144 211.079-470.208 470.208-470.208 259.144 0 470.208 211.064 470.208 470.208-0.015 259.144-211.079 470.208-470.208 470.208v0zM512 418.297c22.96 0 39.707-18.803 39.707-39.707v-355.289c0-22.975-18.803-39.678-39.707-39.678-22.99 0-39.707 18.788-39.707 39.678v353.188c0 23.004 16.717 41.807 39.707 41.807v0zM512 562.493c22.96 0 39.707-18.818 39.707-39.707 0-22.99-18.803-39.707-39.707-39.707-22.99 0-39.707 18.803-39.707 39.707s16.717 39.707 39.707 39.707v0z" />
<glyph unicode="&#xe904;" glyph-name="Portrait" d="M881.697-83.479c5.868 5.851 11.738 11.703 16.138 17.554l1.468 1.463c4.401 5.85 10.268 11.703 14.67 17.557 0 1.461 1.468 1.461 1.468 2.925 4.4 5.853 8.801 11.702 13.201 17.553 1.469 1.464 1.469 2.927 2.934 2.927 4.4 5.852 7.335 11.703 11.737 17.554 1.468 1.463 1.468 2.927 2.933 4.389 2.936 5.853 7.339 11.703 10.272 17.555 1.468 1.462 1.468 2.926 2.933 4.388 2.933 5.851 5.869 11.703 8.802 17.554 1.47 1.463 1.47 4.39 2.934 5.854 2.934 5.85 5.869 11.702 7.335 17.553 1.468 2.927 1.468 4.389 2.935 7.316 2.933 5.851 4.401 11.702 7.335 16.091 1.466 2.925 1.466 4.387 2.933 7.314 1.468 5.852 4.401 10.24 5.87 16.092 1.468 2.925 1.468 5.851 2.933 8.777 1.468 5.851 2.934 10.239 4.402 16.090 1.468 2.925 1.468 5.851 2.933 8.775 1.469 5.853 2.933 10.242 4.4 16.091 0 2.927 1.469 5.853 1.469 8.778 1.467 5.852 1.467 10.24 2.933 16.091 0 2.925 1.468 5.851 1.468 10.24 1.468 5.851 1.468 11.704 2.933 16.092 0 2.925 1.467 5.849 1.467 10.238 0 5.854 1.468 11.703 1.468 19.018v35.109c0.001 96.549-27.872 188.71-74.818 264.778-8.804 14.628-17.606 27.795-27.874 40.961s-20.538 26.33-30.808 38.034c-10.27 11.702-22.006 23.405-35.209 35.109-5.868 5.851-11.735 10.24-19.073 16.091-32.275 26.331-66.017 48.274-104.16 65.829-14.67 7.313-30.807 13.167-45.479 19.017-14.67 5.852-32.274 10.239-48.412 14.628-36.677 10.241-80.687 16.092-124.699 16.092-283.14 0-513.468-229.67-513.468-512.001v-36.573c0-5.851 1.467-11.702 1.467-17.554 0-2.927 1.468-7.313 1.468-10.24 0-5.852 1.467-10.24 1.467-16.092 0-2.925 1.469-7.315 1.469-10.239 1.467-5.852 1.467-10.241 2.933-16.092 1.468-2.925 1.468-7.315 2.934-10.239 1.467-4.388 2.933-10.24 4.401-14.629 1.467-2.926 1.467-7.314 2.933-10.24 1.468-4.388 2.934-10.24 4.401-14.628 1.468-2.925 1.468-5.853 2.934-10.241s2.933-10.239 5.868-14.628c1.467-2.926 2.933-5.851 4.401-8.777 1.468-4.389 4.401-10.239 5.868-14.628 1.468-2.925 2.933-5.852 4.401-8.776 2.933-4.388 4.401-10.24 7.335-14.627 1.469-2.925 2.935-5.854 4.402-8.779 2.933-4.387 5.867-10.238 7.336-14.627 1.467-2.926 2.933-4.388 4.4-7.314 2.934-4.388 5.868-10.24 8.803-14.629 1.467-2.926 2.934-4.389 4.402-7.314 2.933-4.389 7.335-10.24 10.269-14.629 1.467-1.464 2.933-4.388 4.401-5.852 4.4-4.389 7.335-10.239 11.737-14.628 1.467-1.463 2.933-2.926 4.4-4.388 4.402-5.852 8.803-10.243 13.203-16.092 1.469-1.463 2.934-2.925 2.934-4.389 4.402-5.851 10.27-10.238 14.671-16.091 1.468-1.462 1.468-1.462 2.933-2.925 5.868-5.85 11.737-11.701 17.605-17.553v0 0c92.424-83.386 214.191-134.585 347.692-134.585 143.774-0.006 274.341 59.971 368.231 156.521 0-1.464 0 0 0 0v0zM180.445-98.107c1.467 0 2.933 1.462 4.4 1.462 38.144 19.017 142.305 57.054 209.79 76.069 4.401 0 4.401 0 4.401 23.407 0 27.794-4.401 42.422-8.803 57.052-4.4 19.017-14.67 46.812-19.072 76.069-8.803 8.777-23.473 33.645-33.743 76.069-8.802 38.035-4.402 52.663 0 65.828v4.39c0 8.776-4.402 52.662-8.802 90.697-4.401 23.406 0 76.070 33.742 118.493 19.073 27.794 61.618 61.439 133.503 65.829h42.545c71.884-4.39 114.43-38.035 133.5-65.829 33.743-42.424 38.142-95.087 33.743-118.493-4.401-33.644-4.401-80.457-4.401-90.697v-4.39c4.401-14.628 8.801-27.793 0-65.828-11.739-42.424-26.407-65.828-36.676-76.069 0-27.794-8.804-57.053-19.073-76.069-4.399-19.016-14.67-38.035-14.67-57.052 0-23.407 0-23.407 4.403-23.407 66.016-19.016 168.709-55.589 212.72-76.069-86.553-78.995-205.386-128.731-334.487-128.731-127.634-0.001-244.999 48.274-333.022 127.269z" />
<glyph unicode="&#xe905;" glyph-name="Search" d="M773.214 10.786c162.458 162.458 162.458 425.855 0 588.313s-425.855 162.458-588.313 0c-162.458-162.458-162.458-425.855 0-588.313s425.855-162.458 588.313 0zM727.96 56.040c-137.465-137.465-360.339-137.465-497.803 0s-137.465 360.339 0 497.803c137.465 137.465 360.339 137.465 497.803 0s137.465-360.339 0-497.803zM792.41 30.379c-12.387 12.387-32.925 11.932-45.056-0.199v0c-12.497-12.497-12.15-33.105-0.199-45.056l172.366-172.366c12.387-12.387 32.925-11.932 45.056 0.199v0c12.497 12.497 12.15 33.105 0.199 45.056l-172.366 172.366z" />
<glyph unicode="&#xe906;" glyph-name="Refresh" d="M53.144 499.402c-34.018-68.511-53.144-145.723-53.144-227.402 0-282.77 229.23-512 512-512v73.143c-242.374 0-438.857 196.483-438.857 438.857 0 65.111 14.179 126.91 39.619 182.477l62.482-47.084 22.252 211.836-197.496-79.78 53.144-40.047zM972.198 47.323l51.802-39.035-197.496-79.78 22.252 211.836 63.745-48.035c24.645 54.845 38.356 115.667 38.356 179.692 0 242.374-196.483 438.857-438.857 438.857v73.143c282.77 0 512-229.23 512-512 0-80.598-18.623-156.847-51.802-224.677z" />
<glyph unicode="&#xe907;" glyph-name="Save" d="M438.857 637.714v146.286h73.143v-146.286h365.824c40.335 0 73.033-33.329 73.033-72.806v-585.816c0-40.21-32.731-72.806-73.033-72.806h-804.791c-40.335 0-73.033 33.329-73.033 72.806v585.816c0 40.21 32.731 72.806 73.033 72.806h365.824zM438.857 564.451h-329.279c-19.865 0-36.676-16.38-36.676-36.585v-511.687c0-19.713 16.421-36.585 36.676-36.585h731.545c19.865 0 36.676 16.38 36.676 36.585v511.687c0 19.713-16.421 36.585-36.676 36.585h-329.123v-306.558l219.429 178.468v-99.129l-256-211.352-256 211.352v99.129l219.429-178.468v306.558zM438.857 637.714h-219.429v-73.263h219.429zM512 564.451h219.429v73.263h-219.429z" />
<glyph unicode="&#xe908;" glyph-name="active-Hover" d="M792.547 35.088c-49.073 42.489-95.493 83.652-139.26 127.469-26.526 27.884-71.619 33.195-106.103 10.623-14.589-10.623-25.199-21.245-34.483-31.868l-5.305-5.311c-5.305-5.311-9.284-10.623-14.589-15.933-10.61 1.328-46.42 11.951-107.429 87.636-55.704 70.373-63.662 107.552-63.662 124.814 5.305 3.984 10.61 7.967 18.568 10.623l3.979 2.656c13.263 6.639 27.852 14.605 41.115 29.212 29.178 29.212 33.157 71.701 11.937 106.225-27.852 43.817-64.988 102.241-94.166 163.32-19.894 35.851-57.030 54.44-95.493 47.801-30.505-3.984-88.861-34.523-112.734-55.768-88.861-80.996-70.293-296.101 137.934-553.695 140.586-173.942 297.088-277.512 419.107-277.512 38.462 0 68.967 10.623 91.514 29.212 25.199 19.917 67.641 70.373 76.925 95.602 14.589 35.851 3.979 78.341-27.852 104.897l-0.002-0.003zM795.2 635.257c-116.713 82.324-242.711 55.768-248.015 54.44-13.263-2.656-22.547-15.933-18.568-30.54 2.653-13.278 15.915-22.573 30.505-19.917 1.326 0 111.408 22.573 209.553-47.801 83.556-59.752 136.607-168.632 155.175-322.657 1.326-13.278 11.937-22.573 25.199-22.573h2.653c13.263 1.328 23.873 14.605 22.547 27.884-22.547 172.615-82.23 292.118-179.049 361.163v0.001zM557.795 450.691c0 0 53.051 10.623 98.145-22.573 39.789-29.212 64.988-82.324 75.598-158.009 1.326-13.278 11.937-22.573 25.199-22.573h2.653c13.263 1.328 23.873 14.605 22.547 27.884-11.937 91.619-43.767 156.681-96.819 193.86-64.988 46.473-135.281 31.868-137.934 30.54-13.263-2.656-22.547-15.933-18.568-30.54 2.653-11.951 15.915-21.245 29.178-18.589v0.001z" />
<glyph unicode="&#xe909;" glyph-name="Delete" d="M573.463 231.96l-103.44-103.44 52.154-52.154 103.44 103.44 104.309-104.309 51.72 51.72-104.309 104.309 103.44 103.44-52.154 52.154-103.44-103.44-104.309 104.309-51.72-51.72 104.309-104.309zM641.113 637.714c209.252 0 382.887-169.183 382.887-378.435s-173.635-378.435-382.887-378.435c-209.252 0-641.113 356.174-641.113 356.174s431.861 400.696 641.113 400.696zM282.543 119.868c44.875-29.793 88.238-56.592 129.328-79.646 99.233-55.675 180.094-86.234 229.242-86.234 169.969 0 309.744 137.539 309.744 305.292s-139.775 305.292-309.744 305.292c-47.332 0-127.52-34.094-225.991-96.247-41.057-25.914-84.402-56.052-129.266-89.56-57.232-42.746-113.943-88.687-167.464-134.634-1.472-1.264-2.933-2.52-4.383-3.769 54.613-41.677 111.309-82.502 168.534-120.493z" />
<glyph unicode="&#xe90a;" glyph-name="Plus" d="M585.143 272v146.286h-73.143v-146.286h-146.286v-73.143h146.286v-146.286h73.143v146.286h146.286v73.143h-146.286zM548.571 710.857c262.548 0 475.429-212.88 475.429-475.429s-212.88-475.429-475.429-475.429c-262.548 0-475.429 212.88-475.429 475.429s212.88 475.429 475.429 475.429zM548.571 637.714c-222.153 0-402.286-180.133-402.286-402.286s180.133-402.286 402.286-402.286c222.153 0 402.286 180.133 402.286 402.286s-180.133 402.286-402.286 402.286z" />
<glyph unicode="&#xe90b;" glyph-name="Caret-down-circle" d="M522.7 115.517l-192.060 181.085 50.177 53.218 167.754-158.168 167.754 158.168 50.177-53.218-219.452-206.912-24.351 25.826zM548.571 710.857c262.548 0 475.429-212.88 475.429-475.429s-212.88-475.429-475.429-475.429c-262.548 0-475.429 212.88-475.429 475.429s212.88 475.429 475.429 475.429zM548.571 637.714c-222.153 0-402.286-180.133-402.286-402.286s180.133-402.286 402.286-402.286c222.153 0 402.286 180.133 402.286 402.286s-180.133 402.286-402.286 402.286z" />
<glyph unicode="&#xe90c;" glyph-name="active" d="M792.547 35.088c-49.073 42.489-95.493 83.652-139.26 127.469-26.526 27.884-71.619 33.195-106.103 10.623-14.589-10.623-25.199-21.245-34.483-31.868l-5.305-5.311c-5.305-5.311-9.284-10.623-14.589-15.933-10.61 1.328-46.42 11.951-107.429 87.636-55.704 70.373-63.662 107.552-63.662 124.814 5.305 3.984 10.61 7.967 18.568 10.623l3.979 2.656c13.263 6.639 27.852 14.605 41.115 29.212 29.178 29.212 33.157 71.701 11.937 106.225-27.852 43.817-64.988 102.241-94.166 163.32-19.894 35.851-57.030 54.44-95.493 47.801-30.505-3.984-88.861-34.523-112.734-55.768-88.861-80.996-70.293-296.101 137.934-553.695 140.586-173.942 297.088-277.512 419.107-277.512 38.462 0 68.967 10.623 91.514 29.212 25.199 19.917 67.641 70.373 76.925 95.602 14.589 35.851 3.979 78.341-27.852 104.897l-0.002-0.003zM771.327-48.564c-6.631-17.261-41.115-59.752-62.335-77.013-13.263-11.951-33.157-17.261-58.357-17.261-107.429 0-249.342 96.93-379.318 258.922-196.29 244.317-202.922 427.554-143.239 480.666 17.242 15.933 66.314 39.834 86.209 42.489h6.631c14.589 0 27.852-7.967 35.81-21.245 30.505-62.407 67.641-122.158 96.819-167.304 9.284-13.278 6.631-30.54-5.305-42.489-7.958-7.967-18.568-13.278-29.178-19.917l-2.653-1.328c-11.937-5.311-22.547-11.951-34.483-22.573-2.653-2.656-10.61-11.951-10.61-26.556-2.653-41.162 22.547-95.602 74.272-161.993 102.124-124.814 159.154-106.225 165.786-103.569l5.305 1.328 3.979 2.656c9.284 7.967 17.242 17.261 25.199 26.556l5.305 5.311c7.958 9.295 15.915 17.261 25.199 23.9 13.263 9.295 31.831 6.639 42.441-3.984 45.094-45.145 92.84-87.636 141.913-130.125 13.263-13.278 18.568-30.54 10.61-46.473l0.001 0.003zM795.2 635.257c-116.713 82.324-242.711 55.768-248.015 54.44-13.263-2.656-22.547-15.933-18.568-30.54 2.653-13.278 15.915-22.573 30.505-19.917 1.326 0 111.408 22.573 209.553-47.801 83.556-59.752 136.607-168.632 155.175-322.657 1.326-13.278 11.937-22.573 25.199-22.573h2.653c13.263 1.328 23.873 14.605 22.547 27.884-22.547 172.615-82.23 292.118-179.049 361.163v0.001zM557.795 450.691c0 0 53.051 10.623 98.145-22.573 39.789-29.212 64.988-82.324 75.598-158.009 1.326-13.278 11.937-22.573 25.199-22.573h2.653c13.263 1.328 23.873 14.605 22.547 27.884-11.937 91.619-43.767 156.681-96.819 193.86-64.988 46.473-135.281 31.868-137.934 30.54-13.263-2.656-22.547-15.933-18.568-30.54 2.653-11.951 15.915-21.245 29.178-18.589v0.001z" />
<glyph unicode="&#xe90d;" glyph-name="Compose-Text-Hover" d="M507.268 694.957c-255.178 0-462.747-173.367-462.747-398.821 0-123.263 64.426-241.66 172.926-318.824-4.118-22.597-16.471-53.933-49.813-113.394l-27.909-48.458 58.488-0.256c103.081 0 173.165 51.182 204.315 82.53 34.191-6.998 69.366-10.49 104.741-10.49 255.151 0 462.733 183.439 462.733 408.866 0.040 225.48-207.569 398.847-462.733 398.847v0z" />
<glyph unicode="&#xe90e;" glyph-name="Add2" d="M388.865 564.12c-43.598-2.931-68.745-17.724-90.49-43.971-17.391-22.548-24.623-55.364-20.997-74.644 6.342-51.159 10.805-93.166 10.805-107.246v-27.495l-11.986-18.129c0.486-0.005 1.757-2.168 5.124-15.821 6.075-27.566 13.935-44.212 16.159-46.454l16.574-16.714 3.853-23.315c1.782-10.782 4.547-22.695 8.658-37.895 0.195-0.722 7.054-25.247 9.863-35.952 9.38-28.82 13.194-48.97 13.194-82.843 0-25.559-0.027-26.803-2.060-37.053-4.106-20.705-14.703-39.939-37.721-52.834-9.42-5.277-19.037-8.052-26.542-9.236-67.96-20.212-169.753-57.742-208.407-77.094-4.329-1.871-1.75-23.665-1.75-23.665h672.914v22.589c-0.16-1.357-1.287-1.335-7.763 1.469-44.498 19.943-147.573 57.335-212.642 76.702-7.504 1.185-17.117 3.959-26.533 9.234-23.018 12.895-33.615 32.129-37.721 52.834-2.033 10.25-2.060 11.495-2.060 37.053 0 13.061 1.804 25.536 5.028 38.541 2.031 8.191 3.817 13.955 7.827 26.087 2.816 8.52 3.874 11.934 4.688 15.217l5.538 15.097c7.53 15.186 12.758 34.518 12.758 49.623v30.551l21.423 21.603c2.223 2.242 10.084 18.888 16.601 48.343 5.026 20.273 5.002 20.686-2.184 54.394l3.753-23.324-3.753 11.355v17.132c0 23.729 0.465 46.287 2.136 71.202 0.912 13.597 2.124 26.066 4.404 41.361 2.77 13.964-4.462 46.78-24.976 73.697-12.729 19.254-41.765 36.061-85.266 39.449l-38.45 0.152zM804.571 268.927h-146.286v-73.758h146.286v-147.515h73.143v147.515h146.286v73.758h-146.286v147.515h-73.143v-147.515zM266.24 95.597c-5.12 20.652-15.36 51.63-20.48 82.608-10.24 10.326-25.6 36.141-35.84 82.608-10.24 41.304-5.12 56.793 5.12 72.282v5.163c0 10.326-5.12 56.793-10.24 98.097-5.12 25.815 0 82.608 35.84 129.076 25.6 30.978 66.56 67.119 143.36 72.282h46.080c76.8-5.163 122.88-41.304 143.36-72.282 35.84-46.467 40.96-103.261 35.84-129.076-5.12-36.141-5.12-87.771-5.12-98.097v-5.163c5.12-15.489 10.24-30.978 0-72.282-10.24-46.467-25.6-72.282-35.84-82.608 0-30.978-10.24-61.956-20.48-82.608-1.158-4.669-2.577-9.339-4.081-14.008-3.191 0.395-5.417 0.342-6.159-0.006h6.158c-5.146-15.981-11.278-31.962-11.278-47.942 0-25.815 0-25.815 5.12-25.815 71.68-20.652 184.32-61.956 230.4-82.608 35.84-15.489 51.2-41.304 51.2-67.119v-56.793c0-15.489-10.24-41.304-40.96-41.304h-737.28c-30.72 0-40.96 25.815-40.96 41.304v56.793c0 25.815 10.24 51.63 46.080 67.119 40.96 20.652 153.6 61.956 225.28 82.608 5.12 0 5.12 0 5.12 25.815 0 21.896-2.558 36.053-5.866 47.942-1.413 5.054-2.893 9.534-4.374 14.014z" />
<glyph unicode="&#xe90f;" glyph-name="conference-hover" horiz-adv-x="1126" d="M558.545 504.727c-77.119 0-139.636 62.517-139.636 139.636s62.517 139.636 139.636 139.636c77.119 0 139.636-62.517 139.636-139.636s-62.517-139.636-139.636-139.636zM977.455-240c-77.119 0-139.636 62.517-139.636 139.636s62.517 139.636 139.636 139.636c77.119 0 139.636-62.517 139.636-139.636s-62.517-139.636-139.636-139.636zM139.636-240c-77.119 0-139.636 62.517-139.636 139.636s62.517 139.636 139.636 139.636c77.119 0 139.636-62.517 139.636-139.636s-62.517-139.636-139.636-139.636zM558.545-100.364c-154.238 0-279.273 125.035-279.273 279.273s125.035 279.273 279.273 279.273c154.238 0 279.273-125.035 279.273-279.273s-125.035-279.273-279.273-279.273z" />
<glyph unicode="&#xe910;" glyph-name="conference" horiz-adv-x="1126" d="M558.545 555.927c48.842 0 88.436 39.594 88.436 88.436s-39.594 88.436-88.436 88.436c-48.842 0-88.436-39.594-88.436-88.436s39.594-88.436 88.436-88.436zM558.545 504.727c-77.119 0-139.636 62.517-139.636 139.636s62.517 139.636 139.636 139.636c77.119 0 139.636-62.517 139.636-139.636s-62.517-139.636-139.636-139.636zM977.455-188.8c48.842 0 88.436 39.594 88.436 88.436s-39.594 88.436-88.436 88.436c-48.842 0-88.436-39.594-88.436-88.436s39.594-88.436 88.436-88.436zM977.455-240c-77.119 0-139.636 62.517-139.636 139.636s62.517 139.636 139.636 139.636c77.119 0 139.636-62.517 139.636-139.636s-62.517-139.636-139.636-139.636zM139.636-188.8c48.842 0 88.436 39.594 88.436 88.436s-39.594 88.436-88.436 88.436c-48.842 0-88.436-39.594-88.436-88.436s39.594-88.436 88.436-88.436zM139.636-240c-77.119 0-139.636 62.517-139.636 139.636s62.517 139.636 139.636 139.636c77.119 0 139.636-62.517 139.636-139.636s-62.517-139.636-139.636-139.636zM558.545-49.164c125.961 0 228.073 102.112 228.073 228.073s-102.112 228.073-228.073 228.073c-125.961 0-228.073-102.112-228.073-228.073s102.112-228.073 228.073-228.073zM558.545-100.364c-154.238 0-279.273 125.035-279.273 279.273s125.035 279.273 279.273 279.273c154.238 0 279.273-125.035 279.273-279.273s-125.035-279.273-279.273-279.273z" />
<glyph unicode="&#xe911;" glyph-name="menu-hover" horiz-adv-x="1344" d="M0 720c0 35.346 28.071 64 63.92 64h1216.16c35.302 0 63.92-28.407 63.92-64v0c0-35.346-28.071-64-63.92-64h-1216.16c-35.302 0-63.92 28.407-63.92 64v0zM0 272c0 35.346 28.071 64 63.92 64h1216.16c35.302 0 63.92-28.407 63.92-64v0c0-35.346-28.071-64-63.92-64h-1216.16c-35.302 0-63.92 28.407-63.92 64v0zM0-176c0 35.346 28.071 64 63.92 64h1216.16c35.302 0 63.92-28.407 63.92-64v0c0-35.346-28.071-64-63.92-64h-1216.16c-35.302 0-63.92 28.407-63.92 64v0z" />
<glyph unicode="&#xe912;" glyph-name="menu" horiz-adv-x="1434" d="M0 749.867c0 18.851 15.13 34.133 34.024 34.133h1365.553c18.791 0 34.024-15.833 34.024-34.133v0c0-18.851-15.13-34.133-34.024-34.133h-1365.553c-18.791 0-34.024 15.833-34.024 34.133v0zM0 272c0 18.851 15.13 34.133 34.024 34.133h1365.553c18.791 0 34.024-15.833 34.024-34.133v0c0-18.851-15.13-34.133-34.024-34.133h-1365.553c-18.791 0-34.024 15.833-34.024 34.133v0zM0-205.867c0 18.851 15.13 34.133 34.024 34.133h1365.553c18.791 0 34.024-15.833 34.024-34.133v0c0-18.851-15.13-34.133-34.024-34.133h-1365.553c-18.791 0-34.024 15.833-34.024 34.133v0z" />
<glyph unicode="&#xe913;" glyph-name="Group-conversation" horiz-adv-x="1297" d="M924.239 124.009c-87.892-95.953-231.060-159.097-391.813-159.097-27.637 0-55.239 2.53-82.876 5.043l-12.551 2.549-10.034-10.105c-90.429-106.040-200.942-133.824-271.248-138.867 57.775 63.162 87.892 141.399 95.445 184.295l2.499 17.698-15.050 7.555c-120.584 65.674-188.391 174.245-188.391 305.539 0 214.611 221.009 393.881 479.687 393.881 42.725 0 85.412-5.043 128.1-15.149 17.586 12.636 37.653 25.254 57.756 35.341-57.756 17.679-120.546 30.297-183.337 30.297-288.816 0-532.426-201.994-532.426-441.857 0-141.399 72.842-265.1 198.406-340.842-12.57-45.446-50.221-126.25-120.565-176.758l-50.221-35.341 60.291-10.087c0 0 17.586-2.549 42.687-2.549 72.824 0 210.956 20.229 326.486 146.479 25.12-2.569 50.24-5.062 75.341-5.062 193.389 0 364.176 83.336 457.103 209.567-12.551 0-25.12-2.513-37.671-2.513s-20.104-0.019-27.619-0.019v0.001zM1167.85 235.092c82.876 50.489 128.062 131.294 128.062 224.716 0 159.078-163.234 295.415-359.122 295.415s-359.141-136.337-359.141-295.415c0-156.529 160.716-282.779 359.141-282.779 15.069 0 30.155 0 47.722 2.513 77.84-80.787 168.269-93.404 218.491-93.404 17.568 0 27.656 2.513 30.155 2.513l60.274 10.105-50.221 35.341c-42.742 27.803-67.845 73.23-75.36 100.996zM1012.132 222.456l-10.051 10.105-12.551-2.53c-17.568-2.53-35.171-2.53-52.757-2.53-170.769 0-308.92 103.528-308.92 232.29 0 133.824 140.65 244.908 308.92 244.908s308.92-111.083 308.92-244.908c0-80.787-42.706-148.954-118.047-189.357l-15.069-7.555 2.536-17.679c5.016-25.254 20.104-68.168 50.221-106.040-45.205 7.555-102.98 27.747-153.201 83.298h-0.001z" />
<glyph unicode="&#xe941;" glyph-name="Compose-Text" d="M507.268 694.957c-255.178 0-462.747-173.367-462.747-398.821 0-123.263 64.426-241.66 172.926-318.824-4.118-22.597-16.471-53.933-49.813-113.394l-27.909-48.458 58.488-0.256c103.081 0 173.165 51.182 204.315 82.53 34.191-6.998 69.366-10.49 104.741-10.49 255.151 0 462.733 183.439 462.733 408.866 0.040 225.48-207.569 398.847-462.733 398.847v0zM507.268-71.16c-31.735 0-85.121 8.588-115.793 14.872-29.21-26.279-78.32-76.153-137.233-86.818l-50.743-9.047 27.657 51.681c32.359 67.281 32.399 95.879 16.006 110.158-93.835 71.704-160.744 172.464-160.744 283.081 0 202.342 191.868 365.206 420.85 365.206 229.022 0 420.439-159.507 420.439-361.85-0.014-202.276-191.457-367.283-420.439-367.282v0z" />
<glyph unicode="&#xe949;" glyph-name="Collapse" horiz-adv-x="1109" d="M12.459 199.125c-7.765 7.765-12.459 18.432-12.459 30.208 0 23.552 19.029 42.667 42.667 42.667h961.792c23.552 0 42.667-19.115 42.667-42.667 0-23.637-19.115-42.667-42.667-42.667h-961.792c-11.861 0-22.528 4.779-30.208 12.459z" />
<glyph unicode="&#xe94a;" glyph-name="Close" d="M573.228 271.112l422.596 422.596c16.305 16.305 16.445 43.46-0.218 60.122-16.175 16.175-43.58 16.76-60.122 0.218l-422.596-422.596-422.596 422.596c-16.542 16.542-43.947 15.957-60.122-0.218-16.662-16.662-16.522-43.818-0.218-60.122l422.596-422.596-422.596-422.596c-16.305-16.305-16.445-43.46 0.218-60.122 16.175-16.175 43.58-16.76 60.122-0.218l422.596 422.596 422.596-422.596c16.542-16.542 43.947-15.957 60.122 0.218 16.662 16.662 16.522 43.818 0.218 60.122l-422.596 422.596z" />
<glyph unicode="&#xe94b;" glyph-name="Outbound" horiz-adv-x="740" d="M217.021-239.663h-6.838c-107.108 6.979-218.774 190.773-209.66 516.484 6.838 325.712 127.621 504.852 234.728 507.179v0c29.625 0 88.876-16.286 111.666-27.917 27.347-16.285 38.745-48.856 31.904-79.101-13.672-62.816-25.067-127.958-34.182-193.101-4.558-32.571-29.627-55.837-61.53-58.162-15.953-2.327-34.184 2.326-50.136 4.653-11.395 2.328-20.511 4.655-31.905 4.655-6.837-2.327-41.020-34.898-45.578-160.53-2.279-125.631 29.624-160.529 38.742-162.855 9.115 0 20.512 2.326 31.904 4.652 15.953 2.328 34.184 4.653 50.138 2.328 31.904-4.654 54.694-27.917 56.971-60.49 4.558-67.468 13.673-132.609 25.067-195.425 4.559-32.572-9.114-62.816-36.462-79.103-18.231-11.631-75.203-23.265-104.83-23.265l0.001-0.002zM237.53 737.469c-72.926-2.326-182.315-148.896-189.15-460.648s95.714-465.302 168.639-469.955h2.279c25.068 0 72.924 11.633 86.6 18.613 9.114 4.652 13.673 16.286 11.392 27.917-11.392 65.143-20.51 130.285-25.067 200.080 0 11.633-6.836 18.613-18.231 18.613-11.394 2.326-22.791 0-36.463-2.327-11.395-2.327-25.068-4.653-38.742-4.653-9.116 0-22.79 2.326-38.743 18.612-20.511 23.266-47.856 74.448-45.577 193.1 6.836 197.753 77.483 207.059 91.155 207.059h2.279c13.673 0 27.348-2.327 38.744-6.98 13.672-2.326 25.066-4.654 36.464-4.654 11.396 0 18.232 6.98 18.232 18.613 9.114 67.469 20.511 134.938 34.182 197.754 2.279 11.632-2.278 23.265-11.392 27.917-13.676 6.98-66.092 20.938-86.602 20.939v0 0zM540.625 451.31v0c-9.115-9.305-9.115-23.266 0-32.571l120.784-123.304h-385.139c-13.672 0-22.79-9.305-22.79-23.266v0c0-13.959 9.117-23.266 22.79-23.266h385.138l-120.783-123.304c-9.115-9.305-9.115-23.265 0-32.569v0c9.117-9.307 22.79-9.307 31.906 0l159.524 162.854c9.115 9.307 9.115 23.267 0 32.573l-159.524 162.853c-9.117 9.306-22.79 9.306-31.906 0v0z" />
<glyph unicode="&#xe94c;" glyph-name="Missed" horiz-adv-x="853" d="M789.473 434.911v0c-9.295 9.307-23.242 9.307-32.536 0l-120.846-121.020-120.847 121.020c-9.295 9.307-23.242 9.307-32.535 0-9.297-9.309-9.297-23.274 0-32.583l120.847-121.019-120.847-121.017c-9.297-9.31-9.297-23.274 0-32.583 9.294-9.308 23.242-9.308 32.535 0l120.847 121.020 120.846-121.020c9.295-9.308 23.241-9.308 32.536 0 9.295 9.31 9.295 23.274 0 32.583l-120.847 121.017 120.847 121.019c9.295 9.309 9.295 23.274 0 32.583v0zM299.115 737.454c-74.365-2.326-185.917-148.944-192.888-460.8-6.971-311.853 97.607-465.454 169.651-470.109h2.324c25.563 0 74.367 11.637 88.31 18.618 9.296 4.654 13.943 16.292 13.943 27.927-11.619 65.164-20.917 130.329-25.563 200.147 0 11.634-6.973 18.617-18.592 18.617-11.62 2.327-23.24 0-37.184-2.328-11.618-2.326-25.562-4.655-39.508-4.655-9.295 0-23.242 2.328-39.509 18.621-20.916 23.272-48.802 74.471-46.479 193.161 6.973 197.819 79.015 207.129 92.96 207.129h2.323c13.943 0 27.888-2.328 39.508-6.983 13.943-2.327 25.565-4.655 37.184-4.655 11.621 0 18.593 6.982 18.593 18.619 9.295 67.491 20.916 134.982 34.86 197.819 2.324 11.635-2.324 23.273-11.619 27.926-13.942 6.983-67.395 20.945-88.312 20.945h-0.001zM278.2-240h-6.972c-109.225 6.981-223.101 190.835-213.806 516.653 6.972 325.819 130.142 505.019 239.368 507.347 30.211 0 90.634-16.292 113.875-27.926 27.888-16.292 39.508-48.873 32.537-79.127-13.945-62.836-25.563-127.999-34.861-193.163-4.647-32.582-30.211-55.856-62.748-58.181-16.268-2.327-34.858 2.327-51.126 4.655-9.295 2.328-18.592 4.656-30.212 4.656-6.971-2.327-41.83-34.909-46.479-160.582-2.324-125.672 30.212-160.582 39.508-162.91 9.296 0 20.917 2.327 32.537 4.656 16.266 2.327 34.859 4.654 51.126 2.327 32.536-4.656 55.777-27.925 58.1-60.51 4.648-67.491 13.942-132.654 25.563-195.49 4.647-32.583-9.296-62.837-37.184-79.128-20.917-11.635-79.015-23.273-109.226-23.273l0.001-0.003z" />
<glyph unicode="&#xe94d;" glyph-name="Inbound" horiz-adv-x="853" d="M215.724-236.241v0h-6.779c-106.194 6.957-216.907 190.12-207.871 514.712 6.78 324.595 126.53 503.121 232.725 505.44v0c29.372 0 88.119-16.23 110.713-27.822 27.115-16.229 38.413-48.689 31.634-78.829-13.557-62.601-24.854-127.519-33.893-192.438-4.518-32.46-29.372-55.646-61.005-57.963-18.076-2.319-33.892 2.319-49.708 4.637-11.295 2.321-20.336 4.638-31.633 4.638-6.779-2.319-40.668-34.778-45.19-159.979-2.259-125.201 29.374-159.977 38.413-162.297 9.038 0 20.336 2.319 31.633 4.637 15.815 2.32 33.891 4.637 49.707 2.32 31.634-4.638 54.229-27.823 56.487-60.283 4.518-67.236 13.555-132.155 24.853-194.755 4.518-32.462-9.036-62.602-36.152-78.833-18.075-11.59-74.56-23.184-103.934-23.184l0.001-0.002zM236.060 737.54c-72.301-2.319-180.756-148.386-187.534-459.068s94.898-463.706 164.942-468.343h2.26c24.853 0 72.302 11.593 85.86 18.549 9.038 4.637 13.557 16.231 11.297 27.821-11.297 64.918-20.337 129.839-24.853 199.395 0 11.59-6.78 18.548-18.076 18.548-11.298 2.318-22.596 0-36.152-2.32-11.296-2.319-24.853-4.637-38.412-4.637v0c-9.037 0-22.594 2.319-38.412 18.548-20.334 23.187-47.448 74.194-45.19 192.438 6.78 197.075 76.822 206.349 90.379 206.349h2.26c13.556 0 27.113-2.32 38.412-6.957 13.556-2.319 24.853-4.637 36.15-4.637 11.299 0 18.077 6.957 18.077 18.55 9.038 67.236 20.335 134.474 33.891 197.074 2.26 11.592-2.259 23.186-11.297 27.822-11.295 6.957-63.265 20.867-83.6 20.867l-0.002 0.002zM830.173 297.022h-381.847l119.749 122.882c9.038 9.273 9.038 23.186 0 32.459s-22.596 9.274-31.632 0l-158.162-162.297c-9.038-9.274-9.038-23.186 0-32.46l158.163-162.296c9.036-9.275 22.593-9.275 31.632 0 9.038 9.273 9.038 23.186 0 32.459l-119.749 122.883h381.847c13.556 0 22.595 9.273 22.595 23.186-0.001 13.911-11.298 23.184-22.596 23.184z" />
<glyph unicode="&#xe94e;" glyph-name="Record" horiz-adv-x="1434" d="M356.4 438.134v0zM620.182 327.542c0 0 0-0.068-0.068-0.068 0 0 0.068 0 0.068 0.068v0zM572.6 232.31v0zM232.086 32.63h498.893c-0.205 11.469-1.434 21.299-3.686 30.72-2.594 10.786-7.509 20.821-14.814 30.788-4.779 6.076-12.288 13.449-21.982 21.367-9.284 7.646-17.613 13.039-24.576 16.043-10.854 4.915-20.412 8.67-29.286 11.81-10.308 3.755-20.89 7.851-32.017 12.629-4.915 2.185-10.24 4.164-16.043 5.871-11.947 3.686-21.709 9.489-29.082 17.408-0.205 0.205-0.341 0.341-0.41 0.41-8.806 3.14-21.845 12.22-21.845 38.025-0.273 4.506-0.614 8.943-0.956 12.22-0.478 4.028-0.751 10.103-0.751 17.749 0 1.092 0.41 6.963 0.478 7.987 0.478 5.53 2.594 11.537 6.007 16.521 0.205 0.819 2.253 4.301 4.574 7.305 0.614 1.024 3.209 5.12 4.028 6.144 5.803 7.305 10.24 15.497 13.175 24.439 3.004 9.489 4.642 19.456 4.915 29.355 1.707 12.971 6.417 21.436 13.858 27.648 0.683 0.546 5.871 4.847 6.485 5.325 3.345 10.308 4.574 18.159 5.598 26.010l1.502 11.537v2.253c-9.011 4.574-15.428 13.653-15.428 24.235 0 5.666 0.137 10.172 0.341 13.722 0.137 2.048 0 4.915-0.273 8.602-0.683 11.401-2.185 20.617-4.506 27.853-2.526 8.192-5.939 16.179-10.103 24.030-6.076 11.127-13.79 19.524-23.62 25.532-10.854 6.554-22.733 10.786-36.386 12.834-1.024 0.137-8.943 1.707-9.899 1.98-0.205 0.068-7.509 1.161-7.646 1.229l-15.428-0.273-2.867-0.341-9.489-1.161c-3.14-0.41-5.393-1.161-7.782-1.98-19.729-4.779-33.178-11.81-43.486-21.845-10.377-10.172-17.408-23.279-21.504-40.141-1.434-4.983-2.116-8.533-2.526-12.083-0.546-4.71-0.956-9.899-1.297-16.111-0.341-4.506-0.546-7.373-0.546-9.353v-10.786c0-9.967-5.461-19.183-14.268-24.030-1.775 0-2.389-1.98-1.843-7.168 0.546-4.915 1.297-9.489 2.048-13.244 0.956-4.164 2.116-9.899 3.413-16.725 0 0.546 1.297-2.048 2.799-4.983 0.751-0.614 7.714-6.963 8.465-7.646 5.12-2.867 10.24-12.425 10.24-23.347l2.185-19.115c0.751-5.871 3.277-13.175 7.509-20.753 5.734-10.103 11.264-19.388 16.998-27.716 3.14-4.574 5.939-15.087 5.939-20.617 0-15.155-0.273-21.777-0.614-26.897-0.41-4.301-0.546-9.079-0.546-14.95 0-8.875-3.55-25.327-27.58-36.386-7.509-3.345-12.766-5.803-16.247-7.646-6.554-3.618-14.814-7.305-24.235-10.718-7.031-2.526-13.449-5.12-19.319-7.851-13.175-5.598-25.259-10.923-37.137-16.247-10.581-4.847-19.661-9.626-27.238-14.336-5.666-3.686-11.196-7.919-16.316-12.083-4.915-4.028-6.349-6.144-6.349-6.144-4.779-7.236-8.875-16.111-12.629-27.034-3.482-10.65-5.871-22.46-6.963-34.953l0.068-4.915zM232.564 20.956c0-0.068 0.068-0.068 0.068-0.137 0 0 0 0.068-0.068 0.137v0zM742.38-22.052h-524.356c-5.12 0-11.742 1.911-16.043 4.574-2.458 0.614-7.646 3.55-11.674 6.963-5.666 4.915-12.151 13.585-12.151 28.194-0.341 1.638-0.614 6.485-0.614 10.991v11.127c1.502 19.251 4.779 35.362 9.694 50.108 5.393 15.77 11.332 28.399 18.364 38.98 3.413 5.666 9.353 12.083 17.681 18.978 6.622 5.461 13.858 10.854 21.709 15.906 9.557 6.007 20.821 12.015 34.065 18.091 12.356 5.53 24.781 10.991 37.547 16.384 6.349 2.935 14.199 6.212 22.801 9.284 6.281 2.321 11.947 4.642 16.794 7.373 4.028 2.185 9.011 4.574 15.428 7.441 0.137 2.935 0.341 5.53 0.478 7.919 0.273 3.686 0.478 9.011 0.478 15.77v1.911c-5.257 7.987-10.581 16.93-15.974 26.556-7.782 13.995-12.561 28.058-14.199 41.847l-1.434 13.449c-6.212 5.803-9.967 10.513-12.902 15.77-3.277 6.076-5.803 11.81-7.851 18.022l-3.891 18.432c-1.161 5.598-2.185 11.742-3.004 19.046-1.229 12.425-0.205 22.733 3.14 32.017 2.458 7.031 6.758 13.38 12.698 18.978 0.068 2.731 0.273 6.076 0.614 10.035 0.341 6.349 0.887 12.766 1.502 18.5 0.751 6.554 2.048 13.244 4.096 20.139 6.144 25.327 18.364 47.582 35.977 64.853 17.34 16.998 39.731 28.877 66.697 35.362 3.891 1.365 9.694 2.935 15.155 3.618 3.413 0.478 7.919 1.024 12.356 1.434 0.341 0 0.614 0.068 0.887 0.068l15.77 0.751c5.257 0 9.284-0.205 11.947-0.341 9.148-1.092 12.971-1.843 16.316-2.662 24.508-3.959 43.554-10.718 60.553-21.094 17.954-10.991 32.495-26.556 43.213-46.217 5.939-11.196 10.65-22.255 14.131-33.451 3.686-11.401 6.007-25.19 6.895-40.687 0.205-2.935 0.341-5.666 0.41-8.124 6.007-5.052 9.83-11.605 11.674-17.886 2.321-7.987 3.413-16.725 3.413-26.487 0-2.526-0.273-6.144-0.683-10.445-0.546-4.71-1.161-8.465-1.843-11.127-0.614-6.007-1.98-14.814-3.686-23.62-2.594-14.131-10.103-26.283-21.709-35.226-0.683-10.786-3.14-23.552-7.1-36.045-4.983-15.428-12.493-29.423-22.391-41.779l-4.574-7.373 0.068-0.068c0.205 0 1.297 3.004 1.502 6.076-0.205-7.578-0.137-11.674 0.205-14.473 0.341-3.209 0.683-7.1 0.956-11.947 2.731-2.048 5.393-4.574 8.055-7.441 12.698-4.506 20.207-7.373 26.965-10.308 9.967-4.369 19.593-8.055 28.74-11.401 9.83-3.55 20.821-7.851 32.563-13.175 11.401-4.847 23.757-12.629 37.274-23.689 12.902-10.65 23.211-20.89 30.857-30.652 12.015-16.247 20.070-33.246 24.371-51.132 4.096-16.794 5.871-34.611 5.393-52.907-0.478-9.899-2.048-21.641-10.24-30.583-6.554-7.373-15.838-10.923-22.255-12.902-1.502-0.273-9.353-1.707-10.854-1.707v0zM1214.969 265.003h-391.919c-15.087 0-27.307 12.288-27.307 27.307 0 15.087 12.22 27.375 27.307 27.375h391.919c15.087 0 27.307-12.288 27.307-27.375 0-15.019-12.22-27.307-27.307-27.307zM1214.969 36.268h-280.849c-15.087 0-27.307 12.288-27.307 27.307 0 15.087 12.22 27.375 27.307 27.375h280.849c15.087 0 27.307-12.288 27.307-27.375 0-15.019-12.22-27.307-27.307-27.307zM1214.935 493.669h-428.919c-15.087 0-27.307 12.288-27.307 27.307 0 15.087 12.22 27.375 27.307 27.375h428.919c15.087 0 27.307-12.288 27.307-27.375 0-15.019-12.22-27.307-27.307-27.307zM89.9 729.332c-19.456 0-35.294-15.77-35.294-35.294v-803.43c0-19.456 15.838-35.294 35.294-35.294h1239.996c19.456 0 35.294 15.838 35.294 35.294v803.43c0 19.524-15.838 35.294-35.294 35.294h-1239.996zM1329.896-199.368h-1239.996c-49.562 0-89.907 40.346-89.907 89.975v803.43c0 49.63 40.346 89.975 89.907 89.975h1239.996c49.562 0 89.907-40.346 89.907-89.975v-803.43c0-49.63-40.346-89.975-89.907-89.975v0z" />
<glyph unicode="&#xe94f;" glyph-name="Call" d="M771.027-153.653c29.38-0.001 52.369 6.855 68.874 20.899 23.018 17.717 61.49 64.397 69.484 85.28 8.181 16.75 2.493 37.725-15.355 52.384-73.31 62.314-113.211 97.548-156.064 139.345-12.335 12.829-36.012 15.163-52.965 4.421-8.646-5.62-15.075-11.679-26.657-24.409-3.434-3.785-5.254-5.786-6.71-7.354-12.53-14.253-18.51-20.55-27.31-27.904l-7.394-4.089c-1.601-0.503-3.072-0.894-5.237-1.317-3.375-0.658-6.988-1.050-10.805-1.050-39.131 0-91.958 30.339-159.937 111.588-63.045 77.644-83.919 130.899-80.888 168.433 0 6.996 1.623 13.325 4.416 18.772 1.911 3.727 4.106 6.579 7.496 9.794 11.836 9.891 22.583 16.877 33.924 21.714 7.374 3.884 10.964 5.785 14.349 7.662 10.447 5.792 17.692 10.787 23.753 16.696 14.75 14.38 17.113 34.427 6.131 50.9-45.732 69.188-78.739 124.016-105.558 177.5-10.944 19.562-31.611 29.512-53.411 25.826-22.091-3.077-77.163-29.924-97.087-47.064-83.65-72.774-32.97-289.9 156.971-520.26 144.223-174.214 302.502-277.768 419.981-277.768zM618.557 146.711c1.687 1.828 3.378 3.687 6.856 7.519 13.97 15.354 22.658 23.542 35.54 31.914 34.712 21.999 81.813 17.355 108.6-10.52 41.409-40.373 80.741-75.104 153.021-136.547 32.833-26.958 44.482-69.918 27.638-104.188-10.418-27.57-54.074-80.539-82.285-102.218-24.568-20.959-57.721-30.846-96.9-30.846-133.566 0.001-302.435 110.483-454.304 293.933-203.367 246.643-259.779 488.327-151.777 582.287 26.194 22.534 89.030 53.167 119.424 57.39 39.756 6.741 78.94-12.125 99.526-48.967 26.355-52.508 58.535-105.962 103.329-173.731 22.954-34.43 17.792-78.216-12.143-107.401-9.363-9.129-19.632-16.209-33.245-23.756-3.821-2.118-7.861-4.258-16.634-8.804-7.617-3.3-14.146-7.347-20.727-12.496-1.827-26.608 15.016-69.077 70.83-137.82 59.451-71.053 100.469-94.947 124.911-95.377 4.722 4.388 9.65 9.749 18.342 19.629z" />
<glyph unicode="&#xe950;" glyph-name="Add" d="M671.845 308.542h-124.574v128c0 20.188-15.945 36.572-35.593 36.572s-35.593-16.384-35.593-36.572v-128h-124.574c-19.647 0-35.593-16.384-35.593-36.572 0-20.186 15.945-36.572 35.593-36.572h124.574v-128c0-20.188 15.945-36.572 35.593-36.572s35.593 16.384 35.593 36.572v128h124.574c19.647 0 35.593 16.386 35.593 36.572 0 20.188-15.945 36.572-35.593 36.572v0zM726.857 664.192l94.606-99.767h-94.606v99.767zM712.618 784h-511.61c-62.287 0-115.675-54.857-115.675-118.857v-786.287c0-64 53.388-118.857 115.675-118.857h621.447c62.287 0 115.675 54.857 115.675 118.857v667.428l-225.513 237.715zM822.46-166.857h-621.447c-22.992 0-44.49 22.089-44.49 45.713v786.287c0 23.625 21.497 45.713 44.49 45.713h454.661v-219.428h211.278v-612.572c0-23.625-21.497-45.713-44.49-45.713h-0.002z" />
<glyph unicode="&#xe951;" glyph-name="Arrow" d="M948.824 553.893c-14.336 14.263-37.449 14.263-51.785 0l-417.353-417.353-417.28 417.353c-14.263 14.263-37.376 14.263-51.712 0-14.263-14.336-14.263-37.449 0-51.785l443.173-443.099c14.263-14.263 37.449-14.263 51.712 0l443.246 443.099c7.095 7.168 10.679 16.53 10.679 25.893s-3.584 18.725-10.679 25.893z" />
<glyph unicode="&#xe952;" glyph-name="Call-Log" d="M425.245 140.59c-12.177-11.917-12.177-31.29 0-43.206 6.12-5.989 14.113-8.984 22.106-8.984 7.931 0 15.924 2.995 22.044 8.984l156.368 152.964c2.873 2.872 5.183 6.172 6.744 10.022 3.185 7.456 3.185 15.828 0 23.284-1.561 3.789-3.872 7.15-6.744 10.022l-156.368 152.964c-12.177 11.917-31.973 11.917-44.15 0-12.177-11.978-12.177-31.29 0-43.206l103.1-100.897h-457.737c-17.298 0-31.224-13.628-31.224-30.556 0-16.867 13.926-30.556 31.224-30.556h457.737l-103.1-100.836zM797.274 679.681l80.744-79.018h-80.744v79.018zM975.436 591.801l-187.279 183.215c-2.873 2.75-6.307 5.072-10.116 6.6-3.747 1.528-7.806 2.383-11.99 2.383h-444.061c-67.755 0-122.958-53.962-122.958-120.33v-208.332c0-16.867 13.988-30.556 31.224-30.556 17.298 0 31.224 13.689 31.224 30.556v208.332c0 32.634 27.164 59.218 60.511 59.218h412.838v-152.781c0-16.867 13.988-30.556 31.224-30.556h156.118v-659.22c0-32.634-27.164-59.218-60.511-59.218h-539.668c-33.347 0-60.511 26.584-60.511 59.218v208.332c0 16.867-13.926 30.556-31.224 30.556-17.235 0-31.224-13.689-31.224-30.556v-208.332c0-66.368 55.203-120.33 122.958-120.33h539.668c67.818 0 122.958 53.962 122.958 120.33v689.776c0 4.033-0.874 8.067-2.435 11.734-1.561 3.789-3.872 7.15-6.744 9.961v0z" />
<glyph unicode="&#xe953;" glyph-name="Call-Hover" d="M618.557 146.71c1.687 1.828 3.378 3.687 6.856 7.519 13.97 15.354 22.658 23.542 35.54 31.914 34.712 21.999 81.813 17.355 108.6-10.52 41.409-40.373 80.741-75.104 153.021-136.547 32.833-26.958 44.482-69.918 27.638-104.188-10.418-27.57-54.074-80.539-82.285-102.218-24.568-20.959-57.721-30.846-96.9-30.846-133.566 0.001-302.435 110.483-454.304 293.933-203.367 246.643-259.779 488.327-151.777 582.287 26.194 22.534 89.030 53.167 119.424 57.39 39.756 6.741 78.94-12.125 99.526-48.967 26.355-52.508 58.535-105.962 103.329-173.731 22.954-34.43 17.792-78.216-12.143-107.401-9.363-9.129-19.632-16.209-33.245-23.756-3.821-2.118-7.861-4.258-16.634-8.804-7.617-3.3-14.146-7.347-20.727-12.496-1.827-26.608 15.016-69.077 70.83-137.82 59.451-71.053 100.469-94.947 124.911-95.377 4.722 4.388 9.65 9.749 18.342 19.629z" />
<glyph unicode="&#xe954;" glyph-name="Dial-Hover" d="M153.6 476.8c84.831 0 153.6 68.769 153.6 153.6s-68.769 153.6-153.6 153.6c-84.831 0-153.6-68.769-153.6-153.6s68.769-153.6 153.6-153.6zM153.6 127.228c84.831 0 153.6 68.769 153.6 153.6s-68.769 153.6-153.6 153.6c-84.831 0-153.6-68.769-153.6-153.6s68.769-153.6 153.6-153.6zM503.172 476.8c84.831 0 153.6 68.769 153.6 153.6s-68.769 153.6-153.6 153.6c-84.831 0-153.6-68.769-153.6-153.6s68.769-153.6 153.6-153.6zM503.172 127.228c84.831 0 153.6 68.769 153.6 153.6s-68.769 153.6-153.6 153.6c-84.831 0-153.6-68.769-153.6-153.6s68.769-153.6 153.6-153.6zM852.745 476.8c84.831 0 153.6 68.769 153.6 153.6s-68.769 153.6-153.6 153.6c-84.831 0-153.6-68.769-153.6-153.6s68.769-153.6 153.6-153.6zM852.745 127.228c84.831 0 153.6 68.769 153.6 153.6s-68.769 153.6-153.6 153.6c-84.831 0-153.6-68.769-153.6-153.6s68.769-153.6 153.6-153.6zM153.6-222.345c84.831 0 153.6 68.769 153.6 153.6s-68.769 153.6-153.6 153.6c-84.831 0-153.6-68.769-153.6-153.6s68.769-153.6 153.6-153.6zM503.172-222.345c84.831 0 153.6 68.769 153.6 153.6s-68.769 153.6-153.6 153.6c-84.831 0-153.6-68.769-153.6-153.6s68.769-153.6 153.6-153.6zM870.4-240c84.831 0 153.6 68.769 153.6 153.6s-68.769 153.6-153.6 153.6c-84.831 0-153.6-68.769-153.6-153.6s68.769-153.6 153.6-153.6z" />
<glyph unicode="&#xe955;" glyph-name="Dial" d="M153.6 528c56.554 0 102.4 45.846 102.4 102.4s-45.846 102.4-102.4 102.4c-56.554 0-102.4-45.846-102.4-102.4s45.846-102.4 102.4-102.4zM153.6 476.8c-84.831 0-153.6 68.769-153.6 153.6s68.769 153.6 153.6 153.6c84.831 0 153.6-68.769 153.6-153.6s-68.769-153.6-153.6-153.6zM153.6 178.428c56.554 0 102.4 45.846 102.4 102.4s-45.846 102.4-102.4 102.4c-56.554 0-102.4-45.846-102.4-102.4s45.846-102.4 102.4-102.4zM153.6 127.228c-84.831 0-153.6 68.769-153.6 153.6s68.769 153.6 153.6 153.6c84.831 0 153.6-68.769 153.6-153.6s-68.769-153.6-153.6-153.6zM503.172 528c56.554 0 102.4 45.846 102.4 102.4s-45.846 102.4-102.4 102.4c-56.554 0-102.4-45.846-102.4-102.4s45.846-102.4 102.4-102.4zM503.172 476.8c-84.831 0-153.6 68.769-153.6 153.6s68.769 153.6 153.6 153.6c84.831 0 153.6-68.769 153.6-153.6s-68.769-153.6-153.6-153.6zM503.172 178.428c56.554 0 102.4 45.846 102.4 102.4s-45.846 102.4-102.4 102.4c-56.554 0-102.4-45.846-102.4-102.4s45.846-102.4 102.4-102.4zM503.172 127.228c-84.831 0-153.6 68.769-153.6 153.6s68.769 153.6 153.6 153.6c84.831 0 153.6-68.769 153.6-153.6s-68.769-153.6-153.6-153.6zM852.745 528c56.554 0 102.4 45.846 102.4 102.4s-45.846 102.4-102.4 102.4c-56.554 0-102.4-45.846-102.4-102.4s45.846-102.4 102.4-102.4zM852.745 476.8c-84.831 0-153.6 68.769-153.6 153.6s68.769 153.6 153.6 153.6c84.831 0 153.6-68.769 153.6-153.6s-68.769-153.6-153.6-153.6zM852.745 178.428c56.554 0 102.4 45.846 102.4 102.4s-45.846 102.4-102.4 102.4c-56.554 0-102.4-45.846-102.4-102.4s45.846-102.4 102.4-102.4zM852.745 127.228c-84.831 0-153.6 68.769-153.6 153.6s68.769 153.6 153.6 153.6c84.831 0 153.6-68.769 153.6-153.6s-68.769-153.6-153.6-153.6zM153.6-171.145c56.554 0 102.4 45.846 102.4 102.4s-45.846 102.4-102.4 102.4c-56.554 0-102.4-45.846-102.4-102.4s45.846-102.4 102.4-102.4zM153.6-222.345c-84.831 0-153.6 68.769-153.6 153.6s68.769 153.6 153.6 153.6c84.831 0 153.6-68.769 153.6-153.6s-68.769-153.6-153.6-153.6zM503.172-171.145c56.554 0 102.4 45.846 102.4 102.4s-45.846 102.4-102.4 102.4c-56.554 0-102.4-45.846-102.4-102.4s45.846-102.4 102.4-102.4zM503.172-222.345c-84.831 0-153.6 68.769-153.6 153.6s68.769 153.6 153.6 153.6c84.831 0 153.6-68.769 153.6-153.6s-68.769-153.6-153.6-153.6zM870.4-188.8c56.554 0 102.4 45.846 102.4 102.4s-45.846 102.4-102.4 102.4c-56.554 0-102.4-45.846-102.4-102.4s45.846-102.4 102.4-102.4zM870.4-240c-84.831 0-153.6 68.769-153.6 153.6s68.769 153.6 153.6 153.6c84.831 0 153.6-68.769 153.6-153.6s-68.769-153.6-153.6-153.6z" />
<glyph unicode="&#xe956;" glyph-name="Edit" d="M861.254 289.601l-0.234-0.234-0.293-0.234-5.851-4.857-208.72-210.71-58.339 57.051 211.12 211.178c12.873 12.815 23.757 21.416 34.992 21.416 7.139 0 13.809-3.394 20.246-10.357l15.448-15.448c7.139-7.724 9.538-16.15 7.139-24.869-1.872-7.022-6.671-14.102-15.506-22.938v0zM597.179 34.42l-90.463-40.843 46.519 98.714 53.599-53.541-9.655-4.33zM935.684 318.858c-2.224 25.805-10.357 44.412-24.693 56.759l-27.326 27.268c-13.692 13.634-31.89 21.533-50.030 21.533-10.767 0-20.831-1.989-30.018-6.027-9.362-3.979-17.554-10.006-24.225-17.788l-261.734-261.676c-1.287-1.287-4.564-4.506-5.091-9.713l-63.020-165.654-0.176-0.761c-1.17-7.022-1.404-14.57 4.623-22.118l0.234-0.293 0.293-0.293c4.213-4.213 9.128-6.203 15.389-6.203 1.229 0 4.213 0 8.426 1.404h0.117l0.117 0.059 164.308 61.908c2.867 0.527 6.671 2.224 9.421 4.974l262.203 262.203c18.139 20.304 21.182 33.002 21.182 53.775v0.644zM633.71 684.116l75.659-75.659h-75.659v75.659zM779.995 74.222c-16.15 0-29.257-13.049-29.257-29.257v-126.215c0-31.247-25.454-56.7-56.7-56.7h-505.68c-31.247 0-56.7 25.454-56.7 56.7v750.036c0 31.247 25.454 56.7 56.7 56.7h386.838v-146.286c0-16.15 13.107-29.257 29.257-29.257h146.286v-57.227c0-16.208 13.107-29.257 29.257-29.257s29.257 13.049 29.257 29.257v86.484c0 3.862-0.819 7.724-2.282 11.235-1.463 3.628-3.628 6.846-6.32 9.538l-175.484 175.426c-2.692 2.633-5.91 4.857-9.479 6.32-3.511 1.463-7.314 2.282-11.235 2.282h-416.095c-63.488 0-115.215-51.668-115.215-115.215v-750.036c0-63.547 51.727-115.215 115.215-115.215h505.68c63.547 0 115.215 51.668 115.215 115.215v126.215c0 16.208-13.107 29.257-29.257 29.257v0z" />
<glyph unicode="&#xe957;" glyph-name="File" d="M311.17 347.28h401.642c20.206 0 36.64 16.375 36.64 36.495 0 20.101-16.433 36.458-36.64 36.458h-401.642c-20.188 0-36.623-16.357-36.623-36.458 0-20.121 16.435-36.495 36.623-36.495zM892.276 558.93l-218.089 210.951c-7.039 8.854-17.379 13.929-28.928 13.929h-423.332c-57.115 0-103.572-45.434-103.572-101.295v-821.029c0-55.844 46.457-101.293 103.572-101.293h580.13c57.115 0 103.589 45.449 103.589 101.293v669.803c0 11.252-5.388 21.747-13.37 27.642v0zM682.506 567.749v93.946l97.020-93.946h-97.020zM191.603 682.513c0 15.621 13.604 28.343 30.323 28.343h387.33v-179.568c0-20.119 16.435-36.493 36.608-36.493h186.534v-633.31c0-15.639-13.606-28.341-30.342-28.341h-580.13c-16.719 0-30.323 12.702-30.323 28.341v821.028zM311.17 1.583h401.642c20.206 0 36.64 16.377 36.64 36.495s-16.433 36.457-36.64 36.457h-401.642c-20.188 0-36.623-16.34-36.623-36.457s16.435-36.495 36.623-36.495zM311.17 174.431h401.642c20.206 0 36.64 16.376 36.64 36.495s-16.433 36.457-36.64 36.457h-401.642c-20.188 0-36.623-16.338-36.623-36.457s16.435-36.495 36.623-36.495z" />
<glyph unicode="&#xe958;" glyph-name="History-Hover" d="M512-195.265c-257.487 0-466.915 209.63-466.915 467.278 0 257.661 209.428 467.265 466.915 467.265 257.473 0 466.928-209.63 466.928-467.265 0-257.674-209.455-467.278-466.928-467.278zM531.078 322.381v254.789c0 10.525-8.531 19.060-19.078 19.060-10.533 0-19.065-8.548-19.065-19.060v-254.789c-20.382-7.707-34.945-27.274-34.945-50.367 0-7.867 1.747-15.28 4.757-21.998l-94.571-101.162c-7.188-7.693-6.784-19.755 0.9-26.953 7.698-7.199 19.764-6.812 26.951 0.881l93.603 100.147c11.985-5.476 26.132-7.039 41.152-1.563 16.432 5.97 29.41 20.142 33.561 37.118 6.986 28.744-9.015 54.735-33.265 63.898h0.001z" />
<glyph unicode="&#xe959;" glyph-name="History" d="M512-195.265c-257.487 0-466.915 209.63-466.915 467.278 0 257.661 209.428 467.265 466.915 467.265 257.473 0 466.928-209.63 466.928-467.265 0-257.674-209.455-467.278-466.928-467.278zM512 701.159c-236.434 0-428.813-192.534-428.813-429.145 0-236.651 192.366-429.145 428.813-429.145 236.434 0 428.799 192.494 428.799 429.145 0 236.611-192.366 429.145-428.799 429.145v0zM531.078 322.381v254.789c0 10.525-8.531 19.060-19.078 19.060v0c-10.533 0-19.065-8.548-19.065-19.060v-254.789c-20.382-7.707-34.945-27.274-34.945-50.367 0-7.867 1.747-15.28 4.757-21.998l-94.571-101.162c-7.188-7.693-6.784-19.755 0.9-26.953v0c7.698-7.199 19.764-6.812 26.951 0.881l93.603 100.147c11.985-5.476 26.132-7.039 41.152-1.563 16.432 5.97 29.41 20.142 33.561 37.118 6.986 28.744-9.015 54.735-33.265 63.898h0.001z" />
<glyph unicode="&#xe95a;" glyph-name="Logout" d="M887.93 316.694l-169.434 169.434c-13.33 13.33-13.33 34.942 0 48.272s34.942 13.33 48.272 0l227.3-227.3c6.418-6.206 10.408-14.907 10.408-24.54 0-10.111-4.396-19.195-11.381-25.445l-226.323-226.391c-13.328-13.332-34.94-13.335-48.272-0.007s-13.335 34.94-0.007 48.272l169.387 169.438h-563.818c-18.851 0-34.133 15.282-34.133 34.133s15.282 34.133 34.133 34.133h563.869zM396.698-48.239c18.851 0 34.133-15.282 34.133-34.133s-15.282-34.133-34.133-34.133h-323.174c-40.628 0-73.523 32.895-73.523 73.523v651.059c0 40.628 32.895 73.523 73.523 73.523h323.174c18.851 0 34.133-15.282 34.133-34.133s-15.282-34.133-34.133-34.133h-323.174c-2.926 0-5.257-2.331-5.257-5.257v-651.059c0-2.926 2.331-5.257 5.257-5.257h323.174z" />
<glyph unicode="&#xe95b;" glyph-name="Setting-Hover" d="M505.605-239.342c-32.085 0-64.169 4.279-64.169 4.279-27.804 4.28-49.175 29.93-49.175 55.61v29.96c0 8.545-6.435 17.075-12.84 19.23h-2.14l-57.75 25.68c-10.701 4.279-21.385 2.14-25.665-2.141l-21.385-21.369c-19.245-19.275-53.454-21.4-74.854-4.323l-2.14 2.14-89.834 87.708c-17.105 23.51-17.105 55.595 4.28 74.869l21.385 21.37c6.42 6.42 6.42 17.119 4.28 25.679l-25.665 62.015c-2.154 6.406-10.685 12.825-19.245 12.825h-29.989c-27.804 0-51.344 21.4-55.61 49.219 0 2.125-4.28 34.195-4.28 68.435-2.14 32.085 2.14 62.015 4.28 64.154 4.28 27.804 29.944 49.204 55.61 49.204h29.944c8.56 0 17.105 6.406 19.245 12.825v2.14l25.665 62.029c4.265 8.56 2.14 21.385-2.14 25.679l-21.385 21.385c-19.26 19.231-21.385 51.329-4.294 74.854l2.154 2.14 87.694 89.834c21.4 17.105 55.61 14.979 74.854-4.28l21.385-21.385c6.42-6.42 17.105-6.42 25.665-4.28l66.294 27.804c6.435 2.14 12.839 10.685 12.839 19.245v29.974c0 27.804 21.385 51.329 49.189 55.624 2.141 0 32.071 4.265 66.311 4.265 32.1 0 64.169-4.265 64.169-4.265 27.834-4.28 49.233-29.944 49.233-55.624v-29.93c0-8.56 6.42-17.105 12.825-19.245h2.141l62.014-25.665c10.7-6.42 21.385-2.14 25.679 2.14l23.496 23.525c19.289 17.119 53.484 19.245 72.758 2.14l2.125-2.14 89.848-89.834c17.119-23.525 17.119-55.624-4.265-74.854l-21.4-21.385c-6.42-6.42-6.42-17.119-4.265-25.679l25.665-64.169c2.14-6.42 10.685-12.825 19.23-12.825h29.96c27.79 0 51.329-21.385 55.595-49.204 0-2.14 4.293-32.070 4.293-64.154 0-34.239-4.293-66.31-4.293-68.435-4.266-27.819-29.96-49.219-55.595-49.219h-29.96c-8.56 0-17.090-8.56-19.23-14.965l-25.665-62.015c-4.28-8.56-2.14-21.399 2.14-25.679l21.37-21.37c19.26-21.414 19.26-53.469 2.154-74.898l-2.154-2.111-89.819-89.864c-21.386-17.090-55.595-14.965-74.87 4.279l-21.385 21.414c-6.42 6.42-17.090 6.42-25.679 4.28l-62-25.693c-6.42-2.11-12.854-10.67-12.854-19.23v-29.93c0-27.804-21.385-51.344-49.175-55.624-6.42 2.11-38.534-2.169-70.604-2.169l0.003 0.001zM505.605 515.695c-132.618 0-241.712-106.939-241.712-241.683 0-134.758 106.939-241.683 241.712-241.683 132.617 0 241.683 106.924 241.683 241.683 0 134.729-109.064 241.683-241.683 241.683v0z" />
<glyph unicode="&#xe95c;" glyph-name="Setting" d="M505.605-239.342c-32.085 0-64.169 4.279-64.169 4.279-27.804 4.28-49.175 29.93-49.175 55.61v29.96c0 8.545-6.435 17.075-12.84 19.23h-2.14l-57.75 25.68c-10.701 4.279-21.385 2.14-25.665-2.141l-21.385-21.369c-19.245-19.275-53.454-21.4-74.854-4.323l-2.14 2.14-89.834 87.708c-17.105 23.51-17.105 55.595 4.28 74.869l21.385 21.37c6.42 6.42 6.42 17.119 4.28 25.679l-25.665 62.015c-2.154 6.406-10.685 12.825-19.245 12.825h-29.989c-27.804 0-51.344 21.4-55.61 49.219 0 2.125-4.28 34.195-4.28 68.435-2.14 32.085 2.14 62.015 4.28 64.154 4.28 27.804 29.944 49.204 55.61 49.204h29.944c8.56 0 17.105 6.406 19.245 12.825v2.14l25.665 62.029c4.265 8.56 2.14 21.385-2.14 25.679l-21.385 21.385c-19.26 19.231-21.385 51.329-4.294 74.854l2.154 2.14 87.694 89.834c21.4 17.105 55.61 14.979 74.854-4.28l21.385-21.385c6.42-6.42 17.105-6.42 25.665-4.28l66.294 27.804c6.435 2.14 12.839 10.685 12.839 19.245v29.974c0 27.804 21.385 51.329 49.189 55.624 2.141 0 32.071 4.265 66.311 4.265 32.1 0 64.169-4.265 64.169-4.265 27.834-4.28 49.233-29.944 49.233-55.624v-29.93c0-8.56 6.42-17.105 12.825-19.245h2.141l62.014-25.665c10.7-6.42 21.385-2.14 25.679 2.14l23.496 23.525c19.289 17.119 53.484 19.245 72.758 2.14l2.125-2.14 89.848-89.834c17.119-23.525 17.119-55.624-4.265-74.854l-21.4-21.385c-6.42-6.42-6.42-17.119-4.265-25.679l25.665-64.169c2.14-6.42 10.685-12.825 19.23-12.825h29.96c27.79 0 51.329-21.385 55.595-49.204 0-2.14 4.293-32.070 4.293-64.154 0-34.239-4.293-66.31-4.293-68.435-4.266-27.819-29.96-49.219-55.595-49.219h-29.96c-8.56 0-17.090-8.56-19.23-14.965l-25.665-62.015c-4.28-8.56-2.14-21.399 2.14-25.679l21.37-21.37c19.26-21.414 19.26-53.469 2.154-74.898l-2.154-2.111-89.819-89.864c-21.386-17.090-55.595-14.965-74.87 4.279l-21.385 21.414c-6.42 6.42-17.090 6.42-25.679 4.28l-62-25.693c-6.42-2.11-12.854-10.67-12.854-19.23v-29.93c0-27.804-21.385-51.344-49.175-55.624-6.42 2.11-38.534-2.169-70.604-2.169l0.003 0.001zM447.84-192.263c0 0 29.944-4.293 57.764-4.293 29.93 0 57.735 4.293 57.735 4.293 6.435 2.125 12.839 8.532 12.839 14.966v29.914c0 27.82 19.245 53.469 42.771 59.889l57.75 23.539c6.42 4.265 17.105 6.42 27.804 6.42 17.090 0 34.239-6.42 44.91-19.275l21.414-21.37c6.39-6.42 12.796-4.294 17.104 0l85.539 85.539c4.294 6.42 2.141 12.854-2.14 19.245l-19.23 21.429c-17.12 17.075-23.555 49.16-10.73 72.714l23.539 57.72c6.42 23.525 34.239 42.784 59.889 42.784h29.944c6.42 0 12.825 6.42 14.966 12.84v0c0 0 4.279 29.93 4.279 59.888 0 27.804-4.279 55.61-4.279 57.764-2.141 6.406-8.561 12.825-14.966 12.825h-29.944c-27.804 0-53.469 19.26-59.889 42.77l-23.539 59.904c-10.67 21.37-6.39 53.454 12.87 72.729l21.37 21.37c4.279 4.28 4.279 10.7 0 17.105l-85.539 85.554c-8.56 4.28-12.854 2.14-17.105 0l-21.414-21.4c-19.245-19.231-51.344-23.51-74.854-12.825l-59.875 23.569c-25.665 8.545-42.756 34.21-42.756 59.889v29.932c0 6.42-6.42 12.84-12.854 14.979v0c0 0-29.944 4.28-57.751 4.28-29.929 0-57.734-4.28-57.734-4.28-6.42-2.14-12.84-8.545-12.84-14.979v-29.93c0-27.819-19.245-53.484-42.756-59.889l-59.904-25.665c-6.42-4.28-17.105-6.42-27.804-6.42-17.105 0-34.225 6.42-44.925 17.105l-21.385 21.385c-6.406 6.42-12.825 4.279-17.090 0l-83.458-85.554c-4.28-4.28-2.14-12.825 2.14-17.119l21.385-21.385c19.245-19.245 23.525-49.189 10.685-74.854l-23.51-59.875c-8.56-25.679-34.225-42.785-59.904-42.785h-29.944c-6.42 0-12.825-6.406-14.965-12.825v0c0 0-4.28-27.79-2.14-55.61 0-32.085 4.28-62.014 4.28-62.014 2.14-6.42 8.545-12.84 14.979-12.84h29.93c27.804 0 53.484-19.245 59.889-42.785l23.539-57.75c10.685-23.51 6.42-53.469-12.84-72.714l-21.385-21.385c-4.28-4.28-4.28-10.7 0-17.119l85.554-83.414c8.545-4.28 12.825-2.14 17.119 2.14l21.385 21.37c17.105 17.119 51.329 23.554 74.854 10.685l55.624-23.51c25.651-8.56 42.771-34.225 42.771-59.889v-29.959c-2.154-4.294 4.265-10.714 12.825-12.826v0l0.003 0.002zM505.605-10.484c-156.143 0-284.482 126.197-284.482 284.482s128.339 284.467 284.482 284.467c156.114 0 284.482-126.184 284.482-284.467s-128.368-284.482-284.482-284.482v0zM505.605 515.695c-132.618 0-241.712-106.939-241.712-241.683 0-134.758 106.939-241.683 241.712-241.683 132.617 0 241.683 106.924 241.683 241.683 0 134.729-109.064 241.683-241.683 241.683v0z" />
<glyph unicode="&#xe95d;" glyph-name="Trash" d="M475.346-26.202v437.944c0 21.898 14.421 36.496 36.053 36.496s36.053-14.598 36.053-36.496v-437.944c0-21.898-14.421-36.496-36.053-36.496s-36.053 14.598-36.053 36.496v0zM331.137-26.202v437.944c0 21.898 14.421 36.496 36.053 36.496s36.053-14.598 36.053-36.496v-437.944c0-21.898-14.421-36.496-36.053-36.496s-36.053 14.598-36.053 36.496v0zM619.555-26.202v437.944c0 21.898 14.421 36.496 36.053 36.496s36.053-14.598 36.053-36.496v-437.944c0-21.898-14.421-36.496-36.053-36.496s-36.053 14.598-36.053 36.496v0zM359.978 711.006c0 7.298 0 7.298 7.209 7.298h288.42c7.209 0 7.209 0 7.209-7.298v-87.589h-302.841v87.589h0.002zM742.134-135.687c0-14.598-7.209-21.898-21.632-21.898h-425.42c-14.421 0-21.632 7.298-21.632 21.898l-28.841 678.814h533.578l-36.055-678.814h0.002zM907.977 623.419h-187.473v87.589c0 36.496-28.841 72.991-72.106 72.991h-281.209c-36.053 0-72.106-29.196-72.106-72.991v-87.589h-180.262c-21.632 0-36.053-14.598-36.053-36.496s14.421-36.496 36.053-36.496h57.683l28.841-686.114c-7.209-58.389 43.264-102.187 93.738-102.187h425.42c50.473 0 93.738 43.798 93.738 94.891l36.053 693.41h57.683c21.632 0 36.053 14.598 36.053 36.496s-14.421 36.496-36.053 36.496v0z" />
<glyph unicode="&#xe95e;" glyph-name="message" d="M669.264 246.862c95.916-93.525 185.467-185.877 281.341-279.414v558.746c-96.195-93.789-185.69-186.072-281.341-279.331v-0.001zM343.802 246.904c-95.693 93.303-186.581 185.667-282.831 279.555v-559.305c96.334 93.986 187.069 186.281 282.831 279.751v-0.001zM83.798-53.745h845.584c-96.208 93.846-190.857 182.218-286.105 275.115-15.459-15.090-30.375-29.568-45.277-44.046-52.030-50.622-129.423-51.042-181.943-0.867-12.966 12.398-25.654 25.060-38.494 37.57-2.479 2.387-5.112 4.565-7.995 7.105-95.177-92.855-189.602-181.088-285.769-274.877v0zM929.867 544.204c-1.016 1.228-2.061 2.415-3.077 3.658h-840.542c-0.794-1.048-1.574-2.108-2.353-3.141 2.91-1.955 6.24-3.491 8.705-5.906 115.317-112.373 230.494-221.017 345.851-333.389 41.252-40.193 95.456-39.635 136.931 0.769 115.122 112.147 230.173 220.457 345.336 332.536 2.479 2.415 6.072 3.671 9.149 5.473v-0.001zM19.482-46.026v584.435c0.807 2.485 1.699 4.902 2.381 7.387 5.39 19.768 17.298 33.339 36.405 40.222 3.245 1.185 6.448 2.485 9.679 3.74h876.488c0.807-0.516 1.546-1.285 2.437-1.55 32.937-9.869 45.764-27.196 45.778-62.418 0.069-187.567 0.069-375.091 0.042-562.628 0-4.928-0.25-9.982-1.393-14.686-6.602-27.657-28.022-43.685-57.785-43.685h-459.509c-132.489 0-264.977-0.028-397.466 0.112-27.032 0.029-48.035 16.852-54.678 42.804-0.585 2.123-1.574 4.19-2.381 6.268v0z" />
<glyph unicode="&#xe95f;" glyph-name="message-Hover" d="M668.312 246.864v-0.002l316.745-314.548c2.72 4.823 4.826 10.221 6.244 16.161 1.142 4.704 1.393 9.757 1.393 14.686 0.028 187.537 0.028 375.062-0.042 562.628-0.006 14.636-2.234 26.173-7.188 35.378l-35.81-34.974c-96.195-93.789-185.69-186.072-281.341-279.33zM928.429-53.745c-96.208 93.846-190.857 182.219-286.105 275.116-15.459-15.091-30.375-29.569-45.277-44.047-52.031-50.622-129.424-51.041-181.944-0.866-12.966 12.397-25.654 25.060-38.494 37.569-2.479 2.387-5.112 4.566-7.994 7.105-93.073-90.8-185.429-177.194-279.395-268.675l-40.397-40.678c8.068-4.431 17.457-6.867 27.718-6.877 132.489-0.139 264.977-0.112 397.466-0.112h459.51c11.519 0 21.782 2.411 30.426 6.958l-35.513 34.506zM60.018 526.46l-33.145 32.447c-2.046-4.015-3.721-8.38-5.011-13.112-0.682-2.485-1.574-4.901-2.381-7.386v-584.435c0.807-2.080 1.797-4.146 2.381-6.268 1.268-4.953 3.063-9.571 5.319-13.807l32.97 33.133-0.134 0.123c96.334 93.985 187.069 186.281 282.831 279.75-95.693 93.301-186.581 185.666-282.831 279.554zM48.306 581.46c3.072 1.75 6.391 3.271 9.962 4.557 3.245 1.186 6.448 2.485 9.679 3.741h876.489c0.806-0.516 1.545-1.285 2.436-1.55 6.136-1.838 11.57-3.937 16.358-6.36l-42.357-42.168c-0.387-0.298-0.761-0.61-1.108-0.949-115.163-112.078-230.216-220.389-345.337-332.536-41.474-40.404-95.679-40.962-136.931-0.769-115.358 112.372-230.534 221.017-345.851 333.388l-43.341 42.645z" />
<glyph unicode="&#xe960;" glyph-name="add-entity" horiz-adv-x="1161" d="M1125.948 393.646c-1.338 3.491-3.481 6.619-6.288 9.361-1.959 2.3-5.254 4.627-9.041 6.153-3.52 1.422-7.333 2.096-11.357 2.096h-119.505v116.412c0 3.514-0.571 6.929-1.735 10.136-1.324 3.67-3.497 6.956-6.38 9.774-2.728 2.662-5.997 4.653-9.69 5.922-3.322 1.162-6.909 1.705-10.707 1.705-3.694 0-7.202-0.595-10.498-1.783-3.204-1.191-6.169-2.922-8.831-5.147-3.493-3.361-5.626-6.413-7.055-9.826-1.429-3.387-2.131-7.032-2.131-10.781v-116.413h-119.187c-3.852 0-7.572-0.7-11.055-2.096-3.496-1.396-6.632-3.49-9.357-6.153-2.991-3.337-4.765-6.234-5.97-9.361-1.231-3.208-1.814-6.647-1.814-10.239 0-3.725 0.543-7.215 1.721-10.473 1.311-3.596 3.336-6.801 6.063-9.466 2.885-2.817 6.247-4.936 10.006-6.231 3.298-1.136 6.779-1.679 10.406-1.679h119.188v-116.725c0-3.954 0.674-7.68 2.13-11.119 1.563-3.697 3.946-6.906 7.056-9.514 2.039-2.045 5.256-4.139 8.831-5.458 3.296-1.191 6.803-1.76 10.498-1.76 3.798 0 7.385 0.518 10.707 1.682 4.064 1.397 7.6 3.775 10.407 6.984 1.798 1.291 4.236 4.757 5.665 8.713 1.177 3.257 1.735 6.748 1.735 10.472v116.724h119.504c3.799 0 7.387 0.517 10.712 1.679 4.062 1.396 7.583 3.778 10.403 6.983 1.801 1.291 4.236 4.731 5.666 8.714 1.18 3.258 1.734 6.748 1.734 10.473-0.003 3.593-0.585 7.032-1.83 10.239zM894.459-133.442c-0.011-0.198-0.026-0.392-0.041-0.585h-832.976c-0.139 2.562-0.211 5.084-0.211 7.565v17.598c1.562 18.765 5.543 38.462 11.821 56.855 6.306 18.478 13.385 33.501 21.089 45.022 2.257 3.661 6.727 8.306 13.887 14.2 8.683 7.089 18.101 13.965 28.264 20.573 11.753 7.301 27.041 15.263 45.263 23.44 19.12 8.6 38.7 17.068 58.757 25.373 10.694 4.884 21.401 9.213 33.211 13.431 14.118 5.045 26.85 10.672 38.211 16.912 4.513 2.147 13.67 6.423 26.050 12.023 22.325 10.087 36.688 24.129 36.688 45.63 0 10.060 0.271 18.287 0.816 24.58 0.691 8.175 1.033 18.58 1.033 31.374v10.831c0 8.97-1.877 17.197-6.999 24.682-9.363 13.726-18.779 28.963-28.236 45.71-7.99 14.15-12.555 27.263-13.929 39.395-0.599 5.786-1.222 11.627-1.848 17.147-0.572 4.97-1.133 10.207-1.705 15.712-0.48 10.285-4.965 20.029-13.758 26.892-0.504 0.397-1.754 1.513-3.479 3.21l-3.289 2.788c-4.021 2.947-6.631 5.759-8.114 8.44-2.524 4.529-4.658 9.239-6.435 14.144-1.731 9.492-3.356 17.613-4.856 24.371-1.305 5.866-2.541 13.511-3.667 22.856-0.761 7.485-0.217 13.589 1.318 17.89 0.284 0.822 2.689 3.237 8.9 6.583l15.872 8.519v34.824c0 3.24 0.259 8.204 0.816 14.654 0.639 11.148 1.373 20.067 2.228 27.605 0.735 6.424 2.093 13.061 4.090 19.909 7.665 30.872 20.479 54.176 38.729 71.775 18.357 17.679 42.477 30.153 72.996 37.348l3.289 0.955c4.918 1.752 9.417 2.892 13.48 3.505 5.665 0.821 11.319 1.512 16.986 2.070 0.3 0 0.3 0 5.312 0.397 3.071 0.213 8.059 0.344 14.744 0.344 6.617 0 11.413-0.131 14.091-0.344 4.62-0.372 4.62-0.372 5.544-0.452 1.508-0.263 4.485-0.821 7.12-1.458 4.485-1.089 8.983-2.017 13.48-2.735 24.092-3.662 45.319-11.175 64.287-22.59 17.788-10.722 32.083-25.878 43.144-46.001 6.999-13.166 12.786-26.73 17.162-40.398 4.117-12.795 6.794-28.614 7.894-47.355 0.556-7.619 0.681-13.006 0.463-16.273-0.354-5.521-0.516-12.421-0.516-20.81v-29.913h24.229c0.466-3.725 0.719-7.886 0.719-12.502 0-1.674-0.231-4.646-0.72-8.708-0.518-4.379-1.033-7.699-1.453-9.796-2.108-14.624-4.187-27.446-6.577-40.239-0.979-5.311-3.411-8.92-8.413-12.264l-4.36-3.532c-0.38-0.372-2.339-2.044-5.341-4.486-9.716-7.908-15.682-18.714-17.258-31.001l-0.217-2.815c-0.53-17.703-3.45-34.666-8.736-50.965-5.054-15.554-12.895-29.994-23.631-43.477l-2.092-2.973c-1.467-2.392-3.085-4.834-4.837-7.248-2.745-3.847-5.265-7.97-7.577-12.358-3.38-5.557-5.349-11.7-6.079-18.194-0.435-3.772-0.651-7.431-0.651-10.962 0-11.203 0.338-20.121 1.086-27.048 0.555-5.177 1.14-12.743 1.738-22.563-0.050-23.718 5.817-41.938 28.868-46.936 0.833-0.726 1.901-1.76 3.147-3.101 10.707-11.386 24.608-19.457 41.104-24.234 10.002-2.919 18.915-6.158 26.728-9.716 18.67-7.829 35.562-14.359 51.552-19.988 14.637-5.148 30.561-11.493 47.738-19.004 12.732-5.468 27.191-14.68 43.322-27.768 16.562-13.429 29.335-25.906 38.305-37.241 12.569-16.72 21.279-34.717 25.858-53.591 4.917-20.305 7.132-42.126 6.575-65.51v0zM947.454-54.155c-6.508 26.86-18.751 52.185-36.539 75.81-12.419 15.685-28.292 31.185-48.077 47.246-20.206 16.407-39.323 28.562-57.586 36.42-18.345 8.017-35.698 14.919-51.854 20.598-14.813 5.23-30.575 11.307-47.289 18.315-9.77 4.459-21.497 8.735-34.284 12.448-6.305 1.832-10.572 4.3-13.425 7.354-5.339 5.689-10.601 10.345-16.107 13.866-0.643 11.048-1.251 18.733-1.885 24.57-0.475 4.486-0.746 11.494-0.746 20.786 0 0.63 0.022 1.32 0.067 2.061 1.024 1.917 2.090 3.641 3.167 5.157 2.215 3.069 4.293 6.178 6.255 9.293 14.548 18.601 25.418 38.857 32.499 60.626 6.333 19.472 10.083 39.636 11.282 60.41 1.193 1.006 2.233 1.906 3.153 2.732 17.069 12.187 28.008 29.045 31.78 49.3 2.554 13.671 4.769 27.339 6.686 41.009 0.49 2.098 1.208 6.901 1.916 12.742 0.748 6.183 1.141 11.307 1.141 15.689 0 14.042-1.575 26.701-4.878 37.984-3.401 11.615-10.291 20.358-19.491 26.116 0.11 5.45-0.117 11.814-0.663 19.246-1.345 22.963-4.823 43.534-10.57 61.424-5.462 17.041-12.624 33.842-21.444 50.406-16.239 29.573-37.979 52.613-65.157 68.963-26.009 15.662-54.979 25.906-86.667 30.739-2.553 0.397-5.461 1.009-8.369 1.697-4.756 1.168-9.783 2.123-15.11 2.869-2.705 0.264-2.705 0.264-7.325 0.635-4.715 0.401-11.007 0.558-19.172 0.558-8.114 0-14.514-0.157-19.445-0.531-5.002-0.37-5.002-0.37-6.007-0.451-7.365-0.715-14.022-1.54-20.669-2.495-7.711-1.138-15.582-3.099-23.613-5.858-40.229-9.74-73.805-27.225-100.069-52.51-26.728-25.749-45.019-59.009-54.924-99.117-2.609-8.812-4.634-18.714-5.749-28.535-0.992-8.707-1.807-18.714-2.459-30.074-0.612-7.14-0.964-13.644-0.964-18.794v-1.332c-10.099-8.12-17.424-17.75-21.43-29.086-4.634-13.14-5.938-27.793-4.293-43.851 1.399-11.652 2.934-21.154 4.701-29.12 1.454-6.476 3.071-14.677 4.851-24.553l1.115-4.273c3.030-8.892 6.835-17.438 11.4-25.615 5.343-9.572 12.836-18.022 22.187-25.39 0.355-3.301 0.711-6.516 1.062-9.622 0.597-5.31 1.21-10.911 1.807-16.804 2.351-20.702 9.498-41.272 21.213-62.033 9.17-16.231 18.374-31.244 27.61-45.076v-7.242c0-11.28-0.286-20.15-0.816-26.411-0.5-5.887-0.813-12.664-0.951-20.326-0.4-0.191-0.821-0.386-1.277-0.59-12.882-5.84-22.515-10.327-29.011-13.486-9.662-5.254-19.405-9.585-30.546-13.564-13.453-4.804-25.846-9.794-37.163-14.997-19.54-8.069-39.679-16.774-59.369-25.616-20.587-9.261-38.265-18.446-53.076-27.659-12.543-8.171-23.766-16.348-34.189-24.87-11.93-9.769-20.709-18.955-26.444-28.3-10.177-15.181-19.417-34.771-27.271-57.813-7.895-23.119-12.841-47.645-14.879-73.502l-0.095-19.879c0-6.331 0.324-12.757 0.957-19.295 0.354-12.575 4.67-23.953 14.397-32.387 5.19-4.518 11.505-8.107 19.207-11.349 5.396-3.013 11.341-4.338 17.306-4.338h847.322c3.67 0 6.739 0.504 10.192 1.354 16.265 4.724 26.049 9.635 33.345 17.572 8.968 9.741 11.918 21.739 12.896 39.099 0.719 29.333-2.012 56.247-8.167 81.652v0z" />
</font>
</defs>
</svg>
