<?xml version="1.0" standalone="no"?>
<!DOCTYPE svg PUBLIC "-//W3C//DTD SVG 1.1//EN" "http://www.w3.org/Graphics/SVG/1.1/DTD/svg11.dtd">
<svg xmlns="http://www.w3.org/2000/svg">
  <metadata>CC0 1.0 Universal | simple-icons contributors</metadata>
  <defs>
    <font id="Simple Icons Fit" horiz-adv-x="1200" vert-origin-x="0" vert-origin-y="0">
    <font-face font-family="Simple Icons" font-style="Fit" units-per-em="1200" ascent="1200" descent="0"/>
    <missing-glyph horiz-adv-x="0"/>
    <glyph glyph-name="dotenv" unicode="&#xEA01;" d="M1200 1200v-1200H0V1200h1200ZM546.65 405.5H342v-276h209.9v46.5H397.75v75.15h138.5v46.5h-138.5v61.2h148.9v46.7Zm107.3 0h-54.2v-276h51.75v180l111.3-180h55.9v276h-51.8v-184.3l-112.95 184.35Zm255.85 0h-60.4l98.65-276h59.5l98.8 276h-59.1l-67.6-204.25-69.85 204.3ZM270 216H186v-84H270v84Z" horiz-adv-x="1200"/><glyph glyph-name="dotnet" unicode="&#xEA02;" d="M3220.755869 1033.460086h-331.201053v-1015.209063h-191.232374V1033.460086h-330.395865V1199.865802H3220.755869z m-919.525776-1015.209063h-646.969318V1199.865802h621.33747v-166.405716h-430.105096v-334.690205h396.28716v-165.600527h-396.28716v-349.452002h455.736944z m-900.201242 0H1191.948121L641.467279 886.7815a388.637865 388.637865 0 0 0-34.623125 68.44106h-4.831134c4.294341-25.363452 6.441512-79.445309 6.441512-162.37977v-774.591767H423.663669V1199.865802h222.634743l532.095696-848.132357c22.411092-35.025719 36.904493-59.315586 43.346004-72.467005h3.220756c-5.367926 31.268171-8.051889 84.410641-8.051889 159.024817V1200h184.119872z m-1167.926566 92.999324a116.484001 111.250273 0 0 0-116.618199-111.250273 116.484001 111.250273 0 0 0-116.484001 111.384471 116.484001 111.250273 0 0 0 116.484001 111.116074 116.484001 111.250273 0 0 0 116.618199-111.250272Z" horiz-adv-x="3220.755869429024"/><glyph glyph-name="e" unicode="&#xEA03;" d="M0 599.8A600.6 600.6 0 0 1 599.8 0a113.5 113.5 0 0 1 113.3 113.3A113.5 113.5 0 0 1 599.8 226.65c-205.8 0-373.15 167.35-373.15 373.15S394 972.95 599.8 972.95c166.15 0 307.5-109.3 355.55-259.85H599.8a113.5 113.5 0 0 1-113.3-113.3A113.5 113.5 0 0 1 599.8 486.5h486.5a113.5 113.5 0 0 1 113.3 113.3A601 601 0 0 1 599.8 1200C269.05 1199.6 0 930.5 0 599.8" horiz-adv-x="1199.6000000000001"/><glyph glyph-name="1dot1dot1dot1" unicode="&#xEA04;" d="M269.450461 1199.999328A268.849673 268.849673 0 0 1 0.000789 930.549656V269.50046A268.849673 268.849673 0 0 1 269.450461 0.000789H930.499656A268.849673 268.849673 0 0 1 1199.999328 269.450461V930.499656A268.849673 268.849673 0 0 1 930.549656 1199.999328Zm577.299297-229.749721h47.099942v-156.09981h34.499958v-43.399947h-34.499958v-60.049927h-50.049939V770.74985H733.999895v48.199942z m-303.499631-29.449964h126.149847v-742.099096h-154.699812V710.499924H334.000382V809.749803c47.499942 2.099997 80.799902 5.149994 99.849878 9.199989 30.299963 6.499992 54.999933 19.499976 73.99991 38.949952 12.999984 13.299984 22.849972 30.999962 29.599964 53.199935 3.849995 13.349984 5.799993 23.199972 5.799993 29.699964Zm299.449636-36.499955L775.649844 813.999798h68.249917V904.249688Z" horiz-adv-x="1200.0001162674307"/><glyph glyph-name="1and1" unicode="&#xEA05;" d="M0 1200v-1200h1200V1200z m585.85-289.6c78.2 0 133.55-52 133.55-123.4 0-52.2-21.4-90.95-87.3-145.75l97.6-132.4c8.15 7.35 15.15 52.3 13.7 88.85-0.15 4.35-1.1 17.05-2 31h90.7c0-12.2 1.2-29.75 1.2-34.15 0-71.3-11.2-116.35-45.45-159.9L860 339h-111.6l-25.15 33.9c-41.15-32.95-77.3-45.25-135.65-44.9-114.2 0.65-192.85 58.65-200.25 161.95-4.45 61.75 36.85 125.3 116 171C452.45 726.15 442 748.75 442 789.65c0 69.6 59.55 120.75 143.9 120.75z m-471.2-6.7h203.2v-564.8H205V813.25H114.65z m722.5 0h203.25v-564.8H927.5V813.25h-90.35z m-251.8-74.5c-27.25 0-46.55-17.9-46.55-42.25 0-23.5 7-36.3 39.5-78.1 38.6 27.85 52.9 53.75 52.9 79 0 25.2-17.7 41.4-45.85 41.4z m-25.85-240.55c-50.1-33.15-70.2-65.5-69.3-95.95 1.5-46.4 40.3-76.1 97.4-76.1 35.15 0 58.7 12.85 78.95 29.7z" horiz-adv-x="1200"/><glyph glyph-name="1001tracklists" unicode="&#xEA06;" d="M455.409453 1200v-75.700001H379.490064v-75.700002H303.677556V972.905621H227.758167v-75.700001H151.838778v-375.86173H75.919389v-75.812508H0v-137.887971h75.919389v-75.700002h75.919389v-75.700001h138.214241v440.800484H214.139255V835.012024h75.925014V910.712026h75.919389V986.412027h75.91939V1062.112028h466.283207v-75.700001h75.919389v-75.700001h75.919389v-75.700002h75.925014v-237.973758h-75.925014v-440.800484h138.21424V231.937784h75.925015v75.700001H1350.078051V445.531382h-75.919389v75.812508h-75.919389V897.199994h-75.919389V972.899996h-75.919389V1048.599997h-75.812508V1124.299999h-75.919389V1200Zm77.128834-450.026017v-76.02627H456.287004v-214.690537h138.878029v228.202568h166.014598v-244.572265h-76.251284v-76.02627h-76.138776v-138.658641h138.765522v152.170672H900.052034v293.574473h-76.251283V749.973983Zm76.251284-611.422223v-138.55176h138.765522v138.55176z" horiz-adv-x="1350.0780513873458"/><glyph glyph-name="1panel" unicode="&#xEA07;" d="M517.45 1200l517.45-300v-600L517.45 0 0 300V900z m0-16.3L12.3 892.1v-583.2L517.45 17.35l505.15 291.55V892.1zM359.45 173.85l-290.05 167.45V858.7L517.45 1117.35l111.5-64.35-446.25-259.75v-386.5l289.6-167.25z m314.95 852.9l291.1-168.05v-517.4L517.45 82.65l-113.7 65.6 448.45 258.5v386.5l-291.15 168.1z m-106.85-167.5v-143.45l1.2-383.3-34.55-19.2-109 62.45 0.4 340.05H365.35L364.95 782.45l170.6 98.25z" horiz-adv-x="1034.9"/><glyph glyph-name="1password" unicode="&#xEA08;" d="M600.350204 1200C268.806804 1200 0 931.393313 0 600.050029c0-331.393313 268.806804-600.050029 600.350204-600.050029S1200.700409 268.656716 1200.700409 600C1200.700409 931.393313 931.893605 1200 600.350204 1200Zm-44.776119-242.991745h89.45218c24.214125 0 36.471275-0.100058 45.726674-4.802802a43.025098 43.025098 0 0 0 18.861002-18.861002c4.702743-9.255399 4.752772-21.412491 4.752773-45.626616v-300.975569c0-6.003502 0-9.105311-0.750438-11.906945a21.362461 21.362461 0 0 0-3.351955-6.853999 46.176937 46.176937 0 0 0-8.705078-8.104727l-34.770283-28.21646c-5.653298-4.602685-8.504961-6.904027-9.555574-9.705662a10.806304 10.806304 0 0 1 0-7.504377c1.000584-2.751605 3.902276-5.052948 9.555574-9.655633l34.770283-28.266488c4.702743-3.802218 7.004086-5.753356 8.705078-8.104728 1.500876-2.101226 2.651547-4.352539 3.351955-6.853998a46.827316 46.827316 0 0 0 0.750438-11.906946v-137.380138c0-24.214125-0.050029-36.371217-4.752773-45.626616a43.025098 43.025098 0 0 0-18.861002-18.861002c-9.255399-4.702743-21.512549-4.802802-45.726674-4.802802h-89.45218c-24.214125 0-36.321187 0.100058-45.626616 4.802802a43.025098 43.025098 0 0 0-18.861002 18.861002c-4.702743 9.255399-4.752772 21.412491-4.752772 45.626616v300.975569c0 6.003502 0 9.105311 0.750437 11.906945a21.862753 21.862753 0 0 0 3.351956 6.954057c1.700992 2.351372 4.002335 4.152422 8.705078 8.004669l34.770282 28.21646c5.653298 4.602685 8.504961 6.904027 9.555574 9.705662a10.806304 10.806304 0 0 1 0 7.504377c-1.000584 2.751605-3.902276 5.052948-9.555574 9.655633l-34.770282 28.266488a46.026849 46.026849 0 0 0-8.705078 8.104728 21.862753 21.862753 0 0 0-3.351956 6.954057 46.026849 46.026849 0 0 0-0.750437 11.806887V887.667806c0 24.214125 0.050029 36.371217 4.752772 45.626616a43.025098 43.025098 0 0 0 18.861002 18.861002c9.305428 4.702743 21.412491 4.802802 45.626616 4.802802z" horiz-adv-x="1200.7004085716667"/><glyph glyph-name="2fas" unicode="&#xEA09;" d="M494.500032 1199.999999c-45.9 0-91.65-6-136-17.75L98.000032 1112.599999a132 132 0 0 1-98-127.35v-455.75a395.65 395.65 0 0 1 177.6-330.3l284.85-188.25a66 66 0 0 1 73.35 0.4l278.6 187.6a396.55 396.55 0 0 1 174.65 328.5V985.249999a131.9 131.9 0 0 1-98.05 127.35L630.500032 1182.249999A529.7 529.7 0 0 1 494.500032 1199.999999ZM263.650032 929.999999h461.4c36.3 0 66-29.7 66-66 0-36.7-29.35-66-66-66H263.650032c-36.35 0-66 29.65-66 66 0 36.3 29.65 66 66 66zM263.500032 732.149999h164.95c36.35 0 66-29.75 66-66a66 66 0 0 0-65.9-66H263.500032c-36.3 0-66 29.6-66 66 0 36.25 29.7 66 66 66z m0-198c36.35 0 66-29.65 66-66 0-36.35-29.3-65.9-66-65.9-36.3 0-66 29.6-66 65.9 0 36.35 29.7 66 66 66z" horiz-adv-x="989.0500320297725"/><glyph glyph-name="2k" unicode="&#xEA0A;" d="M0 1200v-1200h1200.150019V1200H0Zm548.168521-279.634954c118.014752 0 222.177772-20.8026 189.973747-121.165146-21.702713-68.258532-100.862608-95.911989-155.719465-105.463183l-137.867234-24.453057c-32.754094-5.700713-51.956495-13.851731-65.008126-27.453431h300.63758l-40.905113-126.465808 172.32154 126.465808h187.773472l-204.575572-138.617327 103.512939-220.127516h-188.32354l-54.106764 137.717214-59.857482-41.305163-30.953869-96.412051H423.60295l85.910739 268.733591h-312.539067C243.730466 690.036255 344.593074 732.041505 436.604576 750.593824l113.214151 22.852857c19.352419 3.500438 32.004001 12.951619 36.804601 27.853482 6.80085 20.8026-16.002 29.053632-49.706213 29.053631-39.204901 0-80.210026-3.700463-99.212402-50.256282H282.335292c50.456307 123.715464 174.171771 140.267533 265.833229 140.267534Z" horiz-adv-x="1200.150018752344"/><glyph glyph-name="30secondsofcode" unicode="&#xEA0B;" d="M829.957386 600.010811c0-43.8429-35.420763-79.323394-79.084468-79.323394h-34.644254a398.16999 398.16999 0 0 0-23.235542-304.033191 396.198851 396.198851 0 0 0-132.603867-149.80653 394.227713 394.227713 0 0 0-539.255726 96.705252l-2.628185 3.583889c-28.073792 33.628819-23.713394 83.62406 9.73623 111.817314a78.845543 78.845543 0 0 0 111.339463-9.795961l9.437572-12.364415a237.253405 237.253405 0 0 1 210.433975-97.362298 236.536628 236.536628 0 0 1 192.693728 129.199173A238.746692 238.746692 0 0 1 464.161854 600.010811 237.552063 237.552063 0 0 1 564.450995 723.834152a238.746692 238.746692 0 0 1-91.807272 277.392954 236.536628 236.536628 0 0 1-323.565382-57.999259l-9.437573-12.424146a78.845543 78.845543 0 0 0-111.339463-9.73623A79.56232 79.56232 0 0 0 18.505344 1032.825055l2.628185 3.64362a395.541805 395.541805 0 0 0 154.286391 127.108571 393.929055 393.929055 0 0 0 385.029066-30.46305 396.258583 396.258583 0 0 0 132.603867-149.687068 397.931064 397.931064 0 0 0 23.235543-304.033191h34.644253c43.603974 0 79.024737-35.540226 79.024737-79.383126Zm-4.002008-311.200967a494.576585 494.576585 0 0 0-71.438841-167.905167 395.900194 395.900194 0 0 1 281.753352-117.31261A397.453212 397.453212 0 0 1 1433.543907 401.224474V798.797149a397.453212 397.453212 0 0 1-397.274018 397.632407c-110.144834 0-209.83666-44.798604-281.753352-117.312611a494.576585 494.576585 0 0 0 71.438841-167.845435 238.328572 238.328572 0 0 0 448.643083-112.474361v-397.572675a238.448035 238.448035 0 0 0-448.583352-112.474361Z" horiz-adv-x="1433.5439474803718"/><glyph glyph-name="365datascience" unicode="&#xEA0C;" d="M214.731983 364.457016v122.82469h117.254117c82.370015 0 169.408427 21.766763 170.482445 95.673517 0 45.509719-37.046458 105.754965-167.059908 105.754965-71.944881 0-169.408427-25.003137-169.408427-97.835873h-153.226557c0 171.742626 174.076825 233.792222 323.709002 233.792221 153.226557 0 317.966586-72.832735 319.212447-242.241162a167.77592 167.77592 0 0 0-112.571398-155.746919c77.687296-25.003137 132.361969-100.170072 132.361969-167.260391 0-194.583407-186.864798-251.764121-343.499573-251.764122-156.634774 0-330.912082 62.221438-331.9861 243.143338h154.300575c0-82.012009 112.585719-110.423363 178.759543-110.423363 77.701617 0 181.108062 31.833891 181.108062 117.254117 0 47.657755-26.793167 106.828983-173.002807 106.828982z m717.200529 204.836699v-119.416473c35.97244 53.95866 124.099191 84.174365 187.938816 84.174365 163.651691 0 335.408637-67.09032 335.408638-265.096264 0-176.425344-172.845284-264.007926-336.482655-264.007926-163.666011 0-339.003017 87.582582-339.003018 266.170282V568.205377c0 177.499362 167.260391 260.399226 334.320299 260.399225 176.425344 0 333.074438-68.164338 333.074439-235.410408H1294.864649c0 70.498536-89.931101 105.754965-177.513683 105.754964-91.721131 1.074018-184.516279-47.843918-184.516279-134.166319z m371.381078-300.338372c0 87.582582-81.295997 134.166319-183.442262 134.166319-102.146265 0-189.198997-45.495399-187.938816-134.166319 1.260181-88.6566 87.052733-130.02777 186.864799-130.02777 96.203365 0 184.516279 42.445188 184.516279 130.02777z m858.74177 402.670799h-438.628919v-139.908734h157.708791c173.017127 0 327.317702-69.424519 326.229365-255.931311 0-180.907579-154.472418-267.416143-318.13843-267.416143-178.57338 0-331.799937 62.579444-333.060118 249.25808h152.324382c0-87.768745 102.146265-110.409043 178.759544-110.409043 76.613279 0 168.148246 34.15377 168.148246 128.567106 1.260181 89.931101-89.916781 115.993936-174.076825 115.993935h-307.713296v421.015026h588.44726z m1133.719 528.373858a135.956349 135.956349 0 0 1-65.285969-255.014816l-275.693241-675.671835a135.240337 135.240337 0 0 1-114.390069-11.871478l-293.135292 335.408637a135.068494 135.068494 0 0 1-12.745013 181.867035 135.054174 135.054174 0 0 1-201.986971-177.742806 135.039854 135.039854 0 0 1 178.759544-35.771957l292.963449-335.408638a136.300035 136.300035 0 0 1-29.671536-84.876056 135.913388 135.913388 0 0 1 38.005915-99.325178 135.942029 135.942029 0 0 1 224.842072 45.796125 135.913388 135.913388 0 0 1 8.878548 53.529053 135.068494 135.068494 0 0 1-49.075459 104.480464l279.101458 683.404764a118.342455 118.342455 0 0 1 19.618727-1.446344 135.942029 135.942029 0 0 1 130.070731 82.69938 135.942029 135.942029 0 0 1-30.759874 151.035561 135.970669 135.970669 0 0 1-99.325177 38.005914Z" horiz-adv-x="3436.8649811186356"/><glyph glyph-name="3m" unicode="&#xEA0D;" d="M1792.580813 1173.376948L1628.239568 502.356378l-164.910227 671.02057h-483.540685v-247.792078C921.752394 1142.462208 716.918529 1196.894911 527.067881 1199.929487 295.871139 1203.058893 53.389568 1102.53857 44.475501 795.761924h319.863254c0 92.649392 70.838378 145.659638 150.590823 144.426842 97.865069 0.758644 143.004384-41.156434 145.375146-106.589475-3.413898-56.613804-36.699401-96.15812-144.616502-96.15812H408.055612V514.684343h97.675408c55.381008 0 132.66786-30.250927 135.702436-109.52922 3.79322-94.356341-61.829482-136.081758-142.34057-136.840402-143.857858 5.026016-167.18616 116.167354-167.18616 211.472H0c1.422457-64.200244-14.319404-482.782041 506.110342-479.747465 249.309367-2.370762 423.323322 102.891085 474.436958 247.792079v-222.093015h327.639354v723.746324l177.048531-723.935985h286.198428l177.807175 723.177341v-723.935985H2275.931837V1173.376948h-483.351024z m-811.843852-669.503282c-40.682282 84.68363-98.05473 121.762353-130.486759 133.426504 67.708972 30.250927 103.365238 71.2177 130.486759 153.056416v-286.48292z" horiz-adv-x="2275.93183712539"/><glyph glyph-name="42" unicode="&#xEA0E;" d="M1394.327083 254.569191H1708.995965v316.093045ZM1708.995965 1200h-314.668882v-314.74009l-314.668882-314.597674v-316.164254h314.668882v316.164254L1708.995965 885.331118Zm-314.668882 0h-314.668882v-314.74009z m-450.320437-629.337764H314.668882l629.337764 629.337764H629.337764L0 570.662236v-255.993354h629.337764v-314.668882h314.668882z" horiz-adv-x="1708.995964870638"/><glyph glyph-name="4chan" unicode="&#xEA0F;" d="M535.65 758.995497S472.3 1146.045497 239.4 1145.145497C82.45 1144.545497 21.15 993.795497 134.9 959.895497c0 0-134.9-48.65-134.9-134.85 0-86.25 213.7-177 535.65-66z m96.55-296.2s45.2-389.55 277.9-399.55c156.8-6.75 225.15 141 113.1 180.2 0 0 137 42.25 141 128.35 4 86.15-205.25 186.85-532 91z m-183.6 77.5s-376.6-109.5-347.6-340.65c19.5-155.7 176.5-198.45 196.5-81.5 0 0 64.5-127.95 150.1-117.55 85.6 10.4 150 233.5 1 539.7z m281.15 123.35s386.35 67.5 383 300.4c-2.3 156.9-153.7 216.65-186.4 102.55 0 0-50 134.3-136.3 133.4-86.2-0.9-174.7-215.6-60.3-536.35z" horiz-adv-x="1164.2563512198626"/><glyph glyph-name="4d" unicode="&#xEA10;" d="M864 1200v-1200H0V1200h864zM356.5 608.65c-5.75-6.9-294.1-339.45-299.15-345-2.9-3.5-9.35-9.7-9.35-18 0-7.65 9.35-10.4 18-10.4h220v53.35H123.5c24.5 30.5 169 191.2 184.8 211.3v-267c0-9.7-0.25-48.25-2.15-80.1-1.45-21.5-6.5-31.85-33.05-34.65-11.5-1.35-26.65-2.05-33.1-2.05-3.6 0-5.75-4.15-5.75-9 0-4.85 3.6-8.35 11.5-8.35 38.85 0 76.95 2.1 97.1 2.1 61.8 0 132.3-4.85 158.9-4.85 130.9 0 204.95 48.5 237.3 80.35 39.55 38.8 76.95 104.65 76.95 190.5 0 81.1-33.1 137.9-69 173.25-77 78.25-195.65 78.25-284.1 78.25-28 0-51.75-1.35-53.2-1.35-19.4-2.1-17.25 6.2-29.5 6.9-7.9 0.7-12.9-2.75-23.7-15.25z m94.9-22.15c55.4 0 135.95-8.3 201.35-68.6 30.2-27.7 68.35-83.8 68.35-170.4 0-70.7-14.4-133-59.7-170.45-42.45-35.3-90.6-49.2-163.25-49.2-56.1 0-84.15 14.55-93.5 27-5.75 7.65-8.6 34.7-9.3 52 0 4.85-0.75 14.5-0.75 28.4h51.05c12.25 0 15.85 2.75 19.45 9 5 9 12.2 36.75 12.2 43 0 5.5-2.85 8.3-6.5 8.3-4.3 0-13.65-6.95-32.35-6.95h-43.85v279.2c0 7.6 2.9 11.1 8.65 13.85 5.75 2.8 33.8 4.85 48.15 4.85z" horiz-adv-x="864.0000000000001"/><glyph glyph-name="500px" unicode="&#xEA11;" d="M1489.929737 1200A599.99123 599.99123 0 1 1 2089.90097 600.00877a605.390251 605.390251 0 0 1-600.011226 599.99123Zm0-1074.005298A470.994615 470.994615 0 1 0 1957.884903 600.00877a473.994072 473.994072 0 0 0-467.995159-473.994072Zm1289.366256 1074.005298A599.99123 599.99123 0 1 1 3379.327216 600.00877a599.99123 599.99123 0 0 1-599.991231 599.99123Zm0-1074.005298A470.994615 470.994615 0 1 0 3247.331145 600.00877a466.195485 466.195485 0 0 0-467.99516-473.994072zM457.916826 840.025258a404.406687 404.406687 0 0 1-318.002351-83.984775V1073.982845h540.002106c17.996737 0 29.994562 5.998912 29.994562 59.989125 0 54.010209-23.99565 54.010209-35.993475 54.010208H79.925351a53.990212 53.990212 0 0 1-53.990213-53.990212V606.007682c0-29.994562 17.996737-35.993475 47.9913-41.992387a45.591735 45.591735 0 0 1 53.990213 11.997825A341.398109 341.398109 0 0 0 427.922264 719.987019 312.003438 312.003438 0 0 0 697.913318 456.03487 303.604961 303.604961 0 0 0 433.921176 120.015786h-35.993475a306.004526 306.004526 0 0 0-282.008875 197.984108c-5.998912 17.996737-17.996737 29.994562-65.988038 11.997825-48.011296-17.996737-54.010209-29.994562-48.011296-47.9913a425.40288 425.40288 0 0 1 540.002105-251.994317A425.40288 425.40288 0 0 1 793.915914 570.014207 420.003859 420.003859 0 0 1 457.916826 840.005262z m3329.396427 353.995826a325.201046 325.201046 0 0 1-288.007788-324.001264v-533.983196c0-29.994562 23.99565-35.993475 59.989125-35.993475s60.009121 5.998912 60.009121 35.993475v533.983196a201.603452 201.603452 0 0 0 174.008455 204.003018 197.404213 197.404213 0 0 0 149.992808-47.9913 191.405301 191.405301 0 0 0 65.988038-144.013893 239.996492 239.996492 0 0 0-41.992388-113.979337A189.005736 189.005736 0 0 0 3799.311078 689.992457c-23.99565 0-41.992387 0-47.9913-53.990212 0-36.013471 0-54.010209 29.994563-60.009122a295.206483 295.206483 0 0 1 173.988458 35.993475 322.201589 322.201589 0 0 1 174.008455 251.994317 310.803656 310.803656 0 0 1-289.207571 335.999088 166.189872 166.189872 0 0 0-52.79043-5.998912z m785.99751-311.983442l216.000842 215.980845c5.998912 5.998912 23.99565 23.99565-11.997825 66.008034a59.989125 59.989125 0 0 1-42.012384 23.99565 31.194345 31.194345 0 0 1-23.995649-11.997825l-216.000843-216.000842-216.000842 221.999755c-17.996737 17.996737-35.993475 11.997825-65.988037-11.997825-29.994562-23.99565-29.994562-47.9913-11.997825-65.988038l215.980846-216.000842-217.200625-221.999754a45.591735 45.591735 0 0 1-11.997825-23.99565 50.390865 50.390865 0 0 1 23.99565-42.012384 96.582491 96.582491 0 0 1 41.992388-23.99565 63.588472 63.588472 0 0 1 30.014558 11.997825l216.000842 216.000842 216.000843-216.000842a31.194345 31.194345 0 0 1 23.995649-11.997825 59.989125 59.989125 0 0 1 41.992388 23.99565c17.996737 23.99565 23.99565 47.9913 5.998912 59.989125z" horiz-adv-x="4799.137402418541"/><glyph glyph-name="7zip" unicode="&#xEA12;" d="M0 0h2099.737533V934.120735H937.620297V1200H0ZM176.815398 1013.735783h582.414698v-174.453193c-152.230971-182.852143-248.468941-393.875766-257.91776-647.769029H304.199475c7.874016 218.810149 30.88364 433.420822 199.737533 611.898512l2.887139 2.88714H176.815398Zm739.28259-109.623797h1156.167979v-887.401575H916.010499Zm525.809274-106.124234v-601.137358h129.658792v601.049868Zm241.032371-3.76203v-604.72441h141.382327v211.723535h90.026246c37.620297 0.087489 65.966754 25.371829 84.776903 62.64217 37.35783 74.190726 37.532808 197.462817-2.099737 270.516185-19.860017 36.657918-49.956255 60.979878-90.376203 59.84252z m-693.263343-0.174978v-139.632546h193.963255l-201.574803-326.859143v-134.733158h375.065617V328.783902h-236.045495l243.744532 341.994751v123.35958Zm826.946632-132.283465h52.055993c14.348206 0.524934 25.109361-7.086614 32.458443-18.985127 14.873141-23.884514 15.048119-64.391951 0.349956-86.614173a31.846019 31.846019 0 0 0-32.633421-15.398075l-48.118985-4.111986z" horiz-adv-x="2099.7375328083986"/><glyph glyph-name="99designs" unicode="&#xEA13;" d="M2094.181841 427.96245c0-112.493694-91.213718-203.697739-203.697739-203.69774-112.493694 0-203.697739 91.213718-203.69774 203.69774 0 112.493694 91.213718 203.697739 203.69774 203.697739 112.493694 0 203.697739-91.213718 203.697739-203.707412z m-730.967196 345.490092c0-104.871594-84.878088-195.669385-195.659712-195.669385-108.044245 0-195.68873 87.62514-195.68873 195.669385s87.634813 195.68873 195.68873 195.68873c108.044245 0 195.669385-87.634813 195.669385-195.68873z m-740.978457 0c0-104.678139-84.723325-195.669385-195.68873-195.669385-108.044245 0-195.659712 87.62514-195.659712 195.669385s87.615467 195.68873 195.659712 195.68873 195.68873-87.634813 195.68873-195.68873z m1064.772647-741.220275c88.660121-38.545776 216.997725-45.074859 302.011231-5.59083 37.917049 17.604344 72.874247 46.196895 104.919957 85.680923v-84.887761H2321.451991V1174.32861h-240.33799v-413.189436c-68.386107 66.287127-140.167337 94.53146-237.078285 94.531459-102.424396 0-186.141759-34.086653-249.981688-88.621429 0.029018 2.13767 0.058036 4.255995 0.058036 6.403338 0 235.53065-191.045826 426.547458-426.557131 426.547458-158.603535 0-296.991091-86.580487-370.51341-215.082527C723.548222 1113.429186 585.131647 1200 426.547458 1200 191.016808 1200 0 1008.983192 0 773.452542c0-225.49037 175.076171-410.152203 396.678109-425.502804L211.63904 27.444272H489.14928c102.627523 178.190786 205.274392 356.381571 307.892243 534.572357 68.869742-120.328595 194.653749-203.929885 340.634389-214.057219l-185.039069-320.515138h277.490894l216.398017 375.707659c6.432357-153.235177 83.95918-302.804394 240.492753-370.900319" horiz-adv-x="2321.4519910705562"/><glyph glyph-name="9gag" unicode="&#xEA14;" d="M787.55 149.6l259.65 149.75V900.4l-259.65 149.8C644.75 1132.6 526 1200 523.6 1200c-2.4 0-121.15-67.4-263.95-149.8L0 900.4v-117.7l259.65-149.8c142.8-82.4 261.6-149.8 264-149.8 2.4 0 73.45 39.85 157.85 88.6a11481.65 11481.65 0 0 0 154.85 88.6c0.8 0 1.35-54.8 1.35-121.85l-0.1-121.8-153.8-88.6c-84.6-48.75-155.75-89.15-158.15-89.75-2.4-0.65-73.55 38.8-158.1 87.6-84.5 48.8-155.65 88.75-158.05 88.75-7.75 0-201.8-113.7-200.55-117.5 1.55-4.65 506.8-296.85 513.8-297.15 2.85-0.1 122 67.2 264.8 149.6ZM415.95 780.45c-55.9 32.5-101.65 60-101.65 61.1 0 3.55 203 118.8 209.3 118.8 6.25 0 209.3-115.25 209.3-118.8 0-3.15-202.35-118.75-209.2-119.5-3.4-0.35-51.85 25.95-107.75 58.4Z" horiz-adv-x="1047.2000000000003"/><glyph glyph-name="aframe" unicode="&#xEA15;" d="M718 346.5H178L61.5 0H0l411.5 1200h76l411.5-1200h-65z m-19.5 56.5l-250 748-251.5-749h501.5Z" horiz-adv-x="899.0000000000002"/><glyph glyph-name="abdownloadmanager" unicode="&#xEA16;" d="M549.01459 1200c-11.750312 0-21.250565-10.000266-21.250565-22.300593V753.988149c0-12.300327-9.500252-22.300593-21.250564-22.300593h-35.200936c-17.30046 0-27.350727-20.500545-17.300459-35.250937l128.703419-189.105024c8.500226-12.500332 26.100694-12.500332 34.60092 0l128.70342 189.105024c10.050267 14.750392 0 35.250937-17.30046 35.250937h-35.200935a21.800579 21.800579 0 0 0-21.250565 22.300593V1177.699407A21.800579 21.800579 0 0 1 651.0173 1200ZM369.359816 1121.897925a36.600973 36.600973 0 0 1-20.250538-8.050214l-54.801456-44.151173a38.501023 38.501023 0 0 1-6.150164-53.301417 36.750977 36.750977 0 0 1 52.251389-6.300167l54.801456 44.101172a38.501023 38.501023 0 0 1 6.150163 53.351417 36.900981 36.900981 0 0 1-32.00085 14.350382Zm467.312417 0a36.850979 36.850979 0 0 1-32.00085-14.350382 38.501023 38.501023 0 0 1 6.150164-53.351417l54.801456-44.101172c16.150429-13.000345 39.50105-10.200271 52.251388 6.300167a38.501023 38.501023 0 0 1-6.150163 53.301417l-54.801456 44.151173a36.650974 36.650974 0 0 1-20.250539 8.000212ZM151.954039 898.19198a37.25099 37.25099 0 0 1-33.750897-24.000637l-25.60068-66.301762c-7.500199-19.500518 1.850049-41.551104 21.000558-49.251309a37.000983 37.000983 0 0 1 48.251282 21.400569l25.600681 66.25176a38.251016 38.251016 0 0 1-20.950557 49.251309 36.400967 36.400967 0 0 1-14.550387 2.65007Zm902.123971 0a36.900981 36.900981 0 0 1-14.500385-2.65007 38.251016 38.251016 0 0 1-21.000558-49.251309l25.60068-66.25176a37.000983 37.000983 0 0 1 48.251282-21.400569 38.251016 38.251016 0 0 1 21.000558 49.251309l-25.60068 66.25176a37.25099 37.25099 0 0 1-33.750897 24.050639ZM0.000002 599.984057a600.015943 600.015943 0 0 1 45.651213-229.606102 599.86594 599.86594 0 0 1 121.003215-185.154919c34.200909 34.050905 78.252079 50.001329 124.453307 52.651399 46.251229 2.750073 94.652515-7.800207 137.253647-26.600707a424.861289 424.861289 0 0 1 343.309122 0c85.102261 37.550998 193.255135 42.15112 261.706954-26.000691a599.86594 599.86594 0 0 1 121.003216 185.104918A600.015943 600.015943 0 0 1 1200.031889 599.984057h-184.354899c-65.051729 0-115.753076-54.701454-140.653737-114.803051a300.007972 300.007972 0 0 0-554.364731 0C295.75786 545.282603 245.106515 599.984057 180.054786 599.984057Zm293.757805-388.460323c-36.350966-2.000053-70.351869-13.750365-97.8526-36.350965-3.650097-3.00008-7.000186-5.950158-10.200271-9.00024a599.86594 599.86594 0 0 1 184.704908-120.503202 600.015943 600.015943 0 0 1 459.212202 0 599.86594 599.86594 0 0 1 184.704908 120.503202 198.855284 198.855284 0 0 1-10.200271 9.00024c-58.651558 48.151279-148.003933 44.601185-221.805894 12.000318a451.161988 451.161988 0 0 0-364.609688 0c-23.900635 10.55028-70.901884 27.300725-124.003295 24.350647Z" horiz-adv-x="1200.0318901830835"/><glyph glyph-name="abb" unicode="&#xEA17;" d="M1709.098825 0v578.188942h396.386591c32.651284-54.592947 47.27906-123.683065 47.279059-192.773182 0-203.613409-152.80801-374.444928-370.918589-385.41576z m-36.438834 581.845886v-581.845886h-363.604701v581.845886z m411.014367 36.308228h-374.575533V1200h87.244231c141.837179 0 254.549412-112.712233 254.549412-254.549412 0-83.587288-43.622116-159.991293-109.055289-207.270353 54.462342-29.124946 105.398346-69.090118 141.837179-120.026121m-411.014367 581.845886v-581.845886h-363.604701V1200z m1018.197649-1200v578.188942h396.386592c32.781889-54.592947 47.27906-123.683065 47.279059-192.773182 0-203.613409-152.677405-374.444928-370.918589-385.41576z m-36.308228 581.845886v-581.845886h-363.604702v581.845886z m410.883762 36.308228h-374.575534V1200h87.244232c141.837179 0 254.549412-112.712233 254.549412-254.549412 0-83.587288-43.622116-159.991293-109.055289-207.270353 54.592947-29.124946 105.528951-69.090118 141.837179-120.026121m-410.883762 581.845886v-581.845886h-363.604702V1200zM207.270353 581.845886h374.575533v-327.296474H389.072704l-87.244232-254.549412H0z m374.575533 618.154114v-581.845886H218.241184l207.270353 581.845886z m36.308228-945.450588v327.296474h374.575533l207.270353-581.845886H898.171528l-87.244232 254.549412z m363.604702 363.604702H618.154114V1200H774.488463z" horiz-adv-x="3134.523291249455"/><glyph glyph-name="abbott" unicode="&#xEA18;" d="M1300.749986 1199.999961H0.000039v-199.812492h1235.81245V999.999969a64.374997 64.374997 0 0 0 64.499997-64.437497v-671.374973l-0.25-0.4375a64.624997 64.624997 0 0 0-64.624997-64.062497H264.375029c-35.562499 0-64.562497 28.749999-64.562498 64.562497v271.249989c0 35.624999 28.999999 64.499997 64.562498 64.499997H1099.999994V799.812477H199.250031A199.062492 199.062492 0 0 1 0.000039 600.624985v-401.437483A199.249992 199.249992 0 0 1 199.250031 0.00001h1101.499955A199.187492 199.187492 0 0 1 1499.999978 199.250002V1000.812469A199.124992 199.124992 0 0 1 1300.749986 1199.999961" horiz-adv-x="1499.9999877942082"/><glyph glyph-name="abbvie" unicode="&#xEA19;" d="M1702.662016 0.073435c-112.57573 0-157.150725 44.94217-172.351753 134.97338l-29.814577 127.776758c-30.328621-52.873141-180.135855-262.823573-510.005508-262.823573H652.836424C142.463742 0.073435 0 345.437856 0 600.036717c0 285.294658 172.351753 599.963283 652.395814 599.963283h360.198274c367.541766 0 569.781531-209.509822 614.797137-472.25996 37.598678-217.367358 135.046815-727.74004 135.046814-727.74004zM960.234992 1012.887828h-284.927483c-344.997246 0-457.572976-217.734533-457.572976-412.924545 0-194.822838 112.57573-412.557371 457.94015-412.557371h284.560309c360.124839 0 457.940151 225.078025 457.94015 412.557371 0 164.934827-90.398384 412.557371-457.94015 412.557371z" horiz-adv-x="1762.4380392876815"/><glyph glyph-name="aboutdotme" unicode="&#xEA1A;" d="M900.998573 1200v-1178.601997h185.449359v116.405135c65.620542-84.736091 164.621969-137.803138 274.179743-137.803138 219.115549 0 380.028531 166.048502 380.02853 448.787447 0 275.891583-159.201141 447.360913-380.02853 447.360912-106.134094 0-205.135521-47.931526-273.894437-139.800285V1200Zm2934.379458-91.868759v-233.380884h-141.226818v-160.627675h141.226818v-493.295293c0-142.938659 74.179743-220.827389 219.400856-220.827389 84.736091 0 139.800285 24.821683 173.18117 54.778887l-44.222539 141.512126a114.122682 114.122682 0 0 0-81.312411-31.954351c-53.067047 0-81.312411 44.222539-81.312411 102.710414V714.122682h173.18117v160.627675h-173.18117v233.380884z m-1565.763195-211.982882c-272.182596 0-438.231098-201.426534-438.231098-447.075606 0-243.937233 166.048502-449.072753 438.231098-449.072753s438.516405 205.135521 438.516405 449.072753c0 245.363766-166.333809 447.075606-438.516405 447.075606m4158.915834 0c-252.78174 0-433.095578-199.714693-433.095577-447.075606 0-270.470756 189.158345-449.072753 447.075606-449.072753 134.094151 0 259.629101 44.222539 346.36234 125.53495l-84.736092 121.825963c-61.911555-61.626248-158.915835-95.292439-243.937232-95.292439-160.912981 0-256.205421 107.845934-270.470756 235.092724H6847.360913v45.649073c0 268.758916-162.624822 463.338088-418.830243 463.338088m-1305.56348 0c-130.955777 0-242.225392-85.021398-279.315264-136.091298v114.693296h-185.449358v-853.352354h185.449358v597.146933c39.087019 54.778887 114.978602 113.266762 198.002853 113.266762 100.998573 0 139.800285-61.911555 139.800285-154.065621v-556.348074h185.449358v597.146933c37.089872 56.776034 114.978602 113.266762 198.002853 113.266762 100.713267 0 141.226819-61.911555 141.226819-154.065621v-556.348074h185.449358v616.547789c0 173.18117-89.871612 258.202568-245.363766 258.202567-129.243937 0-242.510699-79.885877-289.871612-155.492154-28.53067 91.868759-106.134094 155.492154-233.380884 155.492154m-4721.825963 0c-136.091298 0-259.629101-42.796006-358.630528-138.088445l77.603424-128.95863a342.368046 342.368046 0 0 0 252.78174 109.557774c116.975749 0 199.714693-59.914408 199.714693-158.915834v-127.24679c-63.623395 72.467903-160.627675 109.557775-277.318117 109.557774-139.800285 0-295.292439-81.312411-295.292439-279.315264 0-187.161198 157.203994-282.453638 295.292439-282.453637 112.981455 0 213.980029 40.513552 277.318117 114.693295v-93.580599h185.449358V588.587732c0 227.960057-166.048502 307.560628-356.63338 307.560627m2410.556348-21.398002v-604.279601c0-173.18117 91.868759-270.470756 275.606276-270.470756 134.094151 0 240.228245 67.047076 300.42796 134.379458v-112.981455h185.449358v853.352354h-185.449358v-599.14408a282.453638 282.453638 0 0 0-217.403709-111.269615c-106.134094 0-173.18117 42.510699-173.181169 174.89301v535.520685z m3614.835948-130.670471c168.045649 0 236.804565-123.82311 242.510699-224.536377H6188.302425c7.132668 102.710414 81.312411 224.536377 238.801712 224.536377m-5118.972896-12.268188c146.647646 0 240.513552-118.402282 240.513552-283.024251 0-166.048502-93.865906-284.450785-240.513552-284.450785a279.600571 279.600571 0 0 0-220.827389 113.266762v339.229672a279.600571 279.600571 0 0 0 220.827389 114.978602m962.054208 0c159.201141 0 245.649073-132.667618 245.649073-282.738945 0-152.068474-86.447932-284.736091-245.363766-284.736091-157.489301 0-245.934379 132.667618-245.934379 284.450785 0 150.356633 88.445078 283.024251 245.649072 283.024251m-1900.142653-297.00428c79.600571 0 158.915835-29.957204 203.138374-88.445078v-130.670471c-44.222539-58.202568-123.537803-88.445078-203.138374-88.445079-104.422254 0-183.737518 59.914408-183.737518 153.780314 0 91.868759 79.315264 153.780314 183.737518 153.780314m4071.041369-185.449358a125.53495 125.53495 0 0 1-123.823109-122.11127c0-67.047076 56.490728-125.53495 123.823109-125.53495a126.961484 126.961484 0 0 1 123.82311 125.53495 125.53495 125.53495 0 0 1-123.82311 122.11127" horiz-adv-x="6847.360912981452"/><glyph glyph-name="abstract" unicode="&#xEA1B;" d="M600 1200c480.05 0 600-119.95 600-600 0-480.05-119.95-600-600-600-480.05 0-600 119.95-600 600C0 1080.05 119.95 1200 600 1200z m-98.45-928.2c126.2-0.15 230.2 103.5 230.45 229.75 0 126.05-103.7 229.75-229.75 229.75S272.5 627.55 272.5 501.55c0-125.8 103.25-229.4 229.05-229.75z m417.2 9.45V918.75H281.25v-112.35h524.9v-525.15h112.6z m-417.2 337.4a117.15 117.15 0 1 0-0.1-234.3 117.15 117.15 0 0 0 0.1 234.3z" horiz-adv-x="1200"/><glyph glyph-name="abusedotch" unicode="&#xEA1C;" d="M3935.599777 878.944428c3.318004 0 20.269051 31.409292 65.809945 43.563846 18.532686 4.934027 61.632355 8.699016 92.921305-16.452487 24.068423-19.375081 31.68436-50.973482 31.68436-83.173593v-193.750806h-47.225685V815.249065c0 62.234065-31.478059 70.382946-56.663944 70.382946-46.572399 0-76.331285-36.188593-86.525981-50.887523v-205.630292h-47.208493v441.139812h47.208493z m-164.060687-8.83655c-32.492371 12.378046-67.219667 20.853569-103.270727 8.83655-29.99957-10.005587-45.437744-33.97086-53.311557-54.222719-5.501354-14.441054-8.234839-32.406413-8.234839-53.93046 0-30.223063 7.495595-57.076546 24.687325-77.689431 33.094082-37.959342 92.371169-37.323248 144.702798-15.833584v-39.300297c-11.346542-6.670392-28.727382-10.590106-31.976619-11.277775-15.128723-3.696222-91.563158-19.082821-144.71999 30.773198-62.440366 58.520652-37.04818 161.086517-36.25736 164.198221 6.532858 24.446641 18.584261 50.268621 40.520909 69.764043 59.827223 52.004986 138.393433 35.002364 167.86006 17.982551z m-1031.280354-480.646409h303.55439v-94.571711h-416.555637v617.251902h399.948425v-94.571711h-286.929987v-159.62522h246.340311v-94.55452h-246.357502z m-392.693515 82.571883c0 57.334422-54.497787 70.864314-139.321786 88.10762a721.588516 721.588516 0 0 0-68.73254 18.463919c-67.168092 22.693085-88.89844 62.010573-97.339579 78.875661-20.406584 40.795977-20.079942 111.522758 2.303692 158.696867 42.050973 89.809602 136.227275 107.499893 203.893927 107.499892 76.331285 0 145.923411-18.068509 185.000214-34.606954v-96.875403c-31.976619 12.601539-62.749817 21.678773-92.268019 27.21451-49.838828 9.971204-198.822366 31.117033-198.822366-72.428762 0-13.340783 0.825203-42.669876 36.893454-64.125156 39.626939-22.486784 80.405725-21.008295 161.017751-46.125413 23.982464-7.082993 45.214252-17.071389 63.660979-29.982379 18.446727-12.928182 33.059698-29.844845 43.821721-50.749989 10.762023-20.612885 16.143035-47.053767 16.143036-79.357029 0-54.463403-17.294881-108.926806-71.036232-146.697039-55.512099-38.767353-133.940774-46.58959-188.23226-46.58959-57.196888 0-131.929342 11.105858-179.911463 37.821807v95.500065c53.74135-23.34637 108.462629-37.821808 178.536124-37.821808 54.807238 0 144.393347 12.343663 144.393347 93.179181z m-902.926892-152.232776c-100.898268 61.477629-102.41114 177.693729-102.41114 228.821937v363.519147h113.018438V558.748442c0-41.603988 2.647527-126.720248 66.893024-161.928912 45.231444-24.171573 113.465423-24.171573 158.679675 0 64.297073 35.208665 66.910216 120.393691 66.910217 161.928912v353.376026h113.018438v-363.536339c0-25.82198-1.530064-49.202733-4.607384-70.107878-6.189023-46.864658-27.902179-116.577126-99.196287-158.696867-83.13921-48.618215-229.35488-49.254309-312.304981 0z m-278.763915 428.10848c0-26.767525-5.982722-51.368892-17.98255-73.821292-11.999828-22.142949-31.839085-40.589676-59.517772-55.357373v-1.839516c29.810461-10.143121 77.517514-34.159969 95.964241-87.196458 13.237633-35.86195 12.154554-96.479993-24.446641-146.232862-11.999828-15.98831-27.988138-30.773198-47.982121-44.285898-54.222719-36.704345-124.605665-41.844673-167.928826-43.838914-75.024713-0.99712-150.08381-0.464177-225.125714-0.464177v617.251902h214.518416c49.048008 0 114.686036-4.246358 165.160958-40.589676 47.397602-33.18004 67.340009-81.110586 67.340009-123.625736zM831.907852 563.373018v-173.911549h73.804101a804.573 804.573 0 0 1 50.749989 1.375338c49.649718 4.332316 101.138952 19.598573 114.857953 62.268449 3.094512 9.902437 21.197404 78.222375-54.893196 102.411141-19.736107 6.137448-44.492199 7.856621-77.500323 7.856621z m101.946964 94.571711c24.824859 0 82.709417 0.017192 104.714832 38.285984 14.389479 24.584175 15.764817 59.758456-1.375338 85.803928-21.094254 32.836206-71.861435 35.535308-112.571454 35.535308H831.907852v-159.62522z m-688.717927 254.334465L0 295.096059h120.548416c39.265913 102.256415 78.56621 204.495638 117.849315 306.752052 16.916663 43.323162 36.222977 97.202046 57.764215 161.756995h2.011433c53.019298-158.163923 115.597198-312.906692 175.613529-468.509047h119.534105l-245.119698 617.183135z m3026.432286-912.279194h50.406155V1200h-50.406155z" horiz-adv-x="4126.015386599046"/><glyph glyph-name="academia" unicode="&#xEA1D;" d="M1145.463998 122.744996L715.882506 1200H409.097998l54.536003-136.365999L95.451001 122.744996C81.829997 75.019496 40.914999 68.157005 0 61.346504v-61.346504h354.561996v61.346504C259.110996 68.157005 204.523005 81.829997 245.438004 184.0915c6.810502 6.810502 34.104497 81.829997 68.157005 177.280998h436.340005l61.346504-156.797504c6.810502-27.293995 13.621003-47.7255 13.621003-68.157006 0-54.536002-47.7255-75.019496-136.365999-75.019496v-61.346503H1247.7255v61.346503c-47.7255 6.758513-88.640499 20.431505-102.261502 61.346504zM354.561996 477.255004a18887.600728 18887.600728 0 0 1 170.470497 443.202495l177.280998-443.202495H354.561996z" horiz-adv-x="1247.7255003899143"/><glyph glyph-name="accenture" unicode="&#xEA1E;" d="M0 352.5l662.1 246.3L0 857.4V1200l1134-456.6v-284.1L0 0Z" horiz-adv-x="1134"/><glyph glyph-name="accusoft" unicode="&#xEA1F;" d="M1092.562914 1199.995382c-29.469134-0.16954-308.740044-1.541273-336.498365-1.710813-47.625327-0.33908-59.801381 0.33908-67.338205-8.399936-3.937952-4.623818-10.280289-12.676968 11.829268-40.427583 22.101851-27.588782 676.426062-864.731056 693.040983-884.767602 21.076904-25.531183 40.612536-34.270199 49.166599-35.641931 13.717327-2.057599 30.848573 5.140145 40.09621 8.739016 9.085803 3.598872 333.24628 137.581709 340.274483 141.350121 10.788909 5.826011 10.110749 22.271391 2.913006 34.439738-7.197744 12.330182-17.647573 25.700723-23.65083 33.0603-6.165091 7.37499-592.642478 708.646368-598.807569 716.352732-11.305235 14.218241-27.758322 27.758322-34.270198 29.977754-6.511877 2.234845-15.759513 7.20545-76.755382 7.028204z m-309.42591-395.436634s-34.616985-4.623818-72.647889-43.348295c-26.047509-26.895209-699.552859-689.619357-703.151731-694.759501-3.259792-4.623818-11.312942-13.532374-4.970605-18.502979 3.252085-2.566219 34.778819 7.706364 50.546039 13.362834 2.227139 0 330.841894 104.860489 330.841894 104.860489 1.541273 1.710813-0.16954 0.16954 1.710813 1.541273-1.024946 14.565027-2.227139 75.553188-2.735759 79.837927-1.541273 12.168348 4.284738 17.131246 8.399936 19.882418 4.107492 2.735759 11.813855 5.818304 11.813856 5.818304l267.457054 97.485499c1.710813 2.234845 255.797326 236.107567 260.76793 240.561845v3.252086c-2.234845 1.710813-3.082545 4.623818-4.970604 6.681417-1.202193 0.516326-143.060933 183.843009-143.060934 183.326683z m142.544607-390.126949c-8.908556-0.685866-27.750615-2.234845-41.799316-8.399937-14.048701-6.165091-419.426544-152.485816-433.991571-158.13458-14.565027-5.656471-32.898466-10.280289-31.865813-21.932311 0.50862-7.197744 5.648764-7.706364 13.362835-10.110749 7.706364-2.566219 869.169922-194.292838 889.907745-198.577576 20.730118-4.284738 87.03567-22.610471 121.475409-15.759514 18.495273 2.573925 27.241995 7.197744 33.237547 10.788909 5.995551 3.598872 357.74481 219.654481 363.40128 223.769679 5.479224 4.107492 9.424883 6.850957 10.110749 13.532375 0.33908 2.566219-7.028204 8.399936-15.081353 10.110749a24784.651655 24784.651655 0 0 1-85.841184 16.792166l-23.812664 4.277032s-332.221333-145.627152-339.58091-149.056485c-9.247636-4.284738-22.618177-7.706364-34.270199-6.681417-24.32899 2.227139-43.001509 15.929053-71.615237 48.82752l-164.823704 213.651223s-72.131563 11.652022-97.662745 15.081354c-25.531183 3.429332-82.234606 12.330182-91.150869 11.821562z" horiz-adv-x="1849.5317415541579"/><glyph glyph-name="accuweather" unicode="&#xEA20;" d="M337.084271 861.515379a371.892973 371.892973 0 0 0 526.08152 0 371.692923 371.692923 0 0 0 0-525.881471 371.892973 371.892973 0 0 0-526.131532 0c-145.236309 145.286322-145.236309 382.095524 0 525.881471M600.150038 183.095774c-229.557389 0-417.004251 187.396849-417.004252 416.954239s187.446862 415.503876 417.004252 415.503875c229.607402 0 415.603901-187.446862 415.6039-415.503875 0-231.007752-185.996499-416.954239-415.6039-416.954239z m600.150037 418.404601L1063.765941 725.08127l55.163791 175.743936-180.195048 39.209803-39.209803 180.145036-175.793948-56.664166L598.649662 1200l-123.530882-136.534134L299.374844 1118.67967 260.065016 938.584646l-180.145036-39.259815 56.664166-175.793948L0 598.549637l136.634159-123.530882-55.263816-175.743936 180.195048-39.209803 39.209803-180.195049 175.843961 56.714179 125.031258-136.584146 123.430857 136.534134 175.843961-55.163791 39.259815 180.145036 180.195049 40.660165-56.714179 175.793948L1200.300075 601.550388z" horiz-adv-x="1200.3000750187548"/><glyph glyph-name="acer" unicode="&#xEA21;" d="M4969.15288 1147.077136c-17.640955 23.452093-35.281909 41.093047-123.486683 46.904185-23.452093 0-94.015911 6.018679-217.502594 6.018679-323.763404 0-547.077136-100.03459-658.941543-294.085092 29.470771 194.050502-158.768592 294.085092-570.529229 294.085092-482.324455 0-788.239364-194.050502-911.726046-588.170183-46.904185-147.146316-46.904185-264.821861-11.622276-359.045313h-117.675545c-88.204773-5.603597-205.880318-11.622276-282.255275-11.622276-176.409547 0-288.481494 29.470771-329.574542 88.204773-35.281909 52.922864-35.281909 152.957454 11.829817 300.10377 76.374957 241.162228 258.803182 347.007956 552.888274 347.007956 152.957454 0 299.89623-17.640955 299.89623-17.640955 17.640955 0 29.470771 23.452093 29.470771 41.093048l-5.811138 17.640954-11.829817 82.393636c-5.811138 52.922864-47.111726 82.393635-117.675544 94.015911-64.54514 6.018679-117.675545 6.018679-188.239364 6.018679h-5.811138c-382.289865 0-652.922864-129.505361-799.861639-376.478727 52.922864 252.992044-123.694223 376.478727-529.436182 376.478727-229.332411 0-394.327222-6.018679-488.343134-17.640955-76.374957-11.829817-123.486683-41.300588-141.127637-94.223452l-35.281909-105.845728c-5.811138-17.640955 6.018679-29.470771 29.470771-29.470771 17.640955 0 88.204773 11.829817 205.880318 17.848495a5150.328606 5150.328606 0 0 0 347.007956 17.640955c223.521273 0 323.555863-58.941543 288.273954-170.598409-6.018679-23.659633-23.659633-41.300588-52.922865-47.111726-211.691456-35.281909-382.289865-58.941543-505.984088-76.582498-352.819094-46.904185-558.699412-152.749914-611.622276-329.367001-76.582497-241.162228 111.656866-358.630232 564.51055-358.630231 223.728814 0 417.779315 11.622276 570.736769 41.093047 88.204773 17.640955 135.316499 35.281909 152.957454 94.015911l82.186095 270.632999c-5.811138-270.632999 176.409547-405.741958 564.718091-405.741957 164.787271 0 323.555863 5.811138 399.93082 17.640954 76.582497 11.622276 117.675545 29.263231 135.316499 88.204774l17.640955 82.186095c82.393635-129.297821 264.821861-194.050502 541.265998-194.050502 294.085092 0 464.683501 6.018679 511.587686 23.659633a108.543756 108.543756 0 0 1 76.582497 64.54514l5.811138 17.640955 35.281909 111.864407c6.018679 17.640955-5.811138 29.470771-29.470771 29.470771l-188.031823-11.829816c-123.694223-6.018679-223.521273-11.829817-294.292632-11.829817-135.108959 0-223.313732 11.829817-276.444137 29.470771-76.374957 29.470771-111.656866 82.393635-105.845728 170.598409l594.188862 76.374957c264.61432 35.281909 447.042546 117.675545 535.247319 246.973366l-205.880318-687.997233c-5.811138-11.829817 0-23.659633 5.811138-29.470772 6.018679-5.811138 17.640955-11.829817 41.300588-11.829816h246.973365c41.093047 0 58.734002 23.659633 64.752681 41.300588l217.502594 758.768592c29.470771 99.827049 117.675545 146.938776 282.255275 146.938775 147.353857 0 253.199585 0 323.763404-5.811138h5.811138c11.829817 0 35.281909 5.811138 52.922864 35.28191l35.281909 105.845728c0 17.640955 0 35.281909-11.829816 47.111726zM1004.71151 240.954687c-76.374957-11.829817-188.239364-17.640955-329.367001-17.640955-252.992044 0-358.837772 52.922864-329.367001 152.957454 23.452093 70.563819 88.204773 117.675545 194.050501 129.505362l570.73677 76.374957z m2629.332411 612.244898c-23.659633-76.582497-135.316499-129.505361-335.38568-158.976133l-476.305776-64.54514 11.622276 41.093047c41.300588 129.505361 94.223452 211.691456 164.787271 258.803183 70.563819 47.111726 188.239364 70.563819 352.819093 70.563818 217.917676-5.811138 311.933587-52.922864 282.255275-146.938775Z" horiz-adv-x="4980.982696434368"/><glyph glyph-name="acm" unicode="&#xEA22;" d="M371.75 587.5c-4-1.25-7.5-3.6-10.1-6.75-2.4-3.6-3.65-7.9-3.5-12.25 0-7.5 1.9-12.6 6-15.4 3.85-2.8 9.7-4.1 17.6-4.1 4.35 0 8.7 1 13.2 3 4.5 1.9 8.7 4.75 12.25 8.25v33c-8.4-0.75-15.15-1.5-20.25-2.25-5.25-0.5-10.35-1.7-15.25-3.5zM600 1200L0 600l600-600 600 600L600 1200z m0-967.85C396.9 232.25 232.25 396.85 232.15 600 232.25 803.1 396.9 967.8 600 967.9c203.15-0.1 367.75-164.75 367.85-367.9-0.1-203.15-164.7-367.75-367.85-367.85zM600 931.15v-0.1c-182.7 0-331-148.3-331-331s148.3-331 331-331 331 148.3 331 331c0 182.8-148.2 331-331 331.15z m-143.1-412.3h-49.75v16.8l-9.1-7.7c-7.1-5.4-15.2-9.4-23.85-11.65-4.1-1-10.1-1.75-17.6-1.75-13.1-0.35-25.75 4.85-34.9 14.25-9.35 9.5-13.85 21.3-13.85 35.8 0 11.9 2.3 21.35 7 28.7 5 7.5 12 13.5 20.25 17.4 10.25 4.5 21.15 7.6 32.3 9 12.5 1.65 25.8 3 40.15 3.9v0.85c0 8.8-3.3 14.85-9.8 18.15-6.5 3.5-16.1 5.1-29 5.1-5.85 0-12.7-1-20.5-3.15-7.9-2.2-15.4-5-22.9-8.2H321v38.5c4.85 1.5 12.8 3.1 24 5 10.85 2 21.9 3 33.15 3 27.5 0 47.5-4.6 60-13.8 12.5-9.15 18.75-23.1 18.75-41.85v-108.4z m161 8.35c-3.5-1.4-6.7-2.8-10-4.3-3.7-1.5-7.5-2.9-11.5-4-4.7-1.2-9.3-2.2-13.5-3-4.2-0.7-9.8-1.1-16.8-1.1-13.15 0-25.3 1.65-36.15 5-10.5 3.1-20.3 8.25-28.5 15.35-8.15 7.1-14.6 16-18.65 26-4.5 10.5-6.75 22.85-6.75 36.9-0.4 13.5 2.1 26.75 7.3 39 4.5 10.2 11.2 19.2 19.6 26.5 8.25 6.7 17.75 11.65 28 14.5 11 3.3 22.35 4.8 33.75 4.8 18.5 0 36.6-4.35 53-12.75v-42.7h-6.35c-2.4 2.15-4.8 4.25-7.35 6.2-3 2.4-6.1 4.5-9.4 6.3-8.35 4.75-17.85 7.2-27.5 7-12.7 0-22.5-4.3-29.5-13.15-6.9-8.85-10.5-20.7-10.5-35.7 0-16 3.75-28 11.25-35.75 7.5-7.85 17.35-11.75 29.6-11.75 5.5 0 11.1 0.65 16.5 2.1 7.65 2.15 14.75 6 20.75 11.25 2.4 2 4.4 4.1 6.15 5.5h6.5v-42.15z m216.65-8.65v79.85c0 7.85 0 14.5-0.35 19.85-0.1 4.5-1 9-2.6 13.15-1.15 3.3-3.5 6-6.5 7.5-7.65 3.2-16.25 3.15-23.9-0.1-4.3-2-8.4-4.35-12.2-7v-113.15h-49.65v79.75c0 7.8-0.15 14.3-0.5 19.8-0.15 4.5-1 9-2.5 13.2-1.35 3.3-3.8 6-6.8 7.5-3 1.65-7.25 2.4-12.5 2.4-4.15 0-8.25-1-12-2.8-3.9-2-7.6-4.3-11.4-6.8v-113.1h-49.75V678h49.65v-17.8c7.2 6.25 14.8 11.65 23 16.15 7.4 4 15.7 6 24.2 6 9.1 0.2 18-2.25 25.7-7 7.65-5 13.5-12.2 17-20.7 9.5 8.85 18.5 15.7 27 20.5 8.5 4.8 17 7.25 25.75 7.25 6.8 0.1 13.5-1.15 19.8-3.75 5.75-2.2 11-5.8 15-10.5 4.5-5.3 8-11.5 10-18.2 2.25-7.1 3.3-16.4 3.3-27.65v-103.8h-49.75z" horiz-adv-x="1200"/><glyph glyph-name="acode" unicode="&#xEA23;" d="M802.121657 1200c-25.73073 0-49.430087-27.423541-49.430087-64.7331q0-8.599481 1.828236-17.740661c51.800023-267.193319 154.926081-806.455253 203.137343-1061.866607 6.771245-36.22616 33.314524-54.102246 50.852049-54.102246h115.991423c20.990859 0 50.310349 26.881842 50.310348 51.190611a27.084979 27.084979 0 0 1-0.406274 4.875296c-7.990069 46.179889-16.454125 95.068277-25.121318 145.7849a81.254937 81.254937 0 0 0-43.335967 18.620923 92.766053 92.766053 0 0 0-29.454915 38.054396c-13.203927 32.705112-14.490464 78.00474 18.553211 110.845277q9.344318 9.276605 21.667983 21.803408c-46.450739 270.985216-95.677689 560.252793-127.908814 750.18621-4.875296 28.913215-30.470602 57.081593-52.341722 57.081593z m-112.808938-1.557386c-21.871121 0-47.466426-28.168378-52.409435-57.149306-32.231125-190.136553-81.525787-479.742693-127.976526-750.931046l21.126283-21.261709c33.043675-32.840537 31.757138-78.00474 18.553211-110.709852v-0.135425c-6.297258-15.506151-16.386412-27.762104-29.387202-38.054396a81.254937 81.254937 0 0 0-42.86198-18.55321l-24.985893-145.446338a27.084979 27.084979 0 0 1-0.406275-4.875297c0-24.376481 29.251777-51.326035 50.242637-51.326035h115.991423c17.605236 0 44.080804 17.876086 50.91976 54.102246 29.861189 158.311703 80.848663 425.911297 127.637965 669.946958-28.303803 147.748561-54.982508 286.559079-74.483693 386.97664-6.229545 32.231125 0.406275 64.123688 16.250987 87.349057z m466.809615-280.668096c-20.313734 0.067712-41.236881-18.756348-48.075838-35.819885-8.870331-21.803408-8.870331-54.373096 10.901704-74.077418 53.763684-53.357409 208.418914-215.122447 223.112515-230.493173-14.693601-15.438438-169.28112-177.000339-223.112515-230.357747-11.849678-11.849678-16.58955-28.303803-16.58955-44.283941 0-10.698567 2.099086-21.193996 5.620133-29.928902 6.90667-17.063537 27.762104-35.887597 48.143551-35.887597 35.819885 0.203137 111.319264 0 147.071436 0 13.203927 0 25.053606 6.974382 36.903285 18.959485 64.529963 65.2748 187.360343 192.032502 256.020765 264.891096 4.604446 4.807584 9.41203 9.14118 13.136215 13.068502a58.90983 58.90983 0 0 1 15.844712 40.762894c0 2.979348-0.27085 6.63582-0.541699 9.68288a56.878456 56.878456 0 0 1-15.303013 36.564722c-3.724185 3.995034-8.531768 8.328631-13.136215 13.136215a19772.034759 19772.034759 0 0 1-256.020765 264.891096c-11.849678 11.985103-23.699357 18.959485-36.903285 18.959485-35.752172 0-111.251552-0.203137-147.071436 0m-834.217357-1.828236c-13.203927 0-25.053606-6.90667-36.903284-18.959485-64.529963-65.2748-187.360343-191.96479-256.020765-264.823384-4.604446-4.875296-9.41203-9.073468-13.136215-13.00079a57.555581 57.555581 0 0 1-15.303013-36.767859 135.424896 135.424896 0 0 1-0.5417-9.615168c0-11.375691 3.114773-27.288116 15.844713-40.762893 3.724185-3.927322 8.531768-8.260919 13.136215-13.068503a19772.034759 19772.034759 0 0 1 256.020765-264.891095c11.849678-11.985103 23.699357-18.959485 36.903284-18.959486 35.752172 0 111.251552 0.135425 147.071436 0 20.313734 0 41.236881 18.959485 48.075838 36.023022 8.870331 21.803408 8.870331 54.373096-10.901704 74.009706-53.763684 53.425121-208.418914 215.054734-223.112515 230.42546 14.693601 15.370726 169.348832 177.068051 223.112515 230.493172 11.849678 11.781966 16.58955 28.236091 16.58955 44.216229 0 10.630854-2.099086 21.126284-5.620133 29.793477-6.90667 17.063537-27.762104 35.95531-48.143551 35.887597-35.887597-0.135425-111.319264 0-147.071436 0z" horiz-adv-x="1625.1014451031836"/><glyph glyph-name="actigraph" unicode="&#xEA24;" d="M466.4645 1200L0 0h207.539L557.015 951.249h1.52L904.95 0h209.08L666.383 1154.218C655.701 1181.687 629.241 1200 599.737 1200ZM557.015 514.283a123.6115 123.6115 0 0 1-123.615-123.6055A123.6115 123.6115 0 0 1 557.015 267.062a123.6115 123.6115 0 0 1 123.6055 123.615 123.6115 123.6115 0 0 1-123.605 123.606z" horiz-adv-x="1114.03"/><glyph glyph-name="activeloop" unicode="&#xEA25;" d="M671.792617 1199.982828a425.11 425.11 0 0 1-138.045-23.51c-18.915-6.625-61.015-22.235-77.095-30.28 0.64 0-0.4 0 2.005 0.03 4.675 1.19 44.99 7.55 55.225 7.55 4.17 0.1 8.3 0.2 12.405 0.2 61.56 0.2 116.26-11.935 173.45-53.19 81.82-58.675 138.085-159.935 155.58-255.045 14.84-93.77 2.9-192.89-26.95-285.335-43.045-116.4-122.95-206.765-218.01-259.285a30.47 30.47 0 0 0-1.9-0.94c82.83 9.53 166.815 44.805 238.815 102.185 40.2 32.175 77.1 71.45 108.78 117.35 28.38 41.64 50.125 85.17 65.725 129.65 39.6 113.66 37.37 232-4.32 329.765-0.15 0.35-0.2 0.57-0.4 1-26.48 61.985-68.105 115.45-125.33 154.725C827.297617 1178.917828 749.752617 1200.247828 671.787617 1199.997828zM457.987617 1145.857828c-83.28-7.24-159.53-48.55-195.7-72.535-69.99-46.375-127.21-105.52-169.775-172.235-121.065-189.275-127.21-439.58 4.73-638.785 178.295-269.24 541.02-343.53 810.58-165.145 269.09 178.385 343.35 541.31 165.055 810.55a567.795 567.795 0 0 1-55.235 71.205l7.47-15.365c41.615-97.95 41.145-225.24 1.89-338.8-15.61-44.485-37.365-88.015-65.74-129.65-31.69-45.9-69.99-82.815-111.61-113.57-137.15-100.785-273.35-83.275-272.88-83.75-44.38 1.415-84.895 10.69-122.475 20.835-139.035 42.11-229.355 145.26-225.1 277.275 5.2 162.775 164.1 290.05 355.165 283.9 35.465-0.945 69.045-7.095 101.2-16.085 61.48-17.505 129.58-60.085 171.2-110.24l2.345-2.74c-0.015 24.295-0.85 54.91-8.985 93.115-20.34 94.64-73.295 179.8-156.53 237.055-61.95 42.585-132.89 62.46-204.3 65.77-10.45 0.4-20.865 0.04-31.3-0.8z m119.45-272.955c-178.05-1.83-323.335-122.985-328.375-276.55-3.975-120.14 79.04-225.39 200.11-272.35a243.64 243.64 0 0 0-7.97 10c-87.83 117.335-60.265 303.46 69.39 433.18 60.5 60.59 122.27 87.01 150.675 97.56 0 0-31.43 7.065-66.505 7.95-6.63 0.3-17.33 0.2-17.33 0.2z" horiz-adv-x="1169.9862311701602"/><glyph glyph-name="activision" unicode="&#xEA26;" d="M365.048544 1200L0 156.504854h191.262136l52.427184 139.417476h243.106797l52.233009-139.417476h191.262136z m626.019417-69.708738l-104.271844-191.067961h417.475728v-782.524272H1495.145631v782.524272h295.533981l365.436893-939.223301 347.76699 939.223301h886.796117l-104.271845 191.067961H2365.048544l-208.54369-556.310679L1930.097087 1130.291262z m3147.572816-225.825243v-730.485436h191.45631v295.728155l330.097088-330.485437v730.097087h-173.980583v-260.582524z m-3095.145631-17.475728c-208.737864 0-365.242718-156.699029-365.242719-365.242718 0-208.737864 156.504854-365.048544 365.048544-365.048544 86.990291 0 173.786408 34.757282 226.019417 86.796117L1165.048544 417.475728c-34.951456-34.951456-69.514563-52.427184-121.747573-52.427184a174.174757 174.174757 0 0 0-173.786408 173.980582c0 86.990291 69.514563 173.980583 173.786408 173.980583 34.951456 0 86.990291-17.281553 104.271845-52.038835l121.747572 138.834951c-52.427184 52.23301-139.029126 86.990291-226.019417 86.990292z m1460.582524 0v-713.009708h191.262136v712.815534z m417.087379 0c-69.514563 0-156.116505-34.951456-156.116505-173.980582 0-173.980583 208.543689-278.252427 191.262136-347.961165-17.475728-34.757282-52.427184-34.563107-69.708738-34.563107h-121.553398v-156.504854h208.543689c86.990291 0 173.786408 52.23301 173.786408 156.504854 0 191.262136-243.300971 312.815534-191.067961 382.524272 0 17.475728 34.563107 17.475728 34.563106 17.475728h121.941748v156.31068z m243.68932 0v-713.009708h191.067961v712.815534z m591.262136 0c-208.737864 0-365.048544-156.699029-365.048544-365.242718 0-191.262136 156.31068-365.048544 365.048544-365.048544 208.543689 0 365.048544 156.31068 365.048544 365.048544 0 208.543689-156.504854 365.048544-365.048544 365.048544z m-2139.029126-17.475728v-713.009709h191.45631v713.009709z m2139.029126-173.980582c86.990291 0 173.786408-69.514563 173.786408-173.786408a174.174757 174.174757 0 0 0-173.786408-173.980583c-104.466019 0-191.262136 69.514563-173.980583 173.980583 0 86.990291 69.514563 173.786408 173.980583 173.786408z m-3391.067961-34.563107l52.427184-173.980583h-104.854369z" horiz-adv-x="4660.194174757282"/><glyph glyph-name="activitypub" unicode="&#xEA27;" d="M866.102143 1200L0 700.026462v-200.052924L692.802329 900.079386v-799.973538l173.220428-100.026462zM519.5819 600l-346.440857-200.052924 346.440857-199.894152z m519.5819 200.052924L1385.684043 600l-346.440857-200.052924z m0 399.947076L1905.265943 700.026462v-200.052924l-866.102143-499.973538v200.052924L1732.124901 600 1039.243186 1000.105848z" horiz-adv-x="1905.2659433712624"/><glyph glyph-name="actix" unicode="&#xEA28;" d="M230.64922 1007.901359c-13.588324-11.071968-39.657776-3.925516-58.580775 16.80926-7.851032-7.851032-13.537997-14.997484-20.684449-22.848515 20.684449-16.80926 29.994967-43.583291 18.922999-56.064419-11.071968-13.588324-37.845999-11.071968-58.530447 5.686965-5.737292-7.851032-11.071968-16.758933-16.809261-24.609965 22.848515-14.997484 33.920483-37.845999 26.069452-53.195772s-33.920483-16.80926-58.530448-3.925516c-3.975843-9.662808-9.662808-18.922999-13.588324-26.069451 24.609965-11.071968 37.845999-29.994967 31.756416-47.508808-5.686965-14.997484-29.994967-20.684449-54.604932-13.537997-3.925516-9.662808-5.737292-18.922999-7.851031-28.585807 24.609965-7.851032 41.066935-24.609965 37.845999-39.607449-3.925516-16.80926-26.069451-26.069451-50.729744-22.848515-1.40916-9.662808-1.40916-20.734776-3.925515-29.994967 24.660292-3.925516 43.583291-16.80926 43.583291-33.920484 0-17.16155-20.734776-28.585808-44.992451-29.994967v-29.994967c24.660292 0 44.992451-11.071968 47.508807-26.069452 1.40916-14.997484-14.997484-31.756417-39.657775-35.681932 1.40916-9.662808 3.925516-20.734776 5.737292-29.994967 24.609965 3.925516 44.942124-3.925516 48.917967-18.923 3.925516-14.997484-9.662808-33.920483-31.806744-41.066935 3.925516-9.662808 5.737292-18.922999 9.662808-28.585808 22.848515 7.851032 44.992451 1.459487 50.679417-11.071967 5.737292-14.997484-3.925516-33.920483-26.069452-47.458481 3.925516-9.662808 9.662808-16.80926 14.997484-26.069451 20.734776 11.071968 43.583291 9.662808 50.729743-3.925516 9.612481-13.588324 0-33.920483-16.80926-48.917967 5.737292-7.851032 11.071968-16.758933 18.922999-24.609964 18.922999 13.537997 41.066935 14.947157 50.679417 3.925515 11.071968-11.071968 5.737292-33.920483-9.612482-50.729743 7.851032-7.851032 14.997484-14.997484 22.848516-20.684449 16.758933 16.758933 37.845999 22.848515 50.679416 13.537997 12.531454-9.612481 11.071968-31.756417-1.40916-53.195772 7.851032-5.686965 16.758933-11.071968 24.609965-16.758933 14.997484 18.922999 33.920483 28.535481 47.508807 20.684448s16.758933-29.994967 5.737293-53.195772c9.612481-5.686965 18.922999-9.612481 26.019124-13.537997 11.071968 20.684449 29.994967 33.920483 44.992451 28.535481 14.997484-5.686965 20.734776-28.535481 14.997484-50.679417 9.662808-3.925516 18.922999-5.737292 28.585808-9.662808 7.851032 22.848515 24.609965 37.845999 39.607448 35.73226 14.997484-3.925516 24.660292-24.660292 22.848515-48.917967 9.662808-1.459487 20.734776-3.925516 29.994968-3.925516 3.925516 24.609965 16.80926 43.532964 33.920483 41.066935 16.80926 0 28.585808-20.734776 29.994967-47.508807h29.994967c0 24.660292 11.071968 44.992451 26.069452 47.508807 16.758933 1.40916 31.756417-16.80926 37.845999-41.066935 9.612481 1.40916 20.684449 3.925516 29.994967 5.686965-5.737292 24.660292 3.925516 47.508807 18.922999 53.195773 16.758933 3.925516 35.681933-11.071968 43.532965-37.845999 9.662808 3.925516 18.922999 5.737292 28.585808 9.662808-9.662808 24.609965-5.737292 48.917967 9.612481 56.064419 14.997484 7.146452 37.845999-7.851032 48.917966-31.806744 9.662808 3.925516 18.922999 9.662808 26.069452 13.588324-13.537997 22.848515-13.537997 48.917967 0 58.530448 14.997484 9.662808 39.657776-1.40916 54.655259-24.609965 7.851032 5.686965 16.758933 11.071968 24.609965 18.923-18.922999 20.684449-22.848515 47.45848-9.612481 58.530448 13.537997 11.071968 39.607448 3.925516 58.530448-16.758933 7.851032 7.851032 14.997484 14.997484 20.734776 20.684449-22.898842 18.922999-29.994967 43.583291-20.734776 56.064418 11.071968 13.588324 37.845999 11.071968 59.989934-7.851031l1.40916-1.40916c5.737292 7.851032 13.588324 16.758933 18.922999 24.609965-24.609965 14.997484-37.845999 37.845999-29.994967 54.655259 9.662808 14.997484 35.73226 16.758933 59.989934 1.40916l1.459487-1.40916c5.686965 9.612481 9.612481 18.922999 13.537997 28.535481h-1.409159c-26.069451 9.662808-43.583291 31.806744-37.845999 48.917966 5.686965 17.51384 33.920483 22.848515 59.989934 11.071968 1.40916 0 1.40916-1.40916 3.925516-1.409159 3.925516 9.612481 7.851032 20.684449 9.612481 29.994967h-3.925516c-28.535481 5.686965-48.917967 24.609965-44.992451 41.016608 3.925516 16.80926 29.994967 26.069451 58.580775 20.734776 1.40916 0 3.925516 0 5.686966-1.459487 1.459487 11.071968 3.925516 20.734776 5.737292 31.806744h-5.737292c-28.535481 1.40916-50.679416 16.758933-50.679417 33.920483 0 17.111223 24.609965 31.756417 53.195773 29.994968H1207.851032v31.756416h-5.737293c-28.535481-3.925516-53.195773 9.662808-54.604932 26.069452-1.40916 16.758933 18.922999 33.920483 48.917967 37.845999h7.851032c-1.40916 11.071968-3.925516 20.684449-5.686966 31.756416-1.459487 0-3.925516-1.40916-7.901358-1.409159-28.535481-7.851032-54.604932 0-58.530448 16.758933-5.686965 16.80926 13.588324 37.845999 41.066935 44.992451 1.40916 0 5.686965 1.459487 7.851032 1.459487-3.925516 11.071968-7.851032 20.684449-11.071968 29.994967-1.40916-1.459487-3.925516-1.459487-7.851032-3.925516-26.069451-11.071968-53.195773-7.851032-59.989935 7.851032-7.851032 16.758933 7.851032 39.607448 33.920484 50.679416 3.925516 1.40916 5.737292 1.40916 9.662808 3.925516-5.737292 9.662808-9.662808 18.922999-14.997484 28.585808-1.459487-1.459487-3.925516-3.925516-7.851032-5.737293-24.660292-14.997484-50.729743-16.758933-62.50629-1.409159-9.612481 14.997484 1.40916 39.607448 26.069451 56.064418 1.40916 1.40916 5.686965 3.925516 7.851032 3.925516-5.686965 9.612481-13.588324 16.758933-20.684449 26.019124-1.459487-1.40916-3.925516-3.925516-5.737293-5.686965-20.684449-18.922999-48.917967-24.660292-59.989934-11.071968s-3.925516 39.607448 16.80926 58.530448c1.40916 1.459487 5.686965 3.975843 7.851032 5.737293-7.851032 7.851032-14.997484 14.997484-24.660292 22.848515-1.40916-1.40916-3.925516-3.925516-5.686965-7.851032-18.922999-22.848515-43.583291-31.756417-58.580775-20.734776-13.537997 11.071968-11.071968 37.845999 7.851031 59.989935 1.459487 1.459487 3.925516 5.737292 5.737293 7.851032-9.662808 5.737292-16.80926 13.588324-26.069452 18.922999-1.40916-1.40916-1.40916-5.686965-3.925516-7.851032-14.997484-24.609965-37.845999-37.845999-54.655259-29.994967-14.997484 9.662808-16.758933 35.73226-1.409159 59.989935 1.40916 1.459487 3.925516 5.737292 5.737292 7.851031-9.662808 5.737292-18.922999 9.662808-29.994967 14.997484 0-1.40916-1.459487-5.686965-1.459487-7.851032-9.612481-26.069451-31.756417-43.532964-48.917967-37.845999-17.463513 5.737292-22.848515 33.920483-11.071968 59.989935 1.459487 1.40916 1.459487 5.737292 3.925516 7.851032-9.612481 3.925516-20.684449 5.737292-31.756416 9.662808 0-1.459487 0-3.925516-1.40916-7.851032-5.737292-28.585808-24.660292-48.917967-41.066935-44.992451-16.80926 3.925516-26.069451 29.994967-20.734776 58.530448 0 1.459487 1.459487 5.737292 1.459487 7.851032-11.071968 1.459487-20.734776 3.925516-31.806744 3.925516v-5.686966c-1.40916-28.585808-16.758933-50.729743-33.920483-50.729743-16.758933 0-31.756417 24.660292-29.94464 53.195773V1200h-31.806744v-5.737292c3.925516-28.535481-9.612481-53.195773-26.069452-54.604932-16.758933-1.40916-33.920483 18.922999-37.845999 48.917966V1194.262708c-9.612481-1.40916-20.684449-3.925516-29.994967-5.686966 0-1.40916 0-1.40916 1.459487-3.925516 7.851032-28.585808 0-54.655259-16.809261-58.580775-16.758933-5.686965-37.845999 13.588324-44.992451 41.066936V1171.061902c-9.612481-3.925516-18.922999-7.851032-29.994967-11.071967 0 0 0-1.40916 1.459487-1.40916 11.071968-26.069451 7.851032-53.195773-7.851032-59.989935-16.80926-7.851032-39.657776 7.851032-50.729743 33.920484V1133.97081c-9.612481-5.737292-18.922999-9.662808-26.069452-14.997483 14.997484-24.660292 16.80926-50.729743 1.459487-62.506291-14.997484-9.612481-39.657776 1.40916-56.064419 26.069451-7.851032-5.737292-16.758933-13.588324-24.609964-18.922999 16.758933-18.57071 22.093608-44.640161 8.907901-55.712129m-26.069452-326.673377c-22.848515 7.851032-35.681933 31.756417-28.585807 54.604932 7.901359 22.848515 31.806744 35.73226 54.655259 28.585808 22.848515-7.851032 35.681933-31.756417 28.535481-54.655259-5.686965-22.445898-31.756417-35.681933-54.604933-28.535481m39.255159-412.380473c-109.209864 120.332159-156.718671 288.122798-92.450931 346.703573 62.455964 56.014092 203.522899-24.660292 314.896829-144.992451 109.260191-120.281832 178.862607-267.388022 114.594867-325.968797-63.865123-57.121288-227.780574 5.385003-337.040765 124.257675m459.88928-109.260191c-24.660292-5.686965-47.508807 9.662808-53.195772 33.920483-5.737292 24.660292 9.612481 47.508807 33.920483 53.195772 24.609965 5.737292 47.45848-9.612481 53.195772-33.920483 4.277806-25.717162-10.719678-47.81077-33.920483-53.195772m305.636638 644.086562c80.674383-26.069451 109.209864-197.785606 59.939608-352.390538s-171.716155-279.567187-252.390539-254.906895c-80.724711 26.069451-80.724711 190.639155-31.806743 345.244086 48.565677 152.793156 143.532964 289.179668 224.257674 262.053347m-69.652742 102.11374c16.80926-18.922999 14.997484-44.992451-3.925516-62.455964-18.922999-17.51384-44.992451-14.997484-62.455964 3.925516-17.51384 18.922999-14.997484 44.992451 3.925516 62.455963 18.922999 14.997484 47.45848 12.883744 62.455964-3.925515m-247.055863-226.371415c44.992451-48.86764 41.066935-124.207348-7.851032-169.199798s-124.257675-41.066935-169.250126 7.851031-41.066935 124.257675 7.851032 169.250126c48.213387 45.344741 124.257675 41.368898 169.250126-7.901359M500.553598 1075.390035c158.178158 33.920483 327.780574-9.612481 346.703574-92.450931s-124.257675-163.91545-282.435833-199.597383c-158.178158-33.920483-322.043281-20.734776-339.506794 62.455964-19.325617 84.650226 116.708606 195.319577 275.239053 229.59235" horiz-adv-x="1207.8510317060895"/><glyph glyph-name="actualbudget" unicode="&#xEA29;" d="M846.169019 661.049996l36.85-100.5-837.9-307.25a12.65 12.65 0 0 0-16.2 7.5l-28.15 76.8a12.65 12.65 0 0 0 7.5 16.2zM30.569019 34.549996L575.869019 1192.749996A12.65 12.65 0 0 0 587.319019 1199.999996h23.9c4.85 0 9.25-2.75 11.35-7.1l351.8-722.75 110.3 42.4c6.5 2.5 13.85-0.75 16.35-7.25l29.35-76.3a12.65 12.65 0 0 0-7.25-16.35l-101.7-39.15 125.5-257.8a12.65 12.65 0 0 0-5.85-16.9l-73.5-35.8a12.65 12.65 0 0 0-16.95 5.85l-129.5 266.1-868.5-334.1a12.65 12.65 0 0 0-16.4 7.25c0 0.05 0 0.15-0.1 0.2l-6 16.5a12.6 12.6 0 0 0 0.45 9.75zM600.469019 993.649996L216.769019 178.749996 874.069019 431.549996z" horiz-adv-x="1148.1912811437257"/><glyph glyph-name="acura" unicode="&#xEA2A;" d="M1178.903052 654.6c-11.5 200.9-74.6 344.5-166.5 424.8C914.853052 1165.55 731.103052 1200 593.253052 1200c-143.5 0-321.5-34.45-419.1-120.6C82.353052 999.05 13.403052 849.8 1.903052 654.6c-11.5-183.75 28.7-390.5 132.05-505.3C231.553052 34.5 432.553052 0 587.553052 0s356 34.45 453.6 149.3c109 114.8 149.3 315.8 137.75 505.3m-620 488.05h68.85v-436.5H558.903052ZM82.353052 470.75c-5.8 74.65-28.75 344.5 80.35 499.5 45.95 69 109.1 114.85 178 137.85 91.9 34.45 206.7 34.45 206.7 34.45-45.95-109.05-132.05-344.5-149.25-396.2-23-63.15-40.2-97.6-57.5-212.4-11.45-91.9-34.4-327.3-34.4-430.6-132.05 63.1-206.65 178-223.9 367.5m792.35-373.3c-86.15-40.15-195.25-45.9-281.4-45.9-86.1 0-195.15 11.5-281.3 45.9 28.7 80.35 166.5 413.45 241.15 545.5h80.4c74.65-132.15 212.4-470.85 241.15-545.5m229.6 373.3c-17.2-189.5-91.85-304.4-218.15-367.5-5.75 103.3-22.95 338.7-34.45 430.6-17.25 114.8-34.4 149.25-57.4 212.4-17.25 51.7-109.1 287.1-149.3 396.2 0 0 109.05 0 206.7-34.5 68.9-22.9 132.1-68.85 178-137.8 97.6-155 80.35-424.85 74.65-499.5" horiz-adv-x="1180.8100217019596"/><glyph glyph-name="ada" unicode="&#xEA2B;" d="M2195.771916 431.264546c0 49.806051 52.366175 68.076028 137.315749 77.152832 70.519783 7.913111 126.842514 19.666408 163.382467 43.173002v-62.723041c0-74.941815-63.072149-111.3654-147.207137-119.627618a5470.054306 5469.35609 0 0 1-107.641583 8.960434c-29.09232 11.055081-45.849496 29.790535-45.849496 53.18076m-1628.006206-22.110162h362.257564l29.790535-87.858806a3840.651668 3840.186191 0 0 1-460.822343-112.8782zM748.254461 942.591156l126.842513-372.61443H621.411947z m805.391776-186.889061c95.422808 0 172.57564-86.346005 172.57564-193.522111 0-75.7564-40.496509-141.039566-99.146625-171.411947a5470.054306 5469.35609 0 0 1-134.057409-6.167572c-65.399535 26.415826-111.830877 94.491854-111.830876 177.579519 0 109.852599 77.152832 193.52211 172.57564 193.522111m1103.646237-425.562452v357.486424c0 53.646237-20.94647 230.178433-294.297905 230.178433-176.415826 0-299.301784-95.422808-316.291699-223.545384h172.57564c15.593483 57.486424 86.229635 84.949573 147.788983 84.949573 77.036462 0 122.769589-28.743212 122.769589-64.003103 0-54.926299-79.712956-68.076028-192.125679-78.549263-148.952676-13.033359-275.79519-52.249806-275.79519-203.878976q0-22.57564 4.072925-42.707525a5935.53142 5934.833204 0 0 1-127.075252 3.258339V1200h-172.692009v-363.421257a282.777347 282.777347 0 0 1-198.642359 78.432894c-175.135764 0-320.248254-151.62917-320.248254-351.66796a372.381691 372.381691 0 0 1 55.159038-198.060512 4422.61443 4422.032583 0 0 1-130.333592-16.291699L858.339798 1134.600465H639.798293l-348.176881-999.262994A2560.473235 2560.124127 0 0 1 0 0c446.276183 194.685803 1547.129558 458.262219 2792.862684 296.74166-5.934833 6.633049-54.228084 19.3173-135.45384 33.281614" horiz-adv-x="2792.8626842513627"/><glyph glyph-name="adafruit" unicode="&#xEA2C;" d="M720.131508 560.292142c-46.212409-7.401988-86.123125 1.850497-89.073917 20.605533-3.000806 18.755036 32.008595 39.910717 78.271016 47.262691 46.212409 7.351974 86.073112-1.90051 89.023905-20.605533 3.000806-18.705023-32.008595-39.910717-78.221004-47.262691m-43.911791-193.051837c-16.904539-8.60231-47.862852 18.154875-69.118559 59.816062-21.305721 41.7112-24.856674 82.522158-7.902122 91.124468 16.904539 8.60231 47.812838-18.154875 69.118559-59.816062 21.255707-41.661187 24.856674-82.522158 7.902122-91.124468m-182.048883 77.620842c-33.10889-33.10889-70.769003-49.063174-84.172601-35.659575-13.503626 13.403599 2.500671 51.113725 35.509535 84.222615 33.008863 33.158904 70.718989 49.113188 84.172601 35.709589 13.453612-13.403599-2.500671-51.163738-35.509535-84.272629m-126.583989 230.56191c8.552296 16.954553 49.363255 13.403599 91.024441-7.802095 41.7112-21.205694 68.618425-52.113993 60.016115-69.018533-8.652323-16.904539-49.413268-13.453612-91.124468 7.752082-41.7112 21.205694-68.518398 52.164007-59.916088 69.068546m240.064461 122.532902c18.755036-2.900779 28.00752-42.811496 20.705559-89.023905-7.251947-46.262422-28.307601-81.271823-47.11265-78.371043-18.705023 3.000806-28.00752 42.861509-20.755573 89.023904 7.251947 46.262422 28.357614 81.321836 47.162664 78.421057m591.908936-126.533976c-3.901047 24.556594-17.254633 31.608487-49.463282 41.86124l-188.150521 60.016115s-114.180659 43.16159-198.753368-17.854794c-11.403062-8.202202-23.206231-17.554714-35.009401-27.507386 9.902659 11.803169 19.25517 23.606339 27.507386 35.009401 60.766317 84.722749 17.454687 198.803382 17.454687 198.803381l-60.366209 188.100508c-10.35278 32.158635-17.35466 45.512221-42.011281 49.313241-24.606607 3.901047-35.359495-6.601773-55.064785-34.009131l-115.280955-160.493095s-76.220466-95.175556-44.411925-194.552241c4.301155-13.303572 9.552565-27.457373 15.404136-41.811226a610.91404 610.91404 0 0 1-24.856674 37.009937C384.741451 889.330494 262.95875 883.478923 262.95875 883.478923S91.01258 884.079084 65.405704 884.079084c-33.809078 0.15004-48.613053-2.500671-59.916088-24.656621-11.303035-22.155949-4.651249-35.709589 15.354123-62.916894 15.154069-20.755573 117.031425-159.192746 117.031425-159.192745S204.793132 535.385455 309.071132 534.985347c14.00376-0.050013 29.007789 0.600161 44.461939 1.700457a616.015409 616.015409 0 0 1-42.761482-12.203277c-99.02659-32.80881-130.985171-150.540422-130.985172-150.540422L118.019832 186.241704c-10.50282-32.008595-12.603384-46.96261 5.001343-64.517324 17.604727-17.654741 32.508729-15.504163 64.567337-4.901316 24.456567 8.002149 187.55036 62.116679 187.55036 62.116679s117.631586 32.208649 150.240342 131.235239c4.401182 13.303572 8.45227 27.807467 12.153264 42.711469a555.149066 555.149066 0 0 1-1.500403-44.361912c0.500134-104.278 102.577544-171.095942 102.577543-171.095942l159.342786-116.681331c27.307332-19.905345 40.810958-26.557131 63.016921-15.254096 22.155949 11.303035 24.756648 26.157024 24.556594 59.966102l-1.100295 197.553046s5.701531 121.7827-78.371044 183.449259a596.660212 596.660212 0 0 1-36.959924 24.756648c14.353854-5.751544 28.407628-11.002954 41.811227-15.204083 99.326671-31.658501 194.452213 44.712006 194.452213 44.712006l160.243028 115.531022c27.357346 19.755305 37.810153 30.608219 33.959118 55.214826" horiz-adv-x="1200.3316242554708"/><glyph glyph-name="adaway" unicode="&#xEA2D;" d="M352.45 1200L0.7 849.2 0 352.45l350.8-351.75 496.75-0.7 351.75 350.75L1200 847.55 849.2 1199.3z m-93.5-326c22.8 2.3 144.3-49 288.4-49.5 74-4.55 101.95-26 122.75-47.8 46.6-43.9 56.75-66.2 115.75-37.75 24 11.55 53.6 80 86.95 87.35 26 3.8 64.15-29 73.7-38.5 10.5-10.25 19.95-19.8 29.9-24.35-34.2-1.85-81.6-81.7-82.85-149.5 6.85-189.55-78.5-179.1-162.4-271.85-26.75-25.5-41.8-78.9-41.8-127.65l-35.25 1.05c-20.9-0.5-44.75 26.75-56.3 44.95-22 36.75-44.85-33.65-79.15 24 1.55 19.15-91.65 22.85-38.1 67.4 126.5 89.5 188.2 108.4 185.55 135.4-3.1 31.9-77.25 3-144.2 6.1-110.65 5.1-98.5 75.2-108.3 107.85-92.85 51.7 71.4 76-0.75 91.3-35.25 5.55-97.45-7.5-110.5 53.45 11.75-14.55 166 15.2 103.85 24.9-86.25 39.15-110.5 18.2-146.3 91.75-6.2 7.5-6.2 10.9-0.95 11.4Zm628.75-95.15a13.05 13.05 0 0 1-13-13 13.05 13.05 0 0 1 13-13.1 13.05 13.05 0 0 1 13.05 13.05 13.05 13.05 0 0 1-13 13.05z" horiz-adv-x="1200"/><glyph glyph-name="adblock" unicode="&#xEA2E;" d="M388.749998 1199.999998a90 90 0 0 1-63.649999-26.35L26.4 874.849999A90 90 0 0 1 0 811.249999v-422.499998c0-23.9 9.5-46.8 26.4-63.7l298.699999-298.699999A90 90 0 0 1 388.749998 0.000002h422.499999a90 90 0 0 1 63.649999 26.35l298.749999 298.699999A90 90 0 0 1 1199.999995 388.750001v422.499998a90 90 0 0 1-26.35 63.6L874.899996 1173.649998A90 90 0 0 1 811.249997 1199.999998z m221.35-150c51 0 47.9-55.4 47.899999-55.4v-339.199998s-0.45-10.9 8-10.9c9.4 0 8.75 11.3 8.75 11.3l-0.1 281.499999s-2.5 49.3 47.95 49.299999c50.5 0 48.5-49.15 48.5-49.149999v-381.049999s0.7-7.9 7.05-7.9c6.35 0 47.2 106.1 47.2 106.1s22.55 74.85 128.799999 55c1.9-0.4-8.35-34.4-8.35-34.4l-114.149999-327.799999S784.499997 165.000002 585.699998 165.000002c-252.199999 0-240.399999 270.349999-240.699999 270.249999V821.899999s-0.8 49.5 44.849999 49.5c42.9 0 42.45-49.5 42.45-49.5l0.35-179.149999s-0.2-8.6 8.35-8.6c8 0 7.05 8.6 7.05 8.6l0.5 296.299999s-2.75 58.1 48.3 58.099999c52 0 49.15-57.1 49.15-57.099999v-280.549999s-0.25-10.2 7.6-10.2c8.4 0 7.7 10.3 7.7 10.3l0.5 334.649998S558.999998 1049.999998 610.099998 1049.999998Z" horiz-adv-x="1200.0000230472722"/><glyph glyph-name="adblockplus" unicode="&#xEA2F;" d="M351.35 1200L0 848.65v-497.05L351.35 0h497.05L1200 351.6v497L848.65 1200z m10.1-24h477.1l337.45-337.45v-477.1l-337.45-337.45H361.5L24 361.45V838.5z m27.85-67.2L91.2 810.7v-421.4l298.1-298.1h421.4l298.1 298.1V810.7l-298.1 298.1zM219.8 816H319l114.25-420.5H345.85l-22.35 100.1H211.9l-22.3-99.85h-84z m265 0h124.55c17.75 0.25 35.5-1.45 53.05-4.8 15.1-2.9 29.75-8.65 42.5-17 12-8.2 21.8-19.25 28.5-32.2 7-13.45 10.35-30.25 10.35-50.4 0-9.6-1.2-19.2-3.6-28.3-2.4-9.4-6-18.25-10.8-26.4-5-8.4-11.5-15.85-18.95-21.85-8.15-6.5-17.5-11.3-27.35-14.15v-2.65c26.15-5.5 45.85-16.35 59-32.15 13.25-15.85 19.95-37.95 19.95-66.5 0-21.6-3.6-40.1-10.8-55.45-7-15.1-17.3-28.05-30.25-38.4-13.45-10.3-28.8-18-45.1-22.55-18-5-36.75-7.7-55.45-7.45H484.8z m333.35 0h133.45c18.7 0.25 37.45-2.15 55.7-6.7 16.5-4.1 32.15-11.8 45.35-22.6 13.45-11.25 24-25.65 30.5-42 7.4-17.25 11.25-38.6 11.25-64.05 0-24.5-3.85-45.85-11.5-63.85-7-17-17.5-32.15-31.2-44.4a127.65 127.65 0 0 0-45.4-25.9 177.55 177.55 0 0 0-54.95-8.4H900.5v-142.6h-82.35zM266.4 743.75c-4.55-22.3-9.1-45.35-13.7-68.65-4.5-23.25-9.6-45.6-14.85-66.7l-8.9-38.65h77.75l-8.4 38.65a1575 1575 0 0 0-15.1 67 2781.15 2781.15 0 0 1-14.65 68.35z m300.25-1.45v-96h38.65c20.15 0 34.8 4.6 43.9 13.95 9.1 9.35 13.7 21.85 13.7 37.65 0 15.85-4.6 27.4-13.95 34.1-9.35 6.7-23.75 10.3-43.2 10.3z m334.05-1.9v-127h45.85c44.9 0 67.2 22.35 67.2 67 0 21.85-5.75 37.45-17 46.55-11.3 9.15-28.1 13.45-50.2 13.45z m-334.05-161v-110.2h46.55c45.1 0 67.7 19.2 67.7 57.35 0 18.5-5.5 31.95-16.8 40.35-11.3 8.4-28.1 12.5-50.9 12.5z" horiz-adv-x="1200"/><glyph glyph-name="addydotio" unicode="&#xEA30;" d="M750.000008 859.5V900c0 15.25-1.65 30.25-3.75 45C724.450008 1089.15 600.000008 1200 450.000008 1200S175.500008 1089.15 153.750008 945A286.65 286.65 0 0 1 150.000008 900v-40.5A299.35 299.35 0 0 1 0.000008 600v-300a300 300 0 0 1 300-300h300c0 82.75-67.25 150-150 150H300.000008c-82.75 0-150 67.25-150 150v300c0 82.75 67.25 150 150 150h300c82.75 0 150-67.25 150-150v-75a150 150 0 0 0-75-129.85V600c0 41.5-33.5 75-75 75H300.000008c-41.5 0-75-33.5-75-75v-300c0-41.5 33.5-75 75-75h300c52.75 0 102 13.6 145.1 37.5A299.8 299.8 0 0 1 900.000008 525V600a299.35 299.35 0 0 1-150 259.5Zm-225-484.5h-150v150h150zM300.000008 900c0 27.4 7.5 53 20.4 75A149.9 149.9 0 0 0 450.000008 1050c55.3 0 103.85-30.25 129.6-75 12.9-22 20.4-47.6 20.4-75Z" horiz-adv-x="900.0000154818488"/><glyph glyph-name="adguard" unicode="&#xEA31;" d="M600.00018 1200C412.45018 1200 186.25018 1156.95 0.00018 1062.25 0.00018 857.75-2.54982 348.15 600.00018 0 1202.55018 348.15 1200.00018 857.75 1200.00018 1062.25 1013.75018 1156.95 787.55018 1200 600.00018 1200z m-5.3-771.45L342.85018 719.4c16.55 11.95 87.5 57.15 139.7-2.1l109.35-129.4c0.45 0.05 290.05 297.4 290.75 296.9 12.3 11 34.7 25.15 60.2 5.05l-348.15-461.3z" horiz-adv-x="1200.0003592555813"/><glyph glyph-name="adidas" unicode="&#xEA32;" d="M1911.081619 0l-692.528202 1200-370.988719-213.961513 568.944924-986.038487Zm-659.880557 0L793.815528 791.904446 422.826808 577.942933l333.802256-577.942933ZM370.909091 383.171865l221.048441-383.171865H97.385534L0 169.210352Z" horiz-adv-x="1911.081619110816"/><glyph glyph-name="adminer" unicode="&#xEA33;" d="M1375.062358 826.08454a32.360155 32.360155 0 0 0-32.360155-32.360154 32.360155 32.360155 0 0 0-32.421212 32.360154 32.360155 32.360155 0 0 0 32.360155 32.360155 32.360155 32.360155 0 0 0 32.421212-32.360155z m-66.246732 373.790319c-16.119021 0.488455-26.742921-0.610569-26.742921-0.610569l4.640324-51.043566s35.229829 2.74756 68.383724-6.533087c16.607476-4.640324 31.810643-12.089265 42.068201-22.529995 10.196502-10.379672 16.91276-23.323734 16.91276-46.281127 0-11.967152-3.174959-18.072841-8.486908-23.81219a58.858848 58.858848 0 0 0-23.079507-14.1652c-19.049752-6.899429-39.686982-7.0826-39.686982-7.0826l-25.766011 0.122114v-132.737692h51.287793V981.108c10.807071 1.037967 15.264224-0.244228 31.566416 5.617234 14.714712 5.31195 30.650562 13.615688 43.594623 27.780888A86.700793 86.700793 0 0 1 1465.365507 1072.876515c0 34.497146-12.699834 62.888603-31.627472 82.182582-18.927638 19.293979-42.556657 29.795765-64.781367 36.023569a256.011565 256.011565 0 0 1-60.141042 8.792193ZM1092.429986 1101.267971l-175.47752-151.8485 176.210202-149.650453 33.214952 39.076414-130.661758 110.94038 130.23436 112.71103zM402.181775 1020.794982c-105.872658 0-201.609871-11.356583-272.924326-30.528448-35.657227-9.585933-65.208765-20.942515-87.799817-35.351943-22.591052-14.348371-41.457632-34.191862-41.457632-61.056896V126.98308c0-17.523329 8.85325-32.970724 20.576174-44.571534 11.661867-11.661867 26.681864-20.942515 44.693648-29.307311 36.023569-16.790646 84.869086-29.917879 144.704844-39.13747 119.671516-18.622353 264.681645-18.622353 384.353161 0 59.835758 9.280648 108.681275 22.346824 144.704844 39.076414 18.072841 8.425852 32.970724 17.7065 44.693648 29.30731 11.661867 11.60081 20.576174 27.109262 20.576174 44.632591V893.857695c0 26.865034-18.866581 46.708526-41.51869 61.056896-22.591052 14.409427-52.081532 25.76601-87.738759 35.351943-71.253398 19.171865-167.051668 30.528448-272.924326 30.528448Zm0-51.287793c102.08713 0 194.588328-11.295526 259.491808-28.757798 32.543326-8.731136 58.187222-19.232922 73.695674-29.063082 15.447395-9.83016 17.7065-16.72959 17.7065-17.828614 0-1.099024-2.259105-7.937396-17.7065-17.7065-15.508452-9.891217-41.152348-20.393003-73.634617-29.124139-64.964537-17.523329-157.465735-28.818855-259.552865-28.818855-102.148187 0-194.649385 11.295526-259.613923 28.818855-32.482269 8.731136-58.126165 19.232922-73.573559 29.063082-15.508452 9.891217-17.7065 16.668533-17.7065 17.767557 0 1.099024 2.198048 7.937396 17.7065 17.828614 15.447395 9.83016 41.091291 20.331946 73.573559 29.063082 64.964537 17.462272 157.526792 28.757798 259.613923 28.757798ZM51.226736 828.954215c21.492027-12.211379 46.403241-22.835279 78.030713-31.383245 71.314455-19.171865 167.051668-30.528448 272.924326-30.528448 105.811601 0 201.609871 11.356583 272.924326 30.528448 31.627472 8.547965 56.477629 19.232922 77.908599 31.383245v-190.680687c0-0.610569 0-2.869674-5.495121-8.242681a112.039404 112.039404 0 0 0-30.101049-19.110809c-29.002026-13.493574-74.306243-26.193408-130.967043-34.985601-113.321599-17.584386-255.278883-17.584386-368.661538 0-56.6608 8.792193-101.965017 21.492027-130.905986 34.985601a111.673063 111.673063 0 0 0-30.162106 19.110809c-5.373007 5.373007-5.495121 7.693169-5.495121 8.242681Zm0-255.33994c5.067722-2.869674 8.364795-6.533088 14.043086-9.158534 36.023569-16.851703 84.869086-29.917879 144.704844-39.198528 119.671516-18.561296 264.681645-18.561296 384.353161 0 59.835758 9.280648 108.681275 22.346824 144.704844 39.198528 5.678291 2.625447 8.975364 6.28886 14.043086 9.158534v-190.924914c0-0.610569-0.122114-2.869674-5.495121-8.242681a111.978348 111.978348 0 0 0-30.162106-19.171866c-29.002026-13.493574-74.306243-26.193408-130.967043-34.985601-113.321599-17.584386-255.278883-17.584386-368.661538 0-56.6608 8.792193-101.965017 21.492027-130.905986 34.985601a111.612006 111.612006 0 0 0-30.162106 19.171866c-5.373007 5.373007-5.495121 7.693169-5.495121 8.242681z m0-255.645224c5.067722-2.869674 8.364795-6.533088 14.043086-9.158535 36.023569-16.790646 84.869086-29.917879 144.704844-39.198527 119.671516-18.561296 264.681645-18.561296 384.353161 0 59.835758 9.341705 108.681275 22.407881 144.704844 39.198527 5.678291 2.625447 8.975364 6.28886 14.043086 9.158535v-190.924914c0-0.610569-0.122114-2.869674-5.495121-8.242681a111.978348 111.978348 0 0 0-30.162106-19.171866c-29.002026-13.493574-74.306243-26.193408-130.967043-34.985601-113.321599-17.584386-255.278883-17.584386-368.661538 0-56.6608 8.792193-101.965017 21.492027-130.905986 34.985601a111.612006 111.612006 0 0 0-30.162106 19.171866c-5.373007 5.373007-5.495121 7.693169-5.495121 8.242681Z" horiz-adv-x="1465.3693126698336"/><glyph glyph-name="adonisjs" unicode="&#xEA34;" d="M0 600c0-484 116-600 600-600s600 116 600 600S1084 1200 600 1200 0 1084 0 600Zm242-124.6l188.1 427.75C461.9 975.1 523 1014.2 600 1014.2c77 0 138.1-39.05 169.9-111.15l188.1-427.7c8.6-20.9 16-47.65 16-70.9 0-106.25-74.6-180.85-180.85-180.85-36.3 0-65 9.15-94.15 18.5-29.85 9.6-60.15 19.35-99 19.35-38.5 0-69.5-9.75-99.8-19.3-29.5-9.4-58.4-18.55-93.35-18.55-106.25 0-180.85 74.6-180.85 180.85 0 23.25 7.4 50 16 70.9ZM600 828.5l-185.75-420.3c55.1 25.6 118.55 37.9 185.75 37.9 64.85 0 130.65-12.3 183.2-37.9Z" horiz-adv-x="1200"/><glyph glyph-name="adp" unicode="&#xEA35;" d="M1660.333095 600.015335a344.518919 344.518919 0 0 0-343.387512-343.386412h-132.07085v150.939373h132.07085a192.44814 192.44814 0 1 1 0 384.895179h-132.07085V943.402847h132.07085a344.518919 344.518919 0 0 0 343.387512-343.386412M928.27758 943.402847v-279.237398H690.547848l-86.790359-150.939373H1079.216952v430.176771Zm1713.161435-215.088385a471.685538 471.685538 0 0 0-471.685538-471.685539v-256.597153h-407.536526V200.027759a590.172902 590.172902 0 0 0-449.044192-199.994888H928.27758v256.597153H626.398835l-150.939372-256.597153H0L698.094597 1200h618.850986a615.833167 615.833167 0 0 0 449.045293-199.994888V1200h407.536525a470.931634 470.931634 0 0 0 467.911614-471.685538m-1324.493432-577.343319a450.1767 450.1767 0 0 1 407.537626 256.597153h192.447039v-256.597153h105.65668v256.597153h150.940473a320.368664 320.368664 0 0 1 320.745066 320.746166 323.765086 323.765086 0 0 1-324.51899 320.746166H1913.156324v-384.895179h-150.939373a452.818117 452.818117 0 0 1-445.271368 384.895179H788.65778l-524.513879-898.089485h124.525203l150.939372 256.597153h539.608476v-256.597153z m852.807894 792.431704h-150.939373v-150.939372h150.939373a63.771511 63.771511 0 0 0 64.149013-64.149013 66.035425 66.035425 0 0 0-64.149013-64.149013h-150.939373v-150.939373h150.939373a215.088385 215.088385 0 0 1 215.088385 215.088386 217.3523 217.3523 0 0 1-215.088385 215.088385M2381.069038 75.501456a60.376189 60.376189 0 1 0-60.376189 60.37619 59.621184 59.621184 0 0 0 60.376189-60.37619m15.093497 0a75.469686 75.469686 0 1 1-75.469686-75.469686 75.469686 75.469686 0 0 1 75.469686 75.469686M2324.466773 109.463476a15.093497 15.093497 0 1 0 0-30.189196h-15.094597v30.189196z m18.867422 3.772823a28.678085 28.678085 0 0 1-18.867422 7.546749h-30.189195v-90.563183h11.321774v33.960918h15.093497l18.867421-33.960918h15.093497l-22.640245 37.734843c3.772824 0 7.546748 3.773925 11.320673 7.546748a22.641346 22.641346 0 0 1 3.772824 15.094598 21.131336 21.131336 0 0 1-3.772824 22.640245" horiz-adv-x="2641.439647267027"/><glyph glyph-name="adroll" unicode="&#xEA36;" d="M1322.799087 599.999619c0 331.250938-260.536304 599.999619-599.999619 599.99962a598.731937 598.731937 0 0 1-524.048905-307.440555L491.309628 599.999619c0 128.035928 107.918359 231.48984 231.48984 231.489841 131.012226 0 231.48984-103.453912 231.48984-231.489841s-101.19413-231.48984-231.48984-231.48984H224.049095A224.324679 224.324679 0 0 1 0 144.405567v-144.405567h722.799468C1060.003002 0 1322.799087 268.748681 1322.799087 599.999619" horiz-adv-x="1322.7990871089748"/><glyph glyph-name="adventofcode" unicode="&#xEA37;" d="M674.85 538.2l324.9-480.3L917.85 0l-345.25 473.5L227.35 0l-81.85 57.9 324.9 480.3L0 739l30.75 84.5 479.8-173.15L526.7 1200h91.3l16.15-549.65 479.8 173.1 30.75-84.5-469.35-200.75z" horiz-adv-x="1144.7"/><glyph glyph-name="adyen" unicode="&#xEA38;" d="M1800.043274 927.266405v-453.412841c0-20.717368 16.7949-37.510722 37.512267-37.510722h71.581171V927.266405h272.739777v-795.97656c0-72.508468-58.779831-131.289845-131.289845-131.289845H1536.690836v190.879516h372.450512v81.821624h-250.537188c-72.510014 0-131.289845 58.779831-131.289845 131.289845V927.266405h272.728959Zm-1276.770945-0.001546c72.510014 0 131.289845-58.781377 131.289845-131.289845v-523.273874H131.289845c-72.508468 0-131.289845 58.779831-131.289845 131.289845v146.520703c0 72.510014 58.781377 131.289845 131.289845 131.289845h141.445296v-207.946423c0-20.718913 16.7949-37.512267 37.512267-37.512268h71.581171V726.112435c0 20.717368-16.7949 37.510722-37.512268 37.510722l-334.938244 0.003091V927.264859Zm894.947003 272.735141v-927.29886H894.947002c-72.510014 0-131.289845 58.779831-131.289844 131.289845v391.985575c0 72.510014 58.779831 131.289845 131.289844 131.289845h141.436023v-453.412841c0-20.717368 16.7949-37.510722 37.512268-37.510722h71.58117l0.007728 763.657158h272.735141Zm1396.02447-272.735141a131.289845 131.289845 0 0 0 131.289845-131.289845v-146.520703c0-72.510014-58.779831-131.289845-131.289845-131.289845h-141.44375v207.946423c0 20.715822-16.796445 37.509176-37.512268 37.509177h-71.582716v-289.764956c0-20.718913 16.7949-37.512267 37.512267-37.512268h334.938245v-163.641702h-513.894262c-72.510014 0-131.289845 58.779831-131.289845 131.289845v523.273874Zm763.655612 0c72.508468 0 131.289845-58.781377 131.289845-131.289845v-523.273874h-272.733595V726.112435c-0.06182 20.691094-16.821173 37.450448-37.512268 37.512267h-71.58117v-490.926653H3054.625539V927.266405Z" horiz-adv-x="3709.1892588061028"/><glyph glyph-name="aegisauthenticator" unicode="&#xEA39;" d="M391.033418 156.938279l-0.416431-0.74845a83.455059 83.455059 0 0 1-0.073157-82.667216l17.810874-31.31675c14.850836-26.100105 42.560392-42.205863 72.577201-42.205863h0.917274c64.096637 0 104.276618 69.223242 72.498417 124.873079l-18.289207 32.059573c-32.037063 56.12817-112.965398 56.12817-145.019344 0.011255m196.426084 343.690779a83.455059 83.455059 0 0 1-0.073156-82.655961l213.640448-375.739098c14.850836-26.100105 42.543509-42.222745 72.577201-42.222745h0.877882c64.096637 0 104.276618 69.223242 72.498417 124.873079l-214.507075 375.744725c-32.037063 56.12817-112.98228 56.12817-145.008089 0m18.429893 657.96126L11.096243 123.646295c-31.615005-55.008307 8.092271-123.629412 71.541751-123.629413a82.554667 82.554667 0 0 1 71.659927 41.603726l447.4553 783.819141c31.693789 55.526033 111.766751 55.458503 143.387383-0.146313l445.553222-783.560279a82.498393 82.498393 0 0 1 71.727457-41.733157h5.526154c63.336931 0 103.055461 68.384752 71.671182 123.409942L749.102328 1158.376475c-31.60375 55.396601-111.423477 55.526033-143.207305 0.219471" horiz-adv-x="1350.5851604287534"/><glyph glyph-name="aeroflot" unicode="&#xEA3A;" d="M1266.123155 498.786194c-7.820747 18.853588-13.546652 37.986488-19.970837 56.70042l-932.205169-56.70042 188.535877-96.78175z m126.94749-174.151287c-7.960404 5.865561-16.060464 13.965621-23.741554 20.94843a254.453606 254.453606 0 0 0-40.081331 44.410674l-465.474132-93.569658 198.172155-71.085008z m368.692382 39.941674c22.344993 3.491405 55.862482 17.038057 82.117848 37.427863l-135.187206 283.781409 140.354486 71.224665-118.428462 109.211152c-84.073035-40.779612-168.425383-81.000599-252.638075-121.221586l60.052168-143.14761 96.921407 46.086547z m230.432738 592.281966c54.046951-69.828103 91.474814-150.968358 109.211153-237.415549h-85.190286a542.4247 542.4247 0 0 1-24.020867 79.604037c-57.259044 159.487386-174.570256 273.167537-309.47815 367.714788-17.736338 10.893184-33.657145 22.903618-51.672796 33.238177 18.01565-6.144873 33.936458-12.010434 51.672796-18.993244 122.89746-51.952108 232.108613-123.595741 309.47815-224.148209m25.836398-910.139488c-31.422646-15.920807-63.543573-30.724365-95.245532-46.086548l-78.905756 166.609853c-51.672796-19.412213-106.138716-30.026084-161.16326-31.562303-59.214231-2.793124-118.288806 5.586248-174.4306 24.579492l-67.453947-159.627042c-21.926024-1.955187-52.231421 0-71.503977 14.803558a52.790046 52.790046 0 0 0-23.601899 31.28299c28.489866 49.717609 54.326264 100.971436 80.860943 151.806295-17.736338 12.289746-33.517489 21.227743-49.577953 37.707175l48.041734 61.029761c81.279911-53.069358 170.38057-81.69888 257.665699-81.698879 87.564441-3.072437 174.570256 26.813991 255.850167 87.704096 26.534679-7.681091 53.767639-16.619088 75.554007-25.138117-8.10006-6.424185-13.965621-12.15009-21.926024-18.993243-15.920807-16.758745-29.746772-33.796802-55.583169-48.321047 26.255367-55.164201 54.046951-109.490465 81.419567-164.096041z m1087.223557 479.160439L3351.748921 691.79107h-1333.716758c0-58.934919-8.379372-109.490465-25.836398-153.621826-51.53314-140.354486-180.296161-207.668777-309.47815-205.154965-126.807834 3.770718-256.12948 73.179851-313.388524 201.244591a383.356283 383.356283 0 0 0-31.981271 157.5322H0l244.398359-165.911572 1021.724796 56.421107c19.272556-77.229881 55.443513-144.823485 103.345592-194.820406a428.046269 428.046269 0 0 1 313.248868-141.052767 389.640812 389.640812 0 0 1 309.47815 138.538955c43.572736 50.555546 77.369538 115.356025 96.921406 193.423844z m-67.034979-27.093304l-188.815189-92.592064L2094.843076 498.786194a1326.733948 1326.733948 0 0 1 18.01565 56.70042z m-545.636793-204.177371l-206.691184-72.621227a49964.800484 49964.800484 0 0 0-319.254084 102.647311c9.636278 8.379372 17.457026 16.339776 25.557085 27.372616 11.870777 10.334559 21.926024 24.579492 33.796802 35.472676z m99.295562 12.569058l164.375353 80.302318-678.729157 85.74891c-6.005217-22.903618-23.881211-41.617549-35.751988-60.331481z m-1831.730786 0l-164.654666 75.693663 682.220562 88.68169c12.569058-21.227743 23.881211-39.941675 37.707175-58.655606Z" horiz-adv-x="3351.7489214499337"/><glyph glyph-name="aeromexico" unicode="&#xEA3B;" d="M1424.896416 585.855908c2.804663-9.943806 0-26.89927-17.019206-31.170008a238.396376 238.396376 0 0 0-42.452403-7.011658c-24.030865-2.868406-22.628533-22.692275-22.628533-34.038413v-144.312673c0-19.760127-15.553133-86.307137-91.980206-86.307137H1075.333388c-66.483268 0-118.815734 55.200872-118.815735 114.608739V740.048644c-1.402332 59.407867 52.332467 99.055607 100.457939 97.653275 24.030865 0 41.050071-7.0754 53.734798-14.150801 28.301602-12.748469 59.471609-28.301602 100.521681-48.125471 0 0 65.017194 46.72314 69.28793 49.527803 22.628533 15.553133 43.854734 4.270737 50.993878-9.880064 24.030865-46.72314 69.287931-141.50801 93.382537-229.217478z m104.664934 256.116749a209.266124 209.266124 0 0 1-205.186614 212.262014c-108.93567 2.804663-169.745869-36.843076-192.438145-48.125472-1.402332-1.466074-4.206995 0-7.011658 2.804663-19.82387 19.760127-63.742347 49.527803-111.804076 63.678605-7.0754 1.402332-8.477732 12.748469 0 12.748469a847.77321 847.77321 0 0 0 232.022142-7.075401c8.541474-1.466074 15.616875 4.206995 11.346138 11.282396-2.804663 5.673069-4.270737 8.477732-8.477732 18.421538-9.943806 19.760127-33.974671 41.050071-65.080936 49.527803-80.697811 22.628533-219.337415 42.452403-343.826218 42.452403-138.703346 1.402332-285.820682-26.89927-322.663759-35.377002-8.477732-1.466074-21.226201-5.736811-24.030864-5.736811-7.0754 0-9.880064-9.880064-5.673069-14.087059l14.150801-14.150801c4.270737-5.673069 7.0754-14.150801-1.402332-22.628533L241.965948 877.285917H418.787217c11.282395 0 22.628533-9.880064 22.628533-22.628533 0-11.282395-9.943806-22.628533-21.226201-22.628534H191.035813l-69.351673-63.678604h299.971483c11.346138 0 21.226201-12.748469 21.226201-22.628533 0-9.880064-8.477732-22.628533-21.226201-22.628533H70.754005L0 658.012244h605.616035c11.282395 0 21.226201-12.748469 21.226202-22.628533 0-12.748469-8.477732-24.094607-21.226202-24.094607H0v-63.678604h604.213704c14.150801 0 21.226201-12.748469 21.226201-24.030865 0-9.943806-9.943806-21.226201-22.692275-21.226201H0v-63.742347h789.512705c12.748469 0 21.289944-11.282395 21.289944-24.030865 0-11.282395-9.943806-22.628533-21.289944-22.628533H212.262014v-63.678604h578.716765c11.282395 0 19.760127-12.748469 19.760128-24.030865s-9.880064-22.628533-19.760128-22.628533l-11.346137 1.402332H212.262014v-63.678604h666.426234s24.030865 55.200872 24.030865 117.477145V765.545583c0 33.910928 14.150801 90.514132 83.502474 106.067265 1.402332 0 4.270737 1.466074 5.673069 1.466074 196.645139 46.659398 399.02709 4.206995 513.635829-45.257066 21.226201-9.943806 25.496939 7.011658 24.030865 14.150801zM424.524029 0h134.496351c120.218066 1.402332 198.047471 65.017194 198.047471 65.017194H424.460286v-65.017194z m0 110.338002h386.27862c18.485281 18.421538 41.050071 50.993877 46.72314 63.678604H424.460286v-63.678604Z" horiz-adv-x="1529.8224752548404"/><glyph glyph-name="afdian" unicode="&#xEA3C;" d="M580.65725 455.877606a36.580625 36.580625 0 1 1 0-73.16125 36.580625 36.580625 0 0 1 0 73.16125m345.22562-109.99994a36.580625 36.580625 0 1 1 0-73.225767 36.580625 36.580625 0 0 1 0 73.225767m541.999707-92.645111c-12.193542-6.129029-29.741919-6.451609-45.999975-0.83871-10.90322 3.870966-22.709665 7.483867-34.451594 11.096769-21.870956 6.709674-58.322549 17.806442-65.225772 26.25805a34.387078 34.387078 0 1 1-55.032228-41.483849c3.80645-5.161288 8.967737-9.41935 14.193541-13.483863-52.645133-72.967703-283.741782-218.193431-610.580315-146.645082-147.290243 32.258047-246.386964 91.161241-286.709523 170.257972-29.096758 57.096743-22.451601 115.935421-8.580641 147.935404 39.999978 83.225761 328.838532 274.903077 513.22553 383.419148a34.645143 34.645143 0 0 1 12.129025 47.290297c-9.612898 16.387088-31.612886 22.96773-47.096748 12.193542-14.903218-8.709673-65.483836-38.774173-129.99993-79.741893-21.80644 14.645153-59.548355 32.774176-119.999935 38.709657-95.870916 9.548382-317.419183 51.935456-388.967532 82.25802C163.560701 912.135424 47.173667 969.68378 72.980105 1034.393423c5.935481 15.096766 33.999982 39.548366 94.838658 62.838676a548.386801 548.386801 0 0 0 128.709608 31.741918l-13.677412-6.645158c-41.419332-20.129021-86.645114-42.709654-116.967679-69.354801-2.193547 1.419354-4.516127 2.838708-6.064512 4.451611a33.999982 33.999982 0 0 1-48.645135 1.096773 34.387078 34.387078 0 0 1-1.096774-48.774167c12.258058-12.903219 30.38708-22.580633 53.483842-29.999984l2.516128-0.903225c80.322537-24.709664 223.096654-21.677408 424.386867-13.612896 86.774147 3.354837 168.709586 6.580642 237.03213 5.29032 226.580523-4.516127 396.903011-94.774142 520.64488-276.064367 75.999959-111.290262 48.580619-221.032139 5.096772-316.32241a90.322532 90.322532 0 0 0-14.903218 14.322573 34.838691 34.838691 0 0 1-48.387071 5.483868 34.51611 34.51611 0 0 1-5.548384-48.451587c7.032254-8.838705 42.903203-50.193521 87.419308-46.709652l2.387095 0.129032c1.354838 0.193548 2.709676-0.064516 4.12903 0.193548 30.451596 5.548384 49.54836 4.064514 67.419319-7.161286 23.677407-14.967734 35.290304-23.870955 32.967724-31.290306-1.354838-4.709675-4.903223-8.064512-10.838704-11.419348M528.399214 637.554928l-20.32257-14.903218a103.225751 103.225751 0 0 0-15.677411 20.64515c7.93548 2.451612 21.290311-0.451613 35.999981-5.741932m950.515615-281.032107a122.580579 122.580579 0 0 1-52.258036 17.419346c40.774172 99.612849 66.709641 229.999876-21.677408 359.483677-135.225733 198.193441-329.096596 301.161128-576.128721 306.06435-70.387059 1.419354-153.354756-1.870967-241.096644-5.354835-101.935429-4.064514-237.612775-9.354834-329.806273-1.741935 18.387087 9.999995 37.935463 19.612893 54.903196 27.806437 64.903191 31.612886 115.935421 56.258034 99.032205 99.870913-8.838705 25.548373-35.290304 38.903205-78.645119 39.870947C241.818723 1202.006236 44.399475 1149.103038 8.915623 1059.87728c-19.999989-50.258037-23.29031-147.225727 179.032162-232.9031 83.225761-35.35482 318.322409-78.451571 409.096553-87.419308 25.612889-2.516128 45.225782-7.677415 60.064484-13.225799a4838.707064 4838.707064 0 0 1-63.612869-42.838686c-37.225786 21.225795-98.128979 46.322556-143.612826 15.290314a60.645129 60.645129 0 0 1-28.064501-49.54836c-0.645161-24.838696 14.451605-49.22578 31.354822-68.774157-66.967706-53.548358-121.096709-105.419298-140.322505-145.35476-21.419343-49.161264-30.129016-129.548317 9.870962-207.999888 50.70965-99.612849 162.838622-169.032167 333.290143-206.386985 222.838589-48.709651 415.290098-4.838707 542.644868 62.322547 70.903188 37.354819 121.161225 81.93544 145.612825 121.74187l22.967729-7.290319c10.90322-3.290321 21.80644-6.645158 31.999983-10.258059 33.677401-11.677413 70.967704-10.129027 99.677365 4.387095l1.612903 0.838709c21.677408 11.419349 37.225786 29.677403 44.064492 51.806423 18.387087 59.483839-34.064498 92.387047-65.677384 112.258004" horiz-adv-x="1548.402617074397"/></font>
</defs>
</svg>
