<?xml version="1.0" standalone="no"?>
<!DOCTYPE svg PUBLIC "-//W3C//DTD SVG 1.1//EN" "http://www.w3.org/Graphics/SVG/1.1/DTD/svg11.dtd" >
<svg xmlns="http://www.w3.org/2000/svg">
<metadata>Generated by IcoMoon</metadata>
<defs>
<font id="icomoon" horiz-adv-x="1024">
<font-face units-per-em="1024" ascent="960" descent="-64" />
<missing-glyph horiz-adv-x="1024" />
<glyph unicode="&#x20;" horiz-adv-x="512" d="" />
<glyph unicode="&#xe900;" glyph-name="edit-paper" d="M989.986 642.010l-343.99-343.99-249.992-93.997 93.997 249.992 343.99 345.99q12 14 27.999 19.999t33.999 6q16 0 32.999-6t28.999-19.999l31.999-31.999q12-12 18.999-28.999t7-32.999q0-17.999-7-33.999t-18.999-29.999v0 0zM472.001 280.020l149.995 55.998 10 8-93.997 95.997-10-10-55.998-149.995zM567.998 470.015l93.997-93.997 233.993 235.993-93.997 93.997-233.993-235.993zM957.987 738.007l-29.999 31.999q-8 6-16 9t-16 3-16-3-16-9l-29.999-31.999 91.997-93.997 31.999 31.999q6 6 10 14t4 16q0 10-4 17.999t-10 14v0 0zM154.011 180.023v45.999h217.993l-17.999-45.999h-199.994zM404.003 314.019h-249.993v43.999h267.992l-17.999-43.999zM154.011 626.010h221.993v-43.999h-221.993v43.999zM376.004 448.015h-221.993v43.999h221.993v-43.999zM639.996 226.022v-45.999h-213.994l117.996 45.999h95.997zM529.999 878.002v-161.995q0-10 3-17.999t9-14 14-10 17.999-4h67.998l-43.999-43.999h-23.999q-17.999 0-33.999 7t-27.999 18.999-18.999 27.999-7 35.999v199.994h-397.988q-8 0-16-4t-14-10-10-14-4-17.999v-843.975q0-10 4-17.999t10-14 14-10 16-4h617.981q10 0 17.999 4t14 10 9 14 3 17.999v311.991l43.999 45.999v-357.989q0-19.999-7-35.999t-18.999-27.999-27.999-18.999-33.999-7h-617.981q-17.999 0-33.999 7t-27.999 18.999-18.999 27.999-7 35.999v843.975q0 19.999 7 35.999t18.999 27.999 27.999 18.999 33.999 7h427.987l197.994-215.994-29.999-31.999-153.995 165.995z" />
<glyph unicode="&#xe901;" glyph-name="market" d="M819.052 375.844l124.155 284.513c6.083 13.983 4.941 29.624-3.077 41.825-7.788 11.894-20.634 18.719-35.236 18.719h-585.283l-9.452 42.209c-7.229 32.573-39.506 58.097-73.477 58.097h-149.775c-16.455-0.020-29.788-13.354-29.809-29.807v-0.002c0.017-16.456 13.353-29.791 29.807-29.809h149.777c6.318 0 14.024-5.76 15.278-11.448l113.807-507.259c-36.746-14.592-61.573-51.548-61.573-91.72 0-53.786 43.756-97.541 97.536-97.541 53.786 0 97.546 43.756 97.546 97.541 0 12.411-2.355 24.596-6.897 35.978h201.682c-4.367-10.634-6.902-22.977-6.902-35.913 0-0.023 0-0.046 0-0.069v0.003c0-53.786 43.756-97.541 97.536-97.541 53.791 0 97.546 43.756 97.546 97.541 0 53.78-43.756 97.536-97.546 97.536h-358.948l-21.345 93.455h361.82c22.487-0.005 44.216 13.86 52.828 33.69zM789.386 188.723c18.831-2.314 33.239-18.376 33.239-37.565 0-20.91-17.009-37.919-37.929-37.919-20.91 0-37.919 17.009-37.919 37.919 0.058 16.658 10.807 30.791 25.742 35.899l0.268 0.080c0 0.005 8.166 2.842 16.599 1.587zM332.954 661.284h545.613l-113.254-259.523h-374.272l-58.086 259.523zM401.725 113.239c-20.905 0-37.919 17.009-37.919 37.919 0 18.995 14.239 35.026 32.845 37.53 7.844 0.517 16.988-1.551 16.988-1.551 15.202-5.188 25.952-19.32 26.015-35.971v-0.007c0.005-20.91-17.009-37.919-37.929-37.919z" />
<glyph unicode="&#xe902;" glyph-name="menu" d="M891.842 706.063c0-13.473-9.195-24.396-20.539-24.396h-717.269c-11.343 0-20.539 10.922-20.539 24.396v0c0 13.473 9.195 24.396 20.539 24.396h717.269c11.343 0 20.539-10.922 20.539-24.396v0zM891.842 457.515c0-13.473-9.195-24.396-20.539-24.396h-717.269c-11.343 0-20.539 10.922-20.539 24.396v0c0 13.473 9.195 24.396 20.539 24.396h717.269c11.343 0 20.539-10.922 20.539-24.396v0zM891.842 197.288c0-13.473-9.195-24.396-20.539-24.396h-717.269c-11.343 0-20.539 10.922-20.539 24.396v0c0 13.473 9.195 24.396 20.539 24.396h717.269c11.343 0 20.539-10.923 20.539-24.396v0z" />
<glyph unicode="&#xe903;" glyph-name="message" d="M513.2 791.2c122 0 244 0.1 366-0.1 34.3 0 59.7-15.5 74.9-46.6 5.6-11.5 7.1-23.8 7.1-36.5-0.1-156.4 0-312.7 0-469.1 0-18.7 0.3-37.4-0.2-56.1-1.1-42.2-34.9-75.5-77-76.5h-736c-27.9 0-50.6 10.4-67.3 32.9-10.7 14.4-15.1 30.9-15 48.8 0.1 71.9 0 143.9 0 215.8 0 102-0.1 203.9 0.1 305.9 0.1 34.2 15.7 59.2 46.6 74.3 11.4 5.6 23.8 7.2 36.5 7.2h364.3zM118.5 512.5v-324.9c0-2.8 0.1-5.7 0.8-8.4 3.3-13.1 13.4-20.1 29-20.1h730.5c3.5 0 7 0 10.4 1 12.6 3.6 19.5 13.6 19.5 28.6v325.3c-2.2-1.1-3.8-1.8-5.4-2.6-55.1-28.3-110-56.8-165.2-85-51.1-26.2-102.3-52.1-154.6-76-9.5-4.4-19.2-7-29.9-6.4-11.5 0.6-23 0.3-34.5 0.1-3.8-0.1-7.2 0.7-10.6 2.2-110.2 48.2-220.5 96.3-330.8 144.4-19.5 8.5-39 17-59.2 25.8v-4zM147.7 738.4c-18.7 0-29.3-10.4-29.3-29 0-45.1 0-90.1-0.1-135.2 0-3.5 1-5.1 4.4-6.5 137.8-56.4 275.6-113.1 413.3-169.7 2.7-1.1 4.9-1.1 7.5 0.2 120.2 56 240.5 112 360.8 167.9 3.4 1.6 4.5 3.4 4.4 7.1-0.2 45.1-0.1 90.1-0.1 135.2 0 3.7-0.2 7.4-1.2 10.9-3.4 12.3-13.6 19.2-28.2 19.2h-366c-121.8-0.1-243.6-0.1-365.5-0.1z" />
<glyph unicode="&#xe904;" glyph-name="music" d="M938.323 833.075c0 48.636-13.251 69.070-60.945 61.392l-467.248-101.587c-38.19-6.229-60.945-21.941-60.945-60.945v-446.934c-27.914 24.363-63.921 40.63-101.575 40.63-84.137 0-162.521-76.222-162.521-162.521 0-86.26 78.384-162.52 162.521-162.52s162.52 76.261 162.52 162.52v345.359l467.249 101.576v-264.097c-27.953 23.608-64.952 40.629-101.575 40.629-86.757 0-162.521-75.15-162.521-162.52s75.765-162.521 162.521-162.521c86.755 0 162.519 75.151 162.519 162.521v609.018zM247.609 61.535c-56.006 0-101.576 45.591-101.576 101.576 0 56.026 45.57 101.576 101.576 101.576s101.575-45.55 101.575-101.576c0-55.985-45.57-101.576-101.575-101.576zM410.13 731.937l467.249 101.575v-162.52l-467.249-101.576v162.521zM775.804 122.48c-56.006 0-101.577 45.59-101.577 101.576 0 56.025 45.571 101.576 101.577 101.576s101.575-45.551 101.575-101.576c-0.001-55.986-45.57-101.576-101.575-101.576z" />
<glyph unicode="&#xe905;" glyph-name="search" d="M956.646 10.462c-12.279-12.3-32.188-12.3-44.467 0l-190.058 190.385c-70.532-63.808-163.689-102.997-266.208-102.997-219.682 0-397.77 178.397-397.77 398.459 0 220.060 178.089 398.454 397.77 398.454s397.767-178.394 397.767-398.454c0-94.667-33.103-181.501-88.146-249.863l191.111-191.438c12.28-12.303 12.28-32.246 0-44.547zM455.914 842.792c-191.027 0-345.887-155.125-345.887-346.483 0-191.357 154.86-346.485 345.887-346.485 191.030 0 345.889 155.129 345.889 346.485s-154.859 346.483-345.889 346.483z" />
<glyph unicode="&#xe906;" glyph-name="vip" d="M512.362 39.449c-11.813 0-23.3 4.17-40.959 24.523l-160.27 184.355c-99.61 114.523-185.635 213.428-225.816 260.193l-0.92 1.070-0.764 1.188c-22.804 35.422-22.599 71.155 0.56 98.065 20.638 24.551 63.714 74.294 105.373 122.4 35.671 41.181 66.874 77.232 87.473 101.371 17.699 20.715 30.497 23.569 41.691 23.569 1.575 0.003 163.376 0.369 276.846 0.369 64.305 0 103.373-0.126 110.010-0.353 18.575-0.73 27.060-9.003 41.673-24.794 35.992-38.799 117.092-133.625 160.661-184.571 15.488-18.1 27.703-32.367 32.317-37.644l0.343-0.402c24.512-29.536 19.941-74.772 0.295-98.49l-0.235-0.278c-45.648-53.146-131.764-152.144-222.936-256.953l-164.379-189.109c-17.725-20.408-28.814-24.508-40.961-24.508zM117.327 534.074c40.502-47.12 125.915-145.322 224.69-258.885l160.291-184.377c5.201-5.995 8.439-8.764 10.088-9.977 1.639 1.225 4.846 4.002 10.030 9.97l164.389 189.12c91.039 104.657 177.031 203.511 222.632 256.6 7.483 9.186 11.162 32.008-0.222 45.951-4.886 5.596-17.051 19.804-32.408 37.753-43.385 50.728-124.136 145.147-159.584 183.359-2.329 2.516-9.182 9.922-11.751 11.616-0.393 0.043-0.878 0.076-1.368 0.092l-0.033 0.001c-2.148 0.074-16.629 0.325-108.504 0.325-113.424 0-275.178-0.365-276.799-0.369-0.252 0-0.536 0-0.759-0.003-0.852-0.448-4.041-2.415-9.849-9.214-20.682-24.236-51.937-60.347-87.661-101.589-41.618-48.059-84.655-97.756-105.065-122.039l-0.177-0.208c-10.791-12.495-10.094-28.681 2.060-48.125zM689.083 581.283l-177.287-227.051-177.058 227.668c-1.809 2.846-2.356 2.846-4.92 2.846h-86.383v-39.919h2.073c16.331 0 22.385-4.248 29.085-13.189 0.657-0.897 1.431-1.921 2.972-3.827 38.937-52.94 191.545-238.402 234.618-296.163 43.058 57.802 195.568 243.392 235.024 296.894 0.955 1.133 1.699 2.143 2.356 3.026 6.743 8.984 12.812 13.26 29.070 13.26h1.962v39.986h-86.072c-2.426 0.001-3.154 0.001-5.439-3.529z" />
<glyph unicode="&#xe907;" glyph-name="wangyiyun" d="M759.76 504.331c-43.949 43.949-101.247 69.684-162.749 73.459-4.008 11.104-7.612 23.171-10.674 36.622-4.454 19.574-7.754 42.090-9.46 68.855-0.416 6.531-0.738 13.315-0.958 20.372-0.213 6.844-0.331 13.947-0.347 21.321-0.025 0.003-0.049 0.006-0.074 0.010 0.020 0.187 0.050 0.371 0.072 0.559 4.86 42.591 41.697 75.613 85.847 74.349 31.111-0.89 58.26-18.992 71.987-45.162l41.499 7.974c-16.332 40.666-53.536 70.798-98.367 76.948-72.050 9.882-134.525-42.155-141.758-110.434-0.060-0.571-0.098-2.041-0.12-2.616l-0.001-5.501c0.015-4.864 0.132-12.436 0.443-21.152 0.151-4.246 0.345-8.43 0.571-12.566 2.287-41.864 8.385-78.209 18.47-110.288 0.024-0.074 0.047-0.146 0.071-0.22-22.881-2.416-45.088-7.902-66.143-16.243l-0.015-0.002-0.028-0.014c-31.609-12.528-60.62-31.504-85.386-56.271l7.859 7.032c-33.52-32.711-54.371-78.35-54.371-128.775 0-24.524 4.936-47.913 13.857-69.239 21.279-50.871 65.263-89.962 119.215-104.547 14.19-4.429 29.272-6.816 44.902-6.816 8.331 0 16.503 0.69 24.471 1.993 71.663 11.729 126.527 74.076 126.527 149.006 0 17.117-2.868 33.576-8.14 48.926-10.829 44.82-28.258 75.357-45.254 105.107-5.182 9.072-10.312 18.055-15.243 27.389 8.403-1.416 16.64-3.328 24.679-5.706 87.569-25.91 151.651-107.072 151.651-202.931 0-49.341-16.98-94.79-45.398-130.816-20.174-22.572-43.752-42.034-69.924-57.579-44.127-26.21-95.605-41.289-150.547-41.289-22.579 0-44.572 2.554-65.715 7.37-131.535 29.964-229.998 147.867-229.998 288.343 0 146.336 106.853 268.165 246.629 291.615l-5.393 40.646c-69.060-11.172-132.731-43.522-183.228-93.879-63.059-62.885-98.735-148.53-98.939-237.586-0.208-90.504 35.052-175.608 99.21-239.448 63.884-63.568 150.944-98.92 241.061-97.973 60.084 0.63 117.658 16.918 168.064 46.909 22.253 11.715 42.859 26.839 61.148 45.128 6.619 6.619 12.809 13.551 18.588 20.743 35.874 44.641 55.373 99.727 55.373 157.818 0 25.756-3.841 50.918-11.232 74.846-11.964 38.736-33.247 74.231-62.731 103.714zM422.406 522.020c0.636 0.521 1.283 1.029 1.927 1.542-0.688-0.546-1.372-1.097-2.052-1.653l0.125 0.111zM637.597 390.445c2.74-11.648 4.97-24.378 6.554-38.533-0.517-53.82-39.853-98.52-91.297-107.389-5.485-0.66-11.064-1.009-16.723-1.009-12.177 0-23.991 1.579-35.255 4.532-59.668 15.647-103.817 70.033-103.817 134.541 0 18.45 3.62 36.067 10.173 52.192 8.318 20.469 21.37 38.529 37.798 52.803 2.895 2.441 5.852 4.809 8.877 7.094 32.541 24.585 72.376 39.998 115.633 42.359 3.64-7.971 7.414-15.494 11.251-22.73 4.088-7.709 8.248-15.096 12.389-22.366 0.996-1.748 1.99-3.489 2.983-5.227 16.327-28.576 31.948-55.945 41.435-96.267z" />
<glyph unicode="&#xe908;" glyph-name="coin" horiz-adv-x="1032" d="M30.34 724.86c0-125.676 220.74-227.556 493.038-227.556s493.038 101.88 493.038 227.556v0c0 125.675-220.74 227.556-493.037 227.556s-493.037-101.88-493.037-227.556v0zM523.378 398.696c-212.385 0-386.845 60.682-462.697 144.119-22.755-30.34-30.34-53.096-30.34-83.437 0-121.363 219.97-227.556 493.037-227.556s493.037 98.608 493.037 227.556c0 30.34-15.17 53.096-30.34 83.437-75.853-83.437-250.312-144.119-462.697-144.119zM523.378 125.63c-212.385 0-386.845 60.681-462.697 144.118-22.755-22.755-30.34-53.096-30.34-83.437 0-121.363 219.97-227.555 493.037-227.555s493.037 98.607 493.037 227.555c0 30.34-15.17 53.096-30.34 83.437-75.853-83.437-250.312-144.118-462.697-144.118z" />
<glyph unicode="&#xe909;" glyph-name="place" d="M511.955 703.84c-75.405 0-136.744-60.235-136.744-134.25 0-74.001 61.339-134.171 136.744-134.171 75.4 0 136.708 60.17 136.708 134.171 0 74.020-61.308 134.25-136.708 134.25zM511.955 494.864c-41.918 0-76.019 33.532-76.019 74.755 0 41.214 34.101 74.76 76.019 74.76 41.888 0 75.984-33.546 75.984-74.76 0-41.223-34.096-74.755-75.984-74.755zM832 549.665c0 173.331-143.571 314.335-320.045 314.335-176.444 0-319.955-141.005-319.955-314.335 0-135.94 197.033-409.856 281.793-521.294 8.922-11.759 23.202-18.747 38.162-18.747 14.925 0 29.235 6.988 38.192 18.747 84.731 111.438 281.853 385.32 281.853 521.294zM517 75.948l-5.045-6.708-5.050 6.708c-160.005 212.607-259.476 394.14-259.476 473.716 0 143.276 118.641 259.845 264.525 259.845 145.848 0 264.496-116.57 264.496-259.845 0.029-79.606-99.381-261.11-259.451-473.716z" />
<glyph unicode="&#xe90a;" glyph-name="SHARE2" d="M658.268 567.747c55.644 0 100.905 45.261 100.905 100.884 0 55.644-45.261 100.905-100.905 100.905-55.624 0-100.884-45.261-100.884-100.905 0-13.087 2.683-25.498 7.25-36.987l-200.417-116.244c-18.289 18.432-43.602 29.88-71.537 29.88-55.624 0-100.884-45.261-100.884-100.884 0-55.644 45.261-100.905 100.884-100.905 28.365 0 53.944 11.878 72.294 30.802l198.738-125.256c-3.85-10.67-6.308-21.996-6.308-33.976 0-55.624 45.261-100.884 100.884-100.884 55.644 0 100.905 45.261 100.905 100.884 0 55.644-45.261 100.905-100.905 100.905-28.918 0-54.845-12.39-73.257-31.949l-198.226 124.948c4.178 11.080 6.758 22.938 6.758 35.451 0 12.923-2.662 25.17-7.107 36.536l200.602 116.347c18.227-18.268 43.418-29.553 71.209-29.553zM658.268 274.985c33.055 0 59.945-26.89 59.945-59.945 0-33.034-26.89-59.924-59.945-59.924-33.034 0-59.924 26.89-59.924 59.924 0 11.018 3.195 21.217 8.397 30.085 0.164 0.225 0.369 0.389 0.532 0.635 0.225 0.348 0.225 0.758 0.43 1.106 10.588 16.835 29.225 28.119 50.565 28.119zM292.659 384.43c-33.034 0-59.924 26.89-59.924 59.945 0 33.034 26.89 59.924 59.924 59.924 19.538 0 36.762-9.544 47.718-24.064 0.287-0.655 0.307-1.352 0.676-1.966 0.963-1.679 2.15-3.133 3.482-4.424 4.977-8.745 8.069-18.698 8.069-29.45 0-11.756-3.523-22.671-9.4-31.928-0.041-0.061-0.102-0.082-0.143-0.143-0.082-0.123-0.061-0.246-0.143-0.369-10.711-16.527-29.184-27.525-50.258-27.525zM658.268 728.556c33.055 0 59.945-26.89 59.945-59.945 0-33.034-26.89-59.924-59.945-59.924-33.034 0-59.924 26.89-59.924 59.924 0 33.075 26.87 59.945 59.924 59.945z" />
<glyph unicode="&#xe90b;" glyph-name="zuijinplay" d="M510.469 896.174c-246.287 0-446.664-200.356-446.664-446.643 0-246.292 200.376-446.648 446.664-446.648 15.518 0 28.099 12.58 28.099 28.099s-12.58 28.099-28.099 28.099v0c-215.301 0-390.467 175.15-390.467 390.451s175.165 390.451 390.467 390.451 390.467-175.15 390.467-390.451c0-15.518 12.58-28.099 28.099-28.099s28.099 12.58 28.099 28.099v0c0 246.287-200.376 446.643-446.664 446.643zM510.469 803.159c-15.518 0-28.099-12.58-28.099-28.099v0-325.53l0.005-0.128c0.005-0.881 0.046-1.761 0.133-2.637 0.041-0.435 0.123-0.86 0.184-1.295 0.072-0.476 0.123-0.952 0.215-1.423 0.097-0.492 0.23-0.968 0.353-1.454 0.102-0.404 0.189-0.809 0.312-1.208 0.148-0.481 0.328-0.947 0.497-1.423 0.143-0.389 0.271-0.783 0.43-1.167 0.189-0.456 0.41-0.891 0.62-1.336 0.184-0.384 0.353-0.773 0.553-1.152 0.241-0.451 0.512-0.876 0.778-1.311 0.21-0.348 0.404-0.701 0.635-1.039 0.353-0.527 0.742-1.029 1.126-1.531 0.169-0.22 0.323-0.456 0.502-0.671 1.188-1.449 2.519-2.78 3.968-3.968 0.23-0.189 0.471-0.348 0.707-0.527 0.492-0.379 0.978-0.758 1.495-1.101 0.348-0.23 0.707-0.43 1.065-0.645 0.43-0.261 0.85-0.527 1.29-0.763 0.384-0.205 0.773-0.374 1.162-0.563 0.44-0.21 0.87-0.43 1.326-0.614 0.389-0.159 0.788-0.292 1.183-0.435 0.466-0.169 0.927-0.348 1.408-0.492 0.404-0.123 0.819-0.21 1.229-0.317 0.476-0.123 0.947-0.256 1.434-0.353 0.481-0.097 0.968-0.154 1.454-0.22 0.42-0.061 0.835-0.138 1.265-0.184 0.831-0.088 1.794-0.138 2.77-0.138s1.939 0.050 2.889 0.148l-0.119-0.010c0.425 0.041 0.84 0.123 1.265 0.184 0.486 0.072 0.973 0.128 1.454 0.22 0.486 0.097 0.957 0.23 1.434 0.353 0.41 0.102 0.819 0.195 1.229 0.317 0.476 0.143 0.937 0.323 1.408 0.492 0.394 0.143 0.794 0.271 1.183 0.435 0.451 0.184 0.881 0.404 1.316 0.609 0.394 0.184 0.788 0.358 1.172 0.563 0.435 0.23 0.85 0.497 1.27 0.748 0.364 0.22 0.732 0.425 1.085 0.66 0.492 0.328 0.963 0.696 1.434 1.055 0.256 0.195 0.522 0.374 0.773 0.579 0.766 0.63 1.454 1.254 2.109 1.91l185.999 185.984c5.084 5.084 8.229 12.108 8.229 19.866 0 15.516-12.578 28.094-28.094 28.094-7.758 0-14.782-3.145-19.866-8.229l-138.071-138.056v257.705c-0.003 15.517-12.581 28.096-28.098 28.099v0zM928.794 240.594l-263.537 170.522c-4.309 2.82-9.586 4.498-15.256 4.498-4.925 0-9.555-1.266-13.581-3.491l0.145 0.073c-8.804-4.854-14.669-14.075-14.669-24.666 0-0.004 0-0.009 0-0.013v0.001-341.043c0-0.005 0-0.010 0-0.015 0-15.51 12.573-28.083 28.083-28.083 0.005 0 0.011 0 0.016 0h-0.001c5.325 0 10.634 1.516 15.268 4.5l263.537 170.522c7.769 5.088 12.83 13.751 12.83 23.596 0 9.848-5.063 18.513-12.728 23.534l-0.107 0.066zM678.088 98.115v237.763l183.721-118.881-183.721-118.881z" />
<glyph unicode="&#xe90c;" glyph-name="diantai" d="M879.232 244.608c40.64 66.752 62.528 143.488 62.528 223.36 0 237.312-192.384 429.76-429.76 429.76-237.312 0-429.696-192.384-429.696-429.76 0-75.84 19.712-148.864 56.576-213.248 7.936-13.76 25.344-18.496 39.104-10.624 13.696 7.808 18.496 25.344 10.624 39.040-32 55.744-49.024 119.040-49.024 184.832 0 205.632 166.784 372.416 372.416 372.416 205.76 0 372.352-166.784 372.352-372.416 0-69.312-18.88-135.744-54.144-193.536-8.256-13.504-4.032-31.104 9.472-39.424 13.568-8.192 31.168-3.904 39.552 9.6zM732.224 346.56c24.512 40.064 37.632 86.144 37.632 134.080 0 142.464-115.392 257.856-257.856 257.856-142.4 0-257.792-115.392-257.792-257.856 0-45.504 11.84-89.344 33.92-128 7.872-13.76 25.344-18.432 39.104-10.56 13.76 7.808 18.496 25.344 10.688 39.040-17.28 30.080-26.496 64.064-26.496 99.52 0 110.784 89.856 200.512 200.576 200.512s200.512-89.728 200.512-200.512c0-37.312-10.112-73.152-29.12-104.256-8.256-13.504-4.032-31.104 9.472-39.36 13.632-8.256 31.232-3.968 39.36 9.536zM678.144 308.48c-1.984 9.792-6.976 19.392-15.488 28.544-8.512 9.536-16.256 16.448-23.296 20.736s-14.080 7.872-21.248 10.816c-7.104 3.008-14.848 6.272-23.104 9.856-8.384 3.52-17.92 9.344-28.992 17.472-12.864 8.768-23.104 17.792-30.656 27.008-7.552 9.152-13.888 17.344-19.072 24.576-4.928 7.040-14.976 21.952-19.84 26.048v-0.448c-3.904 4.864-9.728 8.128-16.512 8.128-12.032 0-21.696-9.6-21.696-21.504v-308.352c-19.2 11.712-43.136 18.88-69.632 18.88-62.144 0-112.576-38.528-112.576-86.016s50.432-85.952 112.576-85.952c62.144 0 112.512 38.464 112.512 85.952 0 0 0.512 9.408 0.512 10.304v274.56c0.576 4.864 2.368 6.336 4.224 7.104 4.48 2.112 10.624-0.512 18.752-7.936 8.384-8.448 19.008-17.536 31.68-27.264 12.736-9.728 27.264-16.192 43.968-19.328 15.744-2.88 27.392-7.552 35.008-14.080 7.488-6.592 12.224-16.768 14.016-30.528 1.152-8.576 2.752-14.4 4.736-17.472 1.984-3.2 4.224-4.928 6.848-5.312 2.624-0.32 5.76 2.048 9.344 7.168s6.4 11.84 7.872 19.904c1.92 8.128 1.792 17.152 0.064 27.136z" />
<glyph unicode="&#xe90d;" glyph-name="collect" d="M915.2 233.6c-6.4 22.4-28.8 41.6-51.2 44.8l-48 6.4c-6.4 0-12.8 6.4-16 9.6l-22.4 44.8c-9.6 22.4-32 35.2-57.6 35.2s-48-12.8-57.6-35.2l-22.4-41.6c-3.2-6.4-9.6-9.6-16-9.6l-48-6.4c-25.6-3.2-44.8-19.2-51.2-44.8-6.4-22.4 0-48 16-67.2l35.2-35.2c3.2-3.2 6.4-9.6 6.4-16l-6.4-48c-3.2-25.6 6.4-48 25.6-64s44.8-16 67.2-6.4l38.4 19.2c9.6 3.2 19.2 3.2 25.6 0l38.4-19.2c9.6-6.4 19.2-6.4 28.8-6.4 12.8 0 25.6 3.2 38.4 12.8 19.2 16 28.8 38.4 25.6 64l-6.4 41.6c-3.2 9.6 0 19.2 9.6 25.6l32 32c16 16 22.4 41.6 16 64zM873.6 195.2l-32-32c-16-16-22.4-35.2-19.2-57.6l9.6-41.6c3.2-9.6-3.2-22.4-12.8-28.8s-19.2-6.4-28.8-3.2l-38.4 19.2c-9.6 6.4-19.2 6.4-28.8 6.4s-19.2-3.2-28.8-6.4l-41.6-19.2c-9.6-6.4-22.4-3.2-28.8 3.2-9.6 6.4-12.8 16-12.8 28.8l9.6 48c3.2 19.2-3.2 35.2-16 48l-35.2 35.2c-9.6 6.4-9.6 19.2-6.4 28.8s12.8 19.2 22.4 19.2l48 6.4c19.2 3.2 32 12.8 41.6 28.8l22.4 44.8c6.4 9.6 16 16 25.6 16s22.4-6.4 25.6-16l22.4-44.8c6.4-16 22.4-28.8 41.6-28.8l48-6.4c9.6-3.2 19.2-9.6 22.4-19.2 0-9.6-3.2-22.4-9.6-28.8zM793.6 643.2c0 150.4-121.6 272-272 272s-272-121.6-272-272c0-105.6 60.8-198.4 150.4-243.2-166.4-51.2-297.6-198.4-297.6-352 0-12.8 9.6-25.6 25.6-25.6 12.8 0 25.6 9.6 25.6 25.6 0 163.2 185.6 323.2 371.2 323.2 147.2 0 268.8 121.6 268.8 272zM521.6 419.2c-124.8 0-224 99.2-224 224s99.2 224 224 224 224-99.2 224-224-102.4-224-224-224z" />
<glyph unicode="&#xe90e;" glyph-name="wangyi" d="M636 554.7c9-38.8 19.2-74.3 25.3-110.4 15.9-93.8-52.5-152.7-116.4-164-75.7-13.4-149.3 37.4-166.8 115.6-22.9 102.1 26.5 194.2 124.4 232.1 6 2.3 12 4.8 20.3 8-3.5 13.1-6.7 26.5-10.6 39.7-27.2 91.8 60.2 175.9 151 151.6 24.9-6.6 48.6-20.5 70.3-35 22-14.7 23.9-41.8 8.5-61.4-15-19.1-40.9-21.2-62.5-6.6-11 7.5-23.2 14.4-35.8 18-28.1 7.9-49.1-9.7-46.3-38.8 1.6-17 6.9-33.8 11.6-50.4 0.9-3.3 6.6-7.4 10.3-7.6 172.5-10.7 319.5-231.4 182-437.8-105.4-158.1-337.7-191.2-491.3-71.6-217.2 169.1-177.9 503.9 72.9 617.4 12.9 5.8 27.9 10.1 41.7 9.7 19-0.6 32.9-17.4 35.9-36.5 2.9-18.7-6.7-35.6-24.5-45.2-25.1-13.6-52.5-24.6-74.4-42.2-90-72.8-124.5-168.1-97-280.4 26.9-109.8 97.5-181.5 210.2-202.9 104.2-19.8 226.4 21.6 275.9 139.4 39.3 93.4 12.8 194.6-86.1 248.5-8.6 4.6-18.4 7-28.6 10.8zM545.8 550.7c-27-8.2-48.3-21.3-64.6-41.7-25.9-32.5-28.7-86.7-6.4-118.9 13.8-19.9 35.2-28.4 57.9-22.9 23.3 5.6 36.7 20.2 39.4 45.5 1.3 12.2 1.8 25.2-0.8 37.1-7.4 33.1-16.5 65.9-25.5 100.9z" />
<glyph unicode="&#xe90f;" glyph-name="share" d="M658.268 567.747c55.644 0 100.905 45.261 100.905 100.884 0 55.644-45.261 100.905-100.905 100.905-55.624 0-100.884-45.261-100.884-100.905 0-13.087 2.683-25.498 7.25-36.987l-200.417-116.244c-18.289 18.432-43.602 29.88-71.537 29.88-55.624 0-100.884-45.261-100.884-100.884 0-55.644 45.261-100.905 100.884-100.905 28.365 0 53.944 11.878 72.294 30.802l198.738-125.256c-3.85-10.67-6.308-21.996-6.308-33.976 0-55.624 45.261-100.884 100.884-100.884 55.644 0 100.905 45.261 100.905 100.884 0 55.644-45.261 100.905-100.905 100.905-28.918 0-54.845-12.39-73.257-31.949l-198.226 124.948c4.178 11.080 6.758 22.938 6.758 35.451 0 12.923-2.662 25.17-7.107 36.536l200.602 116.347c18.227-18.268 43.418-29.553 71.209-29.553zM658.268 274.985c33.055 0 59.945-26.89 59.945-59.945 0-33.034-26.89-59.924-59.945-59.924-33.034 0-59.924 26.89-59.924 59.924 0 11.018 3.195 21.217 8.397 30.085 0.164 0.225 0.369 0.389 0.532 0.635 0.225 0.348 0.225 0.758 0.43 1.106 10.588 16.835 29.225 28.119 50.565 28.119zM292.659 384.43c-33.034 0-59.924 26.89-59.924 59.945 0 33.034 26.89 59.924 59.924 59.924 19.538 0 36.762-9.544 47.718-24.064 0.287-0.655 0.307-1.352 0.676-1.966 0.963-1.679 2.15-3.133 3.482-4.424 4.977-8.745 8.069-18.698 8.069-29.45 0-11.756-3.523-22.671-9.4-31.928-0.041-0.061-0.102-0.082-0.143-0.143-0.082-0.123-0.061-0.246-0.143-0.369-10.711-16.527-29.184-27.525-50.258-27.525zM658.268 728.556c33.055 0 59.945-26.89 59.945-59.945 0-33.034-26.89-59.924-59.945-59.924-33.034 0-59.924 26.89-59.924 59.924 0 33.075 26.87 59.945 59.924 59.945z" />
<glyph unicode="&#xe910;" glyph-name="play" d="M147.692-54.154c-4.864 0-9.728 1.201-14.159 3.623-9.472 5.159-15.38 15.104-15.38 25.915v945.231c0 10.811 5.908 20.756 15.38 25.915 9.492 5.159 21.031 4.785 30.129-1.083l735.173-472.615c8.448-5.435 13.548-14.789 13.548-24.852s-5.12-19.397-13.548-24.852l-735.173-472.615c-4.844-3.092-10.398-4.667-15.97-4.667zM177.231 866.501v-837.022l651.028 418.521-651.028 418.501z" />
<glyph unicode="&#xe911;" glyph-name="list-circle" d="M633.289 102.625c0-67.256-54.801-122.059-122.059-122.059-67.256 0-122.059 54.803-122.059 122.059 0 67.258 54.802 122.060 122.059 122.060 67.26 0 122.059-54.802 122.059-122.060zM633.289 446.385c0-67.258-54.801-122.060-122.059-122.060-67.256 0-122.059 54.802-122.059 122.060 0 67.256 54.802 122.059 122.059 122.059 67.26 0 122.059-54.803 122.059-122.059zM633.289 790.142c0-67.256-54.801-122.059-122.059-122.059-67.256 0-122.059 54.803-122.059 122.059 0 67.258 54.802 122.059 122.059 122.059 67.26 2.491 122.059-54.801 122.059-122.059z" />
<glyph unicode="&#xe912;" glyph-name="close" d="M832 96c-8 0-16 3.2-22.4 9.6l-640 640c-12.8 12.8-12.8 32 0 44.8s32 12.8 44.8 0l640-640c12.8-12.8 12.8-32 0-44.8-6.4-6.4-14.4-9.6-22.4-9.6zM192 96c-8 0-16 3.2-22.4 9.6-12.8 12.8-12.8 32 0 44.8l640 640c12.8 12.8 32 12.8 44.8 0s12.8-32 0-44.8l-640-640c-6.4-6.4-14.4-9.6-22.4-9.6z" />
<glyph unicode="&#xe913;" glyph-name="add-project" d="M869.44 85.696h-707.84c-50.432 0-91.52 41.088-91.52 91.584v543.232c0 50.496 41.088 91.52 91.52 91.52h602.432v-166.464c0-15.232 12.352-27.584 27.584-27.584h169.408v-440.704c0-50.56-41.088-91.584-91.584-91.584zM161.6 748.032c-15.199 0-27.52-12.321-27.52-27.52v0-543.232c0-15.168 12.352-27.584 27.52-27.584h707.84c15.22 0.036 27.548 12.364 27.584 27.581v376.707h-105.408c-50.551 0.073-91.511 41.033-91.584 91.577v102.471h-538.432zM763.904 747.968h63.872v-64h-63.872zM828.352 681.472h63.872v-63.936h-63.872zM648 448.896c-0.036-17.292-14.063-31.296-31.36-31.296 0 0 0 0 0 0h-257.28c-16.699 0.778-29.944 14.507-29.944 31.328s13.244 30.55 29.874 31.325l0.070 0.003h257.28c17.32 0 31.36-14.040 31.36-31.36v0zM488 288.896c0 0 0 0 0 0-17.262 0-31.26 13.975-31.296 31.229v257.411c0.778 16.699 14.507 29.944 31.328 29.944s30.55-13.244 31.325-29.874l0.003-0.070v-257.408c-0.073-17.265-14.085-31.232-31.36-31.232 0 0 0 0 0 0v0z" />
<glyph unicode="&#xe914;" glyph-name="setting" d="M946.367 469.895c0.020 21.85-13.040 38.49-31.74 41.57-18.69 3.070-79.050 13.010-85.99 14.14-6.95 1.15-14.090 8.070-15.4 11.45-1.32 3.37-8.94 22.2-11.87 29.46-2.95 7.27-1.92 16.58 4.39 25.52 6.3 8.93 39.9 55.87 48.38 67.72 8.49 11.87 8.65 34.61-4.84 48.39-13.48 13.78-47.75 47.090-56.73 55.86-8.99 8.76-31.080 8.64-42.67 0.43-11.58-8.2-71.69-51.010-71.69-51.010s-9.97-6.89-20.67-2.64c-10.7 4.24-33.43 14.070-33.43 14.070s-7.19 5.43-9.68 19.79c-2.5 14.37-11.11 65.28-14.070 82.7-2.97 17.42-20.67 29.62-37.83 29.46-17.16-0.14-57.91 0-74.33 0s-32.26-15.68-34.75-29.46c-2.49-13.79-11.56-69.16-14.070-84.45-2.52-15.3-11.44-18.48-11.44-18.48s-19.56-8.060-29.91-12.31c-10.34-4.26-15.39-2.64-30.35 7.48-14.95 10.11-44.74 31.030-63.040 43.83-18.3 12.81-38.12 7.92-49.26-3.52s-36.060-35.77-51.020-50.43c-14.95-14.66-12.61-37.54 0.58-55.71 13.2-18.18 32.34-45.43 41.35-58.21s10.84-19.5 8.36-26.82c-2.49-7.34-6.64-16.58-11.43-27.72-4.81-11.13-9.69-13.64-27.86-17.010-17.36-3.21-58.42-9.92-77.4-13.31-18.99-3.37-30.66-21.43-30.66-41.81v-64.66c0-24.34 13.2-37.24 38.42-41.93s62.66-10.66 74.77-12.61c12.1-1.95 17.67-6.6 21.41-15.54 3.73-8.94 5.13-10.12 9.37-22.57 4.26-12.47 6.46-15.55-4.98-31.67-11.44-16.13-34.31-48.11-46.030-64.51-11.74-16.4-6.45-37.83 4.98-49.85 11.44-12.030 35.47-35.64 48.97-48.97 13.49-13.33 35.19-16.28 53.36-3.52 18.19 12.75 54.98 38.99 65.69 46.62 10.7 7.63 21.91 5.28 27.85 2.94 5.94-2.35 11.25-4.6 22-9.1 10.73-4.48 13.85-11.2 16.41-23.45 2.57-12.24 10.19-56.85 13.93-78.59 3.75-21.72 18.91-33.43 40.62-33.72 21.7-0.29 33.27-0.12 61.57 0 28.29 0.13 41.86 12.61 45.45 31.38 3.59 18.76 12.45 72.94 14.22 83.72 1.78 10.76 5.94 14.73 13.63 18.47 7.7 3.74 14.32 6.47 26.84 11.88 12.51 5.4 18.91 0.66 27.7-5.72 8.8-6.39 47.51-33.78 63.78-45.31 16.28-11.53 36.73-10.33 51.9 4.4 15.18 14.73 31.62 30.99 49.27 48.38 17.64 17.4 12.16 39.59 4.4 51.46-7.77 11.88-44.49 62.95-49.71 70.23-5.21 7.28-4.4 18.62-1.75 24.63 2.64 6.010 8.44 18.24 11.72 25.22 3.29 6.97 9.6 11.22 18.18 12.9 8.58 1.69 62.72 11 83.75 14.61 21.030 3.64 31.11 19.92 31.26 39.92 0.15 20.020 0.070 48.61 0.090 65.98zM908.587 402.615c0.21-5.76-4.66-10.65-8.82-11.38-4.17-0.73-63.26-11.38-81.48-14.29-18.21-2.92-33.23-15.070-38.72-28.060-3.98-9.44-5.47-13.51-10.59-26.96-5.12-13.44-4.64-32.19 2.56-42.26 7.2-10.080 46.82-64.9 50.38-70.45s4.27-11.95-1.28-17.5-40.99-41.2-47.39-47.39c-6.41-6.19-11.83-4.8-18.79 0-6.95 4.8-39.61 26.39-64.44 44.36-16.96 12.28-32.82 12.43-48.7 6.020-15.87-6.42 1.28 0.28-22.2-8.97s-30.23-27.62-33.73-48.24c-3.5-20.63-10.67-62.98-11.95-70.45s-5.55-11.1-13.66-11.1h-64.9c-8.11 0-11.74 2.99-14.52 11.95-2.77 8.97-10.030 54.87-12.8 74.29-2.78 19.43-13.82 36.12-24.77 40.56-10.94 4.45-4.98 2.14-27.32 11.1-22.34 8.97-39.63 4.5-51.23-3.84-11.61-8.34-58.64-42.69-65.33-46.96-6.68-4.28-14.65-3.28-18.35 0.42s-40.56 40.56-46.54 46.54c-5.98 5.98-5.36 12.92 0 20.49 5.36 7.58 28.39 40.76 40.99 57.95 12.59 17.2 17.93 34.74 9.82 53.49-8.12 18.74-4.42 10.24-12.39 28.6-7.96 18.36-24.28 24.46-38.42 26.9-14.14 2.43-68.88 11.53-76.85 13.23-7.97 1.71-11.95 7.26-11.95 14.090v66.18c0 9.53 7.67 12.44 12.38 13.23 4.7 0.8 54.22 9.18 73 12.39 18.79 3.2 36.36 11.32 43.55 29.030 7.19 17.7 4.27 11.1 11.1 27.32 6.83 16.23 3.8 33.94-7.68 49.96-11.49 16.010-38.85 54-44.4 61.9s-5.77 12.6 0.85 19.21c6.62 6.62 42.050 42.48 46.96 46.97 4.91 4.48 12.070 5.4 18.36 0.85 6.3-4.55 49.31-35.65 64.040-46.11s32.35-12.56 49.1-5.55c16.75 7.020 10.25 4.48 26.9 11.1s24.84 19.090 28.18 39.71c3.33 20.61 11.95 74.14 12.81 77.7 0.85 3.55 5.55 10.46 11.74 10.46s65.82-0.070 69.8 0c3.99 0.070 10.3-3.29 11.32-9.18 1.020-5.9 13.020-74.29 14.94-86.25 1.92-11.95 15.58-28.57 25.54-32.73s21.35-8.75 31.31-13.090c9.97-4.34 30.13-1.91 36.15 2.28 6.030 4.18 70.52 48.81 75.43 52.37s11.52 3.27 17.64-2.85 43.34-43.19 47.54-47.53c4.19-4.34 4.66-8.66 1.14-13.66-3.53-5.010-36.72-51.8-47.54-67.46-10.81-15.65-11.73-33.73-5.41-48.96 6.33-15.22 3.99-9.39 9.11-21.91 5.13-12.53 16.28-29.030 33.59-31.88s76.92-12.74 84.82-13.95c7.9-1.21 11.1-7.18 11.1-13.37s-0.21-62.55 0-68.32zM526.833 637.195c-110.45 0-200-89.54-200-200s89.55-200 200-200c110.46 0 200 89.54 200 200s-89.54 200-200 200zM526.833 272.195c-91.12 0-165 73.87-165 165s73.88 165 165 165c91.13 0 165-73.87 165-165s-73.87-165-165-165z" />
<glyph unicode="&#xe915;" glyph-name="theme" d="M939.941 507.642l-119.444-105.381c-13.289-11.742-31.38-13.79-46.808-7.691v-276.161c0-37.683-30.561-68.267-68.267-68.267h-386.844c-37.706 0-68.267 30.583-68.267 68.267v277.345c-15.633-7.077-34.475-4.983-48.105 7.236l-118.283 105.882c-18.66 16.703-20.434 45.602-3.982 64.535l223.642 260.915c4.301 4.961 9.512 8.374 15.064 10.786 0 0.25-0.023 0.478-0.023 0.705h46.694c6.258-75.913 69.154-135.782 146.682-135.782s140.425 59.87 146.682 135.782h46.694c-0.046-1.525 0 0-0.046-1.525 4.733-2.367 9.011-8.465 12.789-12.743l225.826-259.686c16.634-18.819 14.837-47.559-4.005-64.216zM904.784 562.597l-206.461 233.995c-21.754-76.208-91.75-132.050-174.945-132.050h-22.756c-84.719 0-155.716 57.958-176.014 136.306l-205.892-236.726c-8.215-9.466-7.327-23.916 2.002-32.267l99.351-89.475c8.829-7.919 21.868-7.236 30.242 0.796v39.344c0 12.584 10.172 22.756 22.756 22.756 9.057 0 16.725-5.393 20.389-13.062l2.367-9.694v-341.333c0-25.122 20.389-45.511 45.511-45.511h341.333c25.122 0 45.511 20.389 45.511 45.511v341.333l1.411 7.077c3.004 9.034 11.264 15.679 21.345 15.679 12.584 0 22.756-10.172 22.756-22.756v-41.643c8.465-6.531 20.412-6.781 28.74 0.546l100.352 89.042c9.421 8.329 10.308 22.71 2.002 32.131z" />
<glyph unicode="&#xe916;" glyph-name="friend" d="M703.791 307.082c4.399-3.227 9.772-5.191 15.641-5.191 14.661 0 26.55 11.891 26.55 26.555 0 9.216-4.704 17.328-11.841 22.087l0.020 0.030c-31.683 21.487-66.577 38.59-103.804 50.463 85.667 44.51 144.228 133.998 144.228 237.226 0 147.589-119.647 267.241-267.241 267.241s-267.248-119.652-267.248-267.241c0-103.221 58.555-192.703 144.217-237.221-162.678-51.852-280.691-203.727-281.691-383.367-0.005-0.195 0.087-2.3 0.115-2.309 0.911-13.857 12.326-24.838 26.409-24.838s25.718 11.015 26.637 24.864c0 194.144 157.389 351.532 351.526 351.532 72.748 0 140.332-22.095 196.409-59.938l0.070 0.113zM293.52 638.247c0 118.084 95.725 213.815 213.823 213.815 118.090 0 213.821-95.731 213.821-213.815 0-118.098-95.731-213.827-213.821-213.827-118.098 0-213.823 95.729-213.823 213.827v0 0zM990.451 245.265c7.567 7.573 11.559 16.921 11.98 28.058 0.426 11.145-3.152 20.494-10.718 28.064-7.567 7.571-16.816 11.245-27.747 11.031-10.927-0.205-20.175-4.094-27.745-11.657l-177.825-177.823-61.168 60.537c-7.563 7.565-16.81 11.452-27.747 11.667-10.928 0.211-20.176-3.469-27.745-11.035-7.563-7.571-11.452-16.5-11.667-26.799-0.205-10.304 3.465-19.235 11.035-26.799l87.657-88.274c7.563-7.573 17.443-11.251 29.637-11.038 12.193 0.209 22.071 4.094 29.633 11.663l-2.521-2.527 204.942 204.932z" />
<glyph unicode="&#xe917;" glyph-name="set-time" d="M511.006 6.165c-245.645 0-445.492 199.025-445.492 443.661 0 244.634 199.847 443.658 445.492 443.658 245.65 0 445.502-199.025 445.502-443.658-0.001-244.636-199.852-443.661-445.502-443.661zM511.006 836.563c-214.105 0-388.292-173.49-388.292-386.737 0-213.251 174.187-386.743 388.292-386.743 214.11 0 388.302 173.493 388.302 386.743 0 213.248-174.191 386.737-388.302 386.737zM649.29 283.654c-7.637 0-14.82 2.965-20.222 8.346l-138.271 137.68c-2.629 2.63-4.709 5.758-6.174 9.287-1.471 3.521-2.214 7.17-2.214 10.859v267.387c0 15.692 12.831 28.459 28.603 28.459 15.769 0 28.597-12.767 28.597-28.459v-255.614l129.916-129.377c5.397-5.372 8.369-12.513 8.37-20.104 0.001-7.596-2.972-14.741-8.37-20.116-5.409-5.383-12.595-8.348-20.236-8.348z" />
<glyph unicode="&#xe918;" glyph-name="lock" d="M510.107 839.687c-197.189 0-357.623-160.428-357.623-357.617s160.435-357.617 357.623-357.617 357.617 160.428 357.617 357.617-160.428 357.617-357.617 357.617zM510.107 171.256c-171.384 0-310.827 139.43-310.827 310.814s139.443 310.814 310.827 310.814 310.814-139.43 310.814-310.814-139.43-310.814-310.814-310.814zM316.536 140.020c-10.434 7.6-25.073 5.328-32.7-5.12l-71.967-98.712c-7.613-10.447-5.315-25.086 5.119-32.7 4.166-3.030 8.985-4.492 13.777-4.492 7.221 0 14.339 3.33 18.922 9.611l71.967 98.712c7.615 10.448 5.317 25.087-5.118 32.701zM731.089 134.9c-7.627 10.447-22.265 12.732-32.7 5.12-10.434-7.613-12.732-22.252-5.12-32.7l71.967-98.712c4.583-6.281 11.7-9.611 18.922-9.611 4.792 0 9.611 1.462 13.777 4.492 10.434 7.613 12.732 22.252 5.119 32.7l-71.965 98.711zM184.638 745.571c12.72 67.005 72.411 112.149 132.887 100.696 12.693-2.364 24.955 5.941 27.358 18.635 2.403 12.706-5.941 24.942-18.635 27.358-86.019 16.272-170.079-45.602-187.59-137.967-2.409-12.693 5.929-24.942 18.628-27.358 1.476-0.274 2.938-0.405 4.388-0.405 11.022 0.001 20.837 7.823 22.965 19.041zM879.843 754.295c-17.525 92.366-101.742 154.173-187.604 137.967-12.693-2.416-21.038-14.652-18.635-27.358 2.403-12.693 14.692-20.998 27.358-18.635 60.462 11.44 120.18-33.666 132.887-100.696 2.128-11.217 11.949-19.040 22.97-19.040 1.45 0 2.912 0.131 4.388 0.405 12.694 2.415 21.039 14.664 18.636 27.357zM688.414 490.030h-163.092v180.526c0 12.928-10.474 23.401-23.401 23.401-12.928 0-23.401-10.474-23.401-23.401v-203.928c0-12.928 10.474-23.401 23.401-23.401h186.493c12.928 0 23.401 10.474 23.401 23.401s-10.473 23.402-23.401 23.402z" />
<glyph unicode="&#xe919;" glyph-name="car" d="M283.521 389.853c-24.060 0-43.53-19.23-43.53-42.966 0-23.734 19.47-42.965 43.53-42.965 24.018 0 43.512 19.23 43.512 42.965s-19.494 42.966-43.512 42.966zM872.798 523.516l-76.273 196.534c-14.358 37.418-45.446 69.419-104.141 69.419h-73.444s-34.982 1.459-52.953 1.459h-77.686c-17.97 0-52.953-1.459-52.953-1.459h-107.925c-58.606 0-89.717-32.001-104.031-69.419l-74.164-196.534c-30.261-3.895-83.778-39.333-83.778-106.469v-171.733c0-16.883-1.698-64.961 63.567-64.961h39.007v-55.519c0-61.326 68.55-63.372 68.55 0v55.519h548.834v-55.519c1.066-62.328 69.616-61.326 68.551 0v55.519h39.006c62.764 0 63.59 53.126 63.59 64.961v171.733c0.022 67.137-53.54 102.574-83.757 106.469zM279.193 701.015c7.199 21.712 17.947 37.418 43.118 37.681h373.141c25.083-0.262 35.852-15.968 43.030-37.681l70.227-182.415h-598.633l69.117 182.415zM905.975 289.019c0-31.653-25.976-57.303-58.021-57.303h-672.859c-32.024 0-58.020 25.649-58.020 57.303v122.567c0 31.655 25.995 57.303 58.020 57.303h672.858c32.046 0 58.021-25.647 58.021-57.303v-122.567h0.001zM762.282 389.853c-24.039 0-43.531-19.23-43.531-42.966 0-23.734 19.492-42.965 43.531-42.965s43.532 19.23 43.532 42.965c0 23.735-19.492 42.966-43.532 42.966z" />
<glyph unicode="&#xe91a;" glyph-name="cloud" d="M733.59 583.434c-48.69 86.273-139.404 139.521-239.063 139.521-66.341 0-130.345-24.023-180.32-67.627-45.357-39.572-76.336-92.762-88.377-151.212-71.31-20.574-121.46-86.097-121.46-161.616 0-83.701 62.192-153.959 142.795-166.292v-1.988h471.17c113.044 0 204.927 91.885 204.927 204.929 0.058 107.842-83.818 196.453-189.672 204.285zM718.393 221.215l-447.381 0.118c-65.932 0.817-119.59 55.060-119.59 121.109 0 58.509 41.676 108.602 99.132 119.181l16.6 3.097 2.454 16.718c7.716 53.54 34.545 102.697 75.519 138.528 41.382 36.122 94.398 55.995 149.399 55.995 74.583 0 143.087-36.005 185.405-95.625-49.975-9.703-95.333-37.701-126.136-79.142-7.774-10.404-5.611-25.134 4.91-32.907 10.403-7.716 25.134-5.553 32.907 4.851 30.16 40.565 76.396 63.887 126.779 63.887 87.033 0 157.875-70.783 157.875-157.875s-70.84-157.935-157.873-157.935z" />
<glyph unicode="&#xe91b;" glyph-name="edit" d="M816.763 511.37c-0.376-0.377-2.031 0.674-3.701 2.339l-233.59 233.594c-1.67 1.665-2.715 3.325-2.343 3.701l52.627 52.622c0.377 0.377 2.036-0.668 3.701-2.339l233.595-233.589c1.665-1.67 2.715-3.326 2.339-3.701l-52.628-52.628zM931.973 759.028l-108.301 108.301c-27.267 27.266-66.553 33.936-96.001 18.823-6.191-3.174-11.953-7.29-17.071-12.407l-32.27-32.271c-2.334-2.334-4.439-4.814-6.368-7.392 0.371-0.489 0.831-1.020 1.362-1.553l223.946-223.944c0.493-0.493 0.981-0.919 1.441-1.275 2.583 1.929 5.068 4.039 7.402 6.377l32.271 32.27c5.117 5.117 9.232 10.884 12.412 17.075 15.113 29.445 8.439 68.738-18.823 95.997v0zM397.548 93.606c-1.46-5.26 378.662 375.505 378.662 375.505 2.696 2.695 4.595 5.165 4.243 5.518l-49.424 49.425c-0.352 0.351-2.822-1.549-5.518-4.244l-372.736-373.245c-0.145-0.151-8.471-4.996-8.612-5.141 0 0-143.468-41.679-147.081-41.91-3.004-0.193-18.253 17.071-18.253 17.071s-14.283 12.7-14.283 15.771 45.567 156.617 45.567 156.617l370.95 373.24c2.695 2.695 4.614 5.146 4.283 5.479l-46.226 46.226c-0.326 0.327-2.783-1.587-5.479-4.282l-377.559-377.568c-0.347-0.347-5.273-5.337-5.835-7.279l-79.39-267.752c-3.52-5.551-5.566-12.133-5.566-19.194 0-19.83 16.074-35.909 35.909-35.909 6.719 0 13.002 1.851 18.379 5.063 0.63-0.112 1.84 0.034 3.193 0.425 0 0 256.611 75.181 260.709 78.507zM687.65 567.28l-61.518 61.519c-0.44 0.439-2.954-1.363-5.615-4.025l-372.824-372.824c-2.144-2.144-3.711-4.174-4.013-5.117l50.449-11.294c2.554-0.997 4.498-3.213 5.107-5.938 0.079-0.356 0.133-0.717 0.167-1.088l6.704-43.507c1.060 0.547 2.834 1.97 4.698 3.833l372.823 372.825c2.661 2.66 4.463 5.175 4.023 5.615v0z" />
<glyph unicode="&#xe91c;" glyph-name="exit" d="M511.99-64c-254.603 0-461.783 207.159-461.783 461.783 0 172.729 95.22 329.691 248.458 409.662 14.008 7.283 31.388 1.883 38.713-12.146 7.325-14.049 1.883-31.368-12.166-38.713-134.244-70.039-217.649-207.531-217.649-358.803 0-223.008 181.44-404.407 404.427-404.407 223.008 0 404.427 181.419 404.427 404.407 0 155.183-86.53 294.247-225.801 362.942-14.215 7.014-20.050 24.188-13.056 38.403 7.035 14.235 24.229 20.008 38.403 13.056 159.052-78.44 257.81-237.202 257.81-414.4 0.021-254.624-207.138-461.783-461.783-461.783zM511.99 411.253c-15.829 0-28.678 12.849-28.678 28.678v491.392c0.021 15.829 12.87 28.678 28.678 28.678 15.849 0 28.698-12.849 28.698-28.678v-491.392c0-15.808-12.849-28.678-28.698-28.678z" />
<glyph unicode="&#xe91d;" glyph-name="list-music" horiz-adv-x="1214" d="M85.444 747.362c0-14.633 6.037-29.266 16.373-39.703 10.335-10.335 24.968-16.475 39.703-16.475s29.266 6.037 39.703 16.475c10.335 10.335 16.475 24.968 16.475 39.703s-6.037 29.266-16.475 39.703c-10.335 10.335-24.968 16.373-39.703 16.373-14.633 0-29.266-6.037-39.703-16.373-10.233-10.437-16.373-25.070-16.373-39.703v0zM85.444 468.824c0-14.735 6.037-29.266 16.475-39.703s24.968-16.475 39.703-16.475c14.735 0 29.266 6.037 39.703 16.475s16.475 24.968 16.475 39.703c0 14.735-6.037 29.266-16.475 39.703s-24.968 16.475-39.703 16.475c-14.735 0-29.266-6.037-39.703-16.475-10.335-10.437-16.475-24.968-16.475-39.703v0zM85.444 189.57c0-14.735 6.037-29.266 16.475-39.703s24.968-16.475 39.703-16.475c14.735 0 29.266 6.037 39.703 16.475s16.475 24.968 16.475 39.703c0 14.735-6.037 29.266-16.475 39.703s-24.968 16.475-39.703 16.475c-14.735 0-29.266-6.037-39.703-16.475-10.335-10.335-16.475-24.968-16.475-39.703v0zM940.5 716.663h-618.984c-16.987 0-30.699 13.712-30.699 30.699v0c0 16.987 13.712 30.699 30.699 30.699h618.984c16.987 0 30.699-13.712 30.699-30.699v0c0-16.987-13.814-30.699-30.699-30.699zM940.5 438.125h-618.984c-16.987 0-30.699 13.712-30.699 30.699v0c0 16.987 13.712 30.699 30.699 30.699h618.984c16.987 0 30.699-13.712 30.699-30.699v0c0-16.987-13.814-30.699-30.699-30.699zM940.5 158.871h-618.984c-16.987 0-30.699 13.712-30.699 30.699v0c0 16.987 13.712 30.699 30.699 30.699h618.984c16.987 0 30.699-13.712 30.699-30.699v0c0-16.884-13.814-30.699-30.699-30.699z" />
<glyph unicode="&#xe91e;" glyph-name="night" horiz-adv-x="1058" d="M939.839 260.532c-3.6-0.097-7.845-0.152-12.104-0.154h-0.007c-138.299 0.624-266.775 64.053-353.47 171.406-93.968 116.356-118.756 277.268-73.823 418.45 6.881 21.614 15.72 42.367 25.929 62.602 10.256 20.33-2.009 47.878-27.054 47.148-144.964-4.233-283.3-69.142-377.55-179.726-96.954-113.761-137.136-262.892-116.478-410.212 19.922-142.097 105.119-269.4 223.148-349.136 124.553-84.144 285.553-106.244 429.17-64.094 132.668 38.936 245.894 134.038 309.295 256.566 10.588 20.464-2.259 47.615-27.057 47.148zM572.698 2.186c-139.198-18.39-279.597 29.065-379.179 127.811-98.843 98.010-143.905 237.189-128.36 374.677 15.072 133.307 96.434 254.843 209.346 325.394 53.346 33.333 113.285 54.506 175.286 63.069-51.776-137.653-43.42-291.961 25.572-423.67 66.062-126.11 187.055-219.811 324.36-255.626 28.097-7.329 57.031-11.966 86.084-14.304-71.238-105.884-184.94-180.418-313.108-197.351zM731.803 507.795h38.973v-38.973c0-16.873 13.677-30.551 30.551-30.551s30.551 13.677 30.551 30.551v38.973h38.973c16.873 0 30.551 13.677 30.551 30.551s-13.677 30.551-30.551 30.551h-38.973v38.973c0 16.873-13.677 30.551-30.551 30.551s-30.551-13.677-30.551-30.551v-38.973h-38.973c-16.873 0-30.551-13.677-30.551-30.551s13.68-30.551 30.551-30.551zM1027.612 826.669h-38.973v38.97c0 16.873-13.677 30.551-30.551 30.551s-30.551-13.677-30.551-30.551v-38.973h-38.973c-16.873 0-30.551-13.677-30.551-30.551s13.677-30.551 30.551-30.551h38.973v-38.973c0-16.873 13.677-30.551 30.551-30.551s30.551 13.677 30.551 30.551v38.976h38.973c16.873 0 30.551 13.677 30.551 30.551s-13.68 30.551-30.551 30.551z" />
<glyph unicode="&#xe91f;" glyph-name="day" d="M512 799.391c-193.754-0.003-351.388-157.637-351.388-351.394s157.634-351.388 351.388-351.388c193.76 0 351.394 157.634 351.394 351.388 0 193.757-157.634 351.391-351.394 351.394zM512.003 154.090c-162.063 0-293.907 131.844-293.907 293.904-0.006 162.066 131.844 293.91 293.907 293.91s293.907-131.846 293.907-293.907-131.844-293.907-293.907-293.907zM92.251 478.378h-61.873c-16.78 0-30.378-13.604-30.378-30.381 0-16.774 13.598-30.375 30.378-30.375h61.871c16.777 0 30.378 13.601 30.378 30.375 0.003 16.777-13.598 30.381-30.375 30.381zM993.625 478.378h-61.873c-16.78 0-30.375-13.601-30.375-30.381 0-16.774 13.595-30.375 30.375-30.375h61.873c16.774 0 30.375 13.601 30.375 30.375 0.003 16.777-13.601 30.381-30.375 30.381zM512 58.632c-16.774 0-30.375-13.595-30.375-30.375v-61.876c0-16.774 13.601-30.375 30.375-30.375 16.78 0 30.381 13.601 30.381 30.375v61.873c0 16.78-13.601 30.378-30.381 30.378zM512 837.374c16.78 0 30.381 13.601 30.381 30.375v61.876c0 16.78-13.601 30.375-30.381 30.375-16.774 0-30.375-13.595-30.375-30.375v-61.873c-0.003-16.777 13.601-30.378 30.375-30.378zM193.714 172.672l-43.754-43.749c-11.859-11.862-11.859-31.099 0-42.961 11.868-11.862 31.102-11.862 42.961 0l43.754 43.749c11.865 11.868 11.862 31.099-0.006 42.961-11.856 11.862-31.090 11.868-42.955 0zM831.079 810.040l-43.751-43.751c-11.859-11.862-11.859-31.099 0-42.958 11.865-11.865 31.102-11.865 42.964-0.003l43.749 43.751c11.868 11.865 11.862 31.096 0 42.961-11.859 11.862-31.093 11.865-42.961 0zM830.295 172.667c-11.868 11.868-31.099 11.862-42.958 0-11.868-11.862-11.871-31.093-0.006-42.961l43.757-43.749c11.856-11.862 31.093-11.862 42.961 0 11.856 11.862 11.856 31.099 0 42.961l-43.754 43.749zM193.714 723.322c11.859-11.862 31.096-11.862 42.961 0.003 11.859 11.859 11.859 31.096 0 42.958l-43.749 43.751c-11.868 11.865-31.099 11.862-42.958 0-11.865-11.865-11.871-31.096-0.003-42.961l43.749-43.751z" />
<glyph unicode="&#xe920;" glyph-name="community" d="M984.615 98.79v5.251c-2.626 139.159-86.646 257.313-204.8 315.077v5.251c55.138 44.636 89.272 110.277 89.272 183.795 0 126.031-97.149 228.431-220.554 236.308l-2.626-2.626c-21.005 0-36.759-18.379-36.759-36.759v-2.626c0-21.005 15.754-36.759 36.759-36.759 5.251 0 10.503 2.626 15.754 2.626 2.626-2.626 2.626-5.251 5.251-7.877 68.267-18.379 118.154-78.769 118.154-152.287 0-57.764-31.508-107.651-78.769-136.533l-2.626-2.626c-15.754-5.251-28.882-18.379-34.133-34.133l-5.251-5.251 2.626-2.626v-15.754c0-31.508 23.631-55.138 55.138-55.138 5.251 0 7.877 0 13.128 2.626 2.626-5.251 7.877-10.503 10.503-13.128 91.897-44.636 154.913-136.533 157.538-244.185v-5.251c0-21.005 18.379-39.385 39.385-39.385s39.385 18.379 39.385 39.385l2.626 2.626zM748.308 104.041c-2.626 141.785-86.646 259.938-210.051 315.077 55.138 44.636 91.897 110.277 91.897 186.421 0 131.282-105.026 236.308-236.308 236.308s-236.308-105.026-236.308-236.308c0-76.144 36.759-144.41 91.897-186.421-120.779-55.138-204.8-173.292-210.051-312.451v-13.128c0-21.005 18.379-39.385 39.385-39.385s39.385 18.379 39.385 39.385c0 144.41 112.903 265.19 254.687 275.692h47.262c139.159-10.503 252.062-126.031 254.687-270.441v-5.251c0-21.005 18.379-39.385 39.385-39.385s39.385 18.379 39.385 39.385v2.626c-5.251 5.251-5.251 5.251-5.251 7.877zM393.846 450.626c-86.646 0-157.538 70.892-157.538 157.538s70.892 157.538 157.538 157.538 157.538-70.892 157.538-157.538-70.892-157.538-157.538-157.538z" />
<glyph unicode="&#xe921;" glyph-name="add" d="M925.926 161.286c0-70.318-57.206-127.497-127.524-127.497h-616.845c-70.318 0-127.524 57.179-127.524 127.497v616.871c0 70.292 57.206 127.498 127.524 127.498h616.844c70.318 0 127.524-57.206 127.524-127.498v-616.871h0.001zM181.556 959.068c-99.776 0-180.937-81.161-180.937-180.911v-616.871c0-99.749 81.161-180.91 180.937-180.91h616.844c99.776 0 180.937 81.161 180.937 180.91v616.871c0 99.749-81.161 180.911-180.937 180.911h-616.844zM698.625 496.428h-181.953v181.953c0 14.769-11.938 26.707-26.68 26.707-14.769 0-26.707-11.938-26.707-26.707v-181.953h-181.953c-14.769 0-26.707-11.938-26.707-26.707 0-14.742 11.938-26.707 26.707-26.707h181.953v-181.953c0-14.769 11.938-26.707 26.707-26.707 14.742 0 26.68 11.938 26.68 26.707v181.953h181.952c14.769 0 26.707 11.965 26.707 26.707 0.001 14.769-11.937 26.707-26.706 26.707v0z" />
<glyph unicode="&#xe922;" glyph-name="down" d="M512 192c-8 0-16 3.2-22.4 9.6l-384 384c-12.8 12.8-12.8 32 0 44.8s32 12.8 44.8 0l361.6-361.6 361.6 361.6c12.8 12.8 32 12.8 44.8 0s12.8-32 0-44.8l-384-384c-6.4-6.4-14.4-9.6-22.4-9.6z" />
<glyph unicode="&#xe923;" glyph-name="delete" d="M885.961 730.668h-746.935c-13.322 0-24.093 10.77-24.093 24.093 0 13.303 10.77 24.098 24.093 24.098h746.935c13.323 0 24.093-10.795 24.093-24.098 0-13.322-10.769-24.093-24.093-24.093v0zM645.011 827.044h-265.036c-13.323 0-24.098 10.77-24.098 24.098 0 13.298 10.774 24.094 24.098 24.094h265.036c13.329 0 24.099-10.797 24.099-24.094 0-13.329-10.769-24.098-24.099-24.098v0zM404.067 200.59v409.604c0 13.302 10.769 24.098 24.093 24.098 13.329 0 24.098-10.796 24.098-24.098v-409.604c0-13.328-10.769-24.098-24.098-24.098-13.322 0-24.093 10.769-24.093 24.098v0zM572.729 200.59v409.604c0 13.302 10.773 24.098 24.098 24.098 13.323 0 24.093-10.796 24.093-24.098v-409.604c0-13.328-10.769-24.098-24.093-24.098s-24.098 10.769-24.098 24.098v0zM235.407 658.385c13.324 0 24.094-10.797 24.094-24.093v-505.985c0-26.601 21.591-48.193 48.191-48.193h409.604c26.6 0 48.191 21.592 48.191 48.193v505.985c0 13.297 10.769 24.093 24.094 24.093 13.328 0 24.098-10.797 24.098-24.093v-530.084c0-39.924-32.361-72.285-72.284-72.285h-457.8c-39.923 0-72.284 32.361-72.284 72.285v530.084c0 13.296 10.774 24.093 24.098 24.093v0z" />
<glyph unicode="&#xe924;" glyph-name="back" d="M967.111 475.989h-872.42l395.719 407.296c10.951 11.264 10.667 29.269-0.597 40.22s-29.298 10.667-40.22-0.597l-441.543-454.457c-5.518-5.689-8.164-13.113-7.993-20.452 0-0.114-0.028-0.228-0.028-0.341 0-0.028-0.028-0.057-0.028-0.114 0-0.711 0.341-1.28 0.398-1.963 0.199-3.072 0.626-6.087 1.82-8.988 0.284-0.683 0.853-1.195 1.195-1.849 1.28-2.532 2.56-5.063 4.636-7.225l441.543-454.485c5.575-5.689 12.999-8.59 20.395-8.59 7.14 0 14.279 2.674 19.826 8.050 11.264 10.951 11.52 28.956 0.597 40.22l-394.866 406.386h871.566c15.73 0 28.444 12.743 28.444 28.444s-12.715 28.444-28.444 28.444z" />
<glyph unicode="&#xe925;" glyph-name="playdetail" d="M404.139 255.488c0 0.683 0 0 0 0 0 0.683 0 0.683 0 1.365v-1.365zM512 960c-282.624 0-512-229.376-512-512s229.376-512 512-512 512 229.376 512 512c0 282.624-229.376 512-512 512zM512-23.040c-260.096 0-471.040 210.944-471.040 471.040s210.944 471.040 471.040 471.040c260.096 0 471.040-210.944 471.040-471.040s-210.944-471.040-471.040-471.040zM714.069 476.672v0c4.779-3.413 8.192-5.461 8.192-6.144l-8.192 6.144c-50.517 32.085-270.336 187.051-279.211 187.051-8.192 0-15.701-4.096-20.48-10.24-3.413-3.413-8.875-12.288-9.557-17.067-1.365-5.461-2.048-375.467 0-380.245 4.096-14.336 24.576-25.941 38.912-21.845 3.413 1.365 6.144 2.731 8.875 5.461l262.144 179.541c12.288 3.413 19.797 15.019 19.115 27.307 0.683 12.288-7.509 26.624-19.797 30.037zM443.733 297.813v300.373l232.107-148.139-232.107-152.235z" />
<glyph unicode="&#xe926;" glyph-name="pause-detail" d="M512 960c-282.737 0-512-229.212-512-512.020s229.263-511.98 512-511.98c282.824 0 512 229.171 512 511.98s-229.176 512.020-512 512.020zM512-21.289c-259.21 0-469.376 210.068-469.376 469.268 0 259.246 210.166 469.356 469.376 469.356s469.376-210.109 469.376-469.356c0-259.2-210.166-469.268-469.376-469.268zM596.48 639.995c-11.812 0-23.040-9.549-23.040-21.309v-341.361c0-11.807 11.228-21.356 23.040-21.356 11.807 0 23.040 9.549 23.040 21.356v341.356c0 11.766-11.233 21.315-23.040 21.315zM427.52 639.995c-11.807 0-23.040-9.549-23.040-21.309v-341.361c0-11.807 11.233-21.356 23.040-21.356s23.040 9.549 23.040 21.356v341.356c0 11.766-11.233 21.315-23.040 21.315z" />
<glyph unicode="&#xe927;" glyph-name="prevdetail" d="M310.134 457.394l469.159 243.037v-503.652l-469.159 260.614zM791.22 756.1l-537.597-278.487c-3.707-1.945-6.935-4.916-9.101-8.844-5.908-10.605-2.093-23.962 8.513-29.87l536.018-297.751c3.521-2.349 7.707-3.707 12.256-3.707 12.147 0 22.017 9.87 22.017 22.017v577.119h-0.074c0 3.376-0.77 6.827-2.422 10.054-5.578 10.789-18.825 15.008-29.614 9.468zM178.69 734.119c0 12.147 9.834 22.017 22.017 22.017 12.147 0 22.017-9.87 22.017-22.017v-596.566c0-12.182-9.87-22.017-22.017-22.017-12.182 0-22.017 9.834-22.017 22.017v596.566z" />
<glyph unicode="&#xe928;" glyph-name="nextdetail" d="M691.884 457.394l-469.159 243.037v-503.651l469.159 260.614zM210.763 756.1l537.597-278.487c3.707-1.945 6.935-4.916 9.137-8.844 5.87-10.605 2.054-23.962-8.513-29.87l-536.054-297.751c-3.487-2.349-7.707-3.707-12.219-3.707-12.147 0-22.017 9.87-22.017 22.017v577.119h0.036c0 3.376 0.807 6.827 2.459 10.054 5.541 10.789 18.789 15.008 29.578 9.469zM823.329 734.119c0 12.147-9.87 22.017-22.017 22.017-12.182 0-22.017-9.87-22.017-22.017v-596.566c0-12.182 9.834-22.017 22.017-22.017 12.147 0 22.017 9.834 22.017 22.017v596.566z" />
<glyph unicode="&#xe929;" glyph-name="music-shunxu" d="M81.531 307.608c20.15 5.479 31.814 26.335 26.335 46.484-6.364 22.624-9.367 45.777-9.367 69.462 0 142.813 116.3 258.935 258.935 258.935h153.594v0.53h245.679v-66.812c0-21.387 14.848-29.694 33.228-18.382l160.665 99.686c18.206 11.312 18.382 29.87 0.353 41.712l-161.547 104.281c-18.027 11.666-32.699 3.711-32.699-17.852v-67.164h-351.021v-0.53h-48.429c-89.258 0-173.39-34.819-236.49-97.918-63.277-63.277-97.918-147.231-97.918-236.49 0-30.578 4.064-60.624 12.196-89.788 4.595-16.615 19.795-27.573 36.41-27.573 3.358 0 6.717 0.353 10.074 1.414zM998.319 542.329c-4.595 16.615-19.795 27.573-36.41 27.573-3.358 0-6.717-0.53-10.074-1.414-20.15-5.479-31.814-26.335-26.335-46.484 6.364-22.624 9.367-45.777 9.367-69.462 0-142.813-116.3-258.935-258.935-258.935h-153.594v-0.53h-245.326v66.812c0 21.387-14.848 29.694-33.228 18.382l-160.665-99.686c-18.206-11.312-18.382-30.048-0.53-41.712l161.547-104.458c18.027-11.666 32.699-3.711 32.699 17.852v67.164h351.021v0.53h48.429c89.258 0 173.39 34.819 236.49 97.918 63.277 63.277 97.918 147.231 97.918 236.49-0.186 32.082-4.691 63.035-12.961 92.411l0.589-2.447z" />
<glyph unicode="&#xe92a;" glyph-name="list-circle-small" d="M435.2 729.6c0-42.415 34.385-76.8 76.8-76.8s76.8 34.385 76.8 76.8v0c0 42.415-34.385 76.8-76.8 76.8s-76.8-34.385-76.8-76.8v0zM435.2 448c0-42.415 34.385-76.8 76.8-76.8s76.8 34.385 76.8 76.8v0c0 42.415-34.385 76.8-76.8 76.8s-76.8-34.385-76.8-76.8v0zM435.2 166.4c0-42.415 34.385-76.8 76.8-76.8s76.8 34.385 76.8 76.8v0c0 42.415-34.385 76.8-76.8 76.8s-76.8-34.385-76.8-76.8v0z" />
<glyph unicode="&#xe92b;" glyph-name="download" d="M777.402 347.395v-115.088c0-32.276-25.538-58.451-57.044-58.451h-456.755c-31.506 0-57.044 26.176-57.044 58.451v115.088h-83.531v-142.918c0-64.543 56.599-116.89 119.609-116.89h508.591c63.011 0 114.091 52.346 114.091 116.89v142.918h-87.92zM690.7 553.762l-111.356-0.916-0.89 262.062h-172.14v-262.062h-111.363l197.874-262.954 197.875 263.869z" />
<glyph unicode="&#xe92c;" glyph-name="like" d="M511.64 785.224c-47.564 45.086-111.615 72.892-182.313 72.892-146.555 0-265.354-118.799-265.354-265.33 0-274.477 447.667-553.956 447.667-553.956s447.647 279.478 447.647 553.956c0 146.531-118.773 265.33-265.335 265.33-70.693 0-134.768-27.806-182.312-72.892v0z" />
<glyph unicode="&#xe92d;" glyph-name="msg" d="M902.627 838.629h-781.257c-30.838 0-55.816-24.978-55.816-55.768v-503.143c0-30.699 13.806-43.778 44.645-43.778h133.923v-156.225c0-11.264-4.813-15.804 5.54-20.162 3.5-1.453 7.176-2.181 10.809-2.181 7.175 0 14.261 2.725 19.575 7.992l164.989 170.576h468.764c30.79 0 44.645 13.079 44.645 43.778v503.143c0.001 30.79-24.977 55.768-55.816 55.768zM913.8 280.627l-495.287-0.91-130.156-127.886 0.41 128.795h-178.568v513.314h803.601v-513.314zM266.465 503.702h491.066c15.44 0 22.343 6.903 22.343 22.343 0 15.442-6.903 22.345-22.343 22.345h-491.066c-15.441 0-22.344-6.903-22.344-22.345 0-15.44 6.904-22.343 22.344-22.343zM266.465 615.42h491.066c15.44 0 22.343 6.902 22.343 22.343 0 15.303-6.903 22.297-22.343 22.297h-491.066c-15.441 0-22.344-6.994-22.344-22.297 0-15.441 6.904-22.343 22.344-22.343zM266.465 392.164h334.841c15.394 0 22.297 6.901 22.297 22.343s-6.903 22.343-22.297 22.343h-334.841c-15.441 0-22.344-6.901-22.344-22.343s6.904-22.343 22.344-22.343z" />
<glyph unicode="&#xe92e;" glyph-name="date" d="M892.587 768.853h-146.773v64.853c0 10.24-6.827 17.067-17.067 17.067s-17.067-6.827-17.067-17.067v-64.853h-370.347v64.853c0 10.24-6.827 17.067-17.067 17.067s-17.067-6.827-17.067-17.067v-64.853h-129.707c-47.787 0-85.333-37.547-85.333-85.333v-629.76c0-47.787 37.547-85.333 85.333-85.333h715.093c47.787 0 85.333 37.547 85.333 85.333v629.76c0 47.787-37.547 85.333-85.333 85.333zM177.493 734.72h715.093c29.013 0 51.2-22.187 51.2-51.2v-80.213h-817.493v80.213c0 29.013 23.893 51.2 51.2 51.2zM892.587 2.56h-715.093c-29.013 0-51.2 22.187-51.2 51.2v515.413h817.493v-515.413c0-27.307-22.187-51.2-51.2-51.2z" />
<glyph unicode="&#xe92f;" glyph-name="rank-list" d="M5.12 69.12v40.96h102.4v491.52c0 25.405 20.669 46.080 46.080 46.080h209.92v133.12c0 25.405 20.669 46.080 46.080 46.080h204.8c25.411 0 46.080-20.675 46.080-46.080v-312.32h209.92c25.411 0 46.080-20.675 46.080-46.080v-312.32h102.4v-40.96h-1013.76zM660.48 110.080h215.040v261.12c0 2.284 0.020 4.536 0.036 6.733 0.138 17.654 0.256 32.911-8.796 42.040-5.038 5.079-12.221 7.547-21.96 7.547h-184.32v-317.44zM435.2 785.92c-16.942 0-30.72-13.778-30.72-30.72v-645.12h215.040v645.12c0 16.942-13.773 30.72-30.72 30.72h-153.6zM179.2 606.72c-12.109 0-19.615-2.125-24.346-6.897-6.62-6.671-6.528-17.091-6.41-31.508 0.015-2.12 0.036-4.372 0.036-6.717v-451.523h215.040v496.64l-184.32 0.005z" />
<glyph unicode="&#xe930;" glyph-name="fm" d="M109.679 68.772h800.56c28.764 0 49.92 28.279 49.92 57.071v495.405c0 28.764-21.156 54.242-49.92 54.242h-525.133l377.152 124.685c7.218 2.397 11.123 9.683 8.713 16.914-2.41 7.217-10.168 11.904-17.439 9.508l-455.594-151.107h-188.259c-28.777 0-45.84-25.478-45.84-54.242v-495.406c0-28.791 17.063-57.070 45.84-57.070zM946.369 134.729c0-13.601-11.016-24.617-24.603-24.617h-805.744c-13.587 0-24.603 11.016-24.603 24.617v488.606c0 13.574 11.016 24.59 24.603 24.59h805.745c13.587 0 24.603-11.016 24.603-24.59v-488.606zM891.211 372.141v193.032h-372.318v-193.032h372.318zM546.473 537.609h317.159v-137.908h-135.363l40.668 57.567c4.565 6.1 3.34 16.416-2.748 20.981-6.114 4.565-14.732 0.835-19.311-5.252l-53.098-73.296h-147.308v137.908zM133.783 551.398c0 7.608 6.166 13.776 13.79 13.776h305.16c7.622 0 13.79-6.167 13.79-13.776 0-7.623-6.167-13.79-13.79-13.79h-305.16c-7.623 0.001-13.79 6.168-13.79 13.79zM133.783 468.661c0 7.622 6.166 13.79 13.79 13.79h305.16c7.622 0 13.79-6.167 13.79-13.79 0-7.635-6.167-13.803-13.79-13.803h-305.16c-7.623 0.001-13.79 6.168-13.79 13.803zM133.783 385.931c0 7.614 6.166 13.77 13.79 13.77h305.16c7.622 0 13.79-6.155 13.79-13.77 0-7.622-6.167-13.79-13.79-13.79h-305.16c-7.623 0-13.79 6.167-13.79 13.79zM133.783 316.984c0 7.595 6.166 13.789 13.79 13.789h305.16c7.622 0 13.79-6.194 13.79-13.789 0-7.623-6.167-13.79-13.79-13.79h-305.16c-7.623 0-13.79 6.166-13.79 13.79zM133.783 234.219c0 7.649 6.166 13.79 13.79 13.79h305.16c7.622 0 13.79-6.141 13.79-13.79 0-7.595-6.167-13.79-13.79-13.79h-305.16c-7.623 0-13.79 6.195-13.79 13.79zM796.045 330.1c-28.642 0-51.94-23.27-51.94-51.927 0-28.63 23.298-51.926 51.94-51.926 28.63 0 51.926 23.297 51.926 51.926 0 28.657-23.296 51.927-51.926 51.927zM796.045 253.827c-13.426 0-24.361 10.935-24.361 24.347 0 13.44 10.935 24.374 24.361 24.374s24.348-10.935 24.348-24.374c0-13.412-10.922-24.347-24.348-24.347zM605.321 330.1c-28.642 0-51.94-23.27-51.94-51.927 0-28.63 23.298-51.926 51.94-51.926 28.63 0 51.926 23.297 51.926 51.926 0 28.657-23.296 51.927-51.926 51.927zM605.321 253.827c-13.426 0-24.361 10.935-24.361 24.347 0 13.44 10.935 24.374 24.361 24.374s24.348-10.935 24.348-24.374c0-13.412-10.922-24.347-24.348-24.347z" />
<glyph unicode="&#xe931;" glyph-name="erji" d="M512.256 777.984c-184.128 0-333.376-149.248-333.376-333.376 0-0.512 0-1.024 0-1.472 16.32 5.312 33.664 8.32 51.776 8.32 1.536 0 3.008-0.128 4.544-0.256v-333.184h56.32c10.048 0 18.176 8.256 18.176 18.24v305.472c0 10.048-8.128 18.176-18.176 18.176h-54.4c5.12 147.648 126.272 265.664 275.072 265.664s269.888-118.080 275.072-265.664h-50.368c-9.984 0-18.24-8.128-18.24-18.176v-305.472c0-9.984 8.256-18.24 18.24-18.24h56.32v333.44c18.304 0 35.84-3.072 52.288-8.512 0 0.576 0 1.152 0 1.664 0.128 184.128-149.056 333.376-333.248 333.376zM64 284.672c0-73.92 48.256-136.576 114.88-158.4v316.8c-66.624-21.76-114.88-84.416-114.88-158.4zM845.632 442.944v-316.352c66.432 21.888 114.368 84.416 114.368 158.080 0 73.856-47.936 136.256-114.368 158.272z" />
<glyph unicode="&#xe932;" glyph-name="canclefullscreen" d="M17.067 164.693h211.627v-211.627h141.653v353.28h-353.28v-141.653zM228.693 731.307h-211.627v-141.653h353.28v353.28h-141.653v-211.627zM653.653-46.933h141.653v211.627h211.627v141.653h-353.28v-353.28zM795.307 731.307v211.627h-141.653v-353.28h353.28v141.653h-211.627z" />
<glyph unicode="&#xe933;" glyph-name="fullscreen" d="M0 584.533h151.704v223.763h227.556v151.704h-379.259v-375.467zM872.296 87.704h-227.556v-151.704h379.259v379.259h-151.704v-227.556zM644.741 960v-151.704h227.556v-227.556h151.704v379.259h-379.259zM151.704 315.259h-151.704v-379.259h379.259v151.704h-227.556v227.556z" />
<glyph unicode="&#xe940;" glyph-name="left" d="M672 32c-8 0-16 3.2-22.4 9.6l-384 384c-12.8 12.8-12.8 32 0 44.8l384 384c12.8 12.8 32 12.8 44.8 0s12.8-32 0-44.8l-361.6-361.6 361.6-361.6c12.8-12.8 12.8-32 0-44.8-6.4-6.4-14.4-9.6-22.4-9.6z" />
<glyph unicode="&#xe94a;" glyph-name="music-danqu1" horiz-adv-x="1208" d="M66.297 269.535c22.712 6.302 35.998 29.827 29.696 52.513-7.063 25.469-10.66 51.909-10.66 78.638 0 161.582 131.466 293.048 293.048 293.048h173.712c1.785 29.512 7.063 58.105 15.413 85.333h-189.151c-101.061 0-196.083-39.358-267.553-110.828-71.444-71.47-110.802-166.492-110.802-267.553 0-34.448 4.647-68.582 13.785-101.481 5.251-18.878 22.397-31.245 41.091-31.245 3.755 0 7.614 0.499 11.422 1.575zM684.61 140.38h-397.076v75.592c0 24.261-16.883 33.661-37.494 20.874l-181.931-112.693c-20.611-12.787-20.821-34.002-0.446-47.157l182.797-118.075c20.375-13.154 37.048-4.070 37.048 20.165v75.96h397.076c101.061 0 196.083 39.358 267.553 110.828 45.581 45.581 78.087 100.72 95.678 160.926-31.508-11.789-65.063-19.377-99.984-22.108-47.734-97.227-147.797-164.313-263.221-164.313zM918.974 960c-159.508 0-288.821-129.313-288.821-288.821s129.313-288.821 288.821-288.821 288.821 129.313 288.821 288.821-129.313 288.821-288.821 288.821zM972.537 517.527h-55.296v218.296c-20.322-18.432-45.844-32.138-77.036-41.118v54.823c15.124 3.781 31.193 10.398 48.207 19.85 17.014 10.398 31.193 21.268 42.535 33.083h41.59v-284.935z" />
<glyph unicode="&#xe94b;" glyph-name="music-random" d="M503.212 560.38c48.020 47.603 109.809 68.831 200.348 68.831h4.625v-51.633c0-16.49 11.334-22.663 25.186-13.716l124.264 80.254c13.852 8.946 13.717 23.371-0.301 32.055l-123.662 76.61c-14.017 8.685-25.486 2.298-25.486-14.192v-51.378h-4.625c-105.604 0-182.241-27.212-241.181-85.639-59.046-58.532-60.589-112.848-61.83-156.492-0.532-18.725-0.991-34.896-5.667-49.654-10.522-33.214-38.070-63.935-77.57-86.504-49.704-28.4-116.796-42.932-193.967-42.096-0.11 0.001-0.22 0.002-0.33 0.002-15.865 0-28.814-12.771-28.992-28.677-0.179-16.015 12.659-29.143 28.675-29.321 2.402-0.027 4.795-0.040 7.182-0.040 42.758 0 82.892 4.298 119.396 12.793 35.926 8.36 68.498 20.803 96.811 36.979 52.187 29.818 89.152 72.203 104.087 119.347 7.129 22.505 7.751 44.374 8.352 65.523 1.14 40.115 2.124 74.758 44.685 116.948zM123.347 629.174c97.024 1.086 178.164-22.495 228.401-66.391 5.499-4.805 12.299-7.163 19.070-7.163 8.079 0 16.116 3.357 21.85 9.919 10.539 12.061 9.304 30.381-2.756 40.919-29.181 25.497-65.695 45.388-108.529 59.12-46.728 14.979-100.112 22.25-158.682 21.591-16.015-0.179-28.853-13.306-28.674-29.322 0.176-16.014 13.287-28.891 29.32-28.673zM857.334 255.75l-123.662 76.61c-14.017 8.685-25.486 2.298-25.486-14.192v-51.379h-4.625c-80.96 0-143.128 24.247-195.645 76.307-11.375 11.274-29.737 11.196-41.012-0.18-11.275-11.374-11.195-29.736 0.18-41.012 63.207-62.657 140.56-93.115 236.477-93.115h4.625v-51.632c0-16.49 11.334-22.663 25.186-13.716l124.264 80.254c13.85 8.946 13.716 23.371-0.302 32.055z" />
<glyph unicode="&#xe955;" glyph-name="pause" d="M349.867 810.667h-14.933c-21.333 0-36.267-14.933-36.267-34.133v-654.933c0-19.2 14.933-34.133 34.133-34.133h14.933c19.2 0 34.133 14.933 34.133 34.133v654.933c2.133 19.2-12.8 34.133-32 34.133zM691.2 810.667h-14.933c-21.333 0-36.267-14.933-36.267-34.133v-654.933c0-19.2 14.933-34.133 34.133-34.133h14.933c19.2 0 34.133 14.933 34.133 34.133v654.933c2.133 19.2-12.8 34.133-32 34.133z" />
<glyph unicode="&#xe963;" glyph-name="right" d="M352 32c-8 0-16 3.2-22.4 9.6-12.8 12.8-12.8 32 0 44.8l361.6 361.6-361.6 361.6c-12.8 12.8-12.8 32 0 44.8s32 12.8 44.8 0l384-384c12.8-12.8 12.8-32 0-44.8l-384-384c-6.4-6.4-14.4-9.6-22.4-9.6z" />
<glyph unicode="&#xe978;" glyph-name="up" d="M896 256c-8 0-16 3.2-22.4 9.6l-361.6 361.6-361.6-361.6c-12.8-12.8-32-12.8-44.8 0s-12.8 32 0 44.8l384 384c12.8 12.8 32 12.8 44.8 0l384-384c12.8-12.8 12.8-32 0-44.8-6.4-6.4-14.4-9.6-22.4-9.6z" />
<glyph unicode="&#xea27;" glyph-name="volume-medium" d="M719.53 128.47c-12.286 0-24.566 4.686-33.942 14.056-18.744 18.744-18.744 49.136 0 67.882 131.006 131.006 131.006 344.17 0 475.176-18.744 18.746-18.744 49.138 0 67.882 18.744 18.742 49.138 18.744 67.882 0 81.594-81.59 126.53-190.074 126.53-305.466 0-115.39-44.936-223.876-126.53-305.47-9.372-9.374-21.656-14.060-33.94-14.060v0zM549.020 218.98c-12.286 0-24.566 4.686-33.942 14.058-18.746 18.746-18.746 49.134 0 67.88 81.1 81.1 81.1 213.058 0 294.156-18.746 18.746-18.746 49.138 0 67.882s49.136 18.744 67.882 0c118.53-118.53 118.53-311.392 0-429.922-9.372-9.368-21.656-14.054-33.94-14.054zM416.006 0c-8.328 0-16.512 3.25-22.634 9.374l-246.626 246.626h-114.746c-17.672 0-32 14.326-32 32v320c0 17.672 14.328 32 32 32h114.746l246.626 246.628c9.154 9.154 22.916 11.89 34.874 6.936 11.958-4.952 19.754-16.622 19.754-29.564v-832c0-12.944-7.796-24.612-19.754-29.564-3.958-1.64-8.118-2.436-12.24-2.436z" />
</font>
</defs>
</svg>
