<?xml version="1.0" standalone="no"?>
<!DOCTYPE svg PUBLIC "-//W3C//DTD SVG 1.1//EN" "http://www.w3.org/Graphics/SVG/1.1/DTD/svg11.dtd">
<svg xmlns="http://www.w3.org/2000/svg">
<metadata>Copyright (C) 2024 by original authors @ fontello.com</metadata>
<defs>
<font id="jqx-icons" horiz-adv-x="1000" >
<font-face font-family="jqx-icons" font-weight="400" font-stretch="normal" units-per-em="1000" ascent="850" descent="-150" />
<missing-glyph horiz-adv-x="1000" />
<glyph glyph-name="table" unicode="&#xe800;" d="M286 148v-108q0-22-16-37t-38-16h-178q-23 0-38 16t-16 37v108q0 22 16 38t38 15h178q23 0 38-15t16-38z m0 285v-107q0-22-16-38t-38-15h-178q-23 0-38 15t-16 38v107q0 23 16 38t38 16h178q23 0 38-16t16-38z m357-285v-108q0-22-16-37t-38-16h-178q-23 0-38 16t-16 37v108q0 22 16 38t38 15h178q23 0 38-15t16-38z m-357 571v-107q0-22-16-38t-38-16h-178q-23 0-38 16t-16 38v107q0 22 16 38t38 16h178q23 0 38-16t16-38z m357-286v-107q0-22-16-38t-38-15h-178q-23 0-38 15t-16 38v107q0 23 16 38t38 16h178q23 0 38-16t16-38z m357-285v-108q0-22-16-37t-38-16h-178q-22 0-38 16t-16 37v108q0 22 16 38t38 15h178q23 0 38-15t16-38z m-357 571v-107q0-22-16-38t-38-16h-178q-23 0-38 16t-16 38v107q0 22 16 38t38 16h178q23 0 38-16t16-38z m357-286v-107q0-22-16-38t-38-15h-178q-22 0-38 15t-16 38v107q0 23 16 38t38 16h178q23 0 38-16t16-38z m0 286v-107q0-22-16-38t-38-16h-178q-22 0-38 16t-16 38v107q0 22 16 38t38 16h178q23 0 38-16t16-38z" horiz-adv-x="1000" />

<glyph glyph-name="star" unicode="&#xe801;" d="M929 483q0-12-15-27l-202-197 48-279q0-4 0-12 0-11-6-19t-17-9q-10 0-22 7l-251 132-250-132q-12-7-23-7t-17 9-6 19q0 4 1 12l48 279-203 197q-14 15-14 27 0 21 31 26l280 40 126 254q11 23 27 23t28-23l125-254 280-40q32-5 32-26z" horiz-adv-x="926.8" />

<glyph glyph-name="star-empty" unicode="&#xe802;" d="M635 284l170 166-235 34-106 213-105-213-236-34 171-166-41-235 211 111 211-111z m294 199q0-12-15-27l-202-197 48-279q0-4 0-12 0-28-23-28-10 0-22 7l-251 132-250-132q-12-7-23-7t-17 9-6 19q0 4 1 12l48 279-203 197q-14 15-14 27 0 21 31 26l280 40 126 254q11 23 27 23t28-23l125-254 280-40q32-5 32-26z" horiz-adv-x="926.8" />

<glyph glyph-name="plus" unicode="&#xe803;" d="M786 433v-107q0-22-16-38t-38-15h-232v-233q0-22-16-37t-38-16h-107q-22 0-38 16t-15 37v233h-232q-23 0-38 15t-16 38v107q0 23 16 38t38 16h232v232q0 22 15 38t38 16h107q23 0 38-16t16-38v-232h232q23 0 38-16t16-38z" horiz-adv-x="785.2" />

<glyph glyph-name="minus" unicode="&#xe804;" d="M786 433v-107q0-22-16-38t-38-15h-678q-23 0-38 15t-16 38v107q0 23 16 38t38 16h678q23 0 38-16t16-38z" horiz-adv-x="785.2" />

<glyph glyph-name="attention-circled" unicode="&#xe805;" d="M429 773q116 0 215-58t156-156 57-215-57-215-156-156-215-58-216 58-155 156-58 215 58 215 155 156 216 58z m71-696v106q0 8-5 13t-12 5h-107q-8 0-13-5t-6-13v-106q0-8 6-13t13-6h107q7 0 12 6t5 13z m-1 192l10 346q0 7-6 10-5 5-13 5h-123q-8 0-13-5-6-3-6-10l10-346q0-6 5-10t14-4h103q8 0 13 4t6 10z" horiz-adv-x="857.4" />

<glyph glyph-name="align-left" unicode="&#xe806;" d="M1000 94v-71q0-15-11-25t-25-11h-928q-15 0-25 11t-11 25v71q0 15 11 25t25 11h928q15 0 25-11t11-25z m-214 214v-71q0-15-11-25t-25-11h-714q-15 0-25 11t-11 25v71q0 15 11 25t25 11h714q15 0 25-11t11-25z m143 215v-72q0-14-11-25t-25-11h-857q-15 0-25 11t-11 25v72q0 14 11 25t25 10h857q14 0 25-10t11-25z m-215 214v-72q0-14-10-25t-25-10h-643q-15 0-25 10t-11 25v72q0 14 11 25t25 11h643q14 0 25-11t10-25z" horiz-adv-x="1000" />

<glyph glyph-name="align-right" unicode="&#xe807;" d="M1000 94v-71q0-15-11-25t-25-11h-928q-15 0-25 11t-11 25v71q0 15 11 25t25 11h928q15 0 25-11t11-25z m0 214v-71q0-15-11-25t-25-11h-714q-14 0-25 11t-11 25v71q0 15 11 25t25 11h714q15 0 25-11t11-25z m0 215v-72q0-14-11-25t-25-11h-857q-14 0-25 11t-11 25v72q0 14 11 25t25 10h857q15 0 25-10t11-25z m0 214v-72q0-14-11-25t-25-10h-643q-14 0-25 10t-10 25v72q0 14 10 25t25 11h643q15 0 25-11t11-25z" horiz-adv-x="1000" />

<glyph glyph-name="align-center" unicode="&#xe808;" d="M1000 94v-71q0-15-11-25t-25-11h-928q-15 0-25 11t-11 25v71q0 15 11 25t25 11h928q15 0 25-11t11-25z m-214 214v-71q0-15-11-25t-25-11h-500q-14 0-25 11t-11 25v71q0 15 11 25t25 11h500q15 0 25-11t11-25z m143 215v-72q0-14-11-25t-25-11h-786q-14 0-25 11t-11 25v72q0 14 11 25t25 10h786q14 0 25-10t11-25z m-215 214v-72q0-14-10-25t-25-10h-358q-14 0-25 10t-10 25v72q0 14 10 25t25 11h358q14 0 25-11t10-25z" horiz-adv-x="1000" />

<glyph glyph-name="reload" unicode="&#xe809;" d="M857 344q0-87-34-166t-91-137-137-92-166-34q-96 0-183 41t-147 114q-4 6-4 13t5 11l76 77q6 5 14 5 9-1 13-7 41-53 100-82t126-29q58 0 110 23t92 61 61 91 22 111-22 111-61 91-92 61-110 23q-55 0-105-20t-90-57l77-77q17-16 8-38-10-23-33-23h-250q-15 0-25 11t-11 25v250q0 24 22 33 22 10 39-8l72-72q60 57 137 88t159 31q87 0 166-34t137-92 91-137 34-166z" horiz-adv-x="857.4" />

<glyph glyph-name="pin" unicode="&#xe80a;" d="M268 368v250q0 8-5 13t-13 5-13-5-5-13v-250q0-8 5-13t13-5 13 5 5 13z m375-197q0-14-11-25t-25-10h-239l-29-270q-1-7-6-11t-11-5h-1q-15 0-17 15l-43 271h-225q-15 0-25 10t-11 25q0 69 44 124t99 55v286q-29 0-50 21t-22 50 22 50 50 22h357q29 0 50-22t21-50-21-50-50-21v-286q55 0 99-55t44-124z" horiz-adv-x="642.9" />

<glyph glyph-name="spin3" unicode="&#xe80b;" d="M494 850c-266 0-483-210-494-472-1-19 13-20 13-20l84 0c16 0 19 10 19 18 10 199 176 358 378 358 107 0 205-45 273-118l-58-57c-11-12-11-27 5-31l247-50c21-5 46 11 37 44l-58 227c-2 9-16 22-29 13l-65-60c-89 91-214 148-352 148z m409-508c-16 0-19-10-19-18-10-199-176-358-377-358-108 0-205 45-274 118l59 57c10 12 10 27-5 31l-248 50c-21 5-46-11-37-44l58-227c2-9 16-22 30-13l64 60c89-91 214-148 353-148 265 0 482 210 493 473 1 18-13 19-13 19l-84 0z" horiz-adv-x="1000" />

<glyph glyph-name="resize-vertical" unicode="&#xe80c;" d="M393 671q0-14-11-25t-25-10h-71v-572h71q15 0 25-10t11-25-11-25l-143-143q-10-11-25-11t-25 11l-143 143q-10 10-10 25t10 25 25 10h72v572h-72q-14 0-25 10t-10 25 10 26l143 142q11 11 25 11t25-11l143-142q11-11 11-26z" horiz-adv-x="428.6" />

<glyph glyph-name="cancel" unicode="&#xe80d;" d="M724 106q0-22-15-38l-76-76q-16-15-38-15t-38 15l-164 165-164-165q-16-15-38-15t-38 15l-76 76q-16 16-16 38t16 38l164 164-164 164q-16 16-16 38t16 38l76 76q16 16 38 16t38-16l164-164 164 164q16 16 38 16t38-16l76-76q15-15 15-38t-15-38l-164-164 164-164q15-15 15-38z" horiz-adv-x="785.2" />

<glyph glyph-name="cancel-circled" unicode="&#xe80e;" d="M641 218q0 14-10 25l-101 101 101 101q10 11 10 25 0 15-10 26l-51 50q-10 11-25 11t-25-11l-101-101-101 101q-11 11-25 11-16 0-26-11l-50-50q-11-11-11-26 0-14 11-25l101-101-101-101q-11-11-11-25 0-15 11-26l50-50q10-11 26-11 14 0 25 11l101 101 101-101q10-11 25-11t25 11l51 50q10 11 10 26z m216 126q0-117-57-215t-156-156-215-58-216 58-155 156-58 215 58 215 155 156 216 58 215-58 156-156 57-215z" horiz-adv-x="857.4" />

<glyph glyph-name="resize-horizontal" unicode="&#xe80f;" d="M1000 350q0-14-11-25l-142-143q-11-11-26-11t-25 11-10 25v72h-572v-72q0-14-10-25t-25-11-25 11l-143 143q-11 11-11 25t11 25l143 143q10 11 25 11t25-11 10-25v-72h572v72q0 14 10 25t25 11 26-11l142-143q11-10 11-25z" horiz-adv-x="1000" />

<glyph glyph-name="plus-circled" unicode="&#xe810;" d="M679 308v72q0 14-11 25t-25 10h-143v143q0 15-11 25t-25 11h-71q-15 0-25-11t-11-25v-143h-143q-14 0-25-10t-10-25v-72q0-14 10-25t25-10h143v-143q0-15 11-25t25-11h71q15 0 25 11t11 25v143h143q14 0 25 10t11 25z m178 36q0-117-57-215t-156-156-215-58-216 58-155 156-58 215 58 215 155 156 216 58 215-58 156-156 57-215z" horiz-adv-x="857.4" />

<glyph glyph-name="power" unicode="&#xe811;" d="M0 344q0 207 147 354l101-102q-105-103-105-252t104-253 253-104 253 104 104 253-105 252l102 102q146-147 146-354t-146-354-354-146-353 146-147 354z m428-78v578h144v-578h-144z" horiz-adv-x="1000" />

<glyph glyph-name="down-dir" unicode="&#xe812;" d="M571 457q0-14-10-25l-250-250q-11-11-25-11t-25 11l-250 250q-11 11-11 25t11 25 25 11h500q14 0 25-11t10-25z" horiz-adv-x="571.4" />

<glyph glyph-name="align-justify" unicode="&#xe813;" d="M1000 100v-71q0-15-11-25t-25-11h-928q-15 0-25 11t-11 25v71q0 15 11 25t25 11h928q15 0 25-11t11-25z m0 214v-71q0-15-11-25t-25-11h-928q-15 0-25 11t-11 25v71q0 15 11 25t25 11h928q15 0 25-11t11-25z m0 215v-72q0-14-11-25t-25-11h-928q-15 0-25 11t-11 25v72q0 14 11 25t25 10h928q15 0 25-10t11-25z m0 214v-72q0-14-11-25t-25-10h-928q-15 0-25 10t-11 25v72q0 14 11 25t25 11h928q15 0 25-11t11-25z" horiz-adv-x="1000" />

<glyph glyph-name="minus-circled" unicode="&#xe814;" d="M679 308v72q0 14-11 25t-25 10h-429q-14 0-25-10t-10-25v-72q0-14 10-25t25-10h429q14 0 25 10t11 25z m178 36q0-117-57-215t-156-156-215-58-216 58-155 156-58 215 58 215 155 156 216 58 215-58 156-156 57-215z" horiz-adv-x="857.4" />

<glyph glyph-name="up-dir" unicode="&#xe815;" d="M571 171q0-14-10-25t-25-10h-500q-15 0-25 10t-11 25 11 26l250 250q10 10 25 10t25-10l250-250q10-11 10-26z" horiz-adv-x="571.4" />

<glyph glyph-name="left-dir" unicode="&#xe816;" d="M357 600v-500q0-14-10-25t-26-11-25 11l-250 250q-10 11-10 25t10 25l250 250q11 11 25 11t26-11 10-25z" horiz-adv-x="357.1" />

<glyph glyph-name="arrow-up-alt" unicode="&#xe817;" d="M939 101l-92-92q-11-10-26-10t-25 10l-296 297-296-297q-11-10-25-10t-25 10l-93 92q-11 11-11 26t11 25l414 414q11 10 25 10t25-10l414-414q11-11 11-25t-11-26z" horiz-adv-x="1000" />

<glyph glyph-name="radio" unicode="&#xe818;" d="M350 694q146 0 248-102t102-248q0-144-102-247t-248-103-248 103-102 247q0 146 102 248t248 102z" horiz-adv-x="700.2" />

<glyph glyph-name="refresh" unicode="&#xe819;" d="M843 255q0-3 0-4-36-150-150-243t-267-93q-81 0-157 31t-136 88l-72-72q-11-11-25-11t-25 11-11 25v250q0 14 11 25t25 11h250q14 0 25-11t10-25-10-25l-77-77q40-36 90-57t105-20q74 0 139 37t104 99q6 10 30 66 4 13 16 13h107q8 0 13-6t5-12z m14 446v-250q0-14-10-25t-26-11h-250q-14 0-25 11t-10 25 10 25l77 77q-82 77-194 77-75 0-140-37t-104-99q-6-10-29-66-5-13-17-13h-111q-7 0-13 6t-5 12v4q36 150 151 243t268 93q81 0 158-31t137-88l72 72q11 11 25 11t26-11 10-25z" horiz-adv-x="857.4" />

<glyph glyph-name="chart" unicode="&#xe81a;" d="M357 344v-286h-143v286h143z m214 286v-572h-142v572h142z m572-643v-72h-1143v858h71v-786h1072z m-357 500v-429h-143v429h143z m214 214v-643h-143v643h143z" horiz-adv-x="1140.6" />

<glyph glyph-name="check" unicode="&#xe81b;" d="M786 325v-177q0-67-47-114t-114-47h-464q-67 0-114 47t-47 114v464q0 66 47 113t114 48h464q35 0 65-14 9-4 10-13 2-10-5-16l-27-28q-6-5-13-5-1 0-5 1-13 3-25 3h-464q-37 0-63-26t-27-63v-464q0-37 27-63t63-27h464q37 0 63 27t26 63v141q0 8 5 13l36 35q6 6 13 6 3 0 7-2 11-4 11-16z m129 273l-455-454q-13-14-31-14t-32 14l-240 240q-14 13-14 31t14 32l61 62q14 13 32 13t32-13l147-147 361 361q13 13 31 13t32-13l62-61q13-14 13-32t-13-32z" horiz-adv-x="926.8" />

<glyph glyph-name="resize-full" unicode="&#xe81c;" d="M421 255q0-7-5-13l-185-185 80-81q10-10 10-25t-10-25-25-11h-250q-15 0-25 11t-11 25v250q0 15 11 25t25 11 25-11l80-80 186 185q5 6 12 6t13-6l64-63q5-6 5-13z m436 482v-250q0-15-10-25t-26-11-25 11l-80 80-185-185q-6-6-13-6t-13 6l-64 64q-5 5-5 12t5 13l186 185-81 81q-10 10-10 25t10 25 25 11h250q15 0 26-11t10-25z" horiz-adv-x="857.4" />

<glyph glyph-name="resize-small" unicode="&#xe81d;" d="M429 308v-250q0-14-11-25t-25-10-25 10l-81 81-185-186q-5-5-13-5t-12 5l-64 64q-6 6-6 13t6 13l185 185-80 80q-11 11-11 25t11 25 25 11h250q14 0 25-11t11-25z m421 375q0-7-6-12l-185-186 80-80q11-11 11-25t-11-25-25-11h-250q-14 0-25 11t-10 25v250q0 14 10 25t25 10 25-10l81-80 185 185q6 5 13 5t13-5l63-64q6-5 6-13z" horiz-adv-x="857.4" />

<glyph glyph-name="right-dir" unicode="&#xe81e;" d="M321 350q0-14-10-25l-250-250q-11-11-25-11t-25 11-11 25v500q0 15 11 25t25 11 25-11l250-250q10-10 10-25z" horiz-adv-x="357.1" />

<glyph glyph-name="user" unicode="&#xe81f;" d="M714 69q0-60-35-104t-84-44h-476q-49 0-84 44t-35 104q0 48 5 90t17 85 33 73 52 50 76 19q73-72 174-72t175 72q42 0 75-19t52-50 33-73 18-85 4-90z m-143 495q0-88-62-151t-152-63-151 63-63 151 63 152 151 63 152-63 62-152z" horiz-adv-x="714.3" />

<glyph glyph-name="bold" unicode="&#xe820;" d="M310 1q41-18 78-18 210 0 210 187 0 64-23 101-15 24-34 41t-38 26-45 14-47 6-53 1q-40 0-56-6 0-29 0-88t-1-88q0-5 0-38t0-54 2-47 7-37z m-8 417q23-4 61-4 46 0 80 7t61 25 42 50 14 79q0 39-16 68t-45 46-60 24-69 8q-28 0-73-7 0-28 3-84t2-85q0-15 0-45t-1-44q0-26 1-38z m-302-497l1 53q9 2 48 9t59 15q4 7 7 15t4 19 4 18 1 21 0 19v36q0 548-12 572-2 5-12 8t-25 6-28 4-27 3-17 2l-2 46q55 1 190 6t208 6q13 0 38-1t38 0q39 0 76-7t72-24 60-39 41-59 16-76q0-29-9-54t-22-40-36-32-41-25-47-22q86-20 144-75t57-138q0-56-20-101t-52-72-77-48-91-27-98-8q-25 0-74 2t-74 1q-59 0-171-6t-129-7z" horiz-adv-x="785.7" />

<glyph glyph-name="lock" unicode="&#xe821;" d="M179 415h285v108q0 59-42 101t-101 41-101-41-41-101v-108z m464-53v-322q0-22-16-37t-38-16h-535q-23 0-38 16t-16 37v322q0 22 16 38t38 15h17v108q0 102 74 176t176 74 177-74 73-176v-108h18q23 0 38-15t16-38z" horiz-adv-x="640.6" />

<glyph glyph-name="italic" unicode="&#xe822;" d="M0-78l10 48q12 4 34 9t40 11 33 13q16 19 23 56 1 4 35 162t63 303 29 165v14q-13 8-30 11t-39 4-32 3l10 58q19-1 67-4t84-4 67-1q27 0 55 1t68 4 54 4q-2-22-10-50-17-6-57-16t-60-19q-5-10-8-23t-5-23-4-25-4-24q-15-82-49-234t-43-198q-1-5-7-32t-11-51-9-46-4-32l1-10q9-3 103-18-2-24-9-55-6 0-18-1t-18-1q-16 0-49 6t-48 6q-77 1-115 1-28 0-79-5t-68-7z" horiz-adv-x="571.4" />

<glyph glyph-name="sort" unicode="&#xe823;" d="M726 638l142-184c21-26 10-49-24-49h-94v-374c0 0 0-1 0-1 0-35-28-62-62-62 0 0 0 0 0 0v0c-35 0-63 28-63 63v374h-94c-34 0-45 22-24 49l142 184c21 27 56 27 77 0z m-375-589c-21-27-56-27-77 0l-142 184c-21 27-10 49 24 49h94v374c0 0 0 0 0 1 0 34 28 62 62 62 0 0 1 0 1 0v0c34 0 62-27 62-63v-374h94c34 0 45-23 24-49l-142-184z" horiz-adv-x="1000" />

<glyph glyph-name="indent-left" unicode="&#xe824;" d="M214 546v-321q0-7-5-13t-13-5q-7 0-12 5l-161 161q-5 5-5 13t5 13l161 160q5 5 12 5 8 0 13-5t5-13z m786-428v-107q0-7-5-13t-13-5h-964q-7 0-13 5t-5 13v107q0 7 5 12t13 6h964q7 0 13-6t5-12z m0 214v-107q0-7-5-13t-13-5h-607q-7 0-13 5t-5 13v107q0 7 5 13t13 5h607q7 0 13-5t5-13z m0 214v-107q0-7-5-12t-13-6h-607q-7 0-13 6t-5 12v107q0 8 5 13t13 5h607q7 0 13-5t5-13z m0 215v-107q0-8-5-13t-13-5h-964q-7 0-13 5t-5 13v107q0 7 5 12t13 6h964q7 0 13-6t5-12z" horiz-adv-x="1000" />

<glyph glyph-name="indent-right" unicode="&#xe825;" d="M196 386q0-8-5-13l-160-161q-5-5-13-5-7 0-13 5t-5 13v321q0 8 5 13t13 5q8 0 13-5l160-160q5-5 5-13z m804-268v-107q0-7-5-13t-13-5h-964q-7 0-13 5t-5 13v107q0 7 5 12t13 6h964q7 0 13-6t5-12z m0 214v-107q0-7-5-13t-13-5h-607q-7 0-13 5t-5 13v107q0 7 5 13t13 5h607q7 0 13-5t5-13z m0 214v-107q0-7-5-12t-13-6h-607q-7 0-13 6t-5 12v107q0 8 5 13t13 5h607q7 0 13-5t5-13z m0 215v-107q0-8-5-13t-13-5h-964q-7 0-13 5t-5 13v107q0 7 5 12t13 6h964q7 0 13-6t5-12z" horiz-adv-x="1000" />

<glyph glyph-name="delete" unicode="&#xe826;" d="M250 375c0 52 42 94 94 94h312c52 0 94-42 94-94v-344c0-69-55-125-125-125h-250c-69 0-125 56-125 125v344z m438 282h-375v93c0 17 14 32 31 32h312c17 0 32-15 32-32v-93z m-500-63c0 35 28 63 62 63h500c35 0 63-28 63-63 0-34-29-62-63-62h-500c-35 0-62 27-62 62z m187 63h250v62h-250v-62z" horiz-adv-x="1000" />

<glyph glyph-name="picture" unicode="&#xe827;" d="M357 529q0-45-31-76t-76-32-76 32-31 76 31 76 76 31 76-31 31-76z m572-215v-250h-786v107l178 179 90-89 285 285z m53 393h-893q-7 0-12-5t-6-13v-678q0-7 6-13t12-5h893q7 0 13 5t5 13v678q0 8-5 13t-13 5z m89-18v-678q0-37-26-63t-63-27h-893q-36 0-63 27t-26 63v678q0 37 26 63t63 27h893q37 0 63-27t26-63z" horiz-adv-x="1071.4" />

<glyph glyph-name="search" unicode="&#xe828;" d="M643 380q0 103-73 176t-177 74-177-74-73-176 73-177 177-73 177 73 73 177z m286-465q0-29-22-50t-50-21q-30 0-50 21l-191 191q-100-69-223-69-80 0-153 31t-125 84-84 125-31 153 31 152 84 126 125 84 153 31 153-31 125-84 84-126 31-152q0-123-69-223l191-191q21-21 21-51z" horiz-adv-x="926.8" />

<glyph glyph-name="calendar" unicode="&#xe829;" d="M71-85h161v161h-161v-161z m197 0h178v161h-178v-161z m-197 197h161v178h-161v-178z m197 0h178v178h-178v-178z m-197 214h161v161h-161v-161z m411-411h179v161h-179v-161z m-214 411h178v161h-178v-161z m428-411h161v161h-161v-161z m-214 197h179v178h-179v-178z m-196 482v161q0 7-6 12t-12 6h-36q-7 0-12-6t-6-12v-161q0-7 6-13t12-5h36q7 0 12 5t6 13z m410-482h161v178h-161v-178z m-214 214h179v161h-179v-161z m214 0h161v161h-161v-161z m18 268v161q0 7-5 12t-13 6h-35q-7 0-13-6t-5-12v-161q0-7 5-13t13-5h35q8 0 13 5t5 13z m215 36v-715q0-29-22-50t-50-21h-786q-29 0-50 21t-21 50v715q0 29 21 50t50 21h72v54q0 37 26 63t63 26h36q37 0 63-26t26-63v-54h214v54q0 37 27 63t63 26h35q37 0 64-26t26-63v-54h71q29 0 50-21t22-50z" horiz-adv-x="926.8" />

<glyph glyph-name="edit" unicode="&#xe82a;" d="M496 183l64 65-85 85-64-65v-31h53v-54h32z m245 402q-9 9-18 0l-196-196q-9-9 0-18t18 0l196 196q9 9 0 18z m45-331v-106q0-67-47-114t-114-47h-464q-67 0-114 47t-47 114v464q0 66 47 113t114 48h464q35 0 65-14 9-4 10-13 2-10-5-16l-27-28q-8-8-18-4-13 3-25 3h-464q-37 0-63-26t-27-63v-464q0-37 27-63t63-27h464q37 0 63 27t26 63v70q0 7 5 12l36 36q8 8 20 4t11-16z m-54 411l161-160-375-375h-161v160z m248-73l-51-52-161 161 51 52q16 15 38 15t38-15l85-85q16-16 16-38t-16-38z" horiz-adv-x="1000" />

<glyph glyph-name="print" unicode="&#xe82b;" d="M214-7h500v143h-500v-143z m0 357h500v214h-89q-22 0-38 16t-16 38v89h-357v-357z m643-36q0 15-10 25t-26 11-25-11-10-25 10-25 25-10 26 10 10 25z m72 0v-232q0-7-6-12t-12-6h-125v-89q0-22-16-38t-38-16h-536q-22 0-37 16t-16 38v89h-125q-7 0-13 6t-5 12v232q0 44 32 76t75 31h36v304q0 22 16 38t37 16h375q23 0 50-12t42-26l85-85q15-16 27-43t11-49v-143h35q45 0 76-31t32-76z" horiz-adv-x="928.6" />

<glyph glyph-name="popup" unicode="&#xe82c;" d="M1091 844v-636h-273v-364h-818v636h273v364h818z m-273-545h182v363h-636v-182h454v-181z m-727-364h636v364h-636v-364z" horiz-adv-x="1089.8" />

<glyph glyph-name="pin-outline" unicode="&#xe82d;" d="M856 548q30-30 30-73t-30-75q-16-16-36-24-106-51-144-125-51-102-51-246 0-45-29-74t-75-30q-47 0-75 30l-167 169-279-199 199 279-169 168q-20 18-27 49t5 64q27 65 96 65 146 0 246 50l11 7q69 37 118 141 7 20 21 34 30 30 74 29t74-31z m-273-250q53 107 196 175l-205 211q-69-146-176-200l-13-6q-120-57-281-57l416-416q0 168 63 293z" horiz-adv-x="884.8" />

<glyph glyph-name="lock-open" unicode="&#xe82e;" d="M929 523v-143q0-15-11-25t-25-11h-36q-14 0-25 11t-11 25v143q0 59-41 101t-101 41-101-41-42-101v-108h53q23 0 38-15t16-38v-322q0-22-16-37t-38-16h-535q-23 0-38 16t-16 37v322q0 22 16 38t38 15h375v108q0 103 73 176t177 74 176-74 74-176z" horiz-adv-x="926.8" />

<glyph glyph-name="add-filter" unicode="&#xe82f;" d="M344 32c0 34 28 62 62 62h188c34 0 62-28 62-62 0-35-27-63-62-63h-188c-34 0-62 28-62 63z m-125 250c0 34 28 62 62 62h438c34 0 62-28 62-62 0-35-28-63-62-63h-438c0 0 0 0 0 0-34 0-62 28-62 62 0 0 0 1 0 1v0z m-156 281c0 52 42 94 93 94h688c52 0 94-42 94-94s-43-94-94-94h-688c0 0 0 0 0 0-51 0-93 41-93 93 0 0 0 1 0 1v0z" horiz-adv-x="1000" />

<glyph glyph-name="bucket" unicode="&#xe830;" d="M522 780q174 0 286-49t104-105q-6-38-48-307t-44-281q-2-18-37-44t-107-50-154-24-153 24-106 50-37 44q0 2-4 30 82-6 163 35t139 117q28 0 48 20t20 50q0 28-20 49t-50 21q-28 0-49-21t-21-49q0-20 10-36-48-58-115-89t-131-27q-102 10-157 57t-59 109q-8 122 156 184-18 94-22 138-8 56 104 105t284 49z m-452-470q4-32 37-59t91-39l-32 204q-100-44-96-106z m452 212q82 0 157 18t113 39 38 35-38 35-112 39-158 18q-82 0-156-18t-112-39-38-35 38-35 112-39 156-18z" horiz-adv-x="913" />

<glyph glyph-name="link" unicode="&#xe831;" d="M813 171q0 23-16 38l-116 116q-16 16-38 16-24 0-40-18 1-1 10-10t12-12 9-11 7-14 2-15q0-23-16-38t-38-16q-8 0-15 2t-14 7-11 9-12 12-10 10q-19-17-19-40 0-23 16-38l115-116q15-15 38-15 22 0 38 15l82 81q16 16 16 37z m-393 394q0 22-15 38l-115 115q-16 16-38 16-22 0-38-15l-82-82q-16-15-16-37 0-22 16-38l116-116q15-15 38-15 23 0 40 17-2 2-11 11t-12 12-8 10-7 14-2 16q0 22 15 38t38 15q9 0 16-2t14-7 11-8 12-12 10-11q18 17 18 41z m500-394q0-66-48-113l-82-81q-46-47-113-47-68 0-114 48l-115 115q-46 47-46 114 0 68 49 116l-49 49q-48-49-116-49-67 0-114 47l-116 116q-47 47-47 114t47 113l82 82q47 46 114 46 67 0 114-47l115-116q46-46 46-113 0-69-49-117l49-49q48 49 116 49 67 0 114-47l116-116q47-47 47-114z" horiz-adv-x="928.6" />

<glyph glyph-name="block" unicode="&#xe832;" d="M732 346q0 90-48 164l-421-420q76-50 166-50 62 0 118 25t96 65 65 97 24 119z m-557-167l421 421q-75 50-167 50-83 0-153-40t-110-111-41-153q0-91 50-167z m682 167q0-88-34-168t-91-137-137-92-166-34-167 34-137 92-91 137-34 168 34 167 91 137 137 91 167 34 166-34 137-91 91-137 34-167z" horiz-adv-x="857.4" />

<glyph glyph-name="settings" unicode="&#xe833;" d="M486 156c-52 1-98 24-131 59 0 0 0 0 0 0-33 35-52 82-51 134 2 52 24 98 59 131v0c35 33 83 52 135 51 51-2 97-24 130-59v0c33-35 53-83 51-135-1-51-24-98-59-130v0c-35-33-82-53-134-51m483 240l-111 26c-8 37-21 73-40 105l66 92c9 13 7 29-3 40l-50 54c-11 11-27 13-40 5l-96-60c-31 20-66 36-102 46l-19 112c-3 14-15 25-30 26l-74 2c-15 0-28-10-31-24l-26-111c-37-8-73-21-105-39l-92 65c-13 9-29 8-40-2l-54-51c-11-10-13-27-5-39l60-97c-20-31-36-65-46-102l-112-19c-14-2-25-15-26-30l-2-74c-1-14 10-28 24-31l111-26c8-37 21-72 39-105l-65-92c-9-12-8-29 2-40l51-53c10-11 27-13 39-6l96 61c32-21 66-37 103-47l19-112c2-14 15-25 30-26l74-2c14 0 28 10 31 24l26 111c37 8 72 21 105 40l92-66c12-9 29-8 40 3l53 50c11 11 13 27 5 40l-60 96c21 31 36 66 47 102l111 19c15 3 26 15 26 30l3 74c0 15-10 28-24 31" horiz-adv-x="1000" />

<glyph glyph-name="duplicate" unicode="&#xe834;" d="M313 594c0 69 56 125 124 125h313c69 0 125-56 125-125v-313c0-69-56-124-125-124h-313c-69 0-124 56-124 124v313z m-188-500v375c0 35 28 63 63 63 34 0 62-29 62-63v-281c0-52 42-94 94-94h281c35 0 63-28 63-62 0-35-28-63-63-63h-375c-69 0-125 56-125 125z" horiz-adv-x="1000" />

<glyph glyph-name="copy-record" unicode="&#xe835;" d="M405 719l-3-6c-15-31 1-56 36-56h124c35 0 50 24 35 55l-4 7h95v-62c0 0 0 0 0 0 0-35-28-63-62-63v0h-252c-34 0-61 28-61 62 0 0 0 1 0 1v0 62h92l3 6c15 31 55 57 90 57s76-26 91-56l4-7h189c51 0 93-42 93-93v0-626c0 0 0 0 0 0 0-52-41-94-93-94h-563c0 0-1 0-1 0-51 0-93 41-93 93 0 0 0 0 0 1v0 626c1 51 42 93 94 93 0 0 0 0 0 0h186z m345-625v32c0 17-14 31-31 31v0c-17 0-31-14-31-31v-32h-32c-17 0-31-14-31-31v0c0-17 14-31 31-31h32v-32c0-18 14-31 31-31s31 14 31 31v32h32c17 0 31 14 31 31s-14 31-31 31h-32z m-500 344c0-17 14-31 31-31h313c17 0 31 14 31 31s-14 31-31 31v0h-313c-17 0-31-14-31-31v0z m0-125c0-17 14-31 31-31h438c17 0 31 14 31 31s-14 31-31 31h-438c-17 0-31-14-31-31z m0-125c0-17 14-31 31-31h313c17 0 31 14 31 31s-14 31-31 31v0h-313c-17 0-31-14-31-31v0z m0-125c0-17 14-31 31-31h126c17 0 31 14 31 31s-14 31-31 31h-126c-17 0-31-14-31-31v0z" horiz-adv-x="1000" />

<glyph glyph-name="download-alt" unicode="&#xe836;" d="M0-156v135h1000v-135h-1000z m88 586h228v414h370v-414h228l-414-385z" horiz-adv-x="1000" />

<glyph glyph-name="clock" unicode="&#xe837;" d="M500 540v-250q0-7-5-12t-13-5h-178q-8 0-13 5t-5 12v36q0 8 5 13t13 5h125v196q0 8 5 13t12 5h36q8 0 13-5t5-13z m232-196q0 83-41 152t-110 111-152 41-153-41-110-111-41-152 41-152 110-111 153-41 152 41 110 111 41 152z m125 0q0-117-57-215t-156-156-215-58-216 58-155 156-58 215 58 215 155 156 216 58 215-58 156-156 57-215z" horiz-adv-x="857.4" />

<glyph glyph-name="attention" unicode="&#xe838;" d="M571 77v106q0 8-5 13t-12 5h-108q-7 0-12-5t-5-13v-106q0-8 5-13t12-6h108q7 0 12 6t5 13z m-1 208l10 257q0 6-5 10-7 6-14 6h-122q-6 0-14-6-5-4-5-12l9-255q0-5 6-9t13-3h103q8 0 14 3t5 9z m-7 522l428-786q20-35-1-70-9-17-26-26t-35-10h-858q-18 0-35 10t-26 26q-21 35-1 70l429 786q9 17 26 27t36 10 36-10 27-27z" horiz-adv-x="1000" />

<glyph glyph-name="help-circled" unicode="&#xe839;" d="M0 344q0 95 37 182t100 149 149 100 183 37q95 0 182-37t149-100 100-149 37-182-37-182-100-150-149-100-182-37q-96 0-183 37t-149 100-100 150-37 182z m333 175l31-101q46 29 92 29 50 0 50-22 0-5-2-8t-6-8-7-5-10-6-9-4l-40-21q-22-12-28-25t-6-37v-38h117v16q0 7 0 10t3 6 6 6q1 0 11 4t17 9 19 10 18 14q19 16 29 36t11 56q0 49-42 83t-106 34q-85 0-148-38z m48-333q0-32 21-49t55-17q33 0 54 17t20 49-20 49-54 18q-35 0-55-18t-21-49z" horiz-adv-x="935.5" />

<glyph glyph-name="scissors" unicode="&#xe83a;" d="M536 350q14 0 25-11t10-25-10-25-25-10-25 10-11 25 11 25 25 11z m167-36l283-222q16-11 14-31-3-20-19-28l-72-36q-7-4-16-4-10 0-17 4l-385 216-62-36q-4-3-7-3 8-28 6-54-4-43-31-83t-74-69q-74-47-154-47-76 0-124 44-51 47-44 116 4 42 31 82t73 69q74 47 155 47 46 0 84-18 5 8 13 13l68 40-68 41q-8 5-13 12-38-17-84-17-81 0-155 47-46 30-73 69t-31 82q-3 33 8 63t36 52q47 44 124 44 80 0 154-47 46-29 74-68t31-83q2-27-6-54 3-1 7-3l62-37 385 216q7 5 17 5 9 0 16-4l72-36q16-9 19-28 2-20-14-32z m-380 145q26 24 12 61t-59 65q-52 33-107 33-42 0-63-20-26-24-12-60t59-66q51-33 107-33 41 0 63 20z m-47-415q45 28 59 65t-12 60q-22 20-63 20-56 0-107-33-45-28-59-65t12-60q21-20 63-20 55 0 107 33z m99 342l54-33v7q0 20 18 31l8 4-44 26-15-14q-1-2-5-6t-7-7q-1-1-2-2t-2-1z m125-125l54-18 410 321-71 36-429-240v-64l-89-53 5-5q1-1 4-3 2-2 6-7t6-6l15-15z m393-232l71 35-290 228-99-77q-1-2-7-4z" horiz-adv-x="1000" />

<glyph glyph-name="book-open" unicode="&#xe83b;" d="M340 238l0-68-200 80 0 68z m0 208l0-68-200 80 0 68z m538 346q22-12 22-42l0-640q0-34-32-46l-398-160q-8-2-10-2t-5-1-5-1-5 1-5 1l-10 2-398 160q-32 12-32 46l0 640q0 30 22 42 22 16 46 6l382-154 382 154q24 10 46-6z m-478-788l0 560-320 128 0-560z m420 128l0 560-320-128 0-560z m-60 186l0-68-200-80 0 68z m0 208l0-68-200-80 0 68z" horiz-adv-x="900" />

<glyph glyph-name="mail" unicode="&#xe83c;" d="M929 5v428q-18-20-39-36-149-115-238-189-28-24-46-37t-48-28-57-13h-2q-26 0-57 13t-48 28-46 37q-88 74-238 189-21 16-39 36v-428q0-7 6-13t12-5h822q7 0 12 5t6 13z m0 586v14t-1 7-1 7-3 5-5 4-8 2h-822q-7 0-12-6t-6-12q0-94 83-159 107-84 223-176 4-3 20-17t25-21 25-17 28-16 24-5h2q11 0 24 5t28 16 25 17 25 21 20 17q116 92 224 176 30 24 56 65t26 73z m71 21v-607q0-37-26-63t-63-27h-822q-36 0-63 27t-26 63v607q0 37 26 63t63 26h822q37 0 63-26t26-63z" horiz-adv-x="1000" />

<glyph glyph-name="phone" unicode="&#xe83d;" d="M786 158q0-15-6-39t-12-38q-11-28-68-60-52-28-103-28-15 0-30 2t-32 7-26 8-31 11-28 10q-54 20-97 47-71 44-148 120t-120 148q-27 43-46 97-2 5-10 28t-12 31-8 26-7 32-2 29q0 52 29 104 31 57 59 68 14 6 38 12t39 6q8 0 12-2 10-3 30-42 6-11 16-31t20-35 17-30q2-2 10-14t12-20 4-16q0-11-16-27t-35-31-34-30-16-25q0-5 3-13t4-11 8-14 7-10q42-77 97-132t131-97q1 0 10-6t14-8 11-5 13-2q10 0 25 16t30 34 31 35 28 16q7 0 15-4t20-12 14-10q14-8 30-17t36-20 30-17q39-19 42-29 2-4 2-12z" horiz-adv-x="785.7" />

<glyph glyph-name="list-alt" unicode="&#xe83e;" d="M214 189v-35q0-8-5-13t-13-5h-35q-7 0-13 5t-5 13v35q0 8 5 13t13 5h35q8 0 13-5t5-13z m0 143v-36q0-7-5-12t-13-5h-35q-7 0-13 5t-5 12v36q0 7 5 13t13 5h35q8 0 13-5t5-13z m0 143v-36q0-7-5-12t-13-6h-35q-7 0-13 6t-5 12v36q0 7 5 13t13 5h35q8 0 13-5t5-13z m643-286v-35q0-8-5-13t-13-5h-535q-8 0-13 5t-5 13v35q0 8 5 13t13 5h535q8 0 13-5t5-13z m0 143v-36q0-7-5-12t-13-5h-535q-8 0-13 5t-5 12v36q0 7 5 13t13 5h535q8 0 13-5t5-13z m0 143v-36q0-7-5-12t-13-6h-535q-8 0-13 6t-5 12v36q0 7 5 13t13 5h535q8 0 13-5t5-13z m72-393v464q0 8-6 13t-12 5h-822q-7 0-12-5t-6-13v-464q0-7 6-12t12-6h822q7 0 12 6t6 12z m71 607v-607q0-37-26-63t-63-26h-822q-36 0-63 26t-26 63v607q0 37 26 63t63 27h822q37 0 63-27t26-63z" horiz-adv-x="1000" />

<glyph glyph-name="up" unicode="&#xe83f;" d="M366 784l334-334q31-31 31-73t-31-74-74-31-73 31l-83 82v-377q0-44-31-74t-73-30q-43 0-74 31t-31 73v377l-82-82q-31-31-74-31t-74 31-31 74 31 73z" horiz-adv-x="731.4" />

<glyph glyph-name="videocam" unicode="&#xe840;" d="M1000 654v-608q0-23-22-32-7-3-14-3-15 0-25 10l-225 225v-92q0-67-47-114t-113-47h-393q-67 0-114 47t-47 114v392q0 67 47 114t114 47h393q66 0 113-47t47-114v-92l225 225q10 10 25 10 7 0 14-2 22-10 22-33z" horiz-adv-x="1000" />

<glyph glyph-name="zoom-in" unicode="&#xe841;" d="M571 404v-36q0-7-5-13t-12-5h-125v-125q0-7-6-13t-12-5h-36q-7 0-13 5t-5 13v125h-125q-7 0-12 5t-6 13v36q0 7 6 12t12 5h125v125q0 8 5 13t13 5h36q7 0 12-5t6-13v-125h125q7 0 12-5t5-12z m72-18q0 103-73 176t-177 74-177-74-73-176 73-177 177-73 177 73 73 177z m286-465q0-29-21-50t-51-21q-30 0-50 21l-191 191q-100-69-223-69-80 0-153 31t-125 84-84 125-31 153 31 152 84 126 125 84 153 31 153-31 125-84 84-126 31-152q0-123-69-223l191-191q21-21 21-51z" horiz-adv-x="928.6" />

<glyph glyph-name="zoom-out" unicode="&#xe842;" d="M571 404v-36q0-7-5-13t-12-5h-322q-7 0-12 5t-6 13v36q0 7 6 12t12 5h322q7 0 12-5t5-12z m72-18q0 103-73 176t-177 74-177-74-73-176 73-177 177-73 177 73 73 177z m286-465q0-29-21-50t-51-21q-30 0-50 21l-191 191q-100-69-223-69-80 0-153 31t-125 84-84 125-31 153 31 152 84 126 125 84 153 31 153-31 125-84 84-126 31-152q0-123-69-223l191-191q21-21 21-51z" horiz-adv-x="928.6" />

<glyph glyph-name="home" unicode="&#xe843;" d="M786 296v-267q0-15-11-25t-25-11h-214v214h-143v-214h-214q-15 0-25 11t-11 25v267q0 1 0 2t0 2l321 264 321-264q1-1 1-4z m124 39l-34-41q-5-5-12-6h-2q-7 0-12 3l-386 322-386-322q-7-4-13-3-7 1-12 6l-35 41q-4 6-3 13t6 12l401 334q18 15 42 15t43-15l136-113v108q0 8 5 13t13 5h107q8 0 13-5t5-13v-227l122-102q6-4 6-12t-4-13z" horiz-adv-x="928.6" />

<glyph glyph-name="target" unicode="&#xe844;" d="M668 279h-61q-14 0-25 10t-11 25v72q0 14 11 25t25 10h61q-18 61-63 106t-105 62v-60q0-15-11-25t-25-11h-71q-15 0-25 11t-11 25v60q-60-17-105-62t-63-106h61q15 0 25-10t11-25v-72q0-14-11-25t-25-10h-61q18-61 63-106t105-62v60q0 15 11 26t25 10h71q15 0 25-10t11-26v-60q60 18 105 62t63 106z m189 107v-72q0-14-10-25t-26-10h-79q-21-90-87-156t-155-86v-80q0-14-11-25t-25-11h-71q-15 0-25 11t-11 25v80q-90 21-155 86t-86 156h-80q-15 0-25 10t-11 25v72q0 14 11 25t25 10h80q20 90 86 156t155 86v80q0 14 11 25t25 11h71q15 0 25-11t11-25v-80q90-21 155-86t87-156h79q15 0 26-10t10-25z" horiz-adv-x="857.1" />

<glyph glyph-name="doc" unicode="&#xe845;" d="M819 638q16-16 27-42t11-50v-642q0-23-15-38t-38-16h-750q-23 0-38 16t-16 38v892q0 23 16 38t38 16h500q22 0 49-11t42-27z m-248 136v-210h210q-5 17-12 23l-175 175q-6 7-23 12z m215-853v572h-232q-23 0-38 16t-16 37v233h-429v-858h715z" horiz-adv-x="857.1" />

<glyph glyph-name="doc-text-1" unicode="&#xe846;" d="M819 638q16-16 27-42t11-50v-642q0-23-15-38t-38-16h-750q-23 0-38 16t-16 38v892q0 23 16 38t38 16h500q22 0 49-11t42-27z m-248 136v-210h210q-5 17-12 23l-175 175q-6 7-23 12z m215-853v572h-232q-23 0-38 16t-16 37v233h-429v-858h715z m-572 483q0 7 5 12t13 5h393q8 0 13-5t5-12v-36q0-8-5-13t-13-5h-393q-8 0-13 5t-5 13v36z m411-125q8 0 13-5t5-13v-36q0-8-5-13t-13-5h-393q-8 0-13 5t-5 13v36q0 8 5 13t13 5h393z m0-143q8 0 13-5t5-13v-36q0-8-5-13t-13-5h-393q-8 0-13 5t-5 13v36q0 8 5 13t13 5h393z" horiz-adv-x="857.1" />

<glyph glyph-name="file-pdf-1" unicode="&#xe847;" d="M819 638q16-16 27-42t11-50v-642q0-23-15-38t-38-16h-750q-23 0-38 16t-16 38v892q0 23 16 38t38 16h500q22 0 49-11t42-27z m-248 136v-210h210q-5 17-12 23l-175 175q-6 7-23 12z m215-853v572h-232q-23 0-38 16t-16 37v233h-429v-858h715z m-287 331q18-14 47-31 33 4 65 4 82 0 99-27 9-13 1-29 0-1-1-1l-1-2v0q-3-21-39-21-27 0-64 11t-73 29q-123-13-219-46-85-146-135-146-8 0-15 4l-14 7q0 0-3 2-6 6-4 20 5 23 32 51t73 54q8 5 13-3 1-1 1-2 29 47 60 110 38 76 58 146-13 46-17 89t4 71q6 22 23 22h12q13 0 20-8 10-12 5-38-1-3-2-4 0-2 0-5v-17q-1-68-8-107 31-91 82-133z m-321-229q29 13 76 88-29-22-49-47t-27-41z m222 513q-9-23-2-73 1 4 4 24 0 2 4 24 1 3 3 5-1 0-1 1-1 1-1 2 0 12-7 20 0-1 0-1v-2z m-70-368q76 30 159 45-1 0-7 5t-9 8q-43 37-71 98-15-48-46-110-17-31-26-46z m361 9q-13 13-78 13 42-16 69-16 8 0 10 1 0 0-1 2z" horiz-adv-x="857.1" />

<glyph glyph-name="file-archive-1" unicode="&#xe848;" d="M357 636v71h-71v-71h71z m72-72v72h-72v-72h72z m-72-71v71h-71v-71h71z m72-72v72h-72v-72h72z m390 217q16-16 27-42t11-50v-642q0-23-15-38t-38-16h-750q-23 0-38 16t-16 38v892q0 23 16 38t38 16h500q22 0 49-11t42-27z m-248 136v-210h210q-5 17-12 23l-175 175q-6 7-23 12z m215-853v572h-232q-23 0-38 16t-16 37v233h-71v-72h-72v72h-286v-858h715z m-350 403l60-195q4-15 4-29 0-46-40-77t-103-30-102 30-41 77q0 14 5 29 12 35 67 221v71h71v-71h44q13 0 22-7t13-19z m-79-260q30 0 51 11t21 25-21 25-51 11-50-11-21-25 21-25 50-11z" horiz-adv-x="857.1" />

<glyph glyph-name="cancel-1" unicode="&#xe849;" d="M452 194q18-18 18-43t-18-43q-18-16-43-16t-43 16l-132 152-132-152q-18-16-43-16t-43 16q-16 18-16 43t16 43l138 156-138 158q-16 18-16 43t16 43q18 16 43 16t43-16l132-152 132 152q18 16 43 16t43-16q18-18 18-43t-18-43l-138-158z" horiz-adv-x="470" />

<glyph glyph-name="doc-text-2" unicode="&#xe84a;" d="M819 638q16-16 27-42t11-50v-642q0-23-15-38t-38-16h-750q-23 0-38 16t-16 38v892q0 23 16 38t38 16h500q22 0 49-11t42-27z m-248 136v-210h210q-5 17-12 23l-175 175q-6 7-23 12z m215-853v572h-232q-23 0-38 16t-16 37v233h-429v-858h715z m-572 483q0 7 5 12t13 5h393q8 0 13-5t5-12v-36q0-8-5-13t-13-5h-393q-8 0-13 5t-5 13v36z m411-125q8 0 13-5t5-13v-36q0-8-5-13t-13-5h-393q-8 0-13 5t-5 13v36q0 8 5 13t13 5h393z m0-143q8 0 13-5t5-13v-36q0-8-5-13t-13-5h-393q-8 0-13 5t-5 13v36q0 8 5 13t13 5h393z" horiz-adv-x="857.1" />

<glyph glyph-name="file-pdf-2" unicode="&#xe84b;" d="M819 638q16-16 27-42t11-50v-642q0-23-15-38t-38-16h-750q-23 0-38 16t-16 38v892q0 23 16 38t38 16h500q22 0 49-11t42-27z m-248 136v-210h210q-5 17-12 23l-175 175q-6 7-23 12z m215-853v572h-232q-23 0-38 16t-16 37v233h-429v-858h715z m-287 331q18-14 47-31 33 4 65 4 82 0 99-27 9-13 1-29 0-1-1-1l-1-2v0q-3-21-39-21-27 0-64 11t-73 29q-123-13-219-46-85-146-135-146-8 0-15 4l-14 7q0 0-3 2-6 6-4 20 5 23 32 51t73 54q8 5 13-3 1-1 1-2 29 47 60 110 38 76 58 146-13 46-17 89t4 71q6 22 23 22h12q13 0 20-8 10-12 5-38-1-3-2-4 0-2 0-5v-17q-1-68-8-107 31-91 82-133z m-321-229q29 13 76 88-29-22-49-47t-27-41z m222 513q-9-23-2-73 1 4 4 24 0 2 4 24 1 3 3 5-1 0-1 1-1 1-1 2 0 12-7 20 0-1 0-1v-2z m-70-368q76 30 159 45-1 0-7 5t-9 8q-43 37-71 98-15-48-46-110-17-31-26-46z m361 9q-13 13-78 13 42-16 69-16 8 0 10 1 0 0-1 2z" horiz-adv-x="857.1" />

<glyph glyph-name="file-archive-2" unicode="&#xe84c;" d="M357 636v71h-71v-71h71z m72-72v72h-72v-72h72z m-72-71v71h-71v-71h71z m72-72v72h-72v-72h72z m390 217q16-16 27-42t11-50v-642q0-23-15-38t-38-16h-750q-23 0-38 16t-16 38v892q0 23 16 38t38 16h500q22 0 49-11t42-27z m-248 136v-210h210q-5 17-12 23l-175 175q-6 7-23 12z m215-853v572h-232q-23 0-38 16t-16 37v233h-71v-72h-72v72h-286v-858h715z m-350 403l60-195q4-15 4-29 0-46-40-77t-103-30-102 30-41 77q0 14 5 29 12 35 67 221v71h71v-71h44q13 0 22-7t13-19z m-79-260q30 0 51 11t21 25-21 25-51 11-50-11-21-25 21-25 50-11z" horiz-adv-x="857.1" />

<glyph glyph-name="cloud" unicode="&#xe84d;" d="M1071 207q0-89-62-151t-152-63h-607q-103 0-177 73t-73 177q0 74 40 135t104 91q-1 16-1 24 0 118 84 202t202 84q88 0 159-49t105-129q39 35 93 35 59 0 101-42t42-101q0-42-23-77 72-17 119-75t46-134z" horiz-adv-x="1071.4" />

<glyph glyph-name="heart" unicode="&#xe84e;" d="M500-79q-14 0-25 10l-348 336q-5 5-15 15t-31 37-38 54-30 67-13 77q0 123 71 192t196 70q34 0 70-12t67-33 54-38 42-38q20 20 42 38t54 38 67 33 70 12q125 0 196-70t71-192q0-123-128-251l-347-335q-10-10-25-10z" horiz-adv-x="1000" />

<glyph glyph-name="thumbs-up-1" unicode="&#xe84f;" d="M143 100q0 15-11 25t-25 11-25-11-11-25 11-25 25-11 25 11 11 25z m643 321q0 29-22 50t-50 22h-196q0 32 27 89t26 89q0 55-17 81t-72 27q-14-15-21-48t-17-70-33-61q-13-13-43-51-2-3-13-16t-18-23-19-24-22-25-22-19-22-15-20-6h-18v-357h18q7 0 18-1t18-4 21-6 20-7 20-6 16-6q118-41 191-41h67q107 0 107 93 0 15-2 31 16 9 26 30t10 41-10 38q29 28 29 67 0 14-5 31t-14 26q18 1 30 26t12 45z m71 1q0-50-27-91 5-18 5-38 0-43-21-81 1-12 1-24 0-56-33-99 0-78-48-123t-126-45h-72q-54 0-106 13t-121 36q-65 23-77 23h-161q-29 0-50 21t-21 50v357q0 30 21 51t50 21h153q20 13 77 86 32 42 60 72 13 14 19 48t17 70 35 60q22 21 50 21 47 0 84-18t57-57 20-104q0-51-27-107h98q58 0 101-42t42-100z" horiz-adv-x="857.1" />

<glyph glyph-name="flag" unicode="&#xe850;" d="M179 707q0-40-36-61v-707q0-7-5-12t-13-6h-36q-7 0-12 6t-6 12v707q-35 21-35 61 0 30 21 51t50 21 51-21 21-51z m821-36v-425q0-14-7-22t-22-15q-120-65-206-65-34 0-69 12t-60 27-65 27-79 12q-107 0-259-81-10-5-19-5-14 0-25 10t-10 25v415q0 17 17 30 12 8 44 24 132 67 235 67 60 0 112-16t122-49q21-11 49-11 30 0 65 12t62 26 49 26 30 12q15 0 25-10t11-26z" horiz-adv-x="1000" />

<glyph glyph-name="music" unicode="&#xe851;" d="M857 725v-625q0-28-19-50t-48-33-58-18-53-6-54 6-58 18-48 33-19 50 19 50 48 33 58 18 54 6q58 0 107-22v300l-429-132v-396q0-28-19-50t-48-33-58-18-53-6-54 6-58 18-48 33-19 50 19 50 48 34 58 17 54 6q58 0 107-21v539q0 17 10 32t28 20l464 142q7 3 16 3 22 0 38-16t15-38z" horiz-adv-x="857.1" />

<glyph glyph-name="list-check-solid" unicode="&#xe89f;" d="M297 775c19-17 21-46 4-66l-141-156c-9-10-21-15-34-15s-25 4-34 13l-78 78c-19 19-19 48 0 67s48 18 66 0l43-43 108 119c17 19 47 21 66 4z m0-312c19-17 21-47 4-66l-141-157c-9-9-21-15-34-15s-25 5-34 14l-78 78c-19 18-19 48 0 66s48 18 66 0l43-43 108 119c17 20 47 21 66 4z m141 200c0 34 27 62 62 62h438c34 0 62-28 62-62s-28-63-62-63h-438c-35 0-62 28-62 63z m0-313c0 35 27 63 62 63h438c34 0 62-28 62-63s-28-62-62-62h-438c-35 0-62 27-62 62z m-125-312c0 34 27 62 62 62h563c34 0 62-28 62-62s-28-63-62-63h-563c-35 0-62 28-62 63z m-219 93a94 94 0 1 0 0-187 94 94 0 1 0 0 187z" horiz-adv-x="1000" />

<glyph glyph-name="kanban" unicode="&#xe8a1;" d="M1 725c0 69 47 125 107 125h785c59 0 107-56 107-125v-500c0-69-48-125-107-125h-143c-13 0-25 2-36 7v-132c0-69-48-125-107-125h-214c-59 0-107 56-107 125v382c-11-4-23-7-36-7h-142c-60 0-107 56-107 125v250z m356-750c0-23 16-42 36-42h214c20 0 36 19 36 42v792h-286v-792z m-71 792h-178c-20 0-36-19-36-42v-250c0-23 16-42 36-42h142c20 0 36 19 36 42v292z m428 0v-542c0-23 16-42 36-42h143c19 0 35 19 35 42v500c0 23-16 42-35 42h-179z" horiz-adv-x="1000" />

<glyph glyph-name="card" unicode="&#xe8a2;" d="M1 725c0 69 51 125 115 125h230c64 0 116-56 116-125v-208c0-69-52-125-116-125h-230c-64 0-115 56-115 125v208z m115 42c-21 0-38-19-38-42v-208c0-23 17-42 38-42h230c22 0 39 19 39 42v208c0 23-17 42-39 42h-230z m422-42c0 69 52 125 116 125h230c64 0 115-56 115-125v-208c0-69-51-125-115-125h-230c-64 0-116 56-116 125v208z m116 42c-22 0-39-19-39-42v-208c0-23 17-42 39-42h230c21 0 39 19 39 42v208c0 23-18 42-39 42h-230z m-653-584c0 69 51 125 115 125h230c64 0 116-56 116-125v-208c0-69-52-125-116-125h-230c-64 0-115 56-115 125v208z m115 42c-21 0-38-19-38-42v-208c0-23 17-42 38-42h230c22 0 39 19 39 42v208c0 23-17 42-39 42h-230z m422-42c0 69 52 125 116 125h230c64 0 115-56 115-125v-208c0-69-51-125-115-125h-230c-64 0-116 56-116 125v208z m116 42c-22 0-39-19-39-42v-208c0-23 17-42 39-42h230c21 0 39 19 39 42v208c0 23-18 42-39 42h-230z" horiz-adv-x="1000" />

<glyph glyph-name="grid" unicode="&#xe8a3;" d="M39 850c-11 0-20-5-28-15-7-9-11-22-11-35v-850c0-55 35-100 77-100v0h846c42 0 77 45 77 100v850c0 13-4 26-11 35-7 10-17 15-27 15h-923z m38-100h846v-200h-846v200z m0-300h192v-200h-192v200z m269 0h577v-200h-577v200z m-269-300h192v-200h-192l0 200z m269 0h577v-200h-577v200z" horiz-adv-x="1000" />

<glyph glyph-name="group-53" unicode="&#xe8a4;" d="M563 819c0 17-14 31-32 31-17 0-31-14-31-31v-938c0-17 14-31 31-31 18 0 32 14 32 31v94h156c52 0 94 42 94 94v125c0 52-42 94-94 94h-156v125h343c52 0 94 42 94 93v125c0 52-42 94-94 94h-343v94z m0-156v-188h343c18 0 32 14 32 31v125c0 18-14 32-32 32h-343z m0-438v-187h156c17 0 31 14 31 31v125c0 17-14 31-31 31h-156z m-282 500h157v-62h-157c-17 0-31-14-31-32v-125c0-17 14-31 31-31h157v-62h-157c-51 0-93 42-93 93v125c0 52 42 94 93 94z m157-437h-344c-52 0-94-42-94-94v-125c0-52 42-94 94-94h344v63h-344c-17 0-31 14-31 31v125c0 17 14 31 31 31h344v63z" horiz-adv-x="1000" />

<glyph glyph-name="group-54" unicode="&#xe8a5;" d="M356 350c-11 0-21-4-28-11-7-6-12-15-12-25 0-10 5-19 12-26 7-6 17-10 28-10h55l-27-32c-5-5-8-11-9-18-1-7 1-14 4-20 3-6 8-11 14-15 7-3 14-5 21-5 29 0 48-25 36-50 0 0 0 0 0 0-5-11-15-19-28-22 0 0 0 0 0 0-13-2-26 2-35 10-4 4-8 6-13 8-5 2-10 3-15 3-5 0-10-1-15-3-5-2-9-4-13-8-3-3-6-7-8-11-2-5-3-9-3-14 0-5 1-10 3-14 2-4 5-8 8-12 28-25 68-36 106-29 38 7 71 31 86 64 22 50-1 103-44 131l44 50c4 6 7 12 8 19 1 7 0 13-4 20-3 6-8 11-14 15-6 3-13 5-21 5h-136z m335 0c-9 1-19-2-27-7l-78-54c-4-3-8-7-10-11-3-4-5-8-5-13-1-5-1-9 1-14 1-5 3-9 6-13 3-4 7-7 12-9 4-3 9-4 14-5 5 0 10 0 15 1 5 1 10 3 14 6l15 11v-162c0-10 5-19 12-26 7-7 17-10 28-10 10 0 20 3 27 10 7 7 12 16 12 26v234c0 9-4 18-11 24-6 7-15 11-25 12z m-394 469c-10 0-20-4-28-11-7-7-11-16-11-25v-36h-117c-43 0-78-33-78-72v-722c0-39 35-72 78-72h781c43 0 78 33 78 72v722c0 39-35 72-78 72h-117v36c0 9-4 18-12 25-7 7-17 11-27 11-11 0-21-4-28-11-7-7-11-16-11-25v-36h-391v36c0 9-4 18-11 25-8 7-18 11-28 11z m-156-144h117v-36c0-10 4-19 11-26 8-7 18-11 28-11 10 0 20 4 28 11 7 7 11 16 11 26v36h391v-36c0-10 4-19 11-26 7-7 17-11 28-11 10 0 20 4 27 11 8 7 12 16 12 26v36h117v-145h-781v145z m0-217h781v-505h-781v505z" horiz-adv-x="1000" />

<glyph glyph-name="first_page" unicode="&#xe900;" d="M250 600h84v-500h-84v500z m518-441l-59-59-250 250 250 250 59-59-192-191z" horiz-adv-x="1000" />

<glyph glyph-name="keyboard_arrow_down" unicode="&#xe901;" d="M309 524l191-192 191 192 59-59-250-250-250 250z" horiz-adv-x="1000" />

<glyph glyph-name="keyboard_arrow_left" unicode="&#xe902;" d="M643 180l-59-58-250 250 250 250 59-59-192-191z" horiz-adv-x="1000" />

<glyph glyph-name="keyboard_arrow_right" unicode="&#xe903;" d="M357 168l192 192-192 191 59 59 250-250-250-250z" horiz-adv-x="1000" />

<glyph glyph-name="keyboard_arrow_up" unicode="&#xe904;" d="M309 207l-59 59 250 250 250-250-59-59-191 192z" horiz-adv-x="1000" />

<glyph glyph-name="last_page" unicode="&#xe905;" d="M666 600h84v-500h-84v500z m-434-59l59 59 250-250-250-250-59 59 192 191z" horiz-adv-x="1000" />

<glyph glyph-name="more_horiz" unicode="&#xe906;" d="M500 434c45 0 84-39 84-84s-39-84-84-84-84 39-84 84 39 84 84 84z m250 0c45 0 84-39 84-84s-39-84-84-84-84 39-84 84 39 84 84 84z m-500 0c45 0 84-39 84-84s-39-84-84-84-84 39-84 84 39 84 84 84z" horiz-adv-x="1000" />

<glyph glyph-name="skip_next" unicode="&#xe907;" d="M666 600h84v-500h-84v500z m-416-500v500l354-250z" horiz-adv-x="1000" />

<glyph glyph-name="check1" unicode="&#xe908;" d="M375 170l441 441 59-58-500-500-232 232 58 59z" horiz-adv-x="1000" />

<glyph glyph-name="mode_edit" unicode="&#xe909;" d="M863 551l-76-76-156 156 76 76c16 16 43 16 59 0l97-98c16-15 16-43 0-58z m-738-426l461 461 156-156-461-461h-156v156z" horiz-adv-x="1000" />

<glyph glyph-name="replay" unicode="&#xe90c;" d="M500 635c184 0 334-149 334-332s-150-334-334-334-334 150-334 334h84c0-139 111-250 250-250s250 111 250 250-111 250-250 250v-168l-209 209 209 209v-168z" horiz-adv-x="1000" />

<glyph glyph-name="visibility" unicode="&#xe90d;" d="M500 469c68 0 125-57 125-125s-57-125-125-125-125 56-125 125 57 125 125 125z m0-334c115 0 209 94 209 209s-94 209-209 209-209-94-209-209 94-209 209-209z m0 521c209 0 387-129 459-312-72-184-250-313-459-313s-387 129-459 313c72 183 250 312 459 312z" horiz-adv-x="1000" />

<glyph glyph-name="visibility_off" unicode="&#xe90e;" d="M494 469h6c68 0 125-57 125-125v-8z m-179-33c-14-28-24-59-24-92 0-115 94-209 209-209 33 0 65 10 92 23l-65 65c-7-2-17-4-27-4-68 0-125 56-125 125 0 10 2 19 4 27z m-231 230l53 53 738-739-53-52c-47 46-94 92-140 138-57-23-117-35-182-35-209 0-387 129-459 313 33 82 88 152 156 207-38 38-75 77-113 115z m416-113c-27 0-53-6-76-16l-90 90c51 20 107 29 166 29 209 0 385-129 457-312-31-78-80-145-142-197l-122 121c10 23 16 48 16 76 0 115-94 209-209 209z" horiz-adv-x="1000" />

<glyph glyph-name="math" unicode="&#xf01a;" d="M0 472q0 31 24 54t57 22h215l164-249 89 519h306q34 0 58-22t24-54-24-55-58-22h-170l-136-784-343 516h-125q-33 0-57 22t-24 53z" horiz-adv-x="937.5" />

<glyph glyph-name="font" unicode="&#xf031;" d="M844 38c17 0 31-14 31-32v-62c0-18-14-32-31-32h-250c-17 0-31 14-31 32v62c0 18 14 32 31 32h38l-45 125h-298l-46-125h38c18 0 32-14 32-32v-62c0-18-14-32-32-32h-250c-17 0-31 14-31 32v62c0 18 14 32 31 32h46l255 707c8 24 35 43 59 43h0 93 0c24 0 51-19 59-43l255-707h46z m-499 281h185l-92 253z" horiz-adv-x="875" />

<glyph glyph-name="move" unicode="&#xf047;" d="M1000 350q0-14-11-25l-142-143q-11-11-26-11t-25 11-10 25v72h-215v-215h72q14 0 25-10t11-25-11-25l-143-143q-10-11-25-11t-25 11l-143 143q-11 10-11 25t11 25 25 10h72v215h-215v-72q0-14-10-25t-25-11-25 11l-143 143q-11 11-11 25t11 25l143 143q10 11 25 11t25-11 10-25v-72h215v215h-72q-14 0-25 10t-11 25 11 26l143 142q11 11 25 11t25-11l143-142q11-11 11-26t-11-25-25-10h-72v-215h215v72q0 14 10 25t25 11 26-11l142-143q11-10 11-25z" horiz-adv-x="1000" />

<glyph glyph-name="contains" unicode="&#xf063;" d="M192 80l-4 42q-15-23-40-37t-53-13h-1-1v0h-1-1q-37 0-64 26t-27 65v3 3 0q0 61 47 94t136 31v8q0 21-12 50t-61 28q-21 0-40-6t-36-17v0l-11 39q20 16 45 24t53 8v0q70 0 93-44t23-98v-125-4-5q0-19 2-38t3-37v3h-50z m-8 172q-45 0-87-13t-42-64v-3-3q0-21 15-37t36-15h1 0v0q26 1 45 17t27 39v1q0 2 0 5t1 5q0 2-1 4t0 6v0z m316 105q-31-1-55-21t-28-49l-1-1v-6-6-6-7 1-57-5-5-6-5 0q6-30 28-50t54-21v0q43 0 67 33t24 90q0 54-23 88t-66 33v0z m-214 286v-644h428v644h-428z m223-571q-1-1-3-1h-2q-31 0-57 16t-38 43l-1 1v-52h-51v38 44 386h54v-201q14 27 40 43t57 16h3 2v0q53 0 90-45t37-118q2-85-40-128t-91-42v0z m491 19q-17-10-37-14t-41-5h-2-2 1q-64 0-104 48t-40 125q-1 5-1 11v13q0 64 45 111t110 48v0h0 1q19 0 37-4t34-13h-1l-12-54q-12 9-28 14t-31 5v0q-49 0-75-37t-26-91q0-53 28-90t71-37v0 0q17 0 34 4t30 13h-1z" horiz-adv-x="1000" />

<glyph glyph-name="starts_with" unicode="&#xf064;" d="M0 643v-644h714v644h-714z m264-563l-4 42q-16-23-40-37t-53-13h-1-2v0h0-1q-38 0-65 26t-27 65v3 3 0q0 62 48 95t135 31v8q0 21-12 49t-59 29q-22-1-41-7t-36-17v0l-13 41q20 15 46 22t52 8h1 1-1q71 0 94-44t23-98v-125-4-5q0-19 1-38t4-37v3h-50z m245-8q-1-1-3-1h-2q-31 0-57 16t-38 43l-1 1v-52h-51v38 44 386h54v-201q14 27 40 43t57 16h3 2v0q53 0 90-45t37-118q2-85-40-128t-91-42v0z m-383 103v-3-3q0-21 15-37t37-15h1v0 0q25 1 45 17t26 39v1q0 2 1 5t0 5q0 2 0 4t-1 6v0 58q-41 1-82-13t-42-64v0z m374 182q-31-1-55-21t-28-49l-1-1v-6-6-6-7 1-57-5-5-6-5 0q6-30 28-50t54-21v0q43 0 67 33t24 90q0 54-23 88t-66 33v0z m500-266q-17-10-37-14t-41-5h-2-2 1q-64 0-104 48t-40 125q-1 5-1 11v13q0 64 45 111t110 48v0h0 1q19 0 37-4t34-13h-1l-12-54q-12 9-28 14t-31 5v0q-49 0-75-37t-26-91q0-53 28-90t71-37v0 0q17 0 34 4t30 13h-1z" horiz-adv-x="1000" />

<glyph glyph-name="ends_with" unicode="&#xf065;" d="M192 80l-4 42q-15-23-40-37t-53-13h-1-1v0h-1-1q-37 0-64 26t-27 65v3 3 0q0 61 47 94t136 31v8q0 21-12 50t-61 28q-21 0-40-6t-36-17v0l-11 39q20 16 45 24t53 8v0q70 0 93-44t23-98v-125-4-5q0-19 2-38t3-37v3h-50z m-8 172q-45 0-87-13t-42-64v-3-3q0-21 15-37t36-15h1 0v0q26 1 45 17t27 39v1q0 2 0 5t1 5q0 2-1 4t0 6v0z m316 105q-31-1-55-21t-28-49l-1-1v-6-6-6-7 1-57-5-5-6-5 0q6-30 28-50t54-21v0q43 0 67 33t24 90q0 54-23 88t-66 33v0z m-214 286v-644h714v644h-714z m223-571q-1-1-3-1h-2q-31 0-57 16t-38 43l-1 1v-52h-51v38 44 386h54v-201q14 27 40 43t57 16h3 2v0q53 0 90-45t37-118q2-85-40-128t-91-42v0z m348 49v0 0q18 0 34 4t30 13v0l9-47q-18-10-38-14t-41-5h-2-1v0q-65 0-104 48t-39 125q-1 5-1 11t-1 13q0 64 45 111t108 48h1v0h1q20 0 38-4t34-13h-1l-12-54q-13 9-28 14t-32 5v0q-48 0-74-37t-26-91q0-53 28-90t72-37v0z" horiz-adv-x="1000" />

<glyph glyph-name="does_not_contain" unicode="&#xf066;" d="M179 117q25 1 45 17t26 39v1q0 2 1 5t0 5q0 2 0 4t-1 6v0 20h-113q-5-8-8-17t-3-19v-1-2 0-3-3q0-21 15-37t37-15h1v0 0 0z m678 4v0 0q18 0 34 4t30 13v0l9-47q-18-10-38-14t-41-5h-2-1v0q-59 0-100 42t-41 100v0 0 0h-64v0-1q0-55-38-96t-94-45v0q-1-1-3-1h-2q-31 0-57 16t-38 43v1-52h-54v38 44 53h-48v-53-4-5q0-19 1-38t4-37v3h-50l-4 42q-16-23-40-37t-53-13h-1-2v0h0-1q-38 0-65 26t-27 65v3 3 0 0 0q0 12 3 24t6 22v-1h-80v-215h1000v215h-240q3-39 31-66t66-27v0 0z m-857 522v-357h171q17 4 36 7t40 2h4t3-1v0 8q0 21-12 50t-59 28q-22 0-41-6t-36-17v0l-13 41q20 15 46 22t52 8h1 1-1q71 0 94-44t23-98v0h48v261h54v-201q14 27 40 43t57 16h3 2v0q50-1 86-35t40-84v0h71q4 58 46 100t100 42h1v0h1q20 0 38-4t34-13h-1l-12-54q-13 9-28 14t-32 5v0q-38-1-65-26t-31-64v0h239v357h-1000z m416-457q5-30 27-51t54-21v0q37 0 61 26t29 70h-174v-7q1-5 2-10t1-8v1 0z m84 171q-31-1-55-21t-28-49l-1-1h167q-6 30-29 50t-54 21v0z" horiz-adv-x="1000" />

<glyph glyph-name="uniF06A" unicode="&#xf06a;" d="M786 484v-143h-572v143h-71v-358h71v144h572v-144h71v358h-71v0z" horiz-adv-x="1000" />

<glyph glyph-name="fontsize" unicode="&#xf088;" d="M0 49l227 602h146l208-552 123 326h91l142-376h-96l-26 76h-135l-27-76h-207l-42 121h-214l-43-121h-147z m222 231h149l-74 216z m478-87h94l-47 136z" horiz-adv-x="937.5" />

<glyph glyph-name="link-ext" unicode="&#xf08e;" d="M786 326v-178q0-67-47-114t-114-47h-464q-67 0-114 47t-47 114v464q0 66 47 113t114 48h393q7 0 12-5t5-13v-36q0-8-5-13t-12-5h-393q-37 0-63-26t-27-63v-464q0-37 27-63t63-27h464q37 0 63 27t26 63v178q0 8 5 13t13 5h36q8 0 13-5t5-13z m214 482v-285q0-15-11-25t-25-11-25 11l-98 98-364-364q-5-6-13-6t-12 6l-64 64q-6 5-6 12t6 13l364 364-98 98q-11 11-11 25t11 25 25 11h285q15 0 25-11t11-25z" horiz-adv-x="1000" />

<glyph glyph-name="check-empty" unicode="&#xf096;" d="M625 701h-464q-37 0-63-26t-27-63v-464q0-37 27-63t63-27h464q37 0 63 27t26 63v464q0 37-26 63t-63 26z m161-89v-464q0-67-47-114t-114-47h-464q-67 0-114 47t-47 114v464q0 66 47 113t114 48h464q66 0 114-48t47-113z" horiz-adv-x="785.2" />

<glyph glyph-name="tasks" unicode="&#xf0ae;" d="M571 64h358v72h-358v-72z m-214 286h572v71h-572v-71z m357 286h215v71h-215v-71z m286-465v-142q0-15-11-25t-25-11h-928q-15 0-25 11t-11 25v142q0 15 11 26t25 10h928q15 0 25-10t11-26z m0 286v-143q0-14-11-25t-25-10h-928q-15 0-25 10t-11 25v143q0 15 11 25t25 11h928q15 0 25-11t11-25z m0 286v-143q0-14-11-25t-25-11h-928q-15 0-25 11t-11 25v143q0 14 11 25t25 11h928q15 0 25-11t11-25z" horiz-adv-x="1000" />

<glyph glyph-name="filter" unicode="&#xf0b0;" d="M783 679q9-22-8-39l-275-275v-414q0-23-22-33-7-3-14-3-15 0-25 11l-143 143q-10 11-10 25v271l-275 275q-18 17-8 39 9 22 33 22h714q23 0 33-22z" horiz-adv-x="785.2" />

<glyph glyph-name="resize-full-alt" unicode="&#xf0b2;" d="M716 542l-198-198 198-198 80 80q17 18 39 8 22-9 22-33v-250q0-14-10-25t-26-11h-250q-23 0-32 23-10 21 7 38l81 81-198 198-198-198 80-81q17-17 8-38-10-23-33-23h-250q-15 0-25 11t-11 25v250q0 24 22 33 22 10 39-8l80-80 198 198-198 198-80-80q-11-11-25-11-7 0-14 3-22 9-22 33v250q0 14 11 25t25 11h250q23 0 33-23 9-21-8-38l-80-81 198-198 198 198-81 81q-17 17-7 38 9 23 32 23h250q15 0 26-11t10-25v-250q0-24-22-33-7-3-14-3-14 0-25 11z" horiz-adv-x="857.4" />

<glyph glyph-name="docs" unicode="&#xf0c5;" d="M946 636q23 0 38-16t16-38v-678q0-23-16-38t-38-16h-535q-23 0-38 16t-16 38v160h-303q-23 0-38 16t-16 38v375q0 22 11 49t27 42l228 228q15 16 42 27t49 11h232q23 0 38-16t16-38v-183q38 23 71 23h232z m-303-119l-167-167h167v167z m-357 214l-167-167h167v167z m109-361l176 176v233h-214v-233q0-22-15-37t-38-16h-233v-357h286v143q0 22 11 49t27 42z m534-449v643h-215v-232q0-22-15-38t-38-15h-232v-358h500z" horiz-adv-x="1000" />

<glyph glyph-name="menu" unicode="&#xf0c9;" d="M857 94v-71q0-15-10-25t-26-11h-785q-15 0-25 11t-11 25v71q0 15 11 25t25 11h785q15 0 26-11t10-25z m0 286v-72q0-14-10-25t-26-10h-785q-15 0-25 10t-11 25v72q0 14 11 25t25 10h785q15 0 26-10t10-25z m0 285v-71q0-14-10-25t-26-11h-785q-15 0-25 11t-11 25v71q0 15 11 26t25 10h785q15 0 26-10t10-26z" horiz-adv-x="857.4" />

<glyph glyph-name="list-bullet" unicode="&#xf0ca;" d="M214 64q0-44-31-76t-76-31-76 31-31 76 31 76 76 31 76-31 31-76z m0 286q0-45-31-76t-76-31-76 31-31 76 31 76 76 31 76-31 31-76z m786-232v-107q0-7-5-13t-13-5h-678q-8 0-13 5t-5 13v107q0 7 5 12t13 6h678q7 0 13-6t5-12z m-786 518q0-45-31-76t-76-31-76 31-31 76 31 76 76 31 76-31 31-76z m786-232v-108q0-7-5-12t-13-5h-678q-8 0-13 5t-5 12v108q0 7 5 12t13 5h678q7 0 13-5t5-12z m0 285v-107q0-7-5-12t-13-6h-678q-8 0-13 6t-5 12v107q0 8 5 13t13 5h678q7 0 13-5t5-13z" horiz-adv-x="1000" />

<glyph glyph-name="list-numbered" unicode="&#xf0cb;" d="M213-54q0-45-31-70t-75-26q-60 0-96 37l31 49q28-25 60-25 16 0 28 8t12 24q0 35-59 31l-14 31q4 6 18 24t24 31 20 21v1q-9 0-27-1t-27 0v-30h-59v85h186v-49l-53-65q28-6 45-27t17-49z m1 350v-89h-202q-4 20-4 30 0 29 14 52t31 38 37 27 31 24 14 25q0 14-9 22t-22 7q-25 0-45-32l-47 33q13 28 40 44t59 16q40 0 68-23t28-63q0-28-19-51t-42-36-42-28-20-30h71v34h59z m786-178v-107q0-7-5-13t-13-5h-678q-8 0-13 5t-5 13v107q0 8 5 13t13 5h678q7 0 13-6t5-12z m-786 502v-56h-187v56h60q0 22 0 67t1 68v7h-1q-5-10-28-30l-40 42 76 71h59v-225h60z m786-216v-108q0-7-5-12t-13-5h-678q-8 0-13 5t-5 12v108q0 7 5 12t13 5h678q7 0 13-5t5-12z m0 285v-107q0-7-5-12t-13-6h-678q-8 0-13 6t-5 12v107q0 8 5 13t13 5h678q7 0 13-5t5-13z" horiz-adv-x="1000" />

<glyph glyph-name="strike" unicode="&#xf0cc;" d="M982 350q8 0 13-5t5-13v-36q0-7-5-12t-13-5h-964q-8 0-13 5t-5 12v36q0 8 5 13t13 5h964z m-712 36q-16 19-29 44-27 55-27 105 0 101 75 173 74 71 219 71 28 0 94-11 36-7 98-27 6-21 12-66 8-68 8-102 0-10-3-25l-7-2-46 4-8 1q-28 83-58 114-49 51-117 51-64 0-101-33-38-32-38-81 0-41 37-78t156-72q38-12 96-37 33-16 53-29h-414z m283-143h229q4-22 4-51 0-62-23-119-13-31-40-58-20-19-61-45-44-27-85-37-45-12-113-12-64 0-109 13l-78 23q-32 8-40 15-5 5-5 12v8q0 60-1 87 0 17 0 38l1 20v25l57 1q8-19 17-40t12-31 7-15q20-32 45-52 24-20 59-32 33-12 73-12 36 0 78 15 43 14 68 48 26 34 26 72 0 47-45 87-19 16-76 40z" horiz-adv-x="1000" />

<glyph glyph-name="underline" unicode="&#xf0cd;" d="M27 726q-21 1-25 2l-2 49q7 1 22 1 34 0 63-3 74-4 93-4 47 0 93 2 65 2 82 3 31 0 48 1l-1-8 1-36v-5q-33-5-69-5-33 0-44-14-7-7-7-73 0-7 0-18t0-15l1-127 8-157q3-69 28-112 20-33 54-52 49-26 98-26 59 0 107 16 31 10 55 28 27 20 37 36 20 31 29 63 12 41 12 128 0 44-2 72t-6 68-8 89l-2 33q-3 37-13 49-19 20-43 19l-56-1-8 2 1 48h47l114-6q43-2 110 6l10-1q3-22 3-29 0-4-2-17-25-7-47-8-41-6-44-9-8-8-8-23 0-4 0-15t1-17q5-11 13-221 3-109-9-170-8-42-23-68-21-36-62-69-42-31-102-49-61-19-142-19-93 0-159 26-66 26-99 68-34 42-47 109-9 45-9 132v186q0 105-9 119-14 20-82 22z m830-787v36q0 8-5 13t-13 5h-821q-8 0-13-5t-5-13v-36q0-8 5-13t13-5h821q8 0 13 5t5 13z" horiz-adv-x="857.1" />

<glyph glyph-name="table-1" unicode="&#xf0ce;" d="M286 82v107q0 8-5 13t-13 5h-179q-7 0-12-5t-6-13v-107q0-8 6-13t12-5h179q8 0 13 5t5 13z m0 214v108q0 7-5 12t-13 5h-179q-7 0-12-5t-6-12v-108q0-7 6-12t12-5h179q8 0 13 5t5 12z m285-214v107q0 8-5 13t-12 5h-179q-8 0-13-5t-5-13v-107q0-8 5-13t13-5h179q7 0 12 5t5 13z m-285 429v107q0 8-5 13t-13 5h-179q-7 0-12-5t-6-13v-107q0-8 6-13t12-5h179q8 0 13 5t5 13z m285-215v108q0 7-5 12t-12 5h-179q-8 0-13-5t-5-12v-108q0-7 5-12t13-5h179q7 0 12 5t5 12z m286-214v107q0 8-5 13t-13 5h-178q-8 0-13-5t-5-13v-107q0-8 5-13t13-5h178q8 0 13 5t5 13z m-286 429v107q0 8-5 13t-12 5h-179q-8 0-13-5t-5-13v-107q0-8 5-13t13-5h179q7 0 12 5t5 13z m286-215v108q0 7-5 12t-13 5h-178q-8 0-13-5t-5-12v-108q0-7 5-12t13-5h178q8 0 13 5t5 12z m0 215v107q0 8-5 13t-13 5h-178q-8 0-13-5t-5-13v-107q0-8 5-13t13-5h178q8 0 13 5t5 13z m72 178v-607q0-37-27-63t-63-26h-750q-36 0-63 26t-26 63v607q0 37 26 63t63 27h750q37 0 63-27t27-63z" horiz-adv-x="928.6" />

<glyph glyph-name="columns" unicode="&#xf0db;" d="M89-7h340v643h-358v-625q0-7 6-13t12-5z m768 18v625h-357v-643h339q8 0 13 5t5 13z m72 678v-678q0-37-27-63t-63-27h-750q-36 0-63 27t-26 63v678q0 37 26 63t63 27h750q37 0 63-27t27-63z" horiz-adv-x="928.6" />

<glyph glyph-name="sort-1" unicode="&#xf0dc;" d="M571 237q0-15-10-25l-250-250q-11-11-25-11t-25 11l-250 250q-11 10-11 25t11 25 25 11h500q14 0 25-11t10-25z m0 214q0-14-10-25t-25-11h-500q-15 0-25 11t-11 25 11 25l250 250q10 11 25 11t25-11l250-250q10-10 10-25z" horiz-adv-x="571.3" />

<glyph glyph-name="comment-empty" unicode="&#xf0e5;" d="M500 636q-114 0-213-39t-157-105-59-142q0-62 40-119t113-98l48-28-15-53q-13-51-39-97 85 36 154 96l24 21 32-3q38-5 72-5 114 0 213 39t157 105 59 142-59 142-157 105-213 39z m500-286q0-97-67-179t-182-130-251-48q-39 0-81 4-110-97-257-135-27-8-63-12h-3q-8 0-15 6t-9 15v1q-2 2 0 6t1 6 2 5l4 5t4 5 4 5q4 5 17 19t20 22 17 22 18 28 15 33 15 42q-88 50-138 123t-51 157q0 97 67 179t182 130 251 48 251-48 182-130 67-179z" horiz-adv-x="1000" />

<glyph glyph-name="paste" unicode="&#xf0ea;" d="M429-85h500v358h-233q-22 0-37 15t-16 38v232h-214v-643z m142 804v36q0 7-5 12t-12 6h-393q-7 0-13-6t-5-12v-36q0-7 5-13t13-5h393q7 0 12 5t5 13z m143-375h167l-167 167v-167z m286-71v-375q0-23-16-38t-38-16h-535q-23 0-38 16t-16 38v89h-303q-23 0-38 16t-16 37v750q0 23 16 38t38 16h607q22 0 38-16t15-38v-183q12-7 20-15l228-228q16-15 27-42t11-49z" horiz-adv-x="1000" />

<glyph glyph-name="bell-alt" unicode="&#xf0f3;" d="M509-96q0 8-9 8-33 0-57 24t-23 57q0 9-9 9t-9-9q0-41 29-70t69-28q9 0 9 9z m455 160q0-29-21-50t-50-21h-250q0-59-42-101t-101-42-101 42-42 101h-250q-29 0-50 21t-21 50q28 24 51 49t47 67 42 89 27 115 11 145q0 84 66 157t171 89q-5 10-5 21 0 23 16 38t38 16 38-16 16-38q0-11-5-21 106-16 171-89t66-157q0-78 11-145t28-115 41-89 48-67 50-49z" horiz-adv-x="1000" />

<glyph glyph-name="doc-text" unicode="&#xf0f6;" d="M819 638q16-16 27-42t11-50v-642q0-23-15-38t-38-16h-750q-23 0-38 16t-16 38v892q0 23 16 38t38 16h500q22 0 49-11t42-27z m-248 136v-210h210q-5 17-12 23l-175 175q-6 7-23 12z m215-853v572h-232q-23 0-38 16t-16 37v233h-429v-858h715z m-572 483q0 7 5 12t13 5h393q8 0 13-5t5-12v-36q0-8-5-13t-13-5h-393q-8 0-13 5t-5 13v36z m411-125q8 0 13-5t5-13v-36q0-8-5-13t-13-5h-393q-8 0-13 5t-5 13v36q0 8 5 13t13 5h393z m0-143q8 0 13-5t5-13v-36q0-8-5-13t-13-5h-393q-8 0-13 5t-5 13v36q0 8 5 13t13 5h393z" horiz-adv-x="857.1" />

<glyph glyph-name="angle-right" unicode="&#xf105;" d="M332 314q0-7-5-12l-261-261q-5-5-12-5t-13 5l-28 28q-6 6-6 13t6 13l219 219-219 220q-6 5-6 12t6 13l28 28q5 6 13 6t12-6l261-260q5-5 5-13z" horiz-adv-x="357.1" />

<glyph glyph-name="circle-empty" unicode="&#xf10c;" d="M429 648q-83 0-153-41t-110-111-41-152 41-152 110-111 153-41 152 41 110 111 41 152-41 152-110 111-152 41z m428-304q0-117-57-215t-156-156-215-58-216 58-155 156-58 215 58 215 155 156 216 58 215-58 156-156 57-215z" horiz-adv-x="857.4" />

<glyph glyph-name="circle" unicode="&#xf111;" d="M857 344q0-117-57-215t-156-156-215-58-216 58-155 156-58 215 58 215 155 156 216 58 215-58 156-156 57-215z" horiz-adv-x="857.4" />

<glyph glyph-name="code" unicode="&#xf121;" d="M344 69l-28-28q-5-5-12-5t-13 5l-260 261q-6 5-6 12t6 13l260 260q5 6 13 6t12-6l28-28q6-5 6-13t-6-12l-219-220 219-219q6-6 6-13t-6-13z m330 596l-208-721q-2-7-9-11t-13-1l-34 9q-8 3-11 9t-2 14l209 720q2 8 8 11t13 2l35-10q7-2 11-9t1-13z m367-363l-260-261q-6-5-13-5t-13 5l-28 28q-5 6-5 13t5 13l219 219-219 220q-5 5-5 12t5 13l28 28q6 6 13 6t13-6l260-260q5-5 5-13t-5-12z" horiz-adv-x="1071.4" />

<glyph glyph-name="unlink" unicode="&#xf127;" d="M245 141l-143-143q-6-5-13-5t-12 5q-6 6-6 13t6 13l142 142q6 5 13 5t13-5q5-5 5-12t-5-13z m94-23v-179q0-8-5-13t-13-5-12 5-5 13v179q0 8 5 13t12 5 13-5 5-13z m-125 125q0-8-5-13t-13-5h-178q-8 0-13 5t-5 13 5 13 13 5h178q8 0 13-5t5-13z m706-72q0-66-48-113l-82-81q-46-47-113-47-68 0-114 48l-186 187q-12 12-24 31l134 10 152-153q15-15 38-15t38 15l82 81q16 16 16 37 0 23-16 38l-153 154 10 133q20-11 31-23l188-188q47-48 47-114z m-345 404l-133-10-152 153q-16 16-38 16-22 0-38-15l-82-82q-16-15-16-37 0-22 16-38l153-153-10-134q-20 12-32 24l-187 187q-47 48-47 114 0 67 47 113l82 82q47 46 114 46 67 0 114-47l186-187q12-12 23-32z m354-46q0-8-5-13t-13-5h-179q-8 0-13 5t-5 13 5 12 13 5h179q8 0 13-5t5-12z m-304 303v-178q0-8-5-13t-13-5-13 5-5 13v178q0 8 5 13t13 5 13-5 5-13z m227-84l-143-143q-6-5-13-5t-12 5q-5 6-5 13t5 13l143 143q5 5 12 5t13-5q5-6 5-13t-5-13z" horiz-adv-x="928.6" />

<glyph glyph-name="superscript" unicode="&#xf12b;" d="M501 86v-93h-139l-89 141-13 23q-4 5-6 12h-2q0-2-1-4t-2-4-2-4q-5-11-14-25l-86-139h-144v93h71l110 162-103 152h-76v94h154l77-127q1-2 13-24 4-5 6-11h2q1 5 6 11l14 24 78 127h143v-94h-69l-103-149 114-165h61z m355 379v-115h-287l-1 15q-3 16-3 26 0 36 15 65t36 48 47 37 47 30 36 30 15 36q0 21-17 35t-39 13q-29 0-54-21-8-6-20-22l-59 52q15 20 35 37 47 36 105 36 61 0 99-33t38-89q0-31-13-57t-35-43-45-33-46-28-37-28-17-36h130v45h70z" horiz-adv-x="857.1" />

<glyph glyph-name="subscript" unicode="&#xf12c;" d="M501 86v-93h-139l-89 141-13 23q-4 5-6 12h-2q0-2-1-4t-2-4-2-4q-5-11-14-25l-86-139h-144v93h71l110 162-103 152h-76v94h154l77-127q1-2 13-24 4-5 6-11h2q1 5 6 11l14 24 78 127h143v-94h-69l-103-149 114-165h61z m356-121v-115h-287l-2 15q-2 25-2 26 0 35 15 65t36 48 47 37 47 30 36 30 15 36q0 21-17 35t-39 13q-28 0-54-21-8-6-20-22l-59 52q15 20 35 37 45 36 105 36 62 0 100-33t37-89q0-37-19-66t-47-48-55-35-49-35-23-41h130v45h70z" horiz-adv-x="857.1" />

<glyph glyph-name="ellipsis" unicode="&#xf141;" d="M214 433v-107q0-22-15-38t-38-15h-107q-23 0-38 15t-16 38v107q0 23 16 38t38 16h107q22 0 38-16t15-38z m286 0v-107q0-22-16-38t-38-15h-107q-22 0-38 15t-15 38v107q0 23 15 38t38 16h107q23 0 38-16t16-38z m286 0v-107q0-22-16-38t-38-15h-107q-22 0-38 15t-16 38v107q0 23 16 38t38 16h107q23 0 38-16t16-38z" horiz-adv-x="785.2" />

<glyph glyph-name="minus-squared" unicode="&#xf146;" d="M714 308v72q0 14-10 25t-25 10h-500q-15 0-25-10t-11-25v-72q0-14 11-25t25-10h500q14 0 25 10t10 25z m143 304v-536q0-66-47-113t-114-48h-535q-67 0-114 48t-47 113v536q0 66 47 113t114 48h535q67 0 114-48t47-113z" horiz-adv-x="857.4" />

<glyph glyph-name="ok-squared" unicode="&#xf14a;" d="M382 119l343 343q11 10 11 25t-11 25l-57 57q-11 11-25 11t-25-11l-261-261-118 118q-10 11-25 11t-25-11l-57-57q-10-10-10-25t10-25l200-200q11-10 25-10t25 10z m475 493v-536q0-66-47-113t-114-48h-535q-67 0-114 48t-47 113v536q0 66 47 113t114 48h535q67 0 114-48t47-113z" horiz-adv-x="857.4" />

<glyph glyph-name="sort-name-up" unicode="&#xf15d;" d="M665 616h98l-40 122-6 26q-2 9-2 11h-2l-1-11q0 0-2-10t-5-16z m-254-576q0-6-6-13l-178-178q-5-5-13-5-6 0-12 5l-179 179q-8 9-4 19 4 11 17 11h107v768q0 8 5 13t13 5h107q8 0 13-5t5-13v-768h107q8 0 13-5t5-13z m466-66v-130h-326v50l206 295q7 11 12 16l6 5v1q-1 0-3 0t-5 0q-6-2-16-2h-130v-64h-67v128h317v-50l-206-296q-4-4-12-14l-6-7v-1l8 1q5 2 16 2h139v66h67z m50 501v-60h-161v60h42l-26 80h-136l-26-80h42v-60h-160v60h39l128 369h91l128-369h39z" horiz-adv-x="926.8" />

<glyph glyph-name="sort-name-down" unicode="&#xf15e;" d="M665 45h98l-40 122-6 26q-2 9-2 11h-2l-1-11q0-1-2-10t-5-16z m-254-5q0-6-6-13l-178-178q-5-5-13-5-6 0-12 5l-179 179q-8 9-4 19 4 11 17 11h107v768q0 8 5 13t13 5h107q8 0 13-5t5-13v-768h107q8 0 13-5t5-13z m516-137v-59h-161v59h42l-26 80h-136l-26-80h42v-59h-160v59h39l128 370h91l128-370h39z m-50 643v-131h-326v51l206 295q7 10 12 15l6 5v2q-1 0-3-1t-5 0q-6-2-16-2h-130v-64h-67v128h317v-50l-206-295q-4-5-12-15l-6-5v-2l8 2q5 0 16 0h139v67h67z" horiz-adv-x="926.8" />

<glyph glyph-name="sort-alt-up" unicode="&#xf160;" d="M411 40q0-6-6-13l-178-178q-5-5-13-5-6 0-12 5l-179 179q-8 9-4 19 4 11 17 11h107v768q0 8 5 13t13 5h107q8 0 13-5t5-13v-768h107q8 0 13-5t5-13z m589-71v-107q0-8-5-13t-13-5h-464q-8 0-13 5t-5 13v107q0 8 5 13t13 5h464q8 0 13-5t5-13z m-107 286v-107q0-8-5-13t-13-5h-357q-8 0-13 5t-5 13v107q0 8 5 13t13 5h357q8 0 13-5t5-13z m-107 285v-107q0-7-5-12t-13-6h-250q-8 0-13 6t-5 12v107q0 8 5 13t13 5h250q8 0 13-5t5-13z m-107 286v-107q0-8-5-13t-13-5h-143q-8 0-13 5t-5 13v107q0 8 5 13t13 5h143q8 0 13-5t5-13z" horiz-adv-x="1000" />

<glyph glyph-name="sort-alt-down" unicode="&#xf161;" d="M679-31v-107q0-8-5-13t-13-5h-143q-8 0-13 5t-5 13v107q0 8 5 13t13 5h143q8 0 13-5t5-13z m-268 71q0-6-6-13l-178-178q-5-5-13-5-6 0-12 5l-179 179q-8 9-4 19 4 11 17 11h107v768q0 8 5 13t13 5h107q8 0 13-5t5-13v-768h107q8 0 13-5t5-13z m375 215v-107q0-8-5-13t-13-5h-250q-8 0-13 5t-5 13v107q0 8 5 13t13 5h250q8 0 13-5t5-13z m107 285v-107q0-7-5-12t-13-6h-357q-8 0-13 6t-5 12v107q0 8 5 13t13 5h357q8 0 13-5t5-13z m107 286v-107q0-8-5-13t-13-5h-464q-8 0-13 5t-5 13v107q0 8 5 13t13 5h464q8 0 13-5t5-13z" horiz-adv-x="1000" />

<glyph glyph-name="sort-number-up" unicode="&#xf162;" d="M751 111q0 36-24 65t-58 30q-29 0-46-21t-17-52 20-53 58-22q28 0 48 15t19 38z m-340-71q0-6-6-13l-178-178q-5-5-13-5-6 0-12 5l-179 179q-8 9-4 19 4 11 17 11h107v768q0 8 5 13t13 5h107q8 0 13-5t5-13v-768h107q8 0 13-5t5-13z m418 39q0-35-7-68t-23-64-38-53-55-36-71-14q-35 0-60 9-14 4-24 8l22 63q9-4 17-6 21-7 42-7 47 0 75 33t37 81h-1q-11-13-34-21t-47-8q-59 0-97 40t-37 97q0 58 40 99t101 41q69 0 115-53t45-141z m-16 400v-64h-262v64h93v241q0 4 0 11t1 9v9h-2l-3-7q-5-7-15-17l-35-32-45 48 107 103h68v-365h93z" horiz-adv-x="857.4" />

<glyph glyph-name="sort-number-down" unicode="&#xf163;" d="M751 683q0 35-24 65t-58 29q-29 0-46-21t-17-52 20-53 58-21q28 0 48 15t19 38z m-340-643q0-6-6-13l-178-178q-5-5-13-5-6 0-12 5l-179 179q-8 9-4 19 4 11 17 11h107v768q0 8 5 13t13 5h107q8 0 13-5t5-13v-768h107q8 0 13-5t5-13z m402-132v-64h-262v64h93v241q0 4 0 10t1 10v9h-2l-3-7q-5-7-15-17l-35-33-45 48 107 104h68v-365h93z m16 742q0-34-7-67t-23-64-38-53-55-37-71-14q-35 0-60 9-14 5-24 9l22 63q9-4 17-6 21-8 42-8 47 0 75 33t37 81h-1q-11-13-34-20t-47-8q-59 0-97 40t-37 96q0 59 40 99t101 41q69 0 115-53t45-141z" horiz-adv-x="857.4" />

<glyph glyph-name="thumbs-up-alt" unicode="&#xf164;" d="M143 100q0 15-11 25t-25 11q-15 0-25-11t-11-25q0-15 11-25t25-11q15 0 25 11t11 25z m89 286v-357q0-15-10-25t-26-11h-160q-15 0-25 11t-11 25v357q0 14 11 25t25 10h160q15 0 26-10t10-25z m661 0q0-48-31-83 9-25 9-43 1-42-24-76 9-31 0-66-9-31-31-52 5-62-27-101-36-43-110-44h-72q-37 0-80 9t-68 16-67 22q-69 24-88 25-15 0-25 11t-11 25v357q0 14 10 25t24 11q13 1 42 33t57 67q38 49 56 67 10 10 17 27t10 27 8 34q4 22 7 34t11 29 19 28q10 11 25 11 25 0 46-6t33-15 22-22 14-25 7-28 2-25 1-22q0-21-6-43t-10-33-16-31q-1-4-5-10t-6-13-5-13h155q43 0 75-32t32-75z" horiz-adv-x="928.6" />

<glyph glyph-name="youtube-play" unicode="&#xf16a;" d="M397 221l270 139-270 141v-280z m103 481q94 0 181-3t128-5l41-2q0 0 9-1t13-2 13-2 16-5 16-7 17-11 16-15q4-3 9-10t16-33 15-56q4-36 7-76t3-64v-98q1-81-10-162-4-30-14-55t-18-35l-8-9q-7-8-16-15t-17-10-16-7-16-5-13-2-13-2-9-1q-140-11-350-11-115 2-201 4t-111 4l-28 3-20 2q-20 3-30 5t-29 12-31 23q-4 3-9 10t-16 33-15 56q-4 36-7 76t-3 64v98q-1 81 10 162 4 31 14 55t18 35l8 9q8 9 16 15t17 11 16 7 16 5 13 2 13 2 9 1q140 10 350 10z" horiz-adv-x="1000" />

<glyph glyph-name="trello" unicode="&#xf181;" d="M393 100v571q0 8-5 13t-13 5h-268q-8 0-13-5t-5-13v-571q0-8 5-13t13-5h268q8 0 13 5t5 13z m375 214v357q0 8-5 13t-13 5h-268q-8 0-13-5t-5-13v-357q0-7 5-12t13-6h268q8 0 13 6t5 12z m89 429v-786q0-14-10-25t-26-11h-785q-15 0-25 11t-11 25v786q0 14 11 25t25 11h785q15 0 26-11t10-25z" horiz-adv-x="857.1" />

<glyph glyph-name="dot-circled" unicode="&#xf192;" d="M571 344q0-59-41-101t-101-42-101 42-42 101 42 101 101 42 101-42 41-101z m-142 304q-83 0-153-41t-110-111-41-152 41-152 110-111 153-41 152 41 110 111 41 152-41 152-110 111-152 41z m428-304q0-117-57-215t-156-156-215-58-216 58-155 156-58 215 58 215 155 156 216 58 215-58 156-156 57-215z" horiz-adv-x="857.4" />

<glyph glyph-name="file-pdf" unicode="&#xf1c1;" d="M819 638q16-16 27-42t11-50v-642q0-23-15-38t-38-16h-750q-23 0-38 16t-16 38v892q0 23 16 38t38 16h500q22 0 49-11t42-27z m-248 136v-210h210q-5 17-12 23l-175 175q-6 7-23 12z m215-853v572h-232q-23 0-38 16t-16 37v233h-429v-858h715z m-287 331q18-14 47-31 33 4 65 4 82 0 99-27 9-13 1-29 0-1-1-1l-1-2v0q-3-21-39-21-27 0-64 11t-73 29q-123-13-219-46-85-146-135-146-8 0-15 4l-14 7q0 0-3 2-6 6-4 20 5 23 32 51t73 54q8 5 13-3 1-1 1-2 29 47 60 110 38 76 58 146-13 46-17 89t4 71q6 22 23 22h12q13 0 20-8 10-12 5-38-1-3-2-4 0-2 0-5v-17q-1-68-8-107 31-91 82-133z m-321-229q29 13 76 88-29-22-49-47t-27-41z m222 513q-9-23-2-73 1 4 4 24 0 2 4 24 1 3 3 5-1 0-1 1-1 1-1 2 0 12-7 20 0-1 0-1v-2z m-70-368q76 30 159 45-1 0-7 5t-9 8q-43 37-71 98-15-48-46-110-17-31-26-46z m361 9q-13 13-78 13 42-16 69-16 8 0 10 1 0 0-1 2z" horiz-adv-x="857.1" />

<glyph glyph-name="file-word" unicode="&#xf1c2;" d="M819 638q16-16 27-42t11-50v-642q0-23-15-38t-38-16h-750q-23 0-38 16t-16 38v892q0 23 16 38t38 16h500q22 0 49-11t42-27z m-248 136v-210h210q-5 17-12 23l-175 175q-6 7-23 12z m215-853v572h-232q-23 0-38 16t-16 37v233h-429v-858h715z m-656 500v-59h39l92-369h88l72 271q4 11 5 25 2 9 2 14h2l1-14q1-1 2-11t3-14l72-271h89l91 369h39v59h-167v-59h50l-55-245q-3-11-4-25l-1-12h-3q0 2 0 4t-1 4 0 4q-1 2-2 11t-3 14l-81 304h-63l-81-304q-1-5-2-13t-2-12l-2-12h-2l-2 12q-1 14-3 25l-56 245h50v59h-167z" horiz-adv-x="857.1" />

<glyph glyph-name="file-excel" unicode="&#xf1c3;" d="M819 638q16-16 27-42t11-50v-642q0-23-15-38t-38-16h-750q-23 0-38 16t-16 38v892q0 23 16 38t38 16h500q22 0 49-11t42-27z m-248 136v-210h210q-5 17-12 23l-175 175q-6 7-23 12z m215-853v572h-232q-23 0-38 16t-16 37v233h-429v-858h715z m-547 131v-59h157v59h-42l58 90q3 4 5 9t5 8 2 2h1q0-2 3-6 1-2 2-4t3-4 4-5l60-90h-43v-59h163v59h-38l-107 152 108 158h38v59h-156v-59h41l-57-89q-2-4-6-9t-5-8l-1-1h-1q0 2-3 5-3 6-9 13l-59 89h42v59h-162v-59h38l106-152-109-158h-38z" horiz-adv-x="857.1" />

<glyph glyph-name="file-powerpoint" unicode="&#xf1c4;" d="M819 638q16-16 27-42t11-50v-642q0-23-15-38t-38-16h-750q-23 0-38 16t-16 38v892q0 23 16 38t38 16h500q22 0 49-11t42-27z m-248 136v-210h210q-5 17-12 23l-175 175q-6 7-23 12z m215-853v572h-232q-23 0-38 16t-16 37v233h-429v-858h715z m-554 131v-59h183v59h-52v93h76q43 0 66 9 37 12 60 48t22 82q0 45-21 78t-56 49q-27 10-72 10h-206v-59h52v-310h-52z m197 156h-66v150h67q29 0 46-10 31-19 31-64 0-50-34-67-18-9-44-9z" horiz-adv-x="857.1" />

<glyph glyph-name="file-archive" unicode="&#xf1c6;" d="M357 636v71h-71v-71h71z m72-72v72h-72v-72h72z m-72-71v71h-71v-71h71z m72-72v72h-72v-72h72z m390 217q16-16 27-42t11-50v-642q0-23-15-38t-38-16h-750q-23 0-38 16t-16 38v892q0 23 16 38t38 16h500q22 0 49-11t42-27z m-248 136v-210h210q-5 17-12 23l-175 175q-6 7-23 12z m215-853v572h-232q-23 0-38 16t-16 37v233h-71v-72h-72v72h-286v-858h715z m-350 403l60-195q4-15 4-29 0-46-40-77t-103-30-102 30-41 77q0 14 5 29 12 35 67 221v71h71v-71h44q13 0 22-7t13-19z m-79-260q30 0 51 11t21 25-21 25-51 11-50-11-21-25 21-25 50-11z" horiz-adv-x="857.1" />

<glyph glyph-name="history" unicode="&#xf1da;" d="M857 350q0-87-34-166t-91-137-137-92-166-34q-96 0-183 41t-147 114q-4 6-4 13t5 11l76 77q6 5 14 5 9-1 13-7 41-53 100-82t126-29q58 0 110 23t92 61 61 91 22 111-22 111-61 91-92 61-110 23q-55 0-105-20t-90-57l77-77q17-16 8-38-10-23-33-23h-250q-15 0-25 11t-11 25v250q0 24 22 33 22 10 39-8l72-72q60 57 137 88t159 31q87 0 166-34t137-92 91-137 34-166z m-357 161v-250q0-8-5-13t-13-5h-178q-8 0-13 5t-5 13v35q0 8 5 13t13 5h125v197q0 8 5 13t12 5h36q8 0 13-5t5-13z" horiz-adv-x="857.1" />

<glyph glyph-name="header" unicode="&#xf1dc;" d="M939-79q-25 0-74 2t-75 2q-24 0-73-2t-74-2q-13 0-21 12t-7 25q0 18 9 26t22 9 29 4 25 9q18 11 18 78l0 218q0 12-1 17-7 3-28 3h-376q-22 0-29-3 0-5 0-17l-1-207q0-79 21-91 9-6 26-8t32-2 25-8 11-26q0-14-6-26t-21-13q-26 0-78 2t-77 2q-24 0-71-2t-71-2q-13 0-20 12t-7 25q0 17 9 25t20 10 26 4 24 9q18 13 18 80l-1 31v454q0 2 1 15t0 20-1 21-2 24-4 20-6 18-9 10q-8 5-25 7t-29 1-23 7-10 26q0 14 6 26t20 13q26 0 78-2t77-2q23 0 71 2t70 2q14 0 21-13t7-26q0-17-9-25t-22-8-27-2-24-7q-20-12-20-90l1-178q0-12 0-18 7-2 22-2h390q14 0 21 2 1 6 1 18l0 178q0 78-19 90-10 6-33 7t-37 7-14 28q0 14 7 26t21 13q24 0 74-2t73-2q24 0 72 2t72 2q14 0 21-13t7-26q0-17-10-25t-22-8-29-2-24-7q-20-13-20-90l1-526q0-66 19-78 9-6 25-8t30-2 23-9 10-25q0-14-6-26t-20-13z" horiz-adv-x="1000" />

<glyph glyph-name="brush" unicode="&#xf1fc;" d="M901 850q39 0 69-26t29-65q0-35-25-84-185-351-260-420-54-51-121-51-71 0-121 52t-51 123q0 71 52 118l356 323q33 30 72 30z m-507-577q22-42 59-73t84-42l1-40q2-118-72-193t-195-75q-68 0-121 26t-85 71-49 102-16 123q4-3 23-17t35-25 32-20 26-9q23 0 31 20 14 37 32 63t39 42 49 27 57 14 70 6z" horiz-adv-x="1000" />

<glyph glyph-name="toggle-off" unicode="&#xf204;" d="M643 344q0 58-23 111t-61 91-91 61-111 23-111-23-91-61-61-91-23-111 23-111 61-91 91-61 111-23 111 23 91 61 61 91 23 111z m428 0q0 58-22 111t-61 91-91 61-111 23h-216q67-50 106-125t38-161-38-161-106-125h216q58 0 111 23t91 61 61 91 22 111z m72 0q0-72-29-139t-76-113-114-77-138-28h-429q-72 0-138 28t-114 77-76 113-29 139 29 139 76 114 114 76 138 28h429q72 0 138-28t114-76 76-114 29-139z" horiz-adv-x="1140.6" />

<glyph glyph-name="toggle-on" unicode="&#xf205;" d="M0 344q0 73 29 139t76 114 114 76 138 28h429q72 0 138-28t114-76 76-114 29-139-29-139-76-113-114-77-138-28h-429q-72 0-138 28t-114 77-76 113-29 139z m786-286q58 0 111 23t91 61 61 91 22 111-22 111-61 91-91 61-111 23-111-23-91-61-61-91-23-111 23-111 61-91 91-61 111-23z" horiz-adv-x="1140.6" />

<glyph glyph-name="object-group" unicode="&#xf247;" d="M1143 630h-72v-572h72v-214h-214v71h-715v-71h-214v214h71v572h-71v214h214v-71h715v71h214v-214z m-143 143v-72h71v72h-71z m-929 0v-72h72v72h-72z m72-858v72h-72v-72h72z m786 72v71h71v572h-71v71h-715v-71h-71v-572h71v-71h715z m142-72v72h-71v-72h71z m-357 572h215v-429h-500v143h-215v429h500v-143z m-428-214h357v285h-357v-285z m571-143v285h-143v-214h-214v-71h357z" horiz-adv-x="1140.6" />

<glyph glyph-name="object-ungroup" unicode="&#xf248;" d="M1286 415h-72v-357h72v-214h-215v71h-500v-71h-214v214h72v72h-215v-72h-214v215h71v357h-71v214h214v-71h500v71h215v-214h-72v-72h214v72h215v-215z m-143 143v-71h71v71h-71z m-357 215v-72h71v72h-71z m-715 0v-72h72v72h-72z m72-643v71h-72v-71h72z m714 71h-71v-71h71v71z m-643 0h500v72h72v357h-72v71h-500v-71h-71v-357h71v-72z m286-286v72h-71v-72h71z m714 0v72h-71v-72h71z m-71 143v357h-72v72h-214v-214h72v-215h-215v72h-214v-72h71v-71h500v71h72z" horiz-adv-x="1285.2" />

<glyph glyph-name="window-maximize" unicode="&#xf2d0;" d="M143 58h714v429h-714v-429z m857 625v-678q0-37-26-63t-63-27h-822q-36 0-63 27t-26 63v678q0 37 26 63t63 27h822q37 0 63-27t26-63z" horiz-adv-x="1000" />

<glyph glyph-name="window-minimize" unicode="&#xf2d1;" d="M1000 112v-107q0-37-26-63t-63-27h-822q-36 0-63 27t-26 63v107q0 37 26 63t63 26h822q37 0 63-26t26-63z" horiz-adv-x="1000" />

<glyph glyph-name="window-restore" unicode="&#xf2d2;" d="M143-7h428v286h-428v-286z m571 286h286v428h-429v-143h54q37 0 63-26t26-63v-196z m429 482v-536q0-37-26-63t-63-26h-340v-197q0-37-26-63t-63-26h-536q-36 0-63 26t-26 63v536q0 37 26 63t63 26h340v197q0 37 26 63t63 26h536q36 0 63-26t26-63z" horiz-adv-x="1142.9" />

<glyph glyph-name="equals" unicode="&#xf52c;" d="M813 256c34 0 62-28 62-62v-63c0-34-28-62-62-62h-750c-35 0-63 28-63 62v63c0 34 28 62 63 62h750z m0 375c34 0 62-28 62-62v-63c0-34-28-62-62-62h-750c-35 0-63 28-63 62v63c0 34 28 62 63 62h750z" horiz-adv-x="875" />

<glyph glyph-name="greater-than" unicode="&#xf531;" d="M714 440c22-10 36-32 36-56v-67c0-22-16-48-36-57l-599-279c-31-15-68-1-83 30l-26 57c-15 31-1 68 30 83l427 199-427 199c-31 14-45 52-30 83l26 57c15 31 52 45 84 30z" horiz-adv-x="750" />

<glyph glyph-name="greater-than-equal" unicode="&#xf532;" d="M108 640c-36 11-54 47-41 79l23 59c13 32 53 49 88 37l590-234c27-9 45-33 45-59v-31c0-27-18-50-45-59l-589-234c-36-12-76 5-89 37l-23 59c-13 32 5 68 41 80l343 133z m720-571c26 0 47-21 47-47v-94c0-26-21-47-47-47h-781c-26 0-47 21-47 47v94c0 26 21 47 47 47h781z" horiz-adv-x="875" />

<glyph glyph-name="less-than" unicode="&#xf536;" d="M714 151c31-14 45-52 30-83l-26-57c-15-31-52-45-84-30l-598 279c-22 10-36 32-36 57v66c0 22 16 48 36 57l599 279c31 15 68 1 83-30l26-57c15-31 1-68-30-83l-427-199z" horiz-adv-x="750" />

<glyph glyph-name="less-than-equal" unicode="&#xf537;" d="M107 432c-26 9-44 32-44 59v31c0 26 18 50 44 59l590 234c35 12 75-5 88-37l23-59c13-32-5-68-41-79l-343-133 343-133c36-12 54-48 41-80l-23-59c-13-32-53-49-89-37z m721-363c26 0 47-21 47-47v-94c0-26-21-47-47-47h-781c-26 0-47 21-47 47v94c0 26 21 47 47 47h781z" horiz-adv-x="875" />

<glyph glyph-name="not-equal" unicode="&#xf53e;" d="M813 444h-193l-145-188h338c34 0 62-28 62-62v-63c0-34-28-62-62-62h-484l-160-207c-11-13-30-16-44-6l-50 38c-13 11-16 31-5 44l101 131h-108c-35 0-63 28-63 62v63c0 34 28 62 63 62h254l145 188h-399c-35 0-63 28-63 62v63c0 34 28 62 63 62h545l160 207c10 13 30 16 44 6l49-38c14-11 17-31 6-44l-101-131h47c34 0 62-28 62-62v-63c0-34-28-62-62-62z" horiz-adv-x="875" />

<glyph glyph-name="percentage" unicode="&#xf541;" d="M213 512c-48-49-128-49-176 0-49 48-49 128 0 176s128 49 176 0 49-128 0-176z m500-324c49-48 49-128 0-176-48-49-128-49-176 0s-49 128 0 176 128 49 176 0z m-3 452c24-24 24-64 0-88l-537-537c-24-24-64-24-88 0l-45 45c-24 24-24 64 0 88l537 537c24 24 64 24 88 0z" horiz-adv-x="750" />

<glyph glyph-name="grip-vertical" unicode="&#xf58e;" d="M188 788c34 0 62-28 62-63v-125c0-34-28-62-62-62h-125c-35 0-63 28-63 62v125c0 35 28 63 63 63h125z m0-313c34 0 62-28 62-62v-125c0-35-28-63-62-63h-125c-35 0-63 28-63 63v125c0 34 28 62 63 62h125z m0-312c34 0 62-28 62-63v-125c0-35-28-63-62-63h-125c-35 0-63 28-63 63v125c0 35 28 63 63 63h125z m375 625c34 0 62-28 62-63v-125c0-34-28-62-62-62h-125c-35 0-63 28-63 62v125c0 35 28 63 63 63h125z m0-313c34 0 62-28 62-62v-125c0-35-28-63-62-63h-125c-35 0-63 28-63 63v125c0 34 28 62 63 62h125z m0-312c34 0 62-28 62-63v-125c0-35-28-63-62-63h-125c-35 0-63 28-63 63v125c0 35 28 63 63 63h125z" horiz-adv-x="625" />
</font>
</defs>
</svg>
