<?xml version="1.0" standalone="no"?>
<!DOCTYPE svg PUBLIC "-//W3C//DTD SVG 1.1//EN" "http://www.w3.org/Graphics/SVG/1.1/DTD/svg11.dtd">
<svg xmlns="http://www.w3.org/2000/svg">
<defs >
<font id="Asap" horiz-adv-x="548" ><font-face
    font-family="Asap"
    units-per-em="1000"
    panose-1="2 15 5 4 3 2 2 6 2 3"
    ascent="934"
    descent="-212"
    alphabetic="0" />
<glyph unicode=" " glyph-name="space" horiz-adv-x="240" />
<glyph unicode="!" glyph-name="exclam" horiz-adv-x="294" d="M112 202T112 224V680Q112 702 152 702H172Q211 702 211 680L184 224Q182 202 153 202H142Q112 202 112 224ZM100 -2T100 20V86Q100 108 140 108H157Q197 108 197 86V20Q197 -2 157 -2H140Q100 -2 100 20Z" />
<glyph unicode="&quot;" glyph-name="quotedbl" horiz-adv-x="319" d="M75 472T72 484L50 668V680Q50 702 90 702H100Q140 702 140 680Q140 671 117 484Q114 472 95 472H94Q75 472 72 484ZM203 472T200 484L178 668V680Q178 702 218 702H228Q268 702 268 680Q268
671 245 484Q242 472 223 472H222Q203 472 200 484Z" />
<glyph unicode="#" glyph-name="numbersign" horiz-adv-x="534" d="M90 -2T84 2T77 15Q77 18 92 104Q92 106 109 196H33Q23 196 18 203T13 226V243Q13 259 18 266T33 273H124L150 420H69Q59 420 54 427T49 450V467Q49 483 54 490T69 497H163L194 664Q197 676 204
681T238 686H242Q270 686 270 671L237 497H356L386 664Q389 676 396 681T430 686H435Q463 686 463 671L432 497H500Q511 497 515 490T520 467V450Q520 434 516 427T500 420H417L392 273H468Q479 273 483 266T488 243V226Q488 210 484 203T468 196H376L345 20Q343
8 335 3T302 -2H298Q283 -2 277 2T270 15Q270 18 285 104Q285 106 302 196H184L152 20Q150 8 142 3T109 -2H105Q90 -2 84 2ZM317 273L343 420H225L199 273H317Z" />
<glyph unicode="$" glyph-name="dollar" horiz-adv-x="496" d="M253 -71Q233 -71 233 -55V-6Q165 -5 104 17Q72 28 54 42T35 67Q35 79 48 100T70 121Q74 121 91 110Q122 92 155 80T233 66V324Q172 348 136 367T74 424T48 522Q48 595 98 643T233 700V742Q233 758
253 758H255Q273 758 273 742V702Q305 701 342 694T404 673Q431 660 431 645Q431 634 419 613T399 592Q394 592 383 598T368 606Q320 629 273 630V397Q334 375 372 355T437 295T464 191Q464 106 413 55T273 -5V-55Q273 -71 254 -71H253ZM233 627Q189 619 164 592T139
518Q139 479 163 455T233 412V627ZM318 77T345 110T373 191Q373 234 347 260T273 308V69Q318 77 345 110Z" />
<glyph unicode="%" glyph-name="percent" horiz-adv-x="765" d="M139 381T100 416T60 542Q60 706 197 706Q254 706 294 670T334 542Q334 452 294 417T197 381Q139 381 100 416ZM174 -7T168 -5T161 2Q161 7 165 12L538 687Q548 706 578 706H583Q594 706 600 704T607
697Q607 695 603 687L230 12Q220 -7 190 -7H185Q174 -7 168 -5ZM270 436T270 542Q270 590 256 621T197 652Q153 652 140 621T126 542Q126 495 140 466T197 436Q270 436 270 542ZM510 -5T471 30T431 156Q431 320 568 320Q625 320 665 284T705 156Q705 66 665 31T568
-5Q510 -5 471 30ZM641 50T641 156Q641 204 627 235T568 266Q524 266 511 235T497 156Q497 109 511 80T568 50Q641 50 641 156Z" />
<glyph unicode="&amp;" glyph-name="ampersand" horiz-adv-x="624" d="M599 71T605 53T611 24Q611 -6 538 -6Q510 -6 483 3T436 37Q406 19 365 7T273 -6Q219 -6 168 15T84 84T50 203Q50 276 88 325T176 387V391Q131 409 102 447T73 538Q73 620 128 663T275 706Q308
706 334 699T360 674Q360 665 354 645T338 625Q333 625 316 629T277 634Q208 634 183 602T157 529Q157 501 171 474T215 427T291 408H409L421 513Q424 535 453 535H463Q493 535 493 513V408H577Q588 408 592 401T597 378V366Q597 350 593 343T577 336H493V140Q493
98 507 82T547 66Q566 66 575 68T590 71Q599 71 605 53ZM137 130T181 98T281 66Q314 66 348 77T411 103Q409 121 409 132V336H287Q214 336 176 306T137 204Q137 130 181 98Z" />
<glyph unicode="&apos;" glyph-name="quotesingle" horiz-adv-x="183" d="M75 472T72 484L50 668V680Q50 702 90 702H100Q140 702 140 680Q140 671 117 484Q114 472 95 472H94Q75 472 72 484Z" />
<glyph unicode="(" glyph-name="parenleft" horiz-adv-x="301" d="M250 -212T239 -201Q154 -123 105 6T55 286Q55 435 105 563T239 773Q249 783 260 783Q270 783 280 776T290 758Q290 746 281 736Q213 656 175 539T136 286Q136 151 174 34T280 -164Q289 -175 289
-184Q289 -192 280 -202T261 -212Q250 -212 239 -201Z" />
<glyph unicode=")" glyph-name="parenright" horiz-adv-x="301" d="M30 -211T20 -203T9 -185Q9 -179 16 -170Q85 -90 125 29T165 286Q165 421 127 539T21 736Q12 747 12 756Q12 764 21 774T40 784Q51 784 62 773Q147 695 196 566T246 286Q246 137 196 9T62 -201Q52
-211 41 -211Q30 -211 20 -203Z" />
<glyph unicode="*" glyph-name="asterisk" horiz-adv-x="373" d="M86 414T79 420T71 434Q71 441 76 447L147 546L49 578Q35 582 35 593Q35 604 40 610T53 617Q59 617 62 616L161 584V689Q161 709 181 709Q201 709 201 689V584L300 616Q303 617 309 617Q316 617
321 611T327 594Q327 582 313 578L214 546L286 447Q291 441 291 434Q291 427 284 421T269 414Q260 414 254 423L181 524L108 423Q102 414 93 414Q86 414 79 420Z" />
<glyph unicode="+" glyph-name="plus" horiz-adv-x="560" d="M261 -2T254 3T247 18V197H68Q57 197 53 202T48 223V230Q48 264 68 264H247V443Q247 454 254 458T277 463H284Q300 463 307 458T314 443V264H492Q503 264 507 257T512 234V227Q512 211 508 204T492
197H314V18Q314 8 307 3T284 -2H277Q261 -2 254 3Z" />
<glyph unicode="," glyph-name="comma" horiz-adv-x="198" d="M30 -116T21 -113T12 -101Q12 -95 21 -77Q55 -9 55 76Q55 91 65 99T95 108H104Q123 108 133 101T144 80Q144 24 126 -20T84 -90T41 -116Q30 -116 21 -113Z" />
<glyph unicode="-" glyph-name="hyphen" horiz-adv-x="320" d="M54 230T49 237T44 260V270Q44 286 49 293T64 300H253Q264 300 268 293T273 270V260Q273 244 269 237T253 230H64Q54 230 49 237Z" />
<glyph unicode="." glyph-name="period" horiz-adv-x="198" d="M51 -2T51 20V86Q51 108 91 108H108Q148 108 148 86V20Q148 -2 108 -2H91Q51 -2 51 20Z" />
<glyph unicode="/" glyph-name="slash" horiz-adv-x="370" d="M3 -76T-3 -71T-10 -56Q-10 -49 -7 -41L303 680Q313 703 338 703H342Q366 703 366 683Q366 676 363 668L53 -53Q48 -65 41 -70T20 -76H16Q3 -76 -3 -71Z" />
<glyph unicode="0" glyph-name="zero" horiz-adv-x="535" d="M203 -6T152 32T70 151T39 350Q39 469 70 549T152 667T266 706Q329 706 381 668T464 549T495 350Q495 231 464 151T381 33T266 -6Q203 -6 152 32ZM305 66T337 95T390 187T410 350Q410 449 390 512T338
605T266 634Q228 634 196 606T144 513T124 350Q124 251 143 187T195 95T266 66Q305 66 337 95Z" />
<glyph unicode="1" glyph-name="one" horiz-adv-x="535" d="M53 0T48 7T43 30V42Q43 58 48 65T63 72H237V611L60 581Q51 581 46 598T40 632Q40 647 58 651L290 702Q302 702 311 696T321 681V72H469Q480 72 484 65T489 42V30Q489 14 485 7T469 0H63Q53 0 48 7Z" />
<glyph unicode="2" glyph-name="two" horiz-adv-x="535" d="M63 0T57 14T51 44Q51 57 55 61L313 385Q344 426 358 450T377 490T381 530Q381 578 348 606T256 634Q214 634 186 623T129 594Q111 583 106 583Q99 583 87 602T74 633Q74 653 105 669T179 696T254 706Q352
706 409 661T467 536Q467 486 452 449T395 355T238 160L165 71H453Q464 71 468 64T473 41V30Q473 14 469 7T453 0H71Q63 0 57 14Z" />
<glyph unicode="3" glyph-name="three" horiz-adv-x="535" d="M190 -6T144 3T72 25T45 51Q45 65 58 83T80 101Q87 101 108 93Q172 66 238 66Q294 66 338 98T382 204Q382 276 344 306T232 336H199Q189 336 184 343T179 366V377Q179 393 184 400T199 407H228Q276
407 305 428T348 480T361 538Q361 575 334 604T242 634Q200 634 173 627T120 608Q103 601 98 601Q90 601 78 621T65 653Q65 674 128 690T244 706Q336 706 391 661T446 529Q446 480 417 444T343 391V387Q393 374 431 325T469 203Q469 131 436 84T351 16T246 -6Q190
-6 144 3Z" />
<glyph unicode="4" glyph-name="four" horiz-adv-x="535" d="M346 -2T346 20V167H42Q34 167 26 185T18 218Q18 227 20 229L349 688Q360 702 383 702H399Q429 702 429 680V239H496Q507 239 511 232T516 209V197Q516 181 512 174T496 167H429V20Q429 -2 399 -2H376Q346
-2 346 20ZM346 239V533Q346 544 351 564L347 566L117 239H346Z" />
<glyph unicode="5" glyph-name="five" horiz-adv-x="535" d="M182 -6T139 3T72 27T47 54Q47 68 60 86T82 104Q87 104 109 95Q138 82 166 74T233 66Q298 66 343 104T388 213Q388 280 342 315T208 350H123Q107 350 101 357T95 380L112 670Q113 686 120 693T144 700H410Q421
700 425 693T430 670V658Q430 642 426 635T410 628H193L180 422H232Q292 422 347 402T438 336T474 213Q474 94 405 44T234 -6Q182 -6 139 3Z" />
<glyph unicode="6" glyph-name="six" horiz-adv-x="535" d="M159 -5T105 60T51 247Q51 379 113 482T255 643T376 702Q390 702 399 682T409 649Q409 641 401 638Q302 597 241 529T154 372Q211 405 289 405Q342 405 385 380T454 309T480 203Q480 141 452 94T374
21T264 -5Q159 -5 105 60ZM298 67T327 81T375 126T395 199Q395 267 357 300T264 333Q199 333 139 299Q135 259 135 239Q135 144 173 106T269 67Q298 67 327 81Z" />
<glyph unicode="7" glyph-name="seven" horiz-adv-x="535" d="M117 -2T107 2T97 16Q97 18 101 28L390 628H75Q65 628 60 635T55 658V670Q55 686 60 693T75 700H470Q476 700 483 682T490 649Q490 644 488 638L192 14Q188 7 178 3T152 -2H140Q117 -2 107 2Z" />
<glyph unicode="8" glyph-name="eight" horiz-adv-x="535" d="M172 -6T112 47T51 202Q51 275 80 315T162 380Q124 403 102 441T79 533Q79 615 132 660T269 706Q352 706 406 661T461 533Q461 426 364 381Q421 355 452 316T484 202Q484 100 424 47T267 -6Q172 -6
112 47ZM377 458T377 533Q377 584 347 609T269 634Q222 634 193 609T163 533Q163 495 179 472T222 436T291 408Q377 458 377 533ZM323 66T360 101T398 202Q398 243 380 268T335 307T261 338L229 350Q186 324 162 290T137 202Q137 137 174 102T267 66Q323 66 360
101Z" />
<glyph unicode="9" glyph-name="nine" horiz-adv-x="535" d="M145 -2T136 18T126 51Q126 59 134 62Q233 103 294 171T381 328Q324 295 246 295Q193 295 150 320T81 391T55 497Q55 559 83 606T161 679T271 705Q376 705 430 640T484 453Q484 321 422 218T280 57T159
-2Q145 -2 136 18ZM337 367T396 401Q400 441 400 461Q400 556 362 594T266 633Q237 633 208 619T160 574T140 501Q140 433 178 400T271 367Q337 367 396 401Z" />
<glyph unicode=":" glyph-name="colon" horiz-adv-x="198" d="M51 415T51 437V503Q51 525 91 525H108Q148 525 148 503V437Q148 415 108 415H91Q51 415 51 437ZM51 -2T51 20V86Q51 108 91 108H108Q148 108 148 86V20Q148 -2 108 -2H91Q51 -2 51 20Z" />
<glyph unicode=";" glyph-name="semicolon" horiz-adv-x="198" d="M51 415T51 437V503Q51 525 91 525H108Q148 525 148 503V437Q148 415 108 415H91Q51 415 51 437ZM30 -116T21 -113T12 -101Q12 -95 21 -77Q55 -9 55 76Q55 91 65 99T95 108H104Q123 108 133 101T144
80Q144 24 126 -20T84 -90T41 -116Q30 -116 21 -113Z" />
<glyph unicode="&lt;" glyph-name="less" horiz-adv-x="560" d="M485 7T477 10L66 184Q41 195 41 219V236Q41 260 66 271L477 445Q485 448 492 448Q501 448 507 441T513 422V408Q513 384 489 373L133 228L489 82Q513 72 513 47V33Q513 21 507 14T492 7Q485 7 477 10Z" />
<glyph unicode="=" glyph-name="equal" horiz-adv-x="560" d="M64 271T56 279T48 301V308Q48 338 78 338H482Q512 338 512 308V301Q512 271 482 271H78Q64 271 56 279ZM64 107T56 115T48 137V145Q48 175 78 175H482Q512 175 512 145V137Q512 107 482 107H78Q64
107 56 115Z" />
<glyph unicode="&gt;" glyph-name="greater" horiz-adv-x="560" d="M58 6T52 13T46 32V46Q46 71 70 81L426 227L70 372Q46 383 46 407V421Q46 433 52 440T67 447Q75 447 82 444L493 270Q518 259 518 235V218Q518 194 493 183L82 9Q75 6 67 6Q58 6 52 13Z" />
<glyph unicode="?" glyph-name="question" horiz-adv-x="445" d="M149 202T149 225Q149 259 171 301T235 384Q285 434 307 464T330 528Q330 632 204 632Q176 632 153 625T104 607Q84 598 80 598Q73 598 61 618T48 649Q48 673 104 689T220 706Q284 706 330 684T401
623T425 538Q425 492 401 455T330 370Q281 322 257 291T227 222Q225 212 218 207T194 202H179Q149 202 149 225ZM136 -2T136 20V86Q136 108 176 108H193Q233 108 233 86V20Q233 -2 193 -2H176Q136 -2 136 20Z" />
<glyph unicode="@" glyph-name="at" horiz-adv-x="974" d="M634 705T709 665T825 551T867 380Q867 290 840 215T766 97T657 54Q612 54 585 78T558 137V144Q533 98 498 76T423 54Q389 54 357 70T301 127T278 236Q278 314 304 375T378 470T489 505Q526 505 554 491T600
458Q603 466 607 479T617 497T635 502H641Q663 502 663 481Q658 433 644 299T630 149Q630 107 670 107Q706 107 739 145T793 246T813 380Q813 464 778 527T680 626T534 661Q425 661 334 605T191 451T138 237Q138 143 172 71T268 -42T410 -82Q453 -82 481 -76T535
-60Q556 -53 564 -53Q578 -53 578 -76Q578 -102 522 -114T410 -126Q314 -126 240 -81T125 47T84 237Q84 367 143 474T306 643T534 705Q634 705 709 665ZM569 265T575 327T587 409Q546 443 495 443Q416 443 384 386T351 241Q351 174 375 145T439 115Q473 115 508
148T568 256Q569 265 575 327Z" />
<glyph unicode="A" glyph-name="A" horiz-adv-x="613" d="M12 -2T12 15Q12 20 15 29L252 686Q258 702 292 702H321Q357 702 361 686L598 28Q601 21 601 15Q601 -2 558 -2H550Q515 -2 510 14L451 178H157L100 14Q95 -2 60 -2H55Q12 -2 12 15ZM424 254L319 552Q314
568 307 610H305Q297 570 290 552L185 254H424Z" />
<glyph unicode="B" glyph-name="B" horiz-adv-x="593" d="M111 0T104 7T97 30V670Q97 686 104 693T127 700H306Q415 700 472 652T530 523Q530 473 497 428T420 371V367Q420 371 459 352T529 297T560 201Q560 0 299 0H127Q111 0 104 7ZM301 398Q361 398 400 432T439
515Q439 571 405 597T297 624H185V398H301ZM331 76Q397 76 433 110T469 205Q469 261 430 291T314 322H185V76H331Z" />
<glyph unicode="C" glyph-name="C" horiz-adv-x="619" d="M214 -6T136 80T57 350Q57 706 381 706Q430 706 475 696T548 670Q572 656 572 644Q572 630 560 608T538 586Q535 586 513 598T458 620T383 630Q262 630 205 563T148 349Q148 205 204 138T379 70Q428 70
463 81T532 111Q546 120 551 120Q560 120 573 98T586 66Q586 51 554 33Q524 16 478 5T379 -6Q214 -6 136 80Z" />
<glyph unicode="D" glyph-name="D" horiz-adv-x="695" d="M111 0T104 7T97 30V670Q97 686 104 693T127 700H329Q469 700 553 617T638 350Q638 166 554 83T329 0H127Q111 0 104 7ZM322 76Q423 76 485 142T547 350Q547 491 485 557T322 624H185V76H322Z" />
<glyph unicode="E" glyph-name="E" horiz-adv-x="546" d="M111 0T104 7T97 30V670Q97 686 104 693T127 700H476Q487 700 491 693T496 670V654Q496 638 492 631T476 624H185V396H446Q457 396 461 389T466 366V350Q466 334 462 327T446 320H185V76H477Q488 76 492
69T497 46V30Q497 14 493 7T477 0H127Q111 0 104 7Z" />
<glyph unicode="F" glyph-name="F" horiz-adv-x="503" d="M97 -2T97 20V670Q97 686 104 693T127 700H442Q453 700 457 693T462 670V654Q462 638 458 631T442 624H185V396H424Q435 396 439 389T444 366V350Q444 334 440 327T424 320H185V20Q185 -2 145 -2H137Q97
-2 97 20Z" />
<glyph unicode="G" glyph-name="G" horiz-adv-x="672" d="M575 361T582 354T589 331V66Q589 27 527 11T366 -6Q215 -6 136 81T57 344Q57 706 381 706Q428 706 472 697T544 672T572 644Q572 630 560 608T538 586Q535 586 513 598T458 620T383 630Q256 630 202 560T148
353Q148 223 198 147T372 70Q409 70 444 73T501 83V285H384Q374 285 369 292T364 315V331Q364 347 369 354T384 361H559Q575 361 582 354Z" />
<glyph unicode="H" glyph-name="H" horiz-adv-x="733" d="M97 -2T97 20V680Q97 702 137 702H145Q185 702 185 680V397H547V680Q547 702 587 702H595Q635 702 635 680V20Q635 -2 595 -2H587Q547 -2 547 20V321H185V20Q185 -2 145 -2H137Q97 -2 97 20Z" />
<glyph unicode="I" glyph-name="I" horiz-adv-x="283" d="M97 -2T97 20V680Q97 702 137 702H145Q185 702 185 680V20Q185 -2 145 -2H137Q97 -2 97 20Z" />
<glyph unicode="J" glyph-name="J" horiz-adv-x="402" d="M68 -6T37 1T6 26Q6 36 12 58T28 81Q33 81 51 77T91 72Q165 72 198 101T231 195V680Q231 702 271 702H279Q319 702 319 680V205Q319 -6 107 -6Q68 -6 37 1Z" />
<glyph unicode="K" glyph-name="K" horiz-adv-x="576" d="M97 -2T97 20V680Q97 702 137 702H145Q185 702 185 680V374H189L435 688Q446 702 489 702H499Q516 702 525 699T534 689Q534 680 524 669L274 357L577 28Q586 18 586 12Q586 4 576 1T542 -2H530Q508 -2
496 0T475 11L189 333H185V20Q185 -2 145 -2H137Q97 -2 97 20Z" />
<glyph unicode="L" glyph-name="L" horiz-adv-x="484" d="M111 0T104 7T97 30V680Q97 702 137 702H145Q185 702 185 680V76H460Q471 76 475 69T480 46V30Q480 14 476 7T460 0H127Q111 0 104 7Z" />
<glyph unicode="M" glyph-name="M" horiz-adv-x="843" d="M388 195T381 208L203 518Q194 533 179 563L175 562Q177 544 177 507V20Q177 -2 137 -2H130Q90 -2 90 20V680Q90 702 130 702H166Q198 702 208 684L397 356Q415 325 423 293Q431 318 454 359L638 684Q648
702 680 702H713Q753 702 753 680V20Q753 -2 713 -2H706Q666 -2 666 20V501Q666 538 668 556L664 557Q649 527 640 512L465 208Q458 195 443 195H403Q388 195 381 208Z" />
<glyph unicode="N" glyph-name="N" horiz-adv-x="719" d="M90 -2T90 20V680Q90 702 130 702H151Q167 702 176 698T193 683L507 209Q524 184 540 149L544 150Q542 173 542 218V680Q542 702 582 702H589Q629 702 629 680V20Q629 -2 589 -2H569Q543 -2 534 12L212
498Q195 523 179 558L175 557Q177 534 177 489V20Q177 -2 137 -2H130Q90 -2 90 20Z" />
<glyph unicode="O" glyph-name="O" horiz-adv-x="731" d="M215 -6T136 85T57 352Q57 527 135 616T365 706Q516 706 595 617T674 352Q674 177 595 86T365 -6Q215 -6 136 85ZM471 70T527 142T583 352Q583 489 527 559T365 630Q259 630 204 560T148 352Q148 214 203
142T365 70Q471 70 527 142Z" />
<glyph unicode="P" glyph-name="P" horiz-adv-x="570" d="M85 -2T85 20V670Q85 686 92 693T115 700H318Q406 700 473 658T541 504Q541 421 502 375T415 314T328 298H173V20Q173 -2 133 -2H125Q85 -2 85 20ZM329 374Q372 374 411 403T450 504Q450 571 410 597T315
624H173V374H329Z" />
<glyph unicode="Q" glyph-name="Q" horiz-adv-x="731" d="M634 -148T476 -86T246 6Q57 81 57 347Q57 523 136 614T365 706Q516 706 595 614T674 347Q674 205 623 118T473 5V1L670 -61Q684 -66 684 -76Q684 -83 678 -101T662 -133T642 -148Q634 -148 476 -86ZM470
67T526 139T583 347Q583 483 526 556T365 630Q261 630 205 557T148 347Q148 211 204 139T365 67Q470 67 526 139Z" />
<glyph unicode="R" glyph-name="R" horiz-adv-x="610" d="M97 -2T97 20V670Q97 686 104 693T127 700H295Q415 700 475 658T536 523Q536 461 506 419T421 354V350Q450 340 469 311T511 225L589 28Q592 19 592 14Q592 -2 550 -2H540Q525 -2 514 2T500 14L424 210Q402
267 369 287T275 308H185V20Q185 -2 145 -2H137Q97 -2 97 20ZM317 384Q352 384 381 401T428 446T445 507Q445 566 409 595T310 624H185V384H317Z" />
<glyph unicode="S" glyph-name="S" horiz-adv-x="500" d="M184 -6T133 8T56 42Q37 56 37 67Q37 79 50 100T72 121Q76 121 93 111Q124 94 159 82T244 70Q302 70 338 102T375 188Q375 225 355 249T307 288T224 324Q166 347 132 366T74 422T50 521Q50 575 77 617T155
682T272 706Q306 706 348 697T413 671Q433 659 433 645Q433 634 421 613T401 592Q396 592 387 597T374 604Q324 630 270 630Q212 630 177 600T141 517Q141 483 158 462T198 431T277 398Q337 375 375 354T439 292T466 188Q466 98 406 46T244 -6Q184 -6 133 8Z" />
<glyph unicode="T" glyph-name="T" horiz-adv-x="549" d="M232 -2T232 20V624H40Q30 624 25 631T20 654V670Q20 686 25 693T40 700H509Q520 700 524 693T529 670V654Q529 638 525 631T509 624H320V20Q320 -2 280 -2H272Q232 -2 232 20Z" />
<glyph unicode="U" glyph-name="U" horiz-adv-x="712" d="M224 -6T154 54T83 224V680Q83 702 123 702H131Q171 702 171 680V221Q171 177 195 143T261 89T356 70Q409 70 451 89T517 143T541 221V680Q541 702 581 702H589Q629 702 629 680V224Q629 115 558 55T356
-6Q224 -6 154 54Z" />
<glyph unicode="V" glyph-name="V" horiz-adv-x="617" d="M258 -2T253 14L24 672Q21 680 21 685Q21 702 64 702H73Q108 702 113 686L298 152L308 100H311L322 153L507 686Q512 702 547 702H553Q596 702 596 685Q596 680 593 671L364 14Q359 -2 324 -2H293Q258 -2 253 14Z" />
<glyph unicode="W" glyph-name="W" horiz-adv-x="882" d="M193 -2T189 14L18 671Q15 683 15 685Q15 702 58 702H68Q104 702 108 686L235 194Q240 175 246 141T253 101L277 197L398 685Q402 702 437 702H453Q488 702 492 685L616 193Q622 171 627 141T633 101L657
196L778 686Q782 702 818 702H824Q867 702 867 685L864 671L691 14Q687 -2 651 -2H610Q574 -2 570 14L461 421L440 551L419 421L310 14Q306 -2 270 -2H229Q193 -2 189 14Z" />
<glyph unicode="X" glyph-name="X" horiz-adv-x="611" d="M41 -2T31 2T20 15Q20 22 28 33L252 365L52 667Q44 678 44 685Q44 702 90 702H104Q121 702 131 699T147 687L307 446L472 688Q481 702 515 702H521Q546 702 556 698T567 685Q567 678 559 667L359 370L584
33Q592 22 592 15Q592 -2 546 -2H530Q513 -2 503 1T487 13L303 288L117 12Q108 -2 74 -2H66Q41 -2 31 2Z" />
<glyph unicode="Y" glyph-name="Y" horiz-adv-x="559" d="M235 -2T235 20V359L26 667Q18 678 18 685Q18 702 64 702H75Q92 702 102 699T118 687L282 441L450 688Q459 702 495 702H502Q523 701 532 697T541 685Q541 678 533 667L323 356V20Q323 -2 283 -2H275Q235
-2 235 20Z" />
<glyph unicode="Z" glyph-name="Z" horiz-adv-x="616" d="M55 0T47 19T38 53Q38 61 41 65L451 624H91Q80 624 76 632T71 658V666Q71 684 75 692T91 700H549Q555 700 563 681T571 647Q571 640 568 635L158 76H549Q560 76 564 68T569 42V34Q569 16 565 8T549 0H62Q55
0 47 19Z" />
<glyph unicode="[" glyph-name="bracketleft" horiz-adv-x="291" d="M104 -138T97 -131T90 -108V738Q90 754 97 761T120 768H241Q252 768 256 762T261 739V734Q261 718 257 712T241 705H164V-76H241Q252 -76 256 -82T261 -105V-109Q261 -125 257 -131T241 -138H120Q104
-138 97 -131Z" />
<glyph unicode="\" glyph-name="backslash" horiz-adv-x="361" d="M314 -20T307 -15T294 3L8 667Q5 675 5 682Q5 702 29 702H33Q58 702 68 679L354 15Q357 8 357 0Q357 -9 351 -14T331 -20H327Q314 -20 307 -15Z" />
<glyph unicode="]" glyph-name="bracketright" horiz-adv-x="291" d="M39 -138T35 -132T30 -109V-105Q30 -89 34 -83T50 -76H127V705H50Q39 705 35 711T30 734V739Q30 755 34 761T50 768H171Q187 768 194 761T201 738V-108Q201 -124 194 -131T171 -138H50Q39 -138
35 -132Z" />
<glyph unicode="^" glyph-name="asciicircum" horiz-adv-x="450" d="M67 320T60 325T53 341Q53 348 56 355L181 664Q186 676 194 680T215 684H235Q249 684 257 680T269 664L394 355Q397 348 397 341Q397 331 390 326T370 320H366Q341 320 331 343L225 604L118
343Q108 320 84 320H80Q67 320 60 325Z" />
<glyph unicode="_" glyph-name="underscore" horiz-adv-x="534" d="M-21 -138T-21 -118V-110Q-21 -90 -1 -90H535Q555 -90 555 -110V-118Q555 -138 535 -138H-1Q-21 -138 -21 -118Z" />
<glyph unicode="`" glyph-name="grave" horiz-adv-x="320" d="M185 585T168 603L130 646Q91 690 83 701T74 719Q74 726 85 729T122 732Q146 732 161 726T184 706Q213 656 227 629T242 595Q242 585 219 585Q185 585 168 603Z" />
<glyph unicode="a" glyph-name="a" horiz-adv-x="545" d="M143 -6T96 32T49 144Q49 223 96 262T213 313T381 326V373Q381 410 355 433T271 457Q227 457 194 447T139 426T115 415Q105 415 93 435T80 465Q80 478 106 493T177 518T268 529Q361 529 413 488T465 372V148Q465
82 471 54T477 22Q477 10 458 5T423 -1Q409 -1 403 14T393 47T388 69Q320 -6 220 -6Q143 -6 96 32ZM273 67T308 85T381 136V254Q306 253 259 248T175 220T139 149Q139 109 160 88T224 67Q273 67 308 85Z" />
<glyph unicode="b" glyph-name="b" horiz-adv-x="569" d="M234 -6T162 69Q157 39 146 10Q141 -2 119 -2H115Q85 -2 85 20V730Q85 752 125 752H129Q169 752 169 730V478Q201 503 234 516T312 529Q372 529 418 498T489 407T515 262Q515 184 492 123T424 28T321 -6Q234
-6 162 69ZM363 67T395 119T427 269Q427 359 393 407T293 455Q260 455 228 444T169 410V136Q199 103 234 85T304 67Q363 67 395 119Z" />
<glyph unicode="c" glyph-name="c" horiz-adv-x="485" d="M174 -6T113 58T52 264Q52 407 120 468T289 529Q347 529 393 515T439 483Q439 470 428 450T407 429Q405 429 403 430T396 433Q342 457 287 457Q142 457 142 266Q142 160 177 113T297 66Q358 66 410 92L421
96Q431 96 443 77T455 45Q455 33 434 22T376 2T298 -6Q174 -6 113 58Z" />
<glyph unicode="d" glyph-name="d" horiz-adv-x="565" d="M187 -6T143 28T76 123T52 261Q52 346 77 406T149 498T255 529Q299 529 332 516T398 478V730Q398 752 438 752H442Q482 752 482 730V148Q482 82 488 54T494 22Q494 10 475 5T440 -1Q426 -1 420 14T410
47T405 69Q333 -6 246 -6Q187 -6 143 28ZM297 67T332 85T398 136V410Q344 455 275 455Q208 455 174 407T140 269Q140 172 172 120T263 67Q297 67 332 85Z" />
<glyph unicode="e" glyph-name="e" horiz-adv-x="539" d="M175 -6T115 59T55 258Q55 391 114 460T288 529Q390 529 442 463T494 268Q494 259 482 243T461 227H145Q151 144 188 105T299 66Q341 66 371 76T422 97T445 108Q455 108 467 88T480 58Q480 46 455 31T389
5T300 -6Q175 -6 115 59ZM405 299Q405 457 285 457Q156 457 145 299H405Z" />
<glyph unicode="f" glyph-name="f" horiz-adv-x="325" d="M108 -2T108 20V451H68Q58 451 53 458T48 481V493Q48 509 53 516T68 523H108V618Q108 697 147 726T237 756Q310 756 310 726Q310 716 304 698T289 679Q284 679 275 681T246 684Q220 684 206 670T192 610V523H279Q290
523 294 516T299 493V481Q299 465 295 458T279 451H192V20Q192 -2 152 -2H148Q108 -2 108 20Z" />
<glyph unicode="g" glyph-name="g" horiz-adv-x="546" d="M157 -212T102 -182T46 -88Q46 -44 71 -12T137 37L138 39Q98 71 98 121Q98 186 154 225Q112 246 90 283T68 366Q68 437 120 483T265 529Q297 529 324 523H506Q517 523 521 516T526 493V481Q526 465 522
458T506 451Q465 451 436 454L435 452Q461 415 461 366Q461 294 410 248T264 202Q217 202 193 186T169 133Q169 107 185 94T227 74T297 63Q319 61 330 59Q402 50 441 26T481 -61Q481 -134 423 -173T253 -212Q157 -212 102 -182ZM319 269T351 291T384 365Q384 462
264 462Q145 462 145 365Q145 269 264 269Q319 269 351 291ZM334 -144T367 -126T401 -70Q401 -35 368 -23T269 -4Q209 2 187 9Q121 -19 121 -72Q121 -144 264 -144Q334 -144 367 -126Z" />
<glyph unicode="h" glyph-name="h" horiz-adv-x="565" d="M92 -2T92 20V730Q92 752 132 752H136Q176 752 176 730V460Q206 490 245 509T329 529Q392 529 440 494T488 367V20Q488 -2 448 -2H444Q404 -2 404 20V359Q404 404 378 430T302 456Q269 456 241 441T195
407T176 386V20Q176 -2 136 -2H132Q92 -2 92 20Z" />
<glyph unicode="i" glyph-name="i" horiz-adv-x="265" d="M87 616T87 640V696Q87 720 135 720Q179 720 179 696V640Q179 616 131 616Q87 616 87 640ZM91 -2T91 20V503Q91 525 131 525H135Q175 525 175 503V20Q175 -2 135 -2H131Q91 -2 91 20Z" />
<glyph unicode="j" glyph-name="j" horiz-adv-x="276" d="M97 616T97 640V696Q97 720 145 720Q189 720 189 696V640Q189 616 141 616Q97 616 97 640ZM-17 -212T-17 -182Q-17 -172 -11 -154T4 -135Q9 -135 18 -137T47 -140Q72 -140 86 -124T101 -66V503Q101 525
141 525H145Q185 525 185 503V-74Q185 -151 146 -181T56 -212Q-17 -212 -17 -182Z" />
<glyph unicode="k" glyph-name="k" horiz-adv-x="521" d="M484 18T484 12Q484 4 474 1T440 -2H436Q415 -2 402 0T382 11L182 248H178V20Q178 -2 138 -2H134Q94 -2 94 20V730Q94 752 134 752H138Q178 752 178 730V283H182L373 511Q384 525 426 525H430Q447 525
456 522T465 512Q465 503 455 492L269 272L475 28Q484 18 484 12Z" />
<glyph unicode="l" glyph-name="l" horiz-adv-x="297" d="M161 -6T122 24T82 132V730Q82 752 122 752H126Q166 752 166 730V140Q166 98 180 82T220 66Q239 66 248 68T263 71Q272 71 278 53T284 24Q284 -6 211 -6Q161 -6 122 24Z" />
<glyph unicode="m" glyph-name="m" horiz-adv-x="848" d="M679 529T726 494T773 367V20Q773 -2 733 -2H729Q689 -2 689 20V359Q689 404 665 430T593 456Q529 456 470 386Q471 379 471 366V20Q471 -2 431 -2H427Q387 -2 387 20V359Q387 404 363 430T291 456Q259
456 232 441T187 407T169 387V20Q169 -2 129 -2H125Q85 -2 85 20V371Q85 437 79 465T73 497Q73 509 92 514T127 520Q141 520 147 506T157 475T162 454Q190 486 229 507T314 529Q359 529 398 511T457 446Q488 482 529 505T616 529Q679 529 726 494Z" />
<glyph unicode="n" glyph-name="n" horiz-adv-x="557" d="M86 -2T86 20V371Q86 437 80 465T74 497Q74 509 93 514T128 520Q142 520 148 506T158 475T163 454Q195 489 236 509T319 529Q395 529 438 486T482 367V20Q482 -2 442 -2H438Q398 -2 398 20V359Q398 405
372 430T296 456Q262 456 229 437T170 386V20Q170 -2 130 -2H126Q86 -2 86 20Z" />
<glyph unicode="o" glyph-name="o" horiz-adv-x="569" d="M174 -6T115 62T55 259Q55 389 115 459T287 529Q397 529 455 460T514 259Q514 129 457 62T287 -6Q174 -6 115 62ZM357 66T392 113T427 261Q427 361 392 409T284 457Q211 457 177 410T143 261Q143 161 177
114T284 66Q357 66 392 113Z" />
<glyph unicode="p" glyph-name="p" horiz-adv-x="573" d="M86 -208T86 -186V371Q86 437 80 465T74 497Q74 509 93 514T128 520Q142 520 148 506T158 475T163 454Q235 529 322 529Q383 529 426 495T493 400T516 261Q516 176 491 116T419 25T313 -6Q269 -6 236 7T170
45V-186Q170 -208 130 -208H126Q86 -208 86 -186ZM360 68T394 116T428 254Q428 351 396 403T305 456Q271 456 236 438T170 387V113Q224 68 294 68Q360 68 394 116Z" />
<glyph unicode="q" glyph-name="q" horiz-adv-x="566" d="M398 -208T398 -186V45Q366 20 333 7T255 -6Q195 -6 149 25T78 116T52 260Q52 338 75 399T143 494T246 529Q333 529 405 454Q413 494 421 513Q426 525 448 525H452Q482 525 482 503V-186Q482 -208 442
-208H438Q398 -208 398 -186ZM344 68T398 113V387Q368 420 333 438T263 456Q204 456 172 404T140 254Q140 164 174 116T274 68Q344 68 398 113Z" />
<glyph unicode="r" glyph-name="r" horiz-adv-x="366" d="M90 -2T90 20V371Q90 437 84 465T78 497Q78 509 97 514T132 520Q146 520 152 506T162 475T167 454Q220 529 283 529Q311 529 326 518T341 490Q341 473 335 455T321 436Q316 436 302 441T266 447Q243 447
223 434T188 404T174 386V20Q174 -2 134 -2H130Q90 -2 90 20Z" />
<glyph unicode="s" glyph-name="s" horiz-adv-x="413" d="M151 -9T115 1T57 27T35 54Q35 64 47 84T70 104Q72 104 89 93T131 73T188 64Q286 64 286 145Q286 179 264 199T186 235Q107 258 77 292T47 385Q47 427 68 460T127 511T213 530Q264 530 304 517T345 487Q345
474 334 454T313 433Q310 434 287 446T222 459Q184 459 159 442T133 396Q133 362 151 342T211 309Q275 289 308 270T356 222T371 147Q371 103 348 68T284 12T194 -9Q151 -9 115 1Z" />
<glyph unicode="t" glyph-name="t" horiz-adv-x="342" d="M186 -6T147 24T107 132V451H57Q47 451 42 458T37 481V493Q37 509 42 516T57 523H107L119 628Q122 650 151 650H161Q191 650 191 628V523H275Q286 523 290 516T295 493V481Q295 465 291 458T275 451H191V140Q191
98 205 82T245 66Q264 66 273 68T288 71Q297 71 303 53T309 24Q309 -6 236 -6Q186 -6 147 24Z" />
<glyph unicode="u" glyph-name="u" horiz-adv-x="557" d="M162 -6T119 37T75 156V503Q75 525 115 525H119Q159 525 159 503V164Q159 118 185 93T261 67Q295 67 328 86T387 137V503Q387 525 427 525H431Q471 525 471 503V148Q471 82 477 54T483 22Q483 10 464 5T429
-1Q415 -1 409 14T399 47T394 69Q362 34 321 14T238 -6Q162 -6 119 37Z" />
<glyph unicode="v" glyph-name="v" horiz-adv-x="485" d="M190 -2T185 14L24 495Q21 504 21 508Q21 525 64 525H69Q104 525 109 509L211 190Q221 158 246 65H250L257 95Q268 152 280 188L383 509Q388 525 424 525H427Q464 525 464 508Q464 503 461 494L300 14Q295
-2 260 -2H225Q190 -2 185 14Z" />
<glyph unicode="w" glyph-name="w" horiz-adv-x="747" d="M171 -2T167 14L35 488Q30 503 30 508Q30 525 76 525Q112 525 116 509L200 189Q203 180 207 159T213 126L223 74H227Q243 163 250 190L333 508Q337 525 372 525H379Q414 525 418 508L502 190Q513 146 518
114T526 72H528L535 114Q546 171 550 188L634 509Q638 525 675 525Q715 525 715 508Q715 503 712 494L578 14Q574 -2 538 -2H508Q473 -2 469 14L389 331Q385 344 379 384L375 410H373L369 386Q363 345 359 332L277 14Q273 -2 237 -2H207Q171 -2 167 14Z" />
<glyph unicode="x" glyph-name="x" horiz-adv-x="485" d="M40 -2T30 2T20 15Q20 22 28 33L190 268L40 490Q32 501 32 508Q32 525 78 525H87Q104 525 114 522T130 510L225 367Q232 357 246 332Q260 357 267 367L363 511Q372 525 408 525H412Q434 525 444 521T454
508Q454 501 446 490L295 270L457 33Q465 22 465 15Q465 -2 419 -2H410Q393 -2 383 1T367 13L261 172Q254 183 240 207Q226 183 219 172L111 12Q101 -2 66 -2H63Q40 -2 30 2Z" />
<glyph unicode="y" glyph-name="y" horiz-adv-x="481" d="M462 525T462 508Q462 503 459 494L202 -187Q194 -208 155 -208H140Q107 -208 107 -192Q107 -188 112 -175L196 29L21 495Q18 504 18 508Q18 525 61 525H69Q104 525 109 509L211 238Q227 194 243 137H245Q247
144 249 150T253 163L278 238L378 509Q383 525 419 525H422Q462 525 462 508Z" />
<glyph unicode="z" glyph-name="z" horiz-adv-x="489" d="M53 0T45 18T37 51Q37 58 40 62L333 451H77Q67 451 62 458T57 481V493Q57 509 62 516T77 523H428Q435 523 441 505T448 471Q448 465 446 461L154 72H429Q440 72 444 65T449 42V30Q449 14 445 7T429 0H59Q53
0 45 18Z" />
<glyph unicode="{" glyph-name="braceleft" horiz-adv-x="274" d="M146 -138T121 -112T96 -22V145Q96 200 86 230T45 274Q32 280 26 287T20 308V322Q20 335 26 342T45 356Q76 370 86 399T96 485V652Q96 715 121 741T174 768H224Q235 768 239 762T244 739V735Q244
719 240 713T224 706H202Q182 706 175 692T168 645V469Q168 406 143 370T90 314Q102 308 120 291T153 240T168 161V-14Q168 -46 175 -61T202 -76H224Q235 -76 239 -82T244 -105V-109Q244 -125 240 -131T224 -138H174Q146 -138 121 -112Z" />
<glyph unicode="|" glyph-name="bar" horiz-adv-x="250" d="M96 -140T96 -118V748Q96 770 120 770H130Q154 770 154 748V-118Q154 -140 130 -140H120Q96 -140 96 -118Z" />
<glyph unicode="}" glyph-name="braceright" horiz-adv-x="274" d="M39 -138T35 -132T30 -109V-105Q30 -89 34 -83T50 -76H72Q92 -76 99 -61T106 -14V161Q106 207 121 240T154 290T184 314Q157 333 132 369T106 469V645Q106 677 99 691T72 706H50Q39 706 35 712T30
735V739Q30 755 34 761T50 768H100Q128 768 153 742T178 652V485Q178 429 188 400T229 356Q242 350 248 343T254 322V308Q254 295 248 288T229 274Q198 260 188 230T178 145V-22Q178 -86 153 -112T100 -138H50Q39 -138 35 -132Z" />
<glyph unicode="~" glyph-name="asciitilde" horiz-adv-x="547" d="M79 231Q67 236 67 243Q67 249 72 260Q88 298 112 315T169 332Q194 332 220 326T289 305Q322 294 344 288T386 282Q401 282 413 288T438 311Q448 326 461 326Q467 326 473 323L482 320Q496 316
496 308Q496 302 490 289Q475 250 453 233T401 215Q373 215 343 223T272 245Q234 258 214 263T174 269Q159 269 148 263T124 239Q114 225 104 225Q101 225 91 227L79 231Z" />
<glyph unicode="&#xa0;" glyph-name="uni00A0" horiz-adv-x="240" />
<glyph unicode="&#xa1;" glyph-name="exclamdown" horiz-adv-x="294" d="M96 415T96 437V503Q96 525 136 525H153Q193 525 193 503V437Q193 415 153 415H136Q96 415 96 437ZM82 -179T82 -157Q82 -139 91 14T109 299Q111 321 140 321H151Q181 321 181 299V-157Q181
-179 141 -179H121Q82 -179 82 -157Z" />
<glyph unicode="&#xa2;" glyph-name="cent" horiz-adv-x="486" d="M455 34T436 23T382 3T309 -6V-59Q309 -75 289 -75Q269 -75 269 -59V-5Q160 2 106 66T52 264Q52 400 113 461T269 528V567Q269 583 289 583Q309 583 309 567V529Q362 526 400 513T439 483Q439
470 428 450T407 429Q405 429 403 430T396 433Q354 453 309 456V66Q359 68 410 92L421 96Q431 96 443 77T455 45Q455 34 436 23ZM142 169T171 122T269 67V456Q142 445 142 266Q142 169 171 122Z" />
<glyph unicode="&#xa3;" glyph-name="sterling" horiz-adv-x="491" d="M43 0T38 7T33 30V46Q33 58 40 64T65 81Q90 94 104 110T119 159V339H64Q54 339 49 346T44 369V381Q44 397 49 404T64 411H119V498Q119 706 324 706Q363 706 394 699T425 674Q425 665 419 645T403
625Q398 625 380 629T340 634Q268 634 236 603T203 503V411H350Q361 411 365 404T370 381V369Q370 353 366 346T350 339H203V249Q203 159 187 123T146 72H426Q437 72 441 65T446 42V30Q446 14 442 7T426 0H53Q43 0 38 7Z" />
<glyph unicode="&#xa4;" glyph-name="currency" horiz-adv-x="534" d="M104 143T95 152L93 154Q85 162 85 171Q85 182 96 193L120 217Q86 262 86 322Q86 381 120 427L96 450Q86 460 86 472Q86 481 92 488L96 493Q102 501 112 501Q123 501 134 489L158 465Q206
500 263 500Q320 500 367 466L391 490Q401 500 411 500Q421 500 430 491L432 489Q441 480 441 472Q441 461 430 450L406 426Q441 380 441 322Q441 263 406 217L430 193Q441 182 441 172Q441 168 438 163T431 153L430 152Q421 143 412 143Q404 143 391 154L367 178Q320
145 263 145Q205 145 159 178L134 153Q124 143 113 143Q104 143 95 152ZM311 206T345 240T380 322Q380 370 346 404T263 439Q215 439 181 405T147 322Q147 274 181 240T263 206Q311 206 345 240Z" />
<glyph unicode="&#xa5;" glyph-name="yen" horiz-adv-x="559" d="M541 678T533 667L368 423H492Q503 423 507 416T512 393V385Q512 369 508 362T492 355H323V259H492Q503 259 507 252T512 229V221Q512 205 508 198T492 191H323V20Q323 -2 283 -2H275Q235 -2 235
20V191H68Q58 191 53 198T48 221V229Q48 245 53 252T68 259H235V355H68Q58 355 53 362T48 385V393Q48 409 53 416T68 423H192L26 667Q18 678 18 685Q18 702 64 702H75Q92 702 102 699T118 687L282 441L450 688Q459 702 495 702H502Q523 701 532 697T541 685Q541
678 533 667Z" />
<glyph unicode="&#xa6;" glyph-name="brokenbar" horiz-adv-x="250" d="M96 403T96 425V748Q96 770 120 770H130Q154 770 154 748V425Q154 403 130 403H120Q96 403 96 425ZM96 -140T96 -118V204Q96 226 120 226H130Q154 226 154 204V-118Q154 -140 130 -140H120Q96
-140 96 -118Z" />
<glyph unicode="&#xa7;" glyph-name="section" horiz-adv-x="429" d="M154 -6T114 7T74 36Q74 49 85 69T106 90Q109 89 132 78T196 66Q237 66 258 83T279 126Q279 155 259 168T193 197L166 206Q112 226 81 258T50 359Q50 395 64 424T103 474Q65 509 65 564Q65
635 112 670T225 706Q276 706 316 693T356 664Q356 651 345 631T324 610Q321 611 298 622T233 634Q192 634 172 618T151 574Q151 545 172 531T220 509T256 497Q313 478 346 446T379 343Q379 270 324 227Q364 194 364 138Q364 66 318 30T205 -6Q154 -6 114 7ZM294
279T294 343Q294 383 268 401T191 435Q167 428 151 410T135 359Q135 330 148 313T183 286T238 266Q294 279 294 343Z" />
<glyph unicode="&#xa8;" glyph-name="dieresis" horiz-adv-x="320" d="M47 607T47 629V680Q47 702 91 702Q131 702 131 680V629Q131 607 87 607Q47 607 47 629ZM191 607T191 629V680Q191 702 235 702Q275 702 275 680V629Q275 607 231 607Q191 607 191 629Z" />
<glyph unicode="&#xa9;" glyph-name="copyright" horiz-adv-x="739" d="M271 -5T189 43T58 173T10 354Q10 452 58 533T188 662T369 710Q467 710 549 663T680 534T729 354Q729 256 681 174T550 43T369 -5Q271 -5 189 43ZM454 43T525 85T639 198T681 354Q681 438
639 509T526 621T369 662Q285 662 214 621T100 509T58 354Q58 270 100 199T213 85T369 43Q454 43 525 85ZM287 137T240 189T193 349Q193 562 387 562Q430 562 465 550T501 525Q501 517 494 504T480 490Q479 490 455 503T388 517Q316 517 282 477T247 349Q247 263
281 223T385 182Q415 182 436 189T471 204T488 212Q494 212 501 199T509 180Q509 172 492 162T447 144T385 137Q287 137 240 189Z" />
<glyph unicode="&#xaa;" glyph-name="ordfeminine" horiz-adv-x="319" d="M92 441T69 460T45 515Q45 554 68 573T126 598T210 605V629Q210 647 197 658T155 670Q121 670 101 661T78 650Q73 650 67 659T60 674Q60 684 89 695T153 706Q199 706 225 686T251 628V517Q251
486 254 472T257 455Q257 449 248 447T230 444Q222 444 219 453T213 479Q179 441 129 441Q92 441 69 460ZM156 478T174 486T210 511V570Q154 570 122 561T90 518Q90 478 131 478Q156 478 174 486Z" />
<glyph unicode="&#xab;" glyph-name="guillemotleft" horiz-adv-x="471" d="M198 61T187 74L57 230Q44 246 44 258Q44 270 57 286L187 442Q198 454 209 454Q219 454 231 444T244 422Q244 413 236 402L125 258L236 113Q244 102 244 94Q244 85 233 73T209 61Q198
61 187 74ZM370 61T359 74L229 230Q216 246 216 258Q216 270 229 286L359 442Q370 454 381 454Q391 454 403 444T416 422Q416 413 408 402L297 258L408 113Q416 102 416 94Q416 85 405 73T381 61Q370 61 359 74Z" />
<glyph unicode="&#xac;" glyph-name="logicalnot" horiz-adv-x="560" d="M449 77T449 99V265H58Q48 265 43 272T38 295V308Q38 324 43 331T58 338H492Q508 338 515 331T522 308V99Q522 77 492 77H479Q449 77 449 99Z" />
<glyph unicode="&#xad;" glyph-name="uni00AD" horiz-adv-x="320" d="M54 230T49 237T44 260V270Q44 286 49 293T64 300H253Q264 300 268 293T273 270V260Q273 244 269 237T253 230H64Q54 230 49 237Z" />
<glyph unicode="&#xae;" glyph-name="registered" horiz-adv-x="739" d="M271 -5T189 43T58 173T10 354Q10 452 58 533T188 662T369 710Q467 710 549 663T680 534T729 354Q729 256 681 174T550 43T369 -5Q271 -5 189 43ZM454 43T525 85T639 198T681 354Q681 438
639 509T526 621T369 662Q285 662 214 621T100 509T58 354Q58 270 100 199T213 85T369 43Q454 43 525 85ZM249 145T249 158V541Q249 551 253 555T267 559H366Q437 559 472 534T508 455Q508 418 490 393T440 355V353Q457 347 468 330T493 279L539 163Q541 159 541
154Q541 145 516 145H510Q501 145 495 147T487 154L442 270Q429 304 410 316T354 328H301V158Q301 145 277 145H273Q249 145 249 158ZM379 373Q410 373 432 394T454 445Q454 480 433 497T375 514H301V373H379Z" />
<glyph unicode="&#xaf;" glyph-name="overscore" horiz-adv-x="320" d="M37 612T32 619T27 642V652Q27 668 32 675T47 682H270Q281 682 285 675T290 652V642Q290 626 286 619T270 612H47Q37 612 32 619Z" />
<glyph unicode="&#xb0;" glyph-name="degree" horiz-adv-x="345" d="M134 441T104 458T56 506T38 573Q38 609 56 639T104 688T170 706Q206 706 236 688T285 640T303 573Q303 537 285 507T237 459T170 441Q134 441 104 458ZM205 486T229 511T254 573Q254 609 229
635T170 661Q136 661 112 635T87 573Q87 537 111 512T170 486Q205 486 229 511Z" />
<glyph unicode="&#xb1;" glyph-name="plusminus" horiz-adv-x="560" d="M263 129T255 137T247 159V327H78Q64 327 56 335T48 357V364Q48 394 78 394H247V563Q247 593 277 593H284Q314 593 314 563V394H482Q512 394 512 364V357Q512 327 482 327H314V159Q314 129
284 129H277Q263 129 255 137ZM38 0T38 30V43Q38 73 68 73H492Q522 73 522 43V30Q522 0 492 0H68Q38 0 38 30Z" />
<glyph unicode="&#xb2;" glyph-name="uni00B2" horiz-adv-x="320" d="M40 293T37 301T34 319Q34 327 36 329L187 518Q213 552 220 567T227 603Q227 631 207 647T154 663Q129 663 112 657T82 642T66 633Q62 633 55 644T47 663Q47 680 84 692T152 705Q210 705 243
679T277 606Q277 577 268 555T235 501T143 386L100 334H269Q280 334 280 317V311Q280 301 278 297T269 293H45Q40 293 37 301Z" />
<glyph unicode="&#xb3;" glyph-name="uni00B3" horiz-adv-x="320" d="M110 288T75 299T40 322Q40 330 48 340T61 351Q64 351 91 341T154 331Q187 331 212 350T238 412Q238 455 216 472T150 489H131Q119 489 119 507V513Q119 531 131 531H148Q188 531 207 556T226
608Q226 629 210 646T156 664Q119 664 97 655T72 645Q67 645 60 657T52 675Q52 687 89 696T157 706Q211 706 243 680T276 603Q276 574 259 553T215 522V519Q245 512 267 483T289 411Q289 349 250 319T158 288Q110 288 75 299Z" />
<glyph unicode="&#xb4;" glyph-name="acute" horiz-adv-x="320" d="M74 585T74 595Q74 602 88 629T132 706Q140 720 155 726T194 732Q219 732 230 729T242 719Q242 711 227 693T148 603Q132 585 97 585Q74 585 74 595Z" />
<glyph unicode="&#xb5;" glyph-name="uni00B5" horiz-adv-x="566" d="M481 82T487 54T493 22Q493 10 474 5T439 -1Q425 -1 419 14T409 47T404 69Q372 34 331 14T248 -6Q206 -6 169 9V-186Q169 -208 129 -208H125Q85 -208 85 -186V503Q85 525 125 525H129Q169 525
169 503V164Q169 118 195 93T271 67Q305 67 338 86T397 137V503Q397 525 437 525H441Q481 525 481 503V148Q481 82 487 54Z" />
<glyph unicode="&#xb6;" glyph-name="paragraph" horiz-adv-x="515" d="M243 -173T243 -151V247Q187 253 141 285T68 366T41 473Q41 534 71 586T154 669T268 700H481Q492 700 496 695T501 676V662Q501 649 497 644T481 638H445V-151Q445 -173 421 -173H407Q383
-173 383 -151V638H305V-151Q305 -173 281 -173H267Q243 -173 243 -151Z" />
<glyph unicode="&#xb7;" glyph-name="middot" horiz-adv-x="267" d="M119 309T105 323T90 360Q90 382 104 397T141 412Q163 412 178 397T193 360Q193 338 178 324T141 309Q119 309 105 323Z" />
<glyph unicode="&#xb8;" glyph-name="cedilla" horiz-adv-x="320" d="M219 -49T247 -64T275 -121Q275 -210 160 -210Q121 -210 83 -198T45 -167Q45 -141 64 -141Q71 -141 89 -148Q121 -161 147 -161Q204 -161 204 -126Q204 -109 194 -102T165 -88Q151 -84 145
-80T138 -68Q138 -62 142 -47T157 0H200L186 -49H190Q219 -49 247 -64Z" />
<glyph unicode="&#xb9;" glyph-name="uni00B9" horiz-adv-x="217" d="M140 297T134 300T127 311V649L53 633Q47 633 44 642T41 663Q41 671 51 674L157 702Q164 702 169 699T175 690V311Q175 304 169 301T153 297H148Q140 297 134 300Z" />
<glyph unicode="&#xba;" glyph-name="ordmasculine" horiz-adv-x="337" d="M114 441T85 474T55 572Q55 637 85 671T170 706Q224 706 253 672T282 572Q282 508 254 475T170 441Q114 441 85 474ZM205 477T222 500T239 573Q239 623 222 646T168 670Q132 670 115 647T98
573Q98 524 115 501T168 477Q205 477 222 500Z" />
<glyph unicode="&#xbb;" glyph-name="guillemotright" horiz-adv-x="471" d="M78 61T66 73T54 94Q54 102 62 113L173 258L62 402Q54 413 54 422Q54 434 66 444T89 454Q101 454 111 442L241 286Q254 270 254 258Q254 246 241 230L111 74Q100 61 89 61Q78 61 66
73ZM250 61T238 73T226 94Q226 102 234 113L345 258L234 402Q226 413 226 422Q226 434 238 444T261 454Q272 454 283 442L413 286Q426 270 426 258Q426 246 413 230L283 74Q272 61 261 61Q250 61 238 73Z" />
<glyph unicode="&#xbc;" glyph-name="onequarter" horiz-adv-x="671" d="M90 -2T90 5Q90 7 94 15L500 686Q510 703 530 703H543Q557 703 557 696Q557 694 553 686L147 15Q137 -2 117 -2H104Q90 -2 90 5ZM140 297T134 300T127 311V649L53 633Q47 633 44 642T41
663Q41 671 51 674L157 702Q164 702 169 699T175 690V311Q175 304 169 301T153 297H148Q140 297 134 300ZM530 -2T530 11V96H354Q350 96 345 106T340 125Q340 130 342 131L532 397Q538 405 551 405H561Q578 405 578 392V137H617Q628 137 628 120V113Q628 96 617
96H578V11Q578 -2 561 -2H547Q530 -2 530 11ZM530 137V307Q530 310 533 325L531 326L398 137H530Z" />
<glyph unicode="&#xbd;" glyph-name="onehalf" horiz-adv-x="746" d="M90 -2T90 5Q90 7 94 15L500 686Q510 703 530 703H543Q557 703 557 696Q557 694 553 686L147 15Q137 -2 117 -2H104Q90 -2 90 5ZM140 297T134 300T127 311V649L53 633Q47 633 44 642T41 663Q41
671 51 674L157 702Q164 702 169 699T175 690V311Q175 304 169 301T153 297H148Q140 297 134 300ZM449 0T446 8T443 26Q443 34 445 36L596 225Q622 259 629 274T636 310Q636 338 616 354T563 370Q538 370 521 364T491 349T475 340Q471 340 464 351T456 370Q456
387 493 399T561 412Q619 412 652 386T686 313Q686 284 677 262T644 208T552 93L509 41H678Q689 41 689 24V18Q689 8 687 4T678 0H454Q449 0 446 8Z" />
<glyph unicode="&#xbe;" glyph-name="threequarters" horiz-adv-x="743" d="M110 288T75 299T40 322Q40 330 48 340T61 351Q64 351 91 341T154 331Q187 331 212 350T238 412Q238 455 216 472T150 489H131Q119 489 119 507V513Q119 531 131 531H148Q188 531 207
556T226 608Q226 629 210 646T156 664Q119 664 97 655T72 645Q67 645 60 657T52 675Q52 687 89 696T157 706Q211 706 243 680T276 603Q276 574 259 553T215 522V519Q245 512 267 483T289 411Q289 349 250 319T158 288Q110 288 75 299ZM160 -2T160 5Q160 7 164 15L570
686Q580 703 600 703H613Q627 703 627 696Q627 694 623 686L217 15Q207 -2 187 -2H174Q160 -2 160 5ZM604 -2T604 11V96H428Q424 96 419 106T414 125Q414 130 416 131L606 397Q612 405 625 405H635Q652 405 652 392V137H691Q702 137 702 120V113Q702 96 691 96H652V11Q652
-2 635 -2H621Q604 -2 604 11ZM604 137V307Q604 310 607 325L605 326L472 137H604Z" />
<glyph unicode="&#xbf;" glyph-name="questiondown" horiz-adv-x="425" d="M310 525T310 503V437Q310 415 270 415H253Q213 415 213 437V503Q213 525 253 525H270Q310 525 310 503ZM297 321T297 298Q297 264 275 222T211 139Q161 89 139 59T116 -5Q116 -109 242
-109Q270 -109 293 -102T342 -84Q362 -75 366 -75Q373 -75 385 -95T398 -126Q398 -150 342 -166T226 -183Q162 -183 116 -161T45 -100T21 -15Q21 31 45 68T116 153Q165 201 189 232T219 301Q221 311 228 316T252 321H267Q297 321 297 298Z" />
<glyph unicode="&#xc0;" glyph-name="Agrave" horiz-adv-x="613" d="M12 -2T12 15Q12 20 15 29L252 686Q258 702 292 702H321Q357 702 361 686L598 28Q601 21 601 15Q601 -2 558 -2H550Q515 -2 510 14L451 178H157L100 14Q95 -2 60 -2H55Q12 -2 12 15ZM424 254L319
552Q314 568 307 610H305Q297 570 290 552L185 254H424ZM306 762T289 780L251 823Q213 867 204 878T195 896Q195 903 206 906T243 909Q267 909 282 903T305 883Q334 833 348 806T363 772Q363 762 340 762Q306 762 289 780Z" />
<glyph unicode="&#xc1;" glyph-name="Aacute" horiz-adv-x="613" d="M12 -2T12 15Q12 20 15 29L252 686Q258 702 292 702H321Q357 702 361 686L598 28Q601 21 601 15Q601 -2 558 -2H550Q515 -2 510 14L451 178H157L100 14Q95 -2 60 -2H55Q12 -2 12 15ZM424 254L319
552Q314 568 307 610H305Q297 570 290 552L185 254H424ZM265 762T265 772Q265 779 279 806T323 883Q331 897 346 903T385 909Q410 909 421 906T433 896Q433 888 418 870T339 780Q323 762 288 762Q265 762 265 772Z" />
<glyph unicode="&#xc2;" glyph-name="Acircumflex" horiz-adv-x="613" d="M12 -2T12 15Q12 20 15 29L252 686Q258 702 292 702H321Q357 702 361 686L598 28Q601 21 601 15Q601 -2 558 -2H550Q515 -2 510 14L451 178H157L100 14Q95 -2 60 -2H55Q12 -2 12 15ZM424
254L319 552Q314 568 307 610H305Q297 570 290 552L185 254H424ZM186 753T186 767Q186 775 192 785L248 873Q263 895 294 895H319Q350 895 365 873L422 785Q428 776 428 768Q428 753 404 753H402Q383 753 369 766L306 840L245 766Q231 753 211 753H209Q186 753
186 767Z" />
<glyph unicode="&#xc3;" glyph-name="Atilde" horiz-adv-x="613" d="M12 -2T12 15Q12 20 15 29L252 686Q258 702 292 702H321Q357 702 361 686L598 28Q601 21 601 15Q601 -2 558 -2H550Q515 -2 510 14L451 178H157L100 14Q95 -2 60 -2H55Q12 -2 12 15ZM424 254L319
552Q314 568 307 610H305Q297 570 290 552L185 254H424ZM144 773Q134 777 134 785Q134 791 137 798Q153 835 175 851T229 867Q250 867 271 862T326 844Q355 834 371 829T403 824Q417 824 427 830T447 853Q457 868 467 868Q473 868 477 865L485 862Q497 858 497
850Q497 844 492 836Q476 800 454 784T401 768Q365 768 301 792Q273 802 256 806T224 811Q211 811 202 805T182 781Q174 767 165 767Q162 767 154 769L144 773Z" />
<glyph unicode="&#xc4;" glyph-name="Adieresis" horiz-adv-x="613" d="M12 -2T12 15Q12 20 15 29L252 686Q258 702 292 702H321Q357 702 361 686L598 28Q601 21 601 15Q601 -2 558 -2H550Q515 -2 510 14L451 178H157L100 14Q95 -2 60 -2H55Q12 -2 12 15ZM424
254L319 552Q314 568 307 610H305Q297 570 290 552L185 254H424ZM193 784T193 806V857Q193 879 237 879Q277 879 277 857V806Q277 784 233 784Q193 784 193 806ZM337 784T337 806V857Q337 879 381 879Q421 879 421 857V806Q421 784 377 784Q337 784 337 806Z" />
<glyph unicode="&#xc5;" glyph-name="Aring" horiz-adv-x="613" d="M12 -2T12 15Q12 20 15 29L252 686Q258 702 292 702H321Q357 702 361 686L598 28Q601 21 601 15Q601 -2 558 -2H550Q515 -2 510 14L451 178H157L100 14Q95 -2 60 -2H55Q12 -2 12 15ZM424 254L319
552Q314 568 307 610H305Q297 570 290 552L185 254H424ZM271 741T247 765T222 825Q222 860 246 885T306 910Q341 910 366 885T391 825Q391 790 366 766T306 741Q271 741 247 765ZM327 776T341 790T356 825Q356 846 342 860T306 875Q285 875 271 861T257 825Q257
804 271 790T306 776Q327 776 341 790Z" />
<glyph unicode="&#xc6;" glyph-name="AE" horiz-adv-x="915" d="M6 -2T-2 2T-11 15Q-11 23 -7 31L314 673Q321 687 331 693T357 700H802Q813 700 817 693T822 670V654Q822 638 818 631T802 624H440L490 396H772Q783 396 787 389T792 366V350Q792 334 788 327T772
320H506L559 76H803Q814 76 818 69T823 46V30Q823 14 819 7T803 0H516Q486 0 480 29L448 178H153L73 14Q66 -2 33 -2H28Q6 -2 -2 2ZM431 253L367 552L363 610H361L340 552L192 253H431Z" />
<glyph unicode="&#xc7;" glyph-name="Ccedilla" horiz-adv-x="619" d="M560 120T573 98T586 66Q586 51 554 33Q524 16 479 5T381 -6L369 -49H373Q402 -49 430 -64T458 -121Q458 -210 343 -210Q304 -210 266 -198T228 -167Q228 -141 247 -141Q255 -141 272 -148Q305
-161 330 -161Q387 -161 387 -126Q387 -109 377 -102T348 -88Q334 -84 328 -80T321 -68Q321 -62 325 -48T339 -5Q195 6 126 92T57 350Q57 706 381 706Q430 706 475 696T548 670Q572 656 572 644Q572 630 560 608T538 586Q535 586 513 598T458 620T383 630Q262 630
205 563T148 349Q148 205 204 138T379 70Q428 70 463 81T532 111Q546 120 551 120Q560 120 573 98Z" />
<glyph unicode="&#xc8;" glyph-name="Egrave" horiz-adv-x="546" d="M111 0T104 7T97 30V670Q97 686 104 693T127 700H476Q487 700 491 693T496 670V654Q496 638 492 631T476 624H185V396H446Q457 396 461 389T466 366V350Q466 334 462 327T446 320H185V76H477Q488
76 492 69T497 46V30Q497 14 493 7T477 0H127Q111 0 104 7ZM295 762T278 780L240 823Q202 867 193 878T184 896Q184 903 195 906T232 909Q256 909 271 903T294 883Q323 833 337 806T352 772Q352 762 329 762Q295 762 278 780Z" />
<glyph unicode="&#xc9;" glyph-name="Eacute" horiz-adv-x="546" d="M111 0T104 7T97 30V670Q97 686 104 693T127 700H476Q487 700 491 693T496 670V654Q496 638 492 631T476 624H185V396H446Q457 396 461 389T466 366V350Q466 334 462 327T446 320H185V76H477Q488
76 492 69T497 46V30Q497 14 493 7T477 0H127Q111 0 104 7ZM254 762T254 772Q254 779 268 806T312 883Q320 897 335 903T374 909Q399 909 410 906T422 896Q422 888 407 870T328 780Q312 762 277 762Q254 762 254 772Z" />
<glyph unicode="&#xca;" glyph-name="Ecircumflex" horiz-adv-x="546" d="M111 0T104 7T97 30V670Q97 686 104 693T127 700H476Q487 700 491 693T496 670V654Q496 638 492 631T476 624H185V396H446Q457 396 461 389T466 366V350Q466 334 462 327T446 320H185V76H477Q488
76 492 69T497 46V30Q497 14 493 7T477 0H127Q111 0 104 7ZM175 753T175 767Q175 775 181 785L237 873Q252 895 283 895H308Q339 895 354 873L411 785Q417 776 417 768Q417 753 393 753H391Q372 753 358 766L295 840L234 766Q220 753 200 753H198Q175 753 175 767Z"
/>
<glyph unicode="&#xcb;" glyph-name="Edieresis" horiz-adv-x="546" d="M111 0T104 7T97 30V670Q97 686 104 693T127 700H476Q487 700 491 693T496 670V654Q496 638 492 631T476 624H185V396H446Q457 396 461 389T466 366V350Q466 334 462 327T446 320H185V76H477Q488
76 492 69T497 46V30Q497 14 493 7T477 0H127Q111 0 104 7ZM182 784T182 806V857Q182 879 226 879Q266 879 266 857V806Q266 784 222 784Q182 784 182 806ZM326 784T326 806V857Q326 879 370 879Q410 879 410 857V806Q410 784 366 784Q326 784 326 806Z" />
<glyph unicode="&#xcc;" glyph-name="Igrave" horiz-adv-x="283" d="M97 -2T97 20V680Q97 702 137 702H145Q185 702 185 680V20Q185 -2 145 -2H137Q97 -2 97 20ZM140 762T123 780L85 823Q47 867 38 878T29 896Q29 903 40 906T77 909Q101 909 116 903T139 883Q168
833 182 806T197 772Q197 762 174 762Q140 762 123 780Z" />
<glyph unicode="&#xcd;" glyph-name="Iacute" horiz-adv-x="282" d="M97 -2T97 20V680Q97 702 137 702H145Q185 702 185 680V20Q185 -2 145 -2H137Q97 -2 97 20ZM99 762T99 772Q99 779 113 806T157 883Q165 897 180 903T219 909Q244 909 255 906T267 896Q267 888
252 870T173 780Q157 762 122 762Q99 762 99 772Z" />
<glyph unicode="&#xce;" glyph-name="Icircumflex" horiz-adv-x="282" d="M97 -2T97 20V680Q97 702 137 702H145Q185 702 185 680V20Q185 -2 145 -2H137Q97 -2 97 20ZM20 753T20 767Q20 775 26 785L82 873Q97 895 128 895H153Q184 895 199 873L256 785Q262 776
262 768Q262 753 238 753H236Q217 753 203 766L140 840L79 766Q65 753 45 753H43Q20 753 20 767Z" />
<glyph unicode="&#xcf;" glyph-name="Idieresis" horiz-adv-x="283" d="M97 -2T97 20V680Q97 702 137 702H145Q185 702 185 680V20Q185 -2 145 -2H137Q97 -2 97 20ZM27 784T27 806V857Q27 879 71 879Q111 879 111 857V806Q111 784 67 784Q27 784 27 806ZM171 784T171
806V857Q171 879 215 879Q255 879 255 857V806Q255 784 211 784Q171 784 171 806Z" />
<glyph unicode="&#xd0;" glyph-name="Eth" horiz-adv-x="696" d="M469 700T553 617T638 350Q638 166 554 83T329 0H127Q111 0 104 7T97 30V320H20Q10 320 5 327T0 350V366Q0 382 5 389T20 396H97V670Q97 686 104 693T127 700H329Q469 700 553 617ZM423 76T485
142T547 350Q547 491 485 557T322 624H185V396H283Q294 396 298 389T303 366V350Q303 334 299 327T283 320H185V76H322Q423 76 485 142Z" />
<glyph unicode="&#xd1;" glyph-name="Ntilde" horiz-adv-x="719" d="M90 -2T90 20V680Q90 702 130 702H151Q167 702 176 698T193 683L507 209Q524 184 540 149L544 150Q542 173 542 218V680Q542 702 582 702H589Q629 702 629 680V20Q629 -2 589 -2H569Q543 -2
534 12L212 498Q195 523 179 558L175 557Q177 534 177 489V20Q177 -2 137 -2H130Q90 -2 90 20ZM197 773Q187 777 187 785Q187 791 190 798Q206 835 228 851T282 867Q303 867 324 862T379 844Q408 834 424 829T456 824Q470 824 480 830T500 853Q510 868 520 868Q526
868 530 865L538 862Q550 858 550 850Q550 844 545 836Q529 800 507 784T454 768Q418 768 354 792Q326 802 309 806T277 811Q264 811 255 805T235 781Q227 767 218 767Q215 767 207 769L197 773Z" />
<glyph unicode="&#xd2;" glyph-name="Ograve" horiz-adv-x="731" d="M215 -6T136 85T57 352Q57 527 135 616T365 706Q516 706 595 617T674 352Q674 177 595 86T365 -6Q215 -6 136 85ZM471 70T527 142T583 352Q583 489 527 559T365 630Q259 630 204 560T148 352Q148
214 203 142T365 70Q471 70 527 142ZM365 762T348 780L310 823Q272 867 263 878T254 896Q254 903 265 906T302 909Q326 909 341 903T364 883Q393 833 407 806T422 772Q422 762 399 762Q365 762 348 780Z" />
<glyph unicode="&#xd3;" glyph-name="Oacute" horiz-adv-x="731" d="M215 -6T136 85T57 352Q57 527 135 616T365 706Q516 706 595 617T674 352Q674 177 595 86T365 -6Q215 -6 136 85ZM471 70T527 142T583 352Q583 489 527 559T365 630Q259 630 204 560T148 352Q148
214 203 142T365 70Q471 70 527 142ZM324 762T324 772Q324 779 338 806T382 883Q390 897 405 903T444 909Q469 909 480 906T492 896Q492 888 477 870T398 780Q382 762 347 762Q324 762 324 772Z" />
<glyph unicode="&#xd4;" glyph-name="Ocircumflex" horiz-adv-x="731" d="M215 -6T136 85T57 352Q57 527 135 616T365 706Q516 706 595 617T674 352Q674 177 595 86T365 -6Q215 -6 136 85ZM471 70T527 142T583 352Q583 489 527 559T365 630Q259 630 204 560T148
352Q148 214 203 142T365 70Q471 70 527 142ZM245 753T245 767Q245 775 251 785L307 873Q322 895 353 895H378Q409 895 424 873L481 785Q487 776 487 768Q487 753 463 753H461Q442 753 428 766L365 840L304 766Q290 753 270 753H268Q245 753 245 767Z" />
<glyph unicode="&#xd5;" glyph-name="Otilde" horiz-adv-x="731" d="M215 -6T136 85T57 352Q57 527 135 616T365 706Q516 706 595 617T674 352Q674 177 595 86T365 -6Q215 -6 136 85ZM471 70T527 142T583 352Q583 489 527 559T365 630Q259 630 204 560T148 352Q148
214 203 142T365 70Q471 70 527 142ZM203 773Q193 777 193 785Q193 791 196 798Q212 835 234 851T288 867Q309 867 330 862T385 844Q414 834 430 829T462 824Q476 824 486 830T506 853Q516 868 526 868Q532 868 536 865L544 862Q556 858 556 850Q556 844 551 836Q535
800 513 784T460 768Q424 768 360 792Q332 802 315 806T283 811Q270 811 261 805T241 781Q233 767 224 767Q221 767 213 769L203 773Z" />
<glyph unicode="&#xd6;" glyph-name="Odieresis" horiz-adv-x="731" d="M215 -6T136 85T57 352Q57 527 135 616T365 706Q516 706 595 617T674 352Q674 177 595 86T365 -6Q215 -6 136 85ZM471 70T527 142T583 352Q583 489 527 559T365 630Q259 630 204 560T148
352Q148 214 203 142T365 70Q471 70 527 142ZM252 784T252 806V857Q252 879 296 879Q336 879 336 857V806Q336 784 292 784Q252 784 252 806ZM396 784T396 806V857Q396 879 440 879Q480 879 480 857V806Q480 784 436 784Q396 784 396 806Z" />
<glyph unicode="&#xd7;" glyph-name="multiply" horiz-adv-x="560" d="M498 56Q505 49 505 42Q505 35 498 28L479 8Q471 0 465 0Q459 0 451 8L280 181L109 8Q101 0 95 0Q89 0 81 8L62 28Q54 36 54 42Q54 48 62 56L233 228L62 399Q54 407 54 413Q54 419 62 427L81
447Q88 454 95 454Q102 454 109 447L280 275L451 447Q458 454 465 454Q472 454 479 447L498 427Q505 420 505 413Q505 406 498 399L327 228L498 56Z" />
<glyph unicode="&#xd8;" glyph-name="Oslash" horiz-adv-x="731" d="M674 515T674 352Q674 177 595 86T365 -6Q216 -6 137 84L70 10Q63 1 56 1Q49 1 42 8T34 22Q34 29 40 36L113 117Q57 205 57 352Q57 527 135 616T365 706Q501 706 579 634L633 694Q640 702 647
702Q654 702 661 695T669 682Q669 676 663 668L605 604Q674 515 674 352ZM148 254T177 188L520 568Q464 630 365 630Q259 630 204 560T148 352Q148 254 177 188ZM471 70T527 142T583 352Q583 467 544 535L197 151Q254 70 365 70Q471 70 527 142Z" />
<glyph unicode="&#xd9;" glyph-name="Ugrave" horiz-adv-x="712" d="M224 -6T154 54T83 224V680Q83 702 123 702H131Q171 702 171 680V221Q171 177 195 143T261 89T356 70Q409 70 451 89T517 143T541 221V680Q541 702 581 702H589Q629 702 629 680V224Q629 115
558 55T356 -6Q224 -6 154 54ZM355 762T338 780L300 823Q262 867 253 878T244 896Q244 903 255 906T292 909Q316 909 331 903T354 883Q383 833 397 806T412 772Q412 762 389 762Q355 762 338 780Z" />
<glyph unicode="&#xda;" glyph-name="Uacute" horiz-adv-x="712" d="M224 -6T154 54T83 224V680Q83 702 123 702H131Q171 702 171 680V221Q171 177 195 143T261 89T356 70Q409 70 451 89T517 143T541 221V680Q541 702 581 702H589Q629 702 629 680V224Q629 115
558 55T356 -6Q224 -6 154 54ZM314 762T314 772Q314 779 328 806T372 883Q380 897 395 903T434 909Q459 909 470 906T482 896Q482 888 467 870T388 780Q372 762 337 762Q314 762 314 772Z" />
<glyph unicode="&#xdb;" glyph-name="Ucircumflex" horiz-adv-x="712" d="M224 -6T154 54T83 224V680Q83 702 123 702H131Q171 702 171 680V221Q171 177 195 143T261 89T356 70Q409 70 451 89T517 143T541 221V680Q541 702 581 702H589Q629 702 629 680V224Q629
115 558 55T356 -6Q224 -6 154 54ZM235 753T235 767Q235 775 241 785L297 873Q312 895 343 895H368Q399 895 414 873L471 785Q477 776 477 768Q477 753 453 753H451Q432 753 418 766L355 840L294 766Q280 753 260 753H258Q235 753 235 767Z" />
<glyph unicode="&#xdc;" glyph-name="Udieresis" horiz-adv-x="712" d="M224 -6T154 54T83 224V680Q83 702 123 702H131Q171 702 171 680V221Q171 177 195 143T261 89T356 70Q409 70 451 89T517 143T541 221V680Q541 702 581 702H589Q629 702 629 680V224Q629
115 558 55T356 -6Q224 -6 154 54ZM242 784T242 806V857Q242 879 286 879Q326 879 326 857V806Q326 784 282 784Q242 784 242 806ZM386 784T386 806V857Q386 879 430 879Q470 879 470 857V806Q470 784 426 784Q386 784 386 806Z" />
<glyph unicode="&#xdd;" glyph-name="Yacute" horiz-adv-x="559" d="M235 -2T235 20V359L26 667Q18 678 18 685Q18 702 64 702H75Q92 702 102 699T118 687L282 441L450 688Q459 702 495 702H502Q523 701 532 697T541 685Q541 678 533 667L323 356V20Q323 -2 283
-2H275Q235 -2 235 20ZM238 762T238 772Q238 779 252 806T296 883Q304 897 319 903T358 909Q383 909 394 906T406 896Q406 888 391 870T312 780Q296 762 261 762Q238 762 238 772Z" />
<glyph unicode="&#xde;" glyph-name="Thorn" horiz-adv-x="570" d="M85 -2T85 20V680Q85 702 125 702H133Q173 702 173 680V578H318Q406 578 473 536T541 382Q541 299 502 253T415 192T328 176H173V20Q173 -2 133 -2H125Q85 -2 85 20ZM329 252Q372 252 411 281T450
382Q450 449 410 475T315 502H173V252H329Z" />
<glyph unicode="&#xdf;" glyph-name="germandbls" horiz-adv-x="554" d="M90 -2T90 20V521Q90 575 114 617T183 682T287 706Q377 706 431 666T485 536Q485 492 457 449T383 387V384Q445 369 479 321T514 206Q514 141 486 95T408 24T299 0H267Q257 0 252 7T247
30V42Q247 58 252 65T267 72H300Q354 72 390 108T426 206Q426 267 390 303T300 340H267Q257 340 252 347T247 370V382Q247 398 252 405T267 412H277Q307 412 334 427T379 469T396 528Q396 587 365 610T285 634Q234 634 204 604T174 521V20Q174 -2 134 -2H130Q90
-2 90 20Z" />
<glyph unicode="&#xe0;" glyph-name="agrave" horiz-adv-x="545" d="M143 -6T96 32T49 144Q49 223 96 262T213 313T381 326V373Q381 410 355 433T271 457Q227 457 194 447T139 426T115 415Q105 415 93 435T80 465Q80 478 106 493T177 518T268 529Q361 529 413
488T465 372V148Q465 82 471 54T477 22Q477 10 458 5T423 -1Q409 -1 403 14T393 47T388 69Q320 -6 220 -6Q143 -6 96 32ZM273 67T308 85T381 136V254Q306 253 259 248T175 220T139 149Q139 109 160 88T224 67Q273 67 308 85ZM272 585T255 603L217 646Q179 690 170
701T161 719Q161 726 172 729T209 732Q233 732 248 726T271 706Q300 656 314 629T329 595Q329 585 306 585Q272 585 255 603Z" />
<glyph unicode="&#xe1;" glyph-name="aacute" horiz-adv-x="545" d="M143 -6T96 32T49 144Q49 223 96 262T213 313T381 326V373Q381 410 355 433T271 457Q227 457 194 447T139 426T115 415Q105 415 93 435T80 465Q80 478 106 493T177 518T268 529Q361 529 413
488T465 372V148Q465 82 471 54T477 22Q477 10 458 5T423 -1Q409 -1 403 14T393 47T388 69Q320 -6 220 -6Q143 -6 96 32ZM273 67T308 85T381 136V254Q306 253 259 248T175 220T139 149Q139 109 160 88T224 67Q273 67 308 85ZM231 585T231 595Q231 602 245 629T289
706Q297 720 312 726T351 732Q376 732 387 729T399 719Q399 711 384 693T305 603Q289 585 254 585Q231 585 231 595Z" />
<glyph unicode="&#xe2;" glyph-name="acircumflex" horiz-adv-x="545" d="M143 -6T96 32T49 144Q49 223 96 262T213 313T381 326V373Q381 410 355 433T271 457Q227 457 194 447T139 426T115 415Q105 415 93 435T80 465Q80 478 106 493T177 518T268 529Q361 529
413 488T465 372V148Q465 82 471 54T477 22Q477 10 458 5T423 -1Q409 -1 403 14T393 47T388 69Q320 -6 220 -6Q143 -6 96 32ZM273 67T308 85T381 136V254Q306 253 259 248T175 220T139 149Q139 109 160 88T224 67Q273 67 308 85ZM152 576T152 590Q152 598 158 608L214
696Q229 718 260 718H285Q316 718 331 696L388 608Q394 599 394 591Q394 576 370 576H368Q349 576 335 589L272 663L211 589Q197 576 177 576H175Q152 576 152 590Z" />
<glyph unicode="&#xe3;" glyph-name="atilde" horiz-adv-x="545" d="M143 -6T96 32T49 144Q49 223 96 262T213 313T381 326V373Q381 410 355 433T271 457Q227 457 194 447T139 426T115 415Q105 415 93 435T80 465Q80 478 106 493T177 518T268 529Q361 529 413
488T465 372V148Q465 82 471 54T477 22Q477 10 458 5T423 -1Q409 -1 403 14T393 47T388 69Q320 -6 220 -6Q143 -6 96 32ZM273 67T308 85T381 136V254Q306 253 259 248T175 220T139 149Q139 109 160 88T224 67Q273 67 308 85ZM110 596Q100 600 100 608Q100 614 103
621Q119 658 141 674T195 690Q216 690 237 685T292 667Q321 657 337 652T369 647Q383 647 393 653T413 676Q423 691 433 691Q439 691 443 688L451 685Q463 681 463 673Q463 667 458 659Q442 623 420 607T367 591Q331 591 267 615Q239 625 222 629T190 634Q177 634
168 628T148 604Q140 590 131 590Q128 590 120 592L110 596Z" />
<glyph unicode="&#xe4;" glyph-name="adieresis" horiz-adv-x="545" d="M143 -6T96 32T49 144Q49 223 96 262T213 313T381 326V373Q381 410 355 433T271 457Q227 457 194 447T139 426T115 415Q105 415 93 435T80 465Q80 478 106 493T177 518T268 529Q361 529 413
488T465 372V148Q465 82 471 54T477 22Q477 10 458 5T423 -1Q409 -1 403 14T393 47T388 69Q320 -6 220 -6Q143 -6 96 32ZM273 67T308 85T381 136V254Q306 253 259 248T175 220T139 149Q139 109 160 88T224 67Q273 67 308 85ZM159 607T159 629V680Q159 702 203 702Q243
702 243 680V629Q243 607 199 607Q159 607 159 629ZM303 607T303 629V680Q303 702 347 702Q387 702 387 680V629Q387 607 343 607Q303 607 303 629Z" />
<glyph unicode="&#xe5;" glyph-name="aring" horiz-adv-x="545" d="M143 -6T96 32T49 144Q49 223 96 262T213 313T381 326V373Q381 410 355 433T271 457Q227 457 194 447T139 426T115 415Q105 415 93 435T80 465Q80 478 106 493T177 518T268 529Q361 529 413 488T465
372V148Q465 82 471 54T477 22Q477 10 458 5T423 -1Q409 -1 403 14T393 47T388 69Q320 -6 220 -6Q143 -6 96 32ZM273 67T308 85T381 136V254Q306 253 259 248T175 220T139 149Q139 109 160 88T224 67Q273 67 308 85ZM237 564T213 588T188 648Q188 683 212 708T272
733Q307 733 332 708T357 648Q357 613 332 589T272 564Q237 564 213 588ZM293 599T307 613T322 648Q322 669 308 683T272 698Q251 698 237 684T223 648Q223 627 237 613T272 599Q293 599 307 613Z" />
<glyph unicode="&#xe6;" glyph-name="ae" horiz-adv-x="819" d="M143 -6T96 32T49 144Q49 211 90 247T193 297T342 312Q348 374 370 416Q344 457 271 457Q227 457 194 447T139 426T115 415Q105 415 93 435T80 465Q80 478 106 493T177 518T268 529Q367 529 420
481Q476 529 568 529Q670 529 722 466T774 282Q774 273 762 257T741 241H429Q435 150 471 108T579 66Q621 66 651 76T702 97T725 108Q735 108 747 88T760 58Q760 46 735 31T669 5T580 -6Q460 -6 401 57Q367 29 321 12T220 -6Q143 -6 96 32ZM685 313Q685 457 565
457Q440 457 429 313H685ZM266 67T298 80T362 119Q340 170 339 240Q248 238 194 220T139 149Q139 109 160 88T224 67Q266 67 298 80Z" />
<glyph unicode="&#xe7;" glyph-name="ccedilla" horiz-adv-x="485" d="M455 34T435 23T381 3T306 -6L294 -49H298Q327 -49 355 -64T383 -121Q383 -210 268 -210Q229 -210 191 -198T153 -167Q153 -141 172 -141Q180 -141 197 -148Q230 -161 255 -161Q312 -161 312
-126Q312 -109 302 -102T273 -88Q259 -84 253 -80T246 -68Q246 -62 250 -48T263 -5Q157 3 105 67T52 264Q52 407 120 468T289 529Q347 529 393 515T439 483Q439 470 428 450T407 429Q405 429 403 430T396 433Q342 457 287 457Q142 457 142 266Q142 160 177 113T297
66Q358 66 410 92L421 96Q431 96 443 77T455 45Q455 34 435 23Z" />
<glyph unicode="&#xe8;" glyph-name="egrave" horiz-adv-x="539" d="M175 -6T115 59T55 258Q55 391 114 460T288 529Q390 529 442 463T494 268Q494 259 482 243T461 227H145Q151 144 188 105T299 66Q341 66 371 76T422 97T445 108Q455 108 467 88T480 58Q480 46
455 31T389 5T300 -6Q175 -6 115 59ZM405 299Q405 457 285 457Q156 457 145 299H405ZM269 585T252 603L214 646Q176 690 167 701T158 719Q158 726 169 729T206 732Q230 732 245 726T268 706Q297 656 311 629T326 595Q326 585 303 585Q269 585 252 603Z" />
<glyph unicode="&#xe9;" glyph-name="eacute" horiz-adv-x="539" d="M175 -6T115 59T55 258Q55 391 114 460T288 529Q390 529 442 463T494 268Q494 259 482 243T461 227H145Q151 144 188 105T299 66Q341 66 371 76T422 97T445 108Q455 108 467 88T480 58Q480 46
455 31T389 5T300 -6Q175 -6 115 59ZM405 299Q405 457 285 457Q156 457 145 299H405ZM228 585T228 595Q228 602 242 629T286 706Q294 720 309 726T348 732Q373 732 384 729T396 719Q396 711 381 693T302 603Q286 585 251 585Q228 585 228 595Z" />
<glyph unicode="&#xea;" glyph-name="ecircumflex" horiz-adv-x="539" d="M175 -6T115 59T55 258Q55 391 114 460T288 529Q390 529 442 463T494 268Q494 259 482 243T461 227H145Q151 144 188 105T299 66Q341 66 371 76T422 97T445 108Q455 108 467 88T480 58Q480
46 455 31T389 5T300 -6Q175 -6 115 59ZM405 299Q405 457 285 457Q156 457 145 299H405ZM149 576T149 590Q149 598 155 608L211 696Q226 718 257 718H282Q313 718 328 696L385 608Q391 599 391 591Q391 576 367 576H365Q346 576 332 589L269 663L208 589Q194 576
174 576H172Q149 576 149 590Z" />
<glyph unicode="&#xeb;" glyph-name="edieresis" horiz-adv-x="539" d="M175 -6T115 59T55 258Q55 391 114 460T288 529Q390 529 442 463T494 268Q494 259 482 243T461 227H145Q151 144 188 105T299 66Q341 66 371 76T422 97T445 108Q455 108 467 88T480 58Q480
46 455 31T389 5T300 -6Q175 -6 115 59ZM405 299Q405 457 285 457Q156 457 145 299H405ZM156 607T156 629V680Q156 702 200 702Q240 702 240 680V629Q240 607 196 607Q156 607 156 629ZM300 607T300 629V680Q300 702 344 702Q384 702 384 680V629Q384 607 340 607Q300
607 300 629Z" />
<glyph unicode="&#xec;" glyph-name="igrave" horiz-adv-x="265" d="M91 -2T91 20V503Q91 525 131 525H135Q175 525 175 503V20Q175 -2 135 -2H131Q91 -2 91 20ZM132 585T115 603L77 646Q39 690 30 701T21 719Q21 726 32 729T69 732Q93 732 108 726T131 706Q160
656 174 629T189 595Q189 585 166 585Q132 585 115 603Z" />
<glyph unicode="&#xed;" glyph-name="iacute" horiz-adv-x="265" d="M91 -2T91 20V503Q91 525 131 525H135Q175 525 175 503V20Q175 -2 135 -2H131Q91 -2 91 20ZM91 585T91 595Q91 602 105 629T149 706Q157 720 172 726T211 732Q236 732 247 729T259 719Q259 711
244 693T165 603Q149 585 114 585Q91 585 91 595Z" />
<glyph unicode="&#xee;" glyph-name="icircumflex" horiz-adv-x="265" d="M91 -2T91 20V503Q91 525 131 525H135Q175 525 175 503V20Q175 -2 135 -2H131Q91 -2 91 20ZM12 576T12 590Q12 598 18 608L74 696Q89 718 120 718H145Q176 718 191 696L248 608Q254 599
254 591Q254 576 230 576H228Q209 576 195 589L132 663L71 589Q57 576 37 576H35Q12 576 12 590Z" />
<glyph unicode="&#xef;" glyph-name="idieresis" horiz-adv-x="265" d="M91 -2T91 20V503Q91 525 131 525H135Q175 525 175 503V20Q175 -2 135 -2H131Q91 -2 91 20ZM19 607T19 629V680Q19 702 63 702Q103 702 103 680V629Q103 607 59 607Q19 607 19 629ZM163 607T163
629V680Q163 702 207 702Q247 702 247 680V629Q247 607 203 607Q163 607 163 629Z" />
<glyph unicode="&#xf0;" glyph-name="eth" horiz-adv-x="569" d="M453 535T483 444T514 259Q514 129 457 62T287 -6Q174 -6 115 62T55 259Q55 389 115 459T287 529Q331 529 367 517Q345 565 321 607L235 595Q225 595 217 605T209 627Q209 639 224 640L296 650Q285
665 278 678T270 698Q270 711 286 712Q300 714 313 714Q329 714 339 702Q359 678 372 660L450 671Q462 671 468 659T475 639Q475 628 460 626L400 618Q453 535 483 444ZM357 66T392 113T427 261Q427 361 392 409T284 457Q211 457 176 409T141 261Q141 161 176 114T284
66Q357 66 392 113Z" />
<glyph unicode="&#xf1;" glyph-name="ntilde" horiz-adv-x="557" d="M86 -2T86 20V371Q86 437 80 465T74 497Q74 509 93 514T128 520Q142 520 148 506T158 475T163 454Q195 489 236 509T319 529Q395 529 438 486T482 367V20Q482 -2 442 -2H438Q398 -2 398 20V359Q398
405 372 430T296 456Q262 456 229 437T170 386V20Q170 -2 130 -2H126Q86 -2 86 20ZM116 596Q106 600 106 608Q106 614 109 621Q125 658 147 674T201 690Q222 690 243 685T298 667Q327 657 343 652T375 647Q389 647 399 653T419 676Q429 691 439 691Q445 691 449
688L457 685Q469 681 469 673Q469 667 464 659Q448 623 426 607T373 591Q337 591 273 615Q245 625 228 629T196 634Q183 634 174 628T154 604Q146 590 137 590Q134 590 126 592L116 596Z" />
<glyph unicode="&#xf2;" glyph-name="ograve" horiz-adv-x="569" d="M174 -6T115 62T55 259Q55 389 115 459T287 529Q397 529 455 460T514 259Q514 129 457 62T287 -6Q174 -6 115 62ZM357 66T392 113T427 261Q427 361 392 409T284 457Q211 457 177 410T143 261Q143
161 177 114T284 66Q357 66 392 113ZM284 585T267 603L229 646Q191 690 182 701T173 719Q173 726 184 729T221 732Q245 732 260 726T283 706Q312 656 326 629T341 595Q341 585 318 585Q284 585 267 603Z" />
<glyph unicode="&#xf3;" glyph-name="oacute" horiz-adv-x="569" d="M174 -6T115 62T55 259Q55 389 115 459T287 529Q397 529 455 460T514 259Q514 129 457 62T287 -6Q174 -6 115 62ZM357 66T392 113T427 261Q427 361 392 409T284 457Q211 457 177 410T143 261Q143
161 177 114T284 66Q357 66 392 113ZM243 585T243 595Q243 602 257 629T301 706Q309 720 324 726T363 732Q388 732 399 729T411 719Q411 711 396 693T317 603Q301 585 266 585Q243 585 243 595Z" />
<glyph unicode="&#xf4;" glyph-name="ocircumflex" horiz-adv-x="569" d="M174 -6T115 62T55 259Q55 389 115 459T287 529Q397 529 455 460T514 259Q514 129 457 62T287 -6Q174 -6 115 62ZM357 66T392 113T427 261Q427 361 392 409T284 457Q211 457 177 410T143
261Q143 161 177 114T284 66Q357 66 392 113ZM164 576T164 590Q164 598 170 608L226 696Q241 718 272 718H297Q328 718 343 696L400 608Q406 599 406 591Q406 576 382 576H380Q361 576 347 589L284 663L223 589Q209 576 189 576H187Q164 576 164 590Z" />
<glyph unicode="&#xf5;" glyph-name="otilde" horiz-adv-x="569" d="M174 -6T115 62T55 259Q55 389 115 459T287 529Q397 529 455 460T514 259Q514 129 457 62T287 -6Q174 -6 115 62ZM357 66T392 113T427 261Q427 361 392 409T284 457Q211 457 177 410T143 261Q143
161 177 114T284 66Q357 66 392 113ZM122 596Q112 600 112 608Q112 614 115 621Q131 658 153 674T207 690Q228 690 249 685T304 667Q333 657 349 652T381 647Q395 647 405 653T425 676Q435 691 445 691Q451 691 455 688L463 685Q475 681 475 673Q475 667 470 659Q454
623 432 607T379 591Q343 591 279 615Q251 625 234 629T202 634Q189 634 180 628T160 604Q152 590 143 590Q140 590 132 592L122 596Z" />
<glyph unicode="&#xf6;" glyph-name="odieresis" horiz-adv-x="569" d="M174 -6T115 62T55 259Q55 389 115 459T287 529Q397 529 455 460T514 259Q514 129 457 62T287 -6Q174 -6 115 62ZM357 66T392 113T427 261Q427 361 392 409T284 457Q211 457 177 410T143
261Q143 161 177 114T284 66Q357 66 392 113ZM171 607T171 629V680Q171 702 215 702Q255 702 255 680V629Q255 607 211 607Q171 607 171 629ZM315 607T315 629V680Q315 702 359 702Q399 702 399 680V629Q399 607 355 607Q315 607 315 629Z" />
<glyph unicode="&#xf7;" glyph-name="divide" horiz-adv-x="560" d="M238 368T238 390V441Q238 463 278 463H282Q322 463 322 441V390Q322 368 282 368H278Q238 368 238 390ZM64 197T56 205T48 227V234Q48 264 78 264H482Q512 264 512 234V227Q512 197 482 197H78Q64
197 56 205ZM238 -2T238 20V71Q238 93 278 93H282Q322 93 322 71V20Q322 -2 282 -2H278Q238 -2 238 20Z" />
<glyph unicode="&#xf8;" glyph-name="oslash" horiz-adv-x="569" d="M470 440Q514 373 514 259Q514 129 457 62T287 -6Q188 -6 131 45L101 10Q95 2 87 2Q80 2 72 9T64 23Q64 28 71 37L104 75Q55 142 55 259Q55 389 115 459T287 529Q385 529 444 472L479 513Q487
521 493 521Q499 521 507 514T515 500Q515 494 509 486L470 440ZM143 187T161 142L391 410Q357 457 284 457Q211 457 177 410T143 261Q143 187 161 142ZM427 330T411 372L183 106Q217 66 284 66Q357 66 392 113T427 261Q427 330 411 372Z" />
<glyph unicode="&#xf9;" glyph-name="ugrave" horiz-adv-x="557" d="M162 -6T119 37T75 156V503Q75 525 115 525H119Q159 525 159 503V164Q159 118 185 93T261 67Q295 67 328 86T387 137V503Q387 525 427 525H431Q471 525 471 503V148Q471 82 477 54T483 22Q483
10 464 5T429 -1Q415 -1 409 14T399 47T394 69Q362 34 321 14T238 -6Q162 -6 119 37ZM278 585T261 603L223 646Q185 690 176 701T167 719Q167 726 178 729T215 732Q239 732 254 726T277 706Q306 656 320 629T335 595Q335 585 312 585Q278 585 261 603Z" />
<glyph unicode="&#xfa;" glyph-name="uacute" horiz-adv-x="557" d="M162 -6T119 37T75 156V503Q75 525 115 525H119Q159 525 159 503V164Q159 118 185 93T261 67Q295 67 328 86T387 137V503Q387 525 427 525H431Q471 525 471 503V148Q471 82 477 54T483 22Q483
10 464 5T429 -1Q415 -1 409 14T399 47T394 69Q362 34 321 14T238 -6Q162 -6 119 37ZM237 585T237 595Q237 602 251 629T295 706Q303 720 318 726T357 732Q382 732 393 729T405 719Q405 711 390 693T311 603Q295 585 260 585Q237 585 237 595Z" />
<glyph unicode="&#xfb;" glyph-name="ucircumflex" horiz-adv-x="557" d="M162 -6T119 37T75 156V503Q75 525 115 525H119Q159 525 159 503V164Q159 118 185 93T261 67Q295 67 328 86T387 137V503Q387 525 427 525H431Q471 525 471 503V148Q471 82 477 54T483
22Q483 10 464 5T429 -1Q415 -1 409 14T399 47T394 69Q362 34 321 14T238 -6Q162 -6 119 37ZM158 576T158 590Q158 598 164 608L220 696Q235 718 266 718H291Q322 718 337 696L394 608Q400 599 400 591Q400 576 376 576H374Q355 576 341 589L278 663L217 589Q203
576 183 576H181Q158 576 158 590Z" />
<glyph unicode="&#xfc;" glyph-name="udieresis" horiz-adv-x="557" d="M162 -6T119 37T75 156V503Q75 525 115 525H119Q159 525 159 503V164Q159 118 185 93T261 67Q295 67 328 86T387 137V503Q387 525 427 525H431Q471 525 471 503V148Q471 82 477 54T483 22Q483
10 464 5T429 -1Q415 -1 409 14T399 47T394 69Q362 34 321 14T238 -6Q162 -6 119 37ZM165 607T165 629V680Q165 702 209 702Q249 702 249 680V629Q249 607 205 607Q165 607 165 629ZM309 607T309 629V680Q309 702 353 702Q393 702 393 680V629Q393 607 349 607Q309
607 309 629Z" />
<glyph unicode="&#xfd;" glyph-name="yacute" horiz-adv-x="481" d="M462 525T462 508Q462 503 459 494L202 -187Q194 -208 155 -208H140Q107 -208 107 -192Q107 -188 112 -175L196 29L21 495Q18 504 18 508Q18 525 61 525H69Q104 525 109 509L211 238Q227 194
243 137H245Q247 144 249 150T253 163L278 238L378 509Q383 525 419 525H422Q462 525 462 508ZM199 585T199 595Q199 602 213 629T257 706Q265 720 280 726T319 732Q344 732 355 729T367 719Q367 711 352 693T273 603Q257 585 222 585Q199 585 199 595Z" />
<glyph unicode="&#xfe;" glyph-name="thorn" horiz-adv-x="570" d="M85 -208T85 -186V730Q85 752 125 752H129Q169 752 169 730V461Q238 529 321 529Q380 529 424 495T491 399T515 260Q515 176 490 116T418 25T312 -6Q268 -6 235 7T169 45V-186Q169 -208 129 -208H125Q85
-208 85 -186ZM359 68T393 116T427 254Q427 351 395 403T304 456Q270 456 235 438T169 387V113Q223 68 293 68Q359 68 393 116Z" />
<glyph unicode="&#xff;" glyph-name="ydieresis" horiz-adv-x="481" d="M462 525T462 508Q462 503 459 494L202 -187Q194 -208 155 -208H140Q107 -208 107 -192Q107 -188 112 -175L196 29L21 495Q18 504 18 508Q18 525 61 525H69Q104 525 109 509L211 238Q227
194 243 137H245Q247 144 249 150T253 163L278 238L378 509Q383 525 419 525H422Q462 525 462 508ZM127 607T127 629V680Q127 702 171 702Q211 702 211 680V629Q211 607 167 607Q127 607 127 629ZM271 607T271 629V680Q271 702 315 702Q355 702 355 680V629Q355
607 311 607Q271 607 271 629Z" />
<glyph unicode="&#x2013;" glyph-name="endash" horiz-adv-x="500" d="M10 230T5 237T0 260V270Q0 286 5 293T20 300H480Q491 300 495 293T500 270V260Q500 244 496 237T480 230H20Q10 230 5 237Z" />
<glyph unicode="&#x2014;" glyph-name="emdash" horiz-adv-x="1000" d="M10 230T5 237T0 260V270Q0 286 5 293T20 300H980Q991 300 995 293T1000 270V260Q1000 244 996 237T980 230H20Q10 230 5 237Z" />
<glyph unicode="&#x2018;" glyph-name="quoteleft" horiz-adv-x="212" d="M79 515T69 522T58 543Q58 599 76 643T118 713T161 739Q172 739 181 736T190 724Q190 718 181 700Q147 635 147 547Q147 532 137 524T107 515H98Q79 515 69 522Z" />
<glyph unicode="&#x2019;" glyph-name="quoteright" horiz-adv-x="212" d="M50 530T41 533T32 545Q32 551 41 569Q75 637 75 722Q75 737 85 745T115 754H124Q143 754 153 747T164 726Q164 670 146 626T104 556T61 530Q50 530 41 533Z" />
<glyph unicode="&#x201a;" glyph-name="quotesinglbase" horiz-adv-x="198" d="M30 -115T21 -112T12 -100Q12 -94 21 -76Q55 -8 55 77Q55 92 65 100T95 109H104Q123 109 133 102T144 81Q144 25 126 -19T84 -89T41 -115Q30 -115 21 -112Z" />
<glyph unicode="&#x201c;" glyph-name="quotedblleft" horiz-adv-x="350" d="M200 515T190 522T179 543Q179 599 197 643T239 713T282 739Q293 739 302 736T311 724Q311 718 302 700Q268 635 268 547Q268 532 258 524T228 515H219Q200 515 190 522ZM317 515T307
522T296 543Q296 599 314 643T356 713T399 739Q410 739 419 736T428 724Q428 718 419 700Q385 635 385 547Q385 532 375 524T345 515H336Q317 515 307 522Z" />
<glyph unicode="&#x201d;" glyph-name="quotedblright" horiz-adv-x="350" d="M191 530T182 533T173 545Q173 551 182 569Q216 637 216 722Q216 737 226 745T256 754H265Q284 754 294 747T305 726Q305 670 287 626T245 556T202 530Q191 530 182 533ZM52 530T43
533T34 545Q34 551 43 569Q77 637 77 722Q77 737 87 745T117 754H126Q145 754 155 747T166 726Q166 670 148 626T106 556T63 530Q52 530 43 533Z" />
<glyph unicode="&#x201e;" glyph-name="quotedblbase" horiz-adv-x="336" d="M169 -116T160 -113T151 -101Q151 -95 160 -77Q194 -9 194 76Q194 91 204 99T234 108H243Q262 108 272 101T283 80Q283 24 265 -20T223 -90T180 -116Q169 -116 160 -113ZM30 -116T21
-113T12 -101Q12 -95 21 -77Q55 -9 55 76Q55 91 65 99T95 108H104Q123 108 133 101T144 80Q144 24 126 -20T84 -90T41 -116Q30 -116 21 -113Z" />
<glyph unicode="&#x2022;" glyph-name="bullet" horiz-adv-x="336" d="M115 201T79 237T42 326Q42 379 78 415T167 452Q220 452 256 416T293 326Q293 274 257 238T167 201Q115 201 79 237Z" />
<glyph unicode="&#x2039;" glyph-name="guilsinglleft" horiz-adv-x="300" d="M200 61T189 74L59 230Q46 246 46 258Q46 270 59 286L189 442Q200 454 211 454Q221 454 233 444T246 422Q246 413 238 402L127 258L238 113Q246 102 246 94Q246 85 235 73T211 61Q200
61 189 74Z" />
<glyph unicode="&#x203a;" glyph-name="guilsinglright" horiz-adv-x="300" d="M78 61T66 73T54 94Q54 102 62 113L173 258L62 402Q54 413 54 422Q54 434 66 444T89 454Q101 454 111 442L241 286Q254 270 254 258Q254 246 241 230L111 74Q100 61 89 61Q78 61 66 73Z" />
</font>
</defs>
</svg>
