<?xml version="1.0" standalone="no"?>
<!DOCTYPE svg PUBLIC "-//W3C//DTD SVG 1.1//EN" "http://www.w3.org/Graphics/SVG/1.1/DTD/svg11.dtd" >
<svg xmlns="http://www.w3.org/2000/svg">
<metadata>Generated by IcoMoon</metadata>
<defs>
<font id="TotvsIcon" horiz-adv-x="1024">
<font-face units-per-em="1024" ascent="960" descent="-64" />
<missing-glyph horiz-adv-x="1024" />
<glyph unicode="&#x20;" horiz-adv-x="512" d="" />
<glyph unicode="&#xe900;" glyph-name="arrowDown" d="M798.293 584.96c-7.712 7.668-18.343 12.407-30.080 12.407s-22.368-4.74-30.082-12.409l-226.131-226.131-225.707 226.133c-7.753 7.753-18.463 12.548-30.293 12.548-23.661 0-42.841-19.181-42.841-42.841 0-11.83 4.795-22.541 12.548-30.293l256-256c7.712-7.668 18.343-12.407 30.080-12.407s22.368 4.74 30.082 12.409l255.998 255.998c7.923 7.753 12.836 18.555 12.836 30.505 0 11.738-4.74 22.37-12.411 30.084z" />
<glyph unicode="&#xe901;" glyph-name="arrowLeft" d="M444.16 426.667l225.707 225.707c6.377 7.412 10.259 17.129 10.259 27.753 0 23.564-19.103 42.667-42.667 42.667-10.624 0-20.341-3.883-27.809-10.307l-255.944-255.953c-7.668-7.712-12.407-18.343-12.407-30.080s4.74-22.368 12.409-30.082l255.998-255.998c7.412-6.377 17.129-10.259 27.753-10.259 23.564 0 42.667 19.103 42.667 42.667 0 10.624-3.883 20.341-10.307 27.809z" />
<glyph unicode="&#xe902;" glyph-name="arrowRight" d="M670.293 456.96l-256 256c-7.753 7.753-18.463 12.548-30.293 12.548-23.661 0-42.841-19.181-42.841-42.841 0-11.83 4.795-22.541 12.548-30.293l226.133-225.707-226.133-225.707c-9.153-7.872-14.914-19.467-14.914-32.407 0-23.564 19.103-42.667 42.667-42.667 12.94 0 24.535 5.761 32.36 14.858l256.047 256.056c7.796 7.733 12.622 18.45 12.622 30.295 0 11.631-4.654 22.176-12.202 29.872z" />
<glyph unicode="&#xe903;" glyph-name="arrowUp" d="M798.293 328.96l-256 256c-7.712 7.668-18.343 12.407-30.080 12.407s-22.368-4.74-30.082-12.409l-255.998-255.998c-6.377-7.412-10.259-17.129-10.259-27.753 0-23.564 19.103-42.667 42.667-42.667 10.624 0 20.341 3.883 27.809 10.307l225.65 225.659 225.707-225.707c7.412-6.377 17.129-10.259 27.753-10.259 23.564 0 42.667 19.103 42.667 42.667 0 10.624-3.883 20.341-10.307 27.809z" />
<glyph unicode="&#xe904;" glyph-name="calendar" d="M768 768v42.667c0 23.564-19.103 42.667-42.667 42.667s-42.667-19.103-42.667-42.667v-42.667h-341.333v42.667c0 23.564-19.103 42.667-42.667 42.667s-42.667-19.103-42.667-42.667v-42.667c-70.692 0-128-57.308-128-128v-512c0-70.692 57.308-128 128-128h512c70.692 0 128 57.308 128 128v512c0 70.692-57.308 128-128 128zM810.667 128c0-23.564-19.103-42.667-42.667-42.667h-512c-23.564 0-42.667 19.103-42.667 42.667v384h597.333zM810.667 597.334h-597.333v42.667c0 23.564 19.103 42.667 42.667 42.667h512c23.564 0 42.667-19.103 42.667-42.667zM384 384c0-23.564-19.103-42.667-42.667-42.667s-42.667 19.103-42.667 42.667c0 23.564 19.103 42.667 42.667 42.667s42.667-19.103 42.667-42.667zM554.667 384c0-23.564-19.103-42.667-42.667-42.667s-42.667 19.103-42.667 42.667c0 23.564 19.103 42.667 42.667 42.667s42.667-19.103 42.667-42.667zM725.333 384c0-23.564-19.103-42.667-42.667-42.667s-42.667 19.103-42.667 42.667c0 23.564 19.103 42.667 42.667 42.667s42.667-19.103 42.667-42.667zM384 213.334c0-23.564-19.103-42.667-42.667-42.667s-42.667 19.103-42.667 42.667c0 23.564 19.103 42.667 42.667 42.667s42.667-19.103 42.667-42.667zM554.667 213.334c0-23.564-19.103-42.667-42.667-42.667s-42.667 19.103-42.667 42.667c0 23.564 19.103 42.667 42.667 42.667s42.667-19.103 42.667-42.667zM725.333 213.334c0-23.564-19.103-42.667-42.667-42.667s-42.667 19.103-42.667 42.667c0 23.564 19.103 42.667 42.667 42.667s42.667-19.103 42.667-42.667z" />
<glyph unicode="&#xe906;" glyph-name="clock" d="M512 810.667c-212.077 0-384-171.923-384-384s171.923-384 384-384c212.077 0 384 171.923 384 384s-171.923 384-384 384zM512 128c-164.949 0-298.667 133.718-298.667 298.667s133.718 298.667 298.667 298.667c164.949 0 298.667-133.718 298.667-298.667s-133.718-298.667-298.667-298.667zM554.667 444.16v153.173c0 23.564-19.103 42.667-42.667 42.667s-42.667-19.103-42.667-42.667v-170.667c0-0.073-0.001-0.16-0.001-0.247 0-11.721 4.726-22.338 12.377-30.049l127.997-127.997c7.412-6.377 17.129-10.259 27.753-10.259 23.564 0 42.667 19.103 42.667 42.667 0 10.624-3.883 20.341-10.307 27.809z" />
<glyph unicode="&#xe907;" glyph-name="close" d="M572.16 426.667l183.040 183.040c6.377 7.412 10.259 17.129 10.259 27.753 0 23.564-19.103 42.667-42.667 42.667-10.624 0-20.341-3.883-27.809-10.307l-182.984-182.993-183.040 183.467c-7.753 7.753-18.463 12.548-30.293 12.548-23.661 0-42.841-19.181-42.841-42.841 0-11.83 4.795-22.541 12.548-30.293l183.467-183.040-183.467-183.040c-9.153-7.872-14.914-19.467-14.914-32.407 0-23.564 19.103-42.667 42.667-42.667 12.94 0 24.535 5.761 32.36 14.858l183.514 183.096 183.040-183.040c7.412-6.377 17.129-10.259 27.753-10.259 23.564 0 42.667 19.103 42.667 42.667 0 10.624-3.883 20.341-10.307 27.809z" />
<glyph unicode="&#xe908;" glyph-name="copy" d="M725.333 853.334h-298.667c-70.692 0-128-57.308-128-128v-42.667h-42.667c-70.692 0-128-57.308-128-128v-426.667c0-70.692 57.308-128 128-128h298.667c70.692 0 128 57.308 128 128v42.667h42.667c70.692 0 128 57.308 128 128v426.667c0 70.692-57.308 128-128 128zM597.333 128c0-23.564-19.103-42.667-42.667-42.667h-298.667c-23.564 0-42.667 19.103-42.667 42.667v426.667c0 23.564 19.103 42.667 42.667 42.667h298.667c23.564 0 42.667-19.103 42.667-42.667zM768 298.667c0-23.564-19.103-42.667-42.667-42.667h-42.667v298.667c0 70.692-57.308 128-128 128h-170.667v42.667c0 23.564 19.103 42.667 42.667 42.667h298.667c23.564 0 42.667-19.103 42.667-42.667z" />
<glyph unicode="&#xe909;" glyph-name="delete" d="M853.333 725.334h-178.347c-18.062 50.028-65.066 85.173-120.3 85.333h-85.353c-55.254-0.16-102.258-35.305-120.038-84.442l-178.628-0.891c-23.564 0-42.667-19.103-42.667-42.667s19.103-42.667 42.667-42.667h42.667v-469.333c0-70.692 57.308-128 128-128h341.333c70.692 0 128 57.308 128 128v469.333h42.667c23.564 0 42.667 19.103 42.667 42.667s-19.103 42.667-42.667 42.667zM725.333 170.667c0-23.564-19.103-42.667-42.667-42.667h-341.333c-23.564 0-42.667 19.103-42.667 42.667v469.333h426.667zM597.333 554.667c-23.564 0-42.667-19.103-42.667-42.667v-256c0-23.564 19.103-42.667 42.667-42.667s42.667 19.103 42.667 42.667v256c0 23.564-19.103 42.667-42.667 42.667zM426.667 554.667c-23.564 0-42.667-19.103-42.667-42.667v-256c0-23.564 19.103-42.667 42.667-42.667s42.667 19.103 42.667 42.667v256c0 23.564-19.103 42.667-42.667 42.667z" />
<glyph unicode="&#xe910;" glyph-name="document" d="M853.333 599.894c-0.237 4.042-1 7.824-2.223 11.394l0.089 3.54c-2.206 4.786-5.071 8.88-8.536 12.376l-213.33 213.33c-3.494 3.463-7.587 6.328-12.11 8.424l-4.53 0.11c-3.704 1.974-8.004 3.462-12.549 4.232l-301.478 0.035c-70.692 0-128-57.308-128-128v-597.333c0-70.692 57.308-128 128-128h426.667c70.692 0 128 57.308 128 128v469.333s0 0 0 2.56zM707.84 640h-67.84v67.84zM725.333 85.334h-426.667c-23.564 0-42.667 19.103-42.667 42.667v597.333c0 23.564 19.103 42.667 42.667 42.667h256v-170.667c0-23.564 19.103-42.667 42.667-42.667h170.667v-426.667c0-23.564-19.103-42.667-42.667-42.667z" />
<glyph unicode="&#xe911;" glyph-name="edit" d="M883.627 648.96l-149.333 149.333c-7.712 7.668-18.343 12.407-30.080 12.407s-22.368-4.74-30.082-12.409l-533.758-533.331c-7.648-7.709-12.374-18.326-12.374-30.047 0-0.087 0-0.173 0.001-0.26v-149.32c0-23.564 19.103-42.667 42.667-42.667h149.333c0.073 0 0.16-0.001 0.247-0.001 11.721 0 22.338 4.726 30.049 12.377l533.331 533.331c7.795 7.733 12.621 18.45 12.621 30.293s-4.826 22.56-12.618 30.291zM302.507 128h-89.173v89.173l373.333 373.333 89.173-89.173zM736 561.494l-89.173 89.173 57.173 57.173 89.173-89.173z" />
<glyph unicode="&#xe912;" glyph-name="filter" d="M810.667 640h-597.333c-23.564 0-42.667-19.103-42.667-42.667s19.103-42.667 42.667-42.667h597.333c23.564 0 42.667 19.103 42.667 42.667s-19.103 42.667-42.667 42.667zM682.667 469.334h-341.333c-23.564 0-42.667-19.103-42.667-42.667s19.103-42.667 42.667-42.667h341.333c23.564 0 42.667 19.103 42.667 42.667s-19.103 42.667-42.667 42.667zM554.667 298.667h-85.333c-23.564 0-42.667-19.103-42.667-42.667s19.103-42.667 42.667-42.667h85.333c23.564 0 42.667 19.103 42.667 42.667s-19.103 42.667-42.667 42.667z" />
<glyph unicode="&#xe913;" glyph-name="firstPage" d="M316.16 426.667l225.707 225.707c6.377 7.412 10.259 17.129 10.259 27.753 0 23.564-19.103 42.667-42.667 42.667-10.624 0-20.341-3.883-27.809-10.307l-255.944-255.953c-7.668-7.712-12.407-18.343-12.407-30.080s4.74-22.368 12.409-30.082l255.998-255.998c7.412-6.377 17.129-10.259 27.753-10.259 23.564 0 42.667 19.103 42.667 42.667 0 10.624-3.883 20.341-10.307 27.809zM572.16 426.667l225.707 225.707c6.377 7.412 10.259 17.129 10.259 27.753 0 23.564-19.103 42.667-42.667 42.667-10.624 0-20.341-3.883-27.809-10.307l-255.944-255.953c-7.668-7.712-12.407-18.343-12.407-30.080s4.74-22.368 12.409-30.082l255.998-255.998c7.412-6.377 17.129-10.259 27.753-10.259 23.564 0 42.667 19.103 42.667 42.667 0 10.624-3.883 20.341-10.307 27.809z" />
<glyph unicode="&#xe914;" glyph-name="home" d="M927.573 412.587l-384 426.667c-7.846 8.736-19.177 14.205-31.787 14.205s-23.941-5.47-31.752-14.166l-384.035-426.706c-6.82-7.533-10.994-17.573-10.994-28.588 0-23.564 19.103-42.667 42.667-42.667 0.115 0 0.23 0 0.345 0.001h85.316v-298.667c0-23.564 19.103-42.667 42.667-42.667h170.667c23.564 0 42.667 19.103 42.667 42.667v170.667h85.333v-170.667c0-23.564 19.103-42.667 42.667-42.667h170.667c23.564 0 42.667 19.103 42.667 42.667v298.667h85.333c23.521 0.057 42.566 19.138 42.566 42.667 0 11.014-4.173 21.054-11.025 28.623zM768 426.667c-23.564 0-42.667-19.103-42.667-42.667v-298.667h-85.333v170.667c0 23.564-19.103 42.667-42.667 42.667h-170.667c-23.564 0-42.667-19.103-42.667-42.667v-170.667h-85.333v298.667c0 23.564-19.103 42.667-42.667 42.667h-32l288 320.427 288-320.427z" />
<glyph unicode="&#xe915;" glyph-name="lastPage" d="M798.293 456.96l-256 256c-7.412 6.377-17.129 10.259-27.753 10.259-23.564 0-42.667-19.103-42.667-42.667 0-10.624 3.883-20.341 10.307-27.809l225.659-226.077-225.707-225.707c-9.153-7.872-14.914-19.467-14.914-32.407 0-23.564 19.103-42.667 42.667-42.667 12.94 0 24.535 5.761 32.36 14.858l256.047 256.056c7.668 7.712 12.407 18.343 12.407 30.080s-4.74 22.368-12.409 30.082zM542.293 456.96l-256 256c-7.753 7.753-18.463 12.548-30.293 12.548-23.661 0-42.841-19.181-42.841-42.841 0-11.83 4.795-22.541 12.548-30.293l226.133-225.707-226.133-225.707c-9.153-7.872-14.914-19.467-14.914-32.407 0-23.564 19.103-42.667 42.667-42.667 12.94 0 24.535 5.761 32.36 14.858l256.047 256.056c7.796 7.733 12.622 18.45 12.622 30.295 0 11.631-4.654 22.176-12.202 29.872z" />
<glyph unicode="&#xe916;" glyph-name="list" d="M341.333 597.334h512c23.564 0 42.667 19.103 42.667 42.667s-19.103 42.667-42.667 42.667h-512c-23.564 0-42.667-19.103-42.667-42.667s19.103-42.667 42.667-42.667zM853.333 469.334h-512c-23.564 0-42.667-19.103-42.667-42.667s19.103-42.667 42.667-42.667h512c23.564 0 42.667 19.103 42.667 42.667s-19.103 42.667-42.667 42.667zM853.333 256h-512c-23.564 0-42.667-19.103-42.667-42.667s19.103-42.667 42.667-42.667h512c23.564 0 42.667 19.103 42.667 42.667s-19.103 42.667-42.667 42.667zM140.373 670.294c-7.648-7.709-12.374-18.326-12.374-30.047 0-0.087 0-0.173 0.001-0.26-0.001-0.060-0.001-0.147-0.001-0.233 0-11.721 4.726-22.338 12.377-30.049 7.731-7.792 18.447-12.618 30.291-12.618s22.56 4.826 30.291 12.618c7.651 7.711 12.377 18.329 12.377 30.049 0 0.087 0 0.173-0.001 0.26-0.169 11.757-4.851 22.403-12.39 30.297-7.717 7.778-18.433 12.603-30.277 12.603s-22.56-4.826-30.291-12.618zM200.96 456.96c-7.733 7.795-18.45 12.621-30.293 12.621s-22.56-4.826-30.291-12.618c-3.776-3.939-6.811-8.618-8.862-13.794-2.264-4.737-3.529-9.965-3.529-15.488 0-0.356 0.005-0.712 0.016-1.065-0.001-23.512 19.101-42.615 42.665-42.615s42.667 19.103 42.667 42.667c-0.073 5.873-1.322 11.435-3.52 16.489-2.045 5.189-5.080 9.868-8.868 13.82zM140.373 243.627c-7.648-7.709-12.374-18.326-12.374-30.047 0-0.087 0-0.173 0.001-0.26-0.002-0.142-0.003-0.326-0.003-0.509 0-5.649 1.098-11.042 3.092-15.977 2.38-5.129 5.527-9.778 9.311-13.823 7.706-7.766 18.423-12.592 30.266-12.592s22.56 4.826 30.291 12.618c3.642 4.007 6.656 8.664 8.84 13.76 2.215 5.101 3.463 10.663 3.536 16.508-0.169 11.798-4.851 22.443-12.39 30.338-7.717 7.778-18.433 12.603-30.277 12.603s-22.56-4.826-30.291-12.618z" />
<glyph unicode="&#xe917;" glyph-name="lock" d="M725.333 554.667v128c0 94.257-76.41 170.667-170.667 170.667h-85.333c-94.257 0-170.667-76.41-170.667-170.667v-128c-70.692 0-128-57.308-128-128v-298.667c0-70.692 57.308-128 128-128h426.667c70.692 0 128 57.308 128 128v298.667c0 70.692-57.308 128-128 128zM384 682.667c0 47.128 38.205 85.333 85.333 85.333h85.333c47.128 0 85.333-38.205 85.333-85.333v-128h-256zM768 128c0-23.564-19.103-42.667-42.667-42.667h-426.667c-23.564 0-42.667 19.103-42.667 42.667v298.667c0 23.564 19.103 42.667 42.667 42.667h426.667c23.564 0 42.667-19.103 42.667-42.667zM512 341.334c-23.564 0-42.667-19.103-42.667-42.667v-42.667c0-23.564 19.103-42.667 42.667-42.667s42.667 19.103 42.667 42.667v42.667c0 23.564-19.103 42.667-42.667 42.667z" />
<glyph unicode="&#xe918;" glyph-name="logoTotvs" d="M657.92 501.76c-17.92 16.64-179.2 61.44-311.467 93.013 0-102.4 5.12-213.333 18.773-232.96s179.2-61.867 311.467-93.013c0.853 101.973-5.12 213.333-18.773 232.96zM512 938.667c-282.77 0-512-229.23-512-512s229.23-512 512-512c282.77 0 512 229.23 512 512s-229.23 512-512 512zM857.173 237.227c-65.913 4.136-127.488 15.392-186.282 33.072 5.802-89.392-1.451-172.165-12.971-181.979-32.853-11.52-459.52 96.427-491.947 125.013-25.173 35.84-25.173 389.973 0 413.44 65.93-4.168 127.503-15.422 186.308-33.076-5.828 89.396 1.426 172.169 12.946 181.983 32.427 11.52 459.52-96.427 491.947-124.587 25.173-36.693 25.173-390.827 0-413.867z" />
<glyph unicode="&#xe919;" glyph-name="menu" d="M213.333 597.334h597.333c23.564 0 42.667 19.103 42.667 42.667s-19.103 42.667-42.667 42.667h-597.333c-23.564 0-42.667-19.103-42.667-42.667s19.103-42.667 42.667-42.667zM810.667 469.334h-597.333c-23.564 0-42.667-19.103-42.667-42.667s19.103-42.667 42.667-42.667h597.333c23.564 0 42.667 19.103 42.667 42.667s-19.103 42.667-42.667 42.667zM810.667 256h-597.333c-23.564 0-42.667-19.103-42.667-42.667s19.103-42.667 42.667-42.667h597.333c23.564 0 42.667 19.103 42.667 42.667s-19.103 42.667-42.667 42.667z" />
<glyph unicode="&#xe920;" glyph-name="message" d="M810.667 810.667h-597.333c-70.692 0-128-57.308-128-128v-384c0-70.692 57.308-128 128-128h42.667v-85.333c0-23.564 19.103-42.667 42.667-42.667 9.653 0 18.558 3.206 25.707 8.611l159.039 119.389h327.253c70.692 0 128 57.308 128 128v384c0 70.692-57.308 128-128 128zM853.333 298.667c0-23.564-19.103-42.667-42.667-42.667h-341.333c-9.653 0-18.558-3.206-25.707-8.611l-102.293-76.722v42.667c0 23.564-19.103 42.667-42.667 42.667h-85.333c-23.564 0-42.667 19.103-42.667 42.667v384c0 23.564 19.103 42.667 42.667 42.667h597.333c23.564 0 42.667-19.103 42.667-42.667z" />
<glyph unicode="&#xe921;" glyph-name="minus" d="M725.333 469.334h-426.667c-23.564 0-42.667-19.103-42.667-42.667s19.103-42.667 42.667-42.667h426.667c23.564 0 42.667 19.103 42.667 42.667s-19.103 42.667-42.667 42.667z" />
<glyph unicode="&#xe922;" glyph-name="more" d="M828.16 486.827c-3.717 4.068-7.923 7.596-12.549 10.519-4.552 3.136-9.463 5.852-14.645 8.051-4.969 2.020-10.252 3.639-15.708 4.788-5.547 1.12-11.213 1.699-17.015 1.699-23.596 0-44.954-9.577-60.402-25.055-15.468-15.379-25.072-36.639-25.175-60.142-0.001-0.146-0.001-0.296-0.001-0.446 0-11.695 2.353-22.84 6.61-32.989 4.317-10.119 10.666-19.204 18.533-26.715 15.409-15.497 36.668-25.101 60.172-25.203 0.146-0.001 0.296-0.001 0.446-0.001 11.695 0 22.84 2.353 32.989 6.61 10.119 4.317 19.204 10.666 26.715 18.533 15.365 15.455 24.844 36.716 24.844 60.191s-9.479 44.736-24.818 60.164zM590.933 459.52c-2.557 5.596-5.262 10.355-8.327 14.849-6.21 8.908-13.997 16.694-22.947 22.927-4.601 3.186-9.512 5.901-14.694 8.101-4.969 2.020-10.252 3.639-15.708 4.788-5.62 1.151-11.369 1.747-17.258 1.747s-11.637-0.596-17.19-1.732c-5.693-1.165-11.124-2.785-16.339-4.833-4.916-2.312-9.676-5.017-14.165-8.088-4.544-2.856-8.75-6.383-12.424-10.404-4.106-3.767-7.633-7.972-10.56-12.595-3.212-4.443-5.929-9.216-8.079-14.289-2.232-5.147-3.865-10.595-4.814-16.274-1.145-5.132-1.769-10.555-1.769-16.124 0-0.325 0.002-0.65 0.006-0.974-0.001-47.079 38.205-85.284 85.333-85.284s85.333 38.205 85.333 85.333c-0.151 11.858-2.487 23.127-6.622 33.484zM334.933 459.094c-2.43 5.728-5.144 10.637-8.294 15.222-3.028 4.69-6.545 9.021-10.476 12.935-15.726 14.662-36.893 23.661-60.163 23.661s-44.437-8.999-60.212-23.706c-3.882-3.869-7.399-8.199-10.429-12.874-3.35-4.61-6.078-9.536-8.139-14.797-2.204-4.995-3.836-10.296-4.789-15.829-1.145-5.121-1.769-10.544-1.769-16.113 0-0.325 0.002-0.65 0.006-0.974 0.102-23.474 9.706-44.733 25.169-60.107 3.73-4.059 7.934-7.585 12.551-10.52 4.444-3.24 9.22-5.959 14.304-8.088 5.123-2.197 10.569-3.829 16.239-4.802 5.087-1.152 10.433-1.777 15.926-1.777 0.402 0 0.804 0.003 1.204 0.010 47.068-0.001 85.273 38.204 85.273 85.333 0.303 2.497 0.476 5.388 0.476 8.32s-0.173 5.823-0.509 8.664c-1.599 5.663-3.784 10.909-6.546 15.786z" />
<glyph unicode="&#xe923;" glyph-name="notification" d="M512-0c47.128 0 85.333 38.205 85.333 85.333h-170.667c0-47.128 38.205-85.333 85.333-85.333zM853.333 213.334h-42.667v256c0 0.023 0 0.050 0 0.077 0 134.522-88.936 248.273-211.218 285.66l-2.115 12.93c0 47.128-38.205 85.333-85.333 85.333s-85.333-38.205-85.333-85.333v-12.373c-124.397-37.944-213.333-151.694-213.333-286.217 0-0.027 0-0.054 0-0.081v-255.996h-42.667c-23.564 0-42.667-19.103-42.667-42.667s19.103-42.667 42.667-42.667h682.667c23.564 0 42.667 19.103 42.667 42.667s-19.103 42.667-42.667 42.667zM298.667 213.334v256c0 117.821 95.513 213.333 213.333 213.333s213.333-95.513 213.333-213.333v-256z" />
<glyph unicode="&#xe924;" glyph-name="ok" d="M798.293 627.627c-7.712 7.668-18.343 12.407-30.080 12.407s-22.368-4.74-30.082-12.409l-311.465-311.465-140.373 140.8c-7.412 6.377-17.129 10.259-27.753 10.259-23.564 0-42.667-19.103-42.667-42.667 0-10.624 3.883-20.341 10.307-27.809l170.619-170.61c7.712-7.668 18.343-12.407 30.080-12.407s22.368 4.74 30.082 12.409l341.331 341.331c7.668 7.712 12.407 18.343 12.407 30.080s-4.74 22.368-12.409 30.082z" />
<glyph unicode="&#xe925;" glyph-name="plus" d="M725.333 469.334h-170.667v170.667c0 23.564-19.103 42.667-42.667 42.667s-42.667-19.103-42.667-42.667v-170.667h-170.667c-23.564 0-42.667-19.103-42.667-42.667s19.103-42.667 42.667-42.667h170.667v-170.667c0-23.564 19.103-42.667 42.667-42.667s42.667 19.103 42.667 42.667v170.667h170.667c23.564 0 42.667 19.103 42.667 42.667s-19.103 42.667-42.667 42.667z" />
<glyph unicode="&#xe926;" glyph-name="search" d="M926.293 72.96l-230.4 230.4c44.76 57.185 71.776 130.136 71.776 209.397 0 188.513-152.82 341.333-341.333 341.333s-341.333-152.82-341.333-341.333c0-188.513 152.82-341.333 341.333-341.333 79.261 0 152.212 27.016 210.147 72.341l229.65-230.965c7.412-6.377 17.129-10.259 27.753-10.259 23.564 0 42.667 19.103 42.667 42.667 0 10.624-3.883 20.341-10.307 27.809zM170.667 512c0 141.385 114.615 256 256 256s256-114.615 256-256c0-141.385-114.615-256-256-256s-256 114.615-256 256z" />
<glyph unicode="&#xe927;" glyph-name="settings" d="M929.707 384l-76.373 42.667 76.373 42.667c25.629 15.043 42.563 42.464 42.563 73.841 0 15.698-4.239 30.406-11.635 43.042l-85.115 147.223c-14.665 27.080-42.864 45.162-75.286 45.162-15.115 0-29.312-3.93-41.625-10.823l-75.942-45.432v88.32c0 47.128-38.205 85.333-85.333 85.333h-170.667c-47.128 0-85.333-38.205-85.333-85.333v-88.32l-76.373 45.653c-12.233 7.178-26.941 11.417-42.639 11.417-31.377 0-58.798-16.935-73.623-42.162l-85.551-148.027c-8.124-12.827-12.946-28.444-12.946-45.187 0-31.995 17.608-59.877 43.663-74.484l76.804-42.888-76.373-42.667c-25.629-15.043-42.563-42.464-42.563-73.841 0-15.698 4.239-30.406 11.635-43.042l85.115-147.65c14.717-26.897 42.819-44.832 75.11-44.832 15.186 0 29.445 3.967 41.798 10.921l75.945 42.445v-85.333c0-47.128 38.205-85.333 85.333-85.333h170.667c47.128 0 85.333 38.205 85.333 85.333v88.32l76.373-42.667c12.233-7.178 26.941-11.417 42.639-11.417 31.377 0 58.798 16.935 73.623 42.162l85.551 148.027c7.292 12.309 11.602 27.131 11.602 42.959 0 31.452-17.016 58.93-42.344 73.73zM801.707 162.134l-142.080 81.92-21.76-14.080-17.493-10.24-23.040-11.947v-165.12h-170.667v164.267l-23.040 11.947-19.627 10.24-21.76 14.080-139.947-82.347-85.333 147.627 142.080 82.347v71.68l-142.080 82.347 85.333 147.627 142.080-81.92 19.627 14.080 17.493 10.24 25.173 11.947v163.84h170.667v-163.84l23.040-11.947 17.493-10.24 21.76-14.080 142.080 81.92 85.333-147.627-142.080-81.92v-71.68l142.080-82.347zM512 597.334c-94.257 0-170.667-76.41-170.667-170.667s76.41-170.667 170.667-170.667c94.257 0 170.667 76.41 170.667 170.667s-76.41 170.667-170.667 170.667zM512 341.334c-47.128 0-85.333 38.205-85.333 85.333s38.205 85.333 85.333 85.333c47.128 0 85.333-38.205 85.333-85.333s-38.205-85.333-85.333-85.333z" />
<glyph unicode="&#xe928;" glyph-name="share" d="M768 341.334c-51.047-0.297-96.741-22.959-127.824-58.674l-217.349 108.167c2.466 10.707 3.879 23.002 3.879 35.627s-1.413 24.92-4.090 36.735l217.384 107.692c30.919-34.504 75.621-56.115 125.37-56.115 92.843 0 168.107 75.264 168.107 168.107s-75.264 168.107-168.107 168.107c-92.843 0-168.107-75.264-168.107-168.107 0-12.772 1.424-25.212 4.123-37.169l-217.387-107.249c-31.465 36.156-77.559 58.88-128.961 58.88-94.257 0-170.667-76.41-170.667-170.667s76.41-170.667 170.667-170.667c51.402 0 97.496 22.724 128.785 58.673l217.349-108.593c-2.362-10.645-3.715-22.871-3.715-35.413 0-94.257 76.41-170.667 170.667-170.667s170.667 76.41 170.667 170.667c0 94.257-76.41 170.667-170.667 170.667-0.044 0-0.088 0-0.132 0zM768 768c0.203 0.002 0.443 0.003 0.684 0.003 47.128 0 85.333-38.205 85.333-85.333s-38.205-85.333-85.333-85.333c-33.123 0-61.838 18.872-75.98 46.45l-0.224 0.481c-5.979 11.132-9.584 24.32-9.812 38.329-0.001 47.2 38.204 85.405 85.332 85.405zM256 341.334c-0.203-0.002-0.443-0.003-0.684-0.003-47.128 0-85.333 38.205-85.333 85.333s38.205 85.333 85.333 85.333c33.123 0 61.838-18.872 75.98-46.45l0.224-0.481c5.573-10.804 8.841-23.581 8.841-37.12s-3.268-26.315-9.057-37.583l0.216 0.463c-13.597-28.899-42.154-48.714-75.42-49.491zM768 85.334c-47.128 0-85.333 38.205-85.333 85.333 0.082 13.364 3.223 25.974 8.756 37.193l-0.223-0.5c14.045 28.998 43.249 48.64 77.041 48.64 47.128 0 85.333-38.205 85.333-85.333s-38.205-85.333-85.333-85.333c-0.085 0-0.17 0-0.254 0z" />
<glyph unicode="&#xe929;" glyph-name="user" d="M656.213 441.174c42.677 39.141 69.333 95.158 69.333 157.401 0 117.821-95.513 213.333-213.333 213.333s-213.333-95.513-213.333-213.333c0-62.243 26.656-118.261 69.176-157.259-141.814-58.588-239.96-195.811-240.056-355.97 0-23.576 19.103-42.679 42.667-42.679s42.667 19.103 42.667 42.667c0 164.949 133.718 298.667 298.667 298.667s298.667-133.718 298.667-298.667c0-23.564 19.103-42.667 42.667-42.667s42.667 19.103 42.667 42.667c-0.022 160.077-97.991 297.268-237.238 354.906zM384 597.334c0 70.692 57.308 128 128 128s128-57.308 128-128c0-70.692-57.308-128-128-128s-128 57.308-128 128z" />
</font>
</defs>
</svg>
