<?xml version="1.0" standalone="no"?>
<!DOCTYPE svg PUBLIC "-//W3C//DTD SVG 1.1//EN" "http://www.w3.org/Graphics/SVG/1.1/DTD/svg11.dtd" >
<svg xmlns="http://www.w3.org/2000/svg" xmlns:xlink="http://www.w3.org/1999/xlink" version="1.1">
<metadata></metadata>
<defs>
<font id="cooper_hewittlight" horiz-adv-x="614" >
<font-face units-per-em="2048" ascent="1536" descent="-512" />
<missing-glyph horiz-adv-x="409" />
<glyph horiz-adv-x="0" />
<glyph horiz-adv-x="682" />
<glyph unicode=" "  horiz-adv-x="409" />
<glyph unicode="&#x09;" horiz-adv-x="409" />
<glyph unicode="&#xa0;" horiz-adv-x="409" />
<glyph unicode="!" horiz-adv-x="409" d="M143 0v123h123v-123h-123zM158 1597h94l-23 -1239h-49z" />
<glyph unicode="&#x22;" d="M158 1597h94l-23 -512h-49zM362 1597h95l-23 -512h-49z" />
<glyph unicode="#" horiz-adv-x="1228" d="M76 512v82h229l98 410h-198v81h219l123 512h82l-123 -512h354l123 512h82l-123 -512h211v-81h-231l-99 -410h201v-82h-219l-123 -512h-82l123 512h-354l-123 -512h-82l123 512h-211zM387 594h354l99 410h-355z" />
<glyph unicode="$" horiz-adv-x="1228" d="M143 541v14h82q0 -114 53.5 -198.5t149.5 -127.5l133 557q-401 55 -401 336v13q0 157 126.5 254.5t327.5 97.5q43 0 113 -8l57 241h82l-63 -260q135 -42 201.5 -146t66.5 -259v-35h-82q0 290 -205 362l-127 -532q222 -28 325 -114t103 -240v-15q0 -169 -121.5 -269.5 t-328.5 -100.5q-78 0 -150 16l-59 -250h-82l66 273q-128 52 -197.5 156t-69.5 235zM246 1133q0 -112 77 -179t255 -94l131 543q-44 6 -91 6h-6q-157 0 -261.5 -72t-104.5 -194v-10zM504 203q58 -15 129 -15h6q166 0 263 77t97 212v10q0 132 -86.5 197t-271.5 92z" />
<glyph unicode="%" horiz-adv-x="1843" d="M86 1260v20q0 162 93.5 250t234.5 88q66 0 125 -21q189 -65 362 -65q91 0 206 22t157 43v-75l-631 -1522h-86l618 1491q-117 -37 -264 -37q-107 0 -211 23q51 -79 51 -197v-20q0 -162 -93 -250t-234 -88t-234.5 88t-93.5 250zM164 1251q0 -119 70 -185.5t174 -66.5h12 q104 0 174 66.5t70 185.5v37q0 119 -70 185.5t-174 66.5h-12q-104 0 -174 -66.5t-70 -185.5v-37zM1102 317v21q0 162 93.5 250t234.5 88t234 -88t93 -250v-21q0 -162 -93 -249.5t-234 -87.5t-234.5 87.5t-93.5 249.5zM1180 309q0 -119 69.5 -185.5t173.5 -66.5h13 q104 0 173.5 66.5t69.5 185.5v37q0 119 -69.5 185.5t-173.5 66.5h-13q-104 0 -173.5 -66.5t-69.5 -185.5v-37z" />
<glyph unicode="&#x26;" horiz-adv-x="1331" d="M102 410v20q0 73 21.5 137t63 117.5t85.5 93.5t105 84q-65 69 -99.5 109.5t-70 94t-50 104.5t-14.5 110v20q0 141 96.5 229.5t262.5 88.5t262 -88.5t96 -229.5v-20q0 -38 -10.5 -74t-24 -64t-43 -61.5t-49.5 -53.5t-63 -52.5t-64.5 -47.5t-70.5 -49q-23 -16 -35 -24 l501 -528q95 185 95 473v10h82q0 -339 -117 -545l250 -264h-115l-182 193q-162 -213 -461 -213q-209 0 -330 112.5t-121 317.5zM184 410q0 -160 91 -254.5t272 -94.5h12q258 0 397 191l-526 555q-117 -86 -181.5 -174t-64.5 -203v-20zM229 1280q0 -42 12 -83t28 -72.5 t48.5 -72.5t57.5 -67.5t71 -73.5q10 7 48 32.5t50 33.5t44.5 31.5t44.5 34t37.5 33t36 37t27 37t23 41t12 42t5.5 47.5v20q0 99 -69 167.5t-195 68.5h-16q-126 0 -195.5 -68.5t-69.5 -167.5v-20z" />
<glyph unicode="'" horiz-adv-x="409" d="M158 1597h94l-23 -512h-49z" />
<glyph unicode="(" d="M113 717v41q0 138 18.5 260.5t45 211t74.5 183.5t87 156.5t102 150.5h92q-83 -114 -136 -202.5t-103 -206.5t-74 -254t-24 -299v-41q0 -163 24 -299.5t74 -254t103 -206.5t136 -203h-92q-63 89 -102 150.5t-87 156.5t-74.5 184t-45 211.5t-18.5 260.5z" />
<glyph unicode=")" d="M82 -246q83 114 136 203t103.5 206.5t74.5 254t24 299.5v41q0 163 -24 299t-74.5 254t-103.5 206.5t-136 202.5h92q63 -89 102 -150t87 -156.5t75 -184t45.5 -211t18.5 -260.5v-41q0 -138 -18.5 -260.5t-45.5 -211.5t-75 -184t-87 -156.5t-102 -150.5h-92z" />
<glyph unicode="*" horiz-adv-x="778" d="M25 1346l26 77l289 -104l-18 -57zM139 997l189 242l49 -35l-172 -254zM348 1638h82l-10 -307h-62zM401 1204l50 35l188 -242l-66 -47zM438 1319l289 104l27 -77l-297 -84z" />
<glyph unicode="+" horiz-adv-x="1228" d="M102 758v82h471v471h82v-471h471v-82h-471v-471h-82v471h-471z" />
<glyph unicode="," horiz-adv-x="409" d="M82 -164q61 0 90.5 36t32.5 128h-62v123h123v-98q0 -250 -184 -250v61z" />
<glyph unicode="-" horiz-adv-x="655" d="M82 678v78h491v-78h-491z" />
<glyph unicode="." horiz-adv-x="409" d="M143 0v123h123v-123h-123z" />
<glyph unicode="/" d="M31 -246l471 1966h82l-471 -1966h-82z" />
<glyph unicode="0" horiz-adv-x="1228" d="M139 461v676q0 107 26 192t80.5 151t148 102t220.5 36t220.5 -36t148.5 -102t81 -151t26 -192v-676q0 -107 -26 -192t-81 -151t-148.5 -102t-220.5 -36t-220.5 36t-148 102t-80.5 151t-26 192zM225 481q0 -100 19.5 -175t62.5 -132.5t118.5 -87t182.5 -29.5h13 q107 0 182.5 29.5t118.5 87t62.5 132.5t19.5 175v635q0 100 -19.5 175t-62.5 132.5t-118.5 87t-182.5 29.5h-13q-107 0 -182.5 -29.5t-118.5 -87t-62.5 -132.5t-19.5 -175v-635z" />
<glyph unicode="1" horiz-adv-x="1228" d="M133 1268l502 340h41v-1526h440v-82h-962v82h440v1399l-418 -283z" />
<glyph unicode="2" horiz-adv-x="1228" d="M123 0v51l717 754q102 107 141 186.5t39 175.5v21q0 161 -109 256.5t-290 95.5h-13q-207 0 -305 -113t-98 -362h-82v51q0 243 120.5 372.5t370.5 129.5q228 0 360 -111t132 -309v-20q0 -121 -38.5 -208t-149.5 -202l-656 -688l158 2h686v-82h-983z" />
<glyph unicode="3" horiz-adv-x="1228" d="M113 492v20h82q0 -228 106 -341.5t303 -113.5h21q81 0 152.5 21t128.5 62t90.5 108t33.5 151v31q0 113 -52 192.5t-136.5 116.5t-192.5 37h-239v78h229q169 0 275 80.5t106 239.5v14q0 161 -107.5 256.5t-287.5 95.5h-21q-206 0 -302.5 -112.5t-96.5 -362.5h-82v51 q0 243 120.5 372.5t370.5 129.5q228 0 360 -111t132 -309v-29q0 -142 -76 -230.5t-211 -123.5q139 -38 218 -134.5t79 -246.5v-31q0 -132 -69.5 -229.5t-182 -145.5t-250.5 -48q-252 0 -376.5 135.5t-124.5 376.5z" />
<glyph unicode="4" horiz-adv-x="1228" d="M72 451v51l706 1095h82v-1065h297v-81h-297v-451h-82v451h-706zM188 530l201 2h389v676l2 242z" />
<glyph unicode="5" horiz-adv-x="1228" d="M113 492v20h82q0 -228 106 -341.5t303 -113.5h21q81 0 152.5 24.5t129 73.5t90.5 130t33 186v41q0 105 -33 186t-90.5 130t-129 73.5t-152.5 24.5h-21q-135 0 -248.5 -64.5t-162.5 -185.5l-68 18l39 903h932v-81h-854l-29 -687q65 84 168.5 129.5t232.5 45.5 q103 0 193 -32t159.5 -93t109.5 -158t40 -219v-21q0 -122 -40 -219t-109.5 -157.5t-159.5 -92.5t-193 -32q-252 0 -376.5 135.5t-124.5 376.5z" />
<glyph unicode="6" horiz-adv-x="1228" d="M123 532v21q0 429 225 729q84 113 208.5 191t249.5 111.5t249 33.5v-82q-109 0 -219 -29t-224 -100.5t-194 -177.5q-134 -179 -187 -420q70 92 172.5 143.5t231.5 51.5q106 0 194.5 -30.5t155.5 -91t104 -157.5t37 -223v-21q0 -248 -137 -374.5t-364 -126.5 q-105 0 -195.5 36t-159 103.5t-108 174t-39.5 238.5zM205 532q0 -215 118 -343t295 -128h13q192 0 300.5 108.5t108.5 305.5v33q0 196 -107 305t-292 109h-12q-142 0 -252.5 -71t-167.5 -189q-4 -37 -4 -109v-21z" />
<glyph unicode="7" horiz-adv-x="1228" d="M133 1024v573h983v-51l-629 -1546h-88l617 1518l-240 -2h-561v-492h-82z" />
<glyph unicode="8" horiz-adv-x="1228" d="M113 397v31q0 151 79.5 250t217.5 137q-134 35 -210.5 126.5t-76.5 234.5v28q0 197 131.5 305.5t359.5 108.5q229 0 360.5 -108.5t131.5 -305.5v-28q0 -143 -77.5 -234.5t-211.5 -126.5q138 -38 218.5 -137t80.5 -250v-31q0 -131 -69.5 -227.5t-181.5 -143t-251 -46.5 t-251 46.5t-181 143t-69 227.5zM199 393q0 -84 33.5 -150t90.5 -106t128.5 -60t152.5 -20h21q81 0 152.5 20t128.5 60t90.5 106t33.5 150v31q0 168 -107.5 260t-273.5 92h-69q-166 0 -273.5 -92t-107.5 -260v-31zM209 1180q0 -108 52 -183t136 -109t193 -34h49q109 0 193 34 t136 109t52 183v14q0 160 -107 253t-288 93h-21q-181 0 -288 -93t-107 -253v-14z" />
<glyph unicode="9" horiz-adv-x="1228" d="M102 1096v20q0 248 137.5 375t364.5 127q104 0 195 -36t159.5 -104t108 -174.5t39.5 -238.5v-21q0 -429 -225 -729q-124 -166 -318.5 -250.5t-388.5 -84.5v81q171 0 345 76t292 232q135 180 184 417q-68 -91 -170.5 -141.5t-230.5 -50.5q-106 0 -194.5 30.5t-155.5 91 t-104.5 157.5t-37.5 223zM188 1090q0 -196 107.5 -305t292.5 -109h12q139 0 250 70.5t168 187.5q6 59 6 110v21q0 215 -118.5 343t-295.5 128h-12q-192 0 -301 -108.5t-109 -305.5v-32z" />
<glyph unicode=":" horiz-adv-x="409" d="M143 0v123h123v-123h-123zM143 737v123h123v-123h-123z" />
<glyph unicode=";" horiz-adv-x="409" d="M82 -164q61 0 90.5 36t32.5 128h-62v123h123v-98q0 -250 -184 -250v61zM143 737v123h123v-123h-123z" />
<glyph unicode="&#x3c;" horiz-adv-x="1228" d="M102 758v82l1024 503v-86l-942 -458l942 -459v-86z" />
<glyph unicode="=" horiz-adv-x="1228" d="M102 553v82h1024v-82h-1024zM102 963v81h1024v-81h-1024z" />
<glyph unicode="&#x3e;" horiz-adv-x="1228" d="M102 254v86l940 459l-940 458v86l1024 -503v-82z" />
<glyph unicode="?" horiz-adv-x="901" d="M57 1024v20q0 100 10 180t37 155.5t71 126.5t115.5 81.5t166.5 30.5q192 0 285.5 -110.5t93.5 -319.5q0 -83 -19.5 -152t-50.5 -118.5t-69 -94.5t-76 -91t-70 -96.5t-53 -121.5t-23 -156h-49q-2 85 14.5 160t45 130.5t63.5 106t70.5 97.5t64.5 94.5t47.5 107t18.5 124.5 q0 181 -65 271.5t-228 90.5q-74 0 -129.5 -24.5t-91.5 -67.5t-57.5 -109.5t-30.5 -142t-9 -172.5h-82zM389 0v123h123v-123h-123z" />
<glyph unicode="@" horiz-adv-x="1945" d="M72 553v82q0 227 68 412t191.5 310t298 193t384.5 68q143 0 270.5 -33t235.5 -100.5t187 -165t123 -233.5t44 -298v-61q0 -104 -13.5 -188.5t-38.5 -146.5t-62.5 -109t-81.5 -77.5t-101 -49t-116 -26t-130 -7.5h-51l-20 156q-46 -77 -128.5 -127t-199.5 -50 q-107 0 -188.5 40.5t-128.5 110.5t-70 153t-23 178v41q0 95 23 178t70 152.5t128.5 110t188.5 40.5q118 0 200 -50t128 -128l20 157h61l-10 -307v-579q61 1 107.5 6.5t96 20t86 38.5t69.5 64t53.5 94.5t32.5 131t12 173.5v61q0 152 -41.5 278t-113 212.5t-169.5 146.5 t-209.5 87.5t-234.5 27.5h-12q-189 0 -347 -63t-270 -178t-174.5 -285.5t-62.5 -378.5v-82q0 -215 64 -387t178.5 -285t273 -173t348.5 -60h12q194 0 359 49t315 160l45 -62q-288 -225 -725 -225q-210 0 -386 68t-301.5 193t-195 310t-69.5 412zM608 584q0 -117 34.5 -206 t111 -143.5t188.5 -54.5q104 0 181.5 56t125.5 133v471q-47 76 -125 132t-182 56q-166 0 -250 -111.5t-84 -291.5v-41z" />
<glyph unicode="A" horiz-adv-x="1228" d="M70 0l483 1618h123l483 -1618h-90l-129 432h-653l-127 -432h-90zM309 510h609l-304 1026z" />
<glyph unicode="B" horiz-adv-x="1167" d="M164 0v1597h362q214 0 346 -99t132 -288v-41q0 -136 -71 -222.5t-196 -121.5q143 -34 225 -127.5t82 -246.5v-41q0 -197 -132.5 -303.5t-344.5 -106.5h-403zM246 78h332q81 0 149 20t120 60t81.5 105.5t29.5 150.5v32q0 85 -29.5 150.5t-81.5 105.5t-120 60t-149 20h-332 v-704zM246 860h291q81 0 148.5 18t120.5 55t82.5 98.5t29.5 142.5v32q0 81 -29.5 142.5t-82.5 98.5t-120.5 55t-148.5 18h-291v-660z" />
<glyph unicode="C" horiz-adv-x="1243" d="M129 758v82q0 275 58.5 447.5t172.5 251.5t291 79q242 0 360.5 -138.5t118.5 -404.5v-51h-86q0 274 -91 395t-291 121h-13q-219 0 -326.5 -165.5t-107.5 -534.5v-82q0 -370 106.5 -535.5t327.5 -165.5h13q198 0 290 114t92 341h86v-20q0 -244 -119.5 -378t-359.5 -134 q-177 0 -291 79t-172.5 251.5t-58.5 447.5z" />
<glyph unicode="D" horiz-adv-x="1290" d="M164 0v1597h399q598 0 598 -757v-82q0 -758 -598 -758h-399zM246 78h307q98 0 176.5 22.5t144 72.5t109.5 128.5t68 193.5t24 263v82q0 148 -24 263t-68 193.5t-109.5 128.5t-144 72.5t-176.5 22.5h-307v-1442z" />
<glyph unicode="E" horiz-adv-x="1105" d="M164 0v1597h860v-77h-778v-666h676v-78h-676v-698h778v-78h-860z" />
<glyph unicode="F" horiz-adv-x="1024" d="M164 0v1597h819v-77h-737v-666h635v-78h-635v-776h-82z" />
<glyph unicode="G" horiz-adv-x="1306" d="M129 758v82q0 405 137.5 591.5t405.5 186.5q242 0 361.5 -139t119.5 -404v-51h-86q0 274 -92 395t-293 121h-12q-223 0 -339 -167.5t-116 -532.5v-82q0 -370 117 -535.5t358 -165.5h12q128 0 223.5 42.5t145.5 103.5v479h-297v78h379v-598q-66 -77 -180 -129.5 t-281 -52.5q-283 0 -423 185.5t-140 592.5z" />
<glyph unicode="H" horiz-adv-x="1290" d="M164 0v1597h82v-743h798v743h82v-1597h-82v776h-798v-776h-82z" />
<glyph unicode="I" horiz-adv-x="430" d="M174 0v1597h82v-1597h-82z" />
<glyph unicode="J" horiz-adv-x="983" d="M63 492v20h78q0 -239 71 -347t232 -108t232.5 108t71.5 347v1085h81v-1105q0 -251 -89.5 -381.5t-295.5 -130.5q-207 0 -294 128.5t-87 383.5z" />
<glyph unicode="K" horiz-adv-x="1105" d="M164 0v1597h82v-968l678 968h100l-487 -684l487 -913h-96l-443 840l-239 -338v-502h-82z" />
<glyph unicode="L" horiz-adv-x="983" d="M164 0v1597h82v-1519h706v-78h-788z" />
<glyph unicode="M" horiz-adv-x="1597" d="M164 0v1597h106l529 -1458l528 1458h107v-1597h-82v1085l6 369l-529 -1454h-61l-528 1454l6 -369v-1085h-82z" />
<glyph unicode="N" horiz-adv-x="1331" d="M164 0v1597h92l840 -1474l-6 389v1085h77v-1597h-92l-839 1475l6 -390v-1085h-78z" />
<glyph unicode="O" horiz-adv-x="1310" d="M129 758v82q0 408 130 593t396 185t396.5 -185.5t130.5 -592.5v-82q0 -407 -130.5 -592.5t-396.5 -185.5t-396 185t-130 593zM215 758q0 -370 106 -535.5t328 -165.5h13q222 0 328 165.5t106 535.5v82q0 370 -106 535t-328 165h-13q-222 0 -328 -165t-106 -535v-82z" />
<glyph unicode="P" horiz-adv-x="1146" d="M164 0v1597h414q70 0 132.5 -12t125 -43t107.5 -79.5t73 -126.5t28 -179v-41q0 -101 -28 -179t-73 -126.5t-107.5 -79.5t-125 -43t-132.5 -12h-332v-676h-82zM246 754h332q36 0 70.5 4t73 14.5t71.5 28t64 46t53 65.5t35 90.5t13 117.5v33q0 89 -25 156.5t-63 106.5 t-91 63.5t-101 32.5t-100 8h-332v-766z" />
<glyph unicode="Q" horiz-adv-x="1310" d="M129 758v82q0 408 130 593t396 185t396.5 -185.5t130.5 -592.5v-82q0 -320 -80.5 -502t-243.5 -244l84 -217h-92l-72 197q-58 -12 -123 -12q-266 0 -396 185t-130 593zM215 758q0 -370 106 -535.5t328 -165.5h13q48 0 88 6l-136 373h82l133 -350q135 55 201 217.5 t66 454.5v82q0 370 -106 535t-328 165h-13q-222 0 -328 -165t-106 -535v-82z" />
<glyph unicode="R" horiz-adv-x="1167" d="M164 0v1597h414q70 0 132.5 -12t125 -43t107.5 -79.5t73 -126.5t28 -179v-41q0 -329 -284 -416l284 -700h-92l-270 684q-47 -8 -104 -8h-332v-676h-82zM246 754h332q36 0 70.5 4t73 14.5t71.5 28t64 46t53 65.5t35 90.5t13 117.5v33q0 89 -25 156.5t-63 106.5t-91 63.5 t-101 32.5t-100 8h-332v-766z" />
<glyph unicode="S" horiz-adv-x="1208" d="M102 492v20h82q0 -223 113.5 -339t300.5 -116h12q184 0 297 93t113 258v20q0 160 -103.5 244.5t-328.5 115.5q-126 17 -218.5 56t-145 94t-77 117t-24.5 133v20q0 189 133.5 299.5t347.5 110.5q481 0 481 -502v-51h-81q0 250 -94.5 362.5t-299.5 112.5h-12 q-168 0 -278.5 -84t-110.5 -227v-21q0 -147 95.5 -231t322.5 -115q252 -34 365.5 -141t113.5 -283v-20q0 -203 -137.5 -320.5t-364.5 -117.5q-241 0 -371.5 137.5t-130.5 374.5z" />
<glyph unicode="T" horiz-adv-x="1024" d="M51 1520v77h922v-77h-420v-1520h-82v1520h-420z" />
<glyph unicode="U" horiz-adv-x="1290" d="M154 492v1105h82v-1095q0 -129 25.5 -216.5t80 -137.5t127 -70.5t176.5 -20.5t177 20.5t127 70.5t80 137.5t26 216.5v1095h82v-1105q0 -146 -33 -247t-99 -158.5t-153 -82t-207 -24.5t-207 24.5t-153 82t-98.5 158.5t-32.5 247z" />
<glyph unicode="V" horiz-adv-x="1228" d="M70 1597h90l454 -1536l455 1536h90l-483 -1617h-123z" />
<glyph unicode="W" horiz-adv-x="1802" d="M100 1597h88l283 -1531l369 1531h123l368 -1531l283 1531h88l-309 -1617h-123l-369 1536l-369 -1536h-122z" />
<glyph unicode="X" horiz-adv-x="1228" d="M72 0l495 805l-495 792h98l444 -723l445 723h98l-495 -792l495 -805h-98l-445 727l-444 -727h-98z" />
<glyph unicode="Y" horiz-adv-x="1146" d="M51 1597h88l434 -1013l435 1013h88l-482 -1116v-481h-82v481z" />
<glyph unicode="Z" horiz-adv-x="1126" d="M82 0v57l840 1467l-246 -4h-574v77h922v-57l-840 -1466l246 4h614v-78h-962z" />
<glyph unicode="[" d="M143 -246v1966h379v-82h-297v-1802h297v-82h-379z" />
<glyph unicode="\" d="M31 1720h82l471 -1966h-82z" />
<glyph unicode="]" d="M92 -164h297v1802h-297v82h379v-1966h-379v82z" />
<glyph unicode="^" horiz-adv-x="1228" d="M70 573l503 1024h82l504 -1024h-86l-459 940l-458 -940h-86z" />
<glyph unicode="_" horiz-adv-x="655" d="M102 -164h451v-78h-451v78z" />
<glyph unicode="`" horiz-adv-x="1024" d="M285 1597h86l184 -327h-86z" />
<glyph unicode="a" horiz-adv-x="1024" d="M102 266v21q0 68 21 121.5t53 87t80 58t92 36.5t98 20l353 56v41q0 165 -64 243t-223 78q-85 0 -143.5 -23t-89 -67t-42.5 -94t-12 -117h-82v18q0 52 8.5 98t33.5 96t64.5 85.5t107 58.5t155.5 23q103 0 176.5 -29t114.5 -84.5t59.5 -125t18.5 -160.5v-400l10 -307h-62 l-20 164q-137 -184 -399 -184q-139 0 -223.5 78t-84.5 208zM184 266q0 -89 60 -149t176 -60q265 0 379 205v328l-359 -60q-256 -45 -256 -243v-21z" />
<glyph unicode="b" horiz-adv-x="1075" d="M133 0l10 307v1331h82v-688q46 70 125 113t193 43q87 0 157.5 -28t119 -77.5t81 -118.5t47.5 -148.5t15 -170.5v-41q0 -114 -24.5 -210.5t-73.5 -171.5t-131.5 -117.5t-190.5 -42.5q-226 0 -330 174l-18 -154h-62zM225 246q118 -189 307 -189q169 0 257 123.5t88 341.5 v41q0 218 -88 341.5t-257 123.5q-190 0 -307 -188v-594z" />
<glyph unicode="c" horiz-adv-x="1064" d="M113 522v41q0 91 16 170.5t50.5 148.5t85 118.5t124.5 77.5t164 28q85 0 154.5 -24t114 -61.5t74.5 -87.5t43 -99.5t13 -98.5v-39h-82q0 71 -17.5 129.5t-54.5 105t-99.5 72t-145.5 25.5q-177 0 -265.5 -125t-88.5 -340v-41q0 -215 88.5 -340t265.5 -125q86 0 149.5 25.5 t99 71t52 99t16.5 116.5h82v-29q0 -49 -13 -97.5t-43 -96.5t-74.5 -84.5t-114 -59t-154.5 -22.5q-112 0 -198.5 42.5t-138 117.5t-77.5 171.5t-26 210.5z" />
<glyph unicode="d" horiz-adv-x="1075" d="M113 522v41q0 115 24.5 211t73.5 171.5t131 118t190 42.5q212 0 318 -156v688h82v-1331l10 -307h-61l-21 154q-44 -77 -126 -125.5t-202 -48.5q-108 0 -190 42.5t-131 118t-73.5 171t-24.5 210.5zM199 522q0 -218 87.5 -341.5t256.5 -123.5q189 0 307 189v594 q-117 188 -307 188q-169 0 -256.5 -123.5t-87.5 -341.5v-41z" />
<glyph unicode="e" horiz-adv-x="1105" d="M113 522v41q0 91 16 170.5t50.5 148.5t85 118.5t124.5 77.5t164 28t164 -28t124.5 -77.5t85 -118.5t50.5 -148.5t16 -170.5v-59h-794q3 -209 92.5 -328t271.5 -119q90 0 160 26.5t109.5 69.5t59 92.5t19.5 102.5h82v-8q0 -61 -25.5 -122.5t-75 -115.5t-135.5 -88 t-194 -34q-115 0 -203.5 42.5t-141 117.5t-79 171.5t-26.5 210.5zM199 582h708q-5 208 -93 327t-261 119q-174 0 -262.5 -119t-91.5 -327z" />
<glyph unicode="f" horiz-adv-x="757" d="M72 1008v77h174v277q0 153 77.5 225t208.5 72q95 0 144 -21v-75q-41 18 -123 18q-119 0 -172 -48.5t-53 -180.5v-267h327v-77h-327v-1008h-82v1008h-174z" />
<glyph unicode="g" horiz-adv-x="1075" d="M113 563v41q0 103 24.5 191t73 159t131 111.5t190.5 40.5q120 0 202 -48.5t126 -125.5l21 153h61l-10 -307v-798q0 -88 -21.5 -159.5t-66.5 -129t-124.5 -89.5t-187.5 -32t-187 32t-124.5 89.5t-66.5 129t-21 159.5v20h82q0 -182 74.5 -267t242.5 -85q170 0 244 86.5 t74 255.5v225q-104 -154 -318 -154q-108 0 -190.5 40.5t-131 111.5t-73 159t-24.5 191zM199 563q0 -195 87.5 -309.5t256.5 -114.5q189 0 307 189v512q-117 188 -307 188q-169 0 -256.5 -114.5t-87.5 -309.5v-41z" />
<glyph unicode="h" horiz-adv-x="1044" d="M143 0v1638h82v-696q50 73 140.5 118.5t218.5 45.5q153 0 240 -91.5t87 -246.5v-768h-82v758q0 139 -71.5 204.5t-194.5 65.5q-221 0 -338 -188v-840h-82z" />
<glyph unicode="i" horiz-adv-x="409" d="M143 1382v123h123v-123h-123zM164 0v1085h82v-1085h-82z" />
<glyph unicode="j" horiz-adv-x="409" d="M-184 -334q40 -18 123 -18q119 0 172 48.5t53 180.5v1208h82v-1218q0 -153 -77.5 -225t-209.5 -72q-96 0 -143 20v76zM143 1382v123h123v-123h-123z" />
<glyph unicode="k" horiz-adv-x="983" d="M143 0v1638h82v-1194l590 641h107l-379 -409l379 -676h-93l-344 614l-260 -282v-332h-82z" />
<glyph unicode="l" horiz-adv-x="409" d="M164 0v1638h82v-1638h-82z" />
<glyph unicode="m" horiz-adv-x="1607" d="M133 1085h62l18 -153q48 77 132.5 125.5t207.5 48.5q107 0 179 -46t99 -136q46 79 133 130.5t214 51.5q141 0 219 -78t78 -229v-799h-82v788q0 136 -62 188t-174 52q-62 0 -113 -16.5t-88 -47.5t-60 -59t-46 -65v-840h-82v788q0 136 -62 188t-174 52q-62 0 -113 -16.5 t-88 -47.5t-60 -59t-46 -65v-840h-82v778z" />
<glyph unicode="n" horiz-adv-x="1044" d="M133 1085h62l18 -159q50 79 142.5 129.5t228.5 50.5q153 0 240 -91.5t87 -246.5v-768h-82v758q0 139 -71.5 204.5t-194.5 65.5q-221 0 -338 -188v-840h-82v778z" />
<glyph unicode="o" horiz-adv-x="1105" d="M113 522v41q0 91 16 170.5t50.5 148.5t85 118.5t124.5 77.5t164 28t164 -28t124.5 -77.5t85 -118.5t50.5 -148.5t16 -170.5v-41q0 -114 -26 -210.5t-77.5 -171.5t-138 -117.5t-198.5 -42.5t-198.5 42.5t-138 117.5t-77.5 171.5t-26 210.5zM199 522q0 -215 88.5 -340 t265.5 -125t265.5 125t88.5 340v41q0 215 -88.5 340t-265.5 125t-265.5 -125t-88.5 -340v-41z" />
<glyph unicode="p" horiz-adv-x="1075" d="M133 1085h62l18 -153q104 174 330 174q87 0 157.5 -28t119 -77.5t81 -118.5t47.5 -148.5t15 -170.5v-41q0 -114 -24.5 -210.5t-73.5 -171.5t-131.5 -117.5t-190.5 -42.5q-218 0 -318 153v-543h-82v1188zM225 246q118 -189 307 -189q169 0 257 123.5t88 341.5v41 q0 218 -88 341.5t-257 123.5q-190 0 -307 -188v-594z" />
<glyph unicode="q" horiz-adv-x="1075" d="M113 522v41q0 115 24.5 211t73.5 171.5t131 118t190 42.5q120 0 202 -48.5t126 -125.5l21 153h61l-10 -307v-1188h-82v543q-104 -153 -318 -153q-108 0 -190 42.5t-131 118t-73.5 171t-24.5 210.5zM199 522q0 -218 87.5 -341.5t256.5 -123.5q189 0 307 189v594 q-117 188 -307 188q-169 0 -256.5 -123.5t-87.5 -341.5v-41z" />
<glyph unicode="r" horiz-adv-x="645" d="M133 1085h62l18 -153q46 77 123.5 125.5t185.5 48.5l31 -2v-76h-21q-62 0 -113 -16.5t-88 -47.5t-60 -59t-46 -65v-840h-82v778z" />
<glyph unicode="s" horiz-adv-x="1064" d="M133 319v9h82q0 -55 15 -100t48.5 -85.5t98 -63t155.5 -22.5q149 0 231.5 61.5t82.5 168.5q0 65 -19 106.5t-64.5 67t-104.5 37.5t-156 20q-105 10 -176.5 34.5t-110 63.5t-54.5 83.5t-16 103.5v10q0 129 101.5 211t285.5 82q105 0 182 -27t121.5 -77t65.5 -113.5 t21 -143.5v-8h-82q0 143 -69 217t-239 74q-142 0 -221.5 -57t-79.5 -162q0 -69 25.5 -111t99.5 -71.5t207 -40.5q201 -15 285 -83.5t84 -211.5v-8q0 -134 -107 -218.5t-293 -84.5q-88 0 -158.5 21t-114.5 55t-73 79t-41 90.5t-12 93.5z" />
<glyph unicode="t" horiz-adv-x="798" d="M72 1008v77h174v308h82v-308h368v-77h-368v-721q0 -132 53 -181t172 -49q80 0 123 19v-76q-47 -20 -144 -20q-132 0 -209 71.5t-77 224.5v732h-174z" />
<glyph unicode="u" horiz-adv-x="1044" d="M133 317v768h82v-757q0 -140 71.5 -205.5t194.5 -65.5q220 0 338 189v839h82v-778l10 -307h-61l-21 158q-49 -79 -141 -128.5t-227 -49.5q-153 0 -240.5 91t-87.5 246z" />
<glyph unicode="v" horiz-adv-x="1024" d="M61 1085h93l358 -993l358 993h93l-402 -1085h-98z" />
<glyph unicode="w" horiz-adv-x="1433" d="M72 1085h84l225 -1003l285 1003h102l285 -1003l225 1003h84l-250 -1085h-115l-280 985l-281 -985h-114z" />
<glyph unicode="x" horiz-adv-x="942" d="M51 0l369 543l-369 542h101l319 -471l320 471h100l-369 -542l369 -543h-105l-315 463l-315 -463h-105z" />
<glyph unicode="y" horiz-adv-x="946" d="M59 1085h86l347 -952l346 952h86l-392 -1048l-159 -447h-90l168 447z" />
<glyph unicode="z" horiz-adv-x="913" d="M78 0v57l637 953l-248 -2h-369v77h717v-57l-637 -952l248 2h410v-78h-758z" />
<glyph unicode="{" d="M51 696v82q100 0 142.5 36.5t42.5 148.5v501q0 73 23.5 126t63 79.5t81 38.5t88.5 12h30v-82q-104 0 -154.5 -47.5t-50.5 -177.5v-475q0 -150 -108 -201q108 -55 108 -200v-476q0 -130 50.5 -177.5t154.5 -47.5v-82h-30q-47 0 -88.5 12t-81 38.5t-63 79.5t-23.5 126v502 q0 58 -11 95t-36 56.5t-56.5 26t-81.5 6.5z" />
<glyph unicode="|" horiz-adv-x="368" d="M143 -246v1966h82v-1966h-82z" />
<glyph unicode="}" d="M92 -164q104 0 154.5 47.5t50.5 177.5v476q0 146 109 200q-109 50 -109 201v475q0 130 -50.5 177.5t-154.5 47.5v82h31q47 0 88.5 -12t81 -38.5t63 -79.5t23.5 -126v-501q0 -112 42 -148.5t142 -36.5v-82q-100 0 -142 -36t-42 -148v-502q0 -73 -23.5 -126t-63 -79.5 t-81 -38.5t-88.5 -12h-31v82z" />
<glyph unicode="~" horiz-adv-x="1228" d="M82 760q114 141 274 141q74 0 148 -23.5t124.5 -51t119 -51t133.5 -23.5q62 0 117 36.5t92 83.5l57 -57q-114 -141 -275 -141q-74 0 -147.5 23.5t-124 51t-119 51t-133.5 23.5q-62 0 -116.5 -37t-92.5 -84z" />
<glyph unicode="&#xa1;" horiz-adv-x="409" d="M143 963v122h123v-122h-123zM158 -410l22 1137h49l23 -1137h-94z" />
<glyph unicode="&#xa2;" horiz-adv-x="1228" d="M143 774v51q0 321 128 491.5t374 170.5q45 0 82 -6l57 239h82l-61 -256q96 -29 160 -94t92 -150t28 -190v-45h-84q0 334 -215 401l-280 -1171q62 -18 137 -18h6q183 0 267.5 98.5t84.5 273.5h84v-24q0 -92 -25.5 -168t-77 -135.5t-138 -93t-199.5 -33.5q-91 0 -158 20 l-61 -258h-82l68 287q-132 67 -200.5 222.5t-68.5 387.5zM229 774q0 -402 203 -524l277 1151q-36 4 -60 4h-6q-201 0 -307.5 -146t-106.5 -434v-51z" />
<glyph unicode="&#xa3;" horiz-adv-x="1228" d="M123 0v82h346q-6 85 -24 181t-35.5 162.5t-48 172.5t-44.5 160h-194v82h174q-41 179 -41 338q0 205 112.5 322.5t307.5 117.5q95 0 170.5 -30t125.5 -82t83 -126t47 -157t14 -179v-20h-82q0 242 -88 379t-270 137q-167 0 -250.5 -99t-83.5 -274q0 -133 49 -327h428v-82 h-407q6 -24 27.5 -104t30.5 -114.5t25 -106.5t23.5 -119.5t14.5 -111t8 -120.5h565v-82h-983z" />
<glyph unicode="&#xa5;" horiz-adv-x="1228" d="M41 1597h92l481 -985l482 985h92l-303 -614h252v-82h-291l-162 -328h453v-81h-482v-492h-82v492h-481v81h451l-160 328h-291v82h250z" />
<glyph unicode="&#xa6;" horiz-adv-x="368" d="M143 -246v901h82v-901h-82zM143 819v901h82v-901h-82z" />
<glyph unicode="&#xa7;" horiz-adv-x="1024" d="M92 795v8q0 96 55 166t158 102q-88 36 -124 97t-36 147v10q0 129 101.5 211t285.5 82q105 0 182 -27t121.5 -77t65.5 -113.5t21 -143.5v-8h-82q0 143 -69 217t-239 74q-142 0 -221.5 -57t-79.5 -162q0 -69 25.5 -111t99.5 -71.5t207 -40.5q201 -15 285 -83.5t84 -211.5 v-8q0 -98 -55 -168.5t-160 -102.5q88 -35 125 -95.5t37 -145.5v-11q0 -129 -101 -210.5t-286 -81.5q-205 0 -297.5 97t-92.5 263v8h82q0 -143 69 -217t239 -74q142 0 221.5 57t79.5 162q0 69 -25.5 111.5t-99.5 72t-207 40.5q-201 15 -285 83.5t-84 211.5zM178 799 q0 -63 18 -104t60 -66.5t98 -38.5t144 -21h34q149 0 231.5 61.5t82.5 168.5q0 63 -18 104t-60.5 66.5t-98.5 38t-145 20.5h-32q-149 0 -231.5 -61t-82.5 -168z" />
<glyph unicode="&#xa8;" horiz-adv-x="1024" d="M297 1382v123h123v-123h-123zM604 1382v123h123v-123h-123z" />
<glyph unicode="&#xa9;" horiz-adv-x="1884" d="M123 799q0 167 65 318.5t174.5 261t261 174.5t318.5 65t318.5 -65t261 -174.5t174.5 -261t65 -318.5t-65 -318.5t-174.5 -261t-261 -174.5t-318.5 -65t-318.5 65t-261 174.5t-174.5 261t-65 318.5zM201 799q0 -202 99 -372.5t269.5 -270t372.5 -99.5t372.5 99.5 t269.5 270t99 372.5q0 151 -58.5 288.5t-157.5 236.5t-236.5 157.5t-288.5 58.5t-288.5 -58.5t-236.5 -157.5t-157.5 -236.5t-58.5 -288.5zM522 778v41q0 66 13.5 131t45.5 129t79 112.5t120 78.5t162 30q84 0 152 -23.5t109 -58.5t69 -79.5t38.5 -83t10.5 -72.5v-31h-82 q0 50 -15 94.5t-47 84.5t-92.5 64t-142.5 24q-71 0 -128.5 -23.5t-95 -62.5t-63 -91.5t-36.5 -108t-11 -114.5v-41q0 -75 18.5 -143t56.5 -127t104.5 -94t154.5 -35q68 0 122 16.5t86 41.5t53 59t28.5 65.5t7.5 63.5h82v-21q0 -34 -10.5 -71.5t-38.5 -80.5t-69 -76.5 t-109 -56t-152 -22.5q-89 0 -162 30t-120 78.5t-79 112.5t-45.5 129t-13.5 131z" />
<glyph unicode="&#xaa;" horiz-adv-x="772" d="M86 993v17q0 63 22 108.5t62.5 72t81 40t94.5 22.5l254 39v29q0 116 -45.5 171.5t-157.5 55.5q-116 0 -160 -56.5t-44 -156.5h-76v15q0 38 6.5 73t25.5 71.5t49 63t81.5 43.5t117.5 17q152 0 216.5 -78t64.5 -219v-299l8 -227h-59l-17 116q-101 -133 -293 -133 q-105 0 -168 59t-63 156zM102 457v71h584v-71h-584zM164 997q0 -64 42 -106.5t126 -42.5q179 0 268 141v240l-254 -41q-182 -33 -182 -176v-15z" />
<glyph unicode="&#xab;" horiz-adv-x="1024" d="M102 666v61l410 317v-92l-334 -256l334 -256v-92zM512 666v61l410 317v-92l-334 -256l334 -256v-92z" />
<glyph unicode="&#xac;" horiz-adv-x="1228" d="M102 1044v82h1024v-675h-82v593h-942z" />
<glyph unicode="&#xad;" horiz-adv-x="655" d="M82 678v78h491v-78h-491z" />
<glyph unicode="&#xae;" horiz-adv-x="675" d="M41 1362q0 123 87 210t210 87t210 -87t87 -210t-87 -210t-210 -87t-210 87t-87 210zM90 1362q0 -103 72.5 -175.5t175.5 -72.5t175.5 72.5t72.5 175.5t-72.5 175.5t-175.5 72.5t-175.5 -72.5t-72.5 -175.5zM215 1186v352h135q50 0 80.5 -26.5t30.5 -73.5v-17 q0 -71 -64 -94l64 -141h-60l-57 135h-72v-135h-57zM272 1374h68q63 0 63 51v9q0 51 -63 51h-68v-111z" />
<glyph unicode="&#xaf;" horiz-adv-x="1024" d="M297 1393v82h430v-82h-430z" />
<glyph unicode="&#xb0;" horiz-adv-x="819" d="M102 1307v8q0 138 87 220.5t221 82.5q133 0 220 -82.5t87 -220.5v-8q0 -138 -87 -220.5t-220 -82.5q-134 0 -221 82.5t-87 220.5zM180 1303q0 -100 64 -161t159 -61h13q95 0 159 61t64 161v16q0 100 -64 160.5t-159 60.5h-13q-95 0 -159 -60.5t-64 -160.5v-16z" />
<glyph unicode="&#xb1;" horiz-adv-x="1228" d="M102 348v82h1024v-82h-1024zM102 922v82h471v307h82v-307h471v-82h-471v-308h-82v308h-471z" />
<glyph unicode="&#xb2;" d="M57 799v45l344 366q46 47 64 83.5t18 80.5v10q0 73 -47.5 115.5t-126.5 42.5h-6q-88 0 -131 -50t-43 -161h-72v25q0 252 250 252q119 0 184.5 -58t65.5 -155v-13q0 -61 -20 -104t-74 -100l-295 -314h389v-65h-500z" />
<glyph unicode="&#xb3;" d="M51 1042v13h74q0 -203 176 -203h10q74 0 126 40t52 114v14q0 74 -46.5 114t-120.5 40h-117v65h112q73 0 119.5 35.5t46.5 105.5v9q0 70 -47.5 111.5t-124.5 41.5h-10q-88 0 -130 -50t-42 -161h-72v25q0 252 250 252q119 0 184.5 -57.5t65.5 -153.5v-15q0 -132 -125 -178 q129 -46 129 -184v-16q0 -96 -71 -157t-183 -61q-128 0 -192 67t-64 189z" />
<glyph unicode="&#xb4;" horiz-adv-x="1024" d="M469 1270l184 327h86l-184 -327h-86z" />
<glyph unicode="&#xb6;" horiz-adv-x="1024" d="M82 1116v41q0 101 28 179t73.5 126.5t108 79.5t125 43t132.5 12h332v-1597h-82v1520h-144v-1520h-82v676h-24q-70 0 -132.5 12t-125 43t-108 79.5t-73.5 126.5t-28 179zM168 1120q0 -89 25 -156.5t63.5 -106t91.5 -63t101 -32.5t100 -8h24v766h-24q-52 0 -100 -8 t-101 -32.5t-91.5 -63.5t-63.5 -106.5t-25 -156.5v-33z" />
<glyph unicode="&#xb7;" horiz-adv-x="409" d="M143 655v123h123v-123h-123z" />
<glyph unicode="&#xb8;" horiz-adv-x="1232" d="M326 -385l26 61q58 -38 144 -38q73 0 107 18.5t34 64.5q0 80 -133 80l-53 -4l-35 33l63 170h74l-49 -131h10q35 0 66.5 -7t60.5 -22.5t46.5 -45.5t17.5 -70q0 -80 -54 -117t-145 -37q-116 0 -180 45z" />
<glyph unicode="&#xb9;" d="M55 1432l252 170h47v-738h207v-65h-489v65h209v637l-189 -127z" />
<glyph unicode="&#xba;" horiz-adv-x="839" d="M88 1182v32q0 86 20 157.5t59 127.5t104 87.5t149 31.5t149 -31.5t104 -87.5t59 -127.5t20 -157.5v-32q0 -86 -20 -157.5t-59 -127.5t-104 -87.5t-149 -31.5t-149 31.5t-104 87.5t-59 127.5t-20 157.5zM102 457v71h635v-71h-635zM168 1182q0 -155 63 -243.5t189 -88.5 t189 88.5t63 243.5v32q0 155 -63 243.5t-189 88.5t-189 -88.5t-63 -243.5v-32z" />
<glyph unicode="&#xbb;" horiz-adv-x="1024" d="M102 348v92l334 256l-334 256v92l410 -317v-61zM512 348v92l334 256l-334 256v92l410 -317v-61z" />
<glyph unicode="&#xbc;" horiz-adv-x="1638" d="M55 1432l252 170h47v-738h207v-65h-489v65h209v637l-189 -127zM184 0l1180 1597h90l-1180 -1597h-90zM1057 211v49l344 539h72v-520h131v-68h-131v-211h-74v211h-342zM1147 276l88 3h164v290l2 105z" />
<glyph unicode="&#xbd;" horiz-adv-x="1638" d="M55 1432l252 170h47v-738h207v-65h-489v65h209v637l-189 -127zM184 0l1180 1597h90l-1180 -1597h-90zM1081 0v45l344 367q46 47 64 83t18 80v11q0 73 -47.5 115t-126.5 42h-6q-88 0 -131 -50t-43 -161h-72v25q0 252 250 252q119 0 184.5 -58t65.5 -155v-12 q0 -61 -20 -104.5t-74 -100.5l-295 -313h389v-66h-500z" />
<glyph unicode="&#xbe;" horiz-adv-x="1638" d="M51 1042v13h74q0 -203 176 -203h10q74 0 126 40t52 114v14q0 74 -46.5 114t-120.5 40h-117v65h112q73 0 119.5 35.5t46.5 105.5v9q0 70 -47.5 111.5t-124.5 41.5h-10q-88 0 -130 -50t-42 -161h-72v25q0 252 250 252q119 0 184.5 -57.5t65.5 -153.5v-15q0 -132 -125 -178 q129 -46 129 -184v-16q0 -96 -71 -157t-183 -61q-128 0 -192 67t-64 189zM184 0l1180 1597h90l-1180 -1597h-90zM1057 211v49l344 539h72v-520h131v-68h-131v-211h-74v211h-342zM1147 276l88 3h164v290l2 105z" />
<glyph unicode="&#xbf;" horiz-adv-x="901" d="M66 -61q0 83 19.5 151.5t50.5 117.5t68.5 92.5t75.5 86.5t70 89t53 110t23 141h49q2 -77 -14.5 -145t-45 -119t-63.5 -98.5t-70 -93t-64 -92t-47.5 -106t-18.5 -124.5q0 -301 292 -301q92 0 155.5 33t98.5 98t49.5 147.5t14.5 196.5h82v-21q0 -93 -10 -167t-37 -144.5 t-71 -117.5t-115.5 -75t-166.5 -28q-180 0 -279 97t-99 272zM389 963v122h123v-122h-123z" />
<glyph unicode="&#xc0;" horiz-adv-x="1228" d="M70 0l483 1618h123l483 -1618h-90l-129 432h-653l-127 -432h-90zM309 510h609l-304 1026zM444 1946h86l127 -226h-86z" />
<glyph unicode="&#xc1;" horiz-adv-x="1228" d="M70 0l483 1618h123l483 -1618h-90l-129 432h-653l-127 -432h-90zM309 510h609l-304 1026zM571 1720l127 226h86l-127 -226h-86z" />
<glyph unicode="&#xc2;" horiz-adv-x="1228" d="M70 0l483 1618h123l483 -1618h-90l-129 432h-653l-127 -432h-90zM309 510h609l-304 1026zM379 1720l205 226h61l205 -226h-92l-144 158l-143 -158h-92z" />
<glyph unicode="&#xc3;" horiz-adv-x="1228" d="M70 0l483 1618h123l483 -1618h-90l-129 432h-653l-127 -432h-90zM309 510h609l-304 1026zM328 1757q0 85 39.5 128.5t107.5 43.5q40 0 81 -19.5t69.5 -43t62 -43t60.5 -19.5q79 0 79 105h74q0 -85 -39.5 -128.5t-107.5 -43.5q-40 0 -81 19.5t-69.5 43t-62 43t-60.5 19.5 q-80 0 -80 -105h-73z" />
<glyph unicode="&#xc4;" horiz-adv-x="1228" d="M70 0l483 1618h123l483 -1618h-90l-129 432h-653l-127 -432h-90zM309 510h609l-304 1026zM399 1772v122h123v-122h-123zM707 1772v122h122v-122h-122z" />
<glyph unicode="&#xc5;" horiz-adv-x="1228" d="M70 0l479 1608q-53 21 -86 68t-33 106q0 76 54 130t130 54q77 0 131 -54t54 -130q0 -59 -33 -106.5t-88 -67.5l481 -1608h-90l-129 432h-653l-127 -432h-90zM309 510h609l-304 1026zM496 1782q0 -50 34.5 -84.5t83.5 -34.5q50 0 84.5 34.5t34.5 84.5t-34.5 84.5 t-84.5 34.5q-49 0 -83.5 -34.5t-34.5 -84.5z" />
<glyph unicode="&#xc6;" horiz-adv-x="1679" d="M49 0l604 1597h944v-77h-815l101 -666h612v-78h-602l104 -698h600v-78h-671l-68 453h-553l-168 -453h-88zM334 530h514l-146 990z" />
<glyph unicode="&#xc7;" horiz-adv-x="1243" d="M129 758v82q0 275 58.5 447.5t172.5 251.5t291 79q242 0 360.5 -138.5t118.5 -404.5v-51h-86q0 274 -91 395t-291 121h-13q-219 0 -326.5 -165.5t-107.5 -534.5v-82q0 -370 106.5 -535.5t327.5 -165.5h13q198 0 290 114t92 341h86v-20q0 -233 -108 -365.5t-326 -144.5 l-41 -113h11q35 0 66.5 -7t60.5 -22.5t46 -45.5t17 -70q0 -80 -54 -117t-145 -37q-116 0 -180 45l27 61q58 -38 143 -38q73 0 107 18.5t34 64.5q0 80 -133 80l-53 -4l-35 33l56 150q-251 9 -372.5 194.5t-121.5 583.5z" />
<glyph unicode="&#xc8;" horiz-adv-x="1105" d="M164 0v1597h860v-77h-778v-666h676v-78h-676v-698h778v-78h-860zM444 1946h86l127 -226h-86z" />
<glyph unicode="&#xc9;" horiz-adv-x="1105" d="M164 0v1597h860v-77h-778v-666h676v-78h-676v-698h778v-78h-860zM571 1720l127 226h86l-127 -226h-86z" />
<glyph unicode="&#xca;" horiz-adv-x="1105" d="M164 0v1597h860v-77h-778v-666h676v-78h-676v-698h778v-78h-860zM379 1720l205 226h61l205 -226h-92l-144 158l-143 -158h-92z" />
<glyph unicode="&#xcb;" horiz-adv-x="1105" d="M164 0v1597h860v-77h-778v-666h676v-78h-676v-698h778v-78h-860zM399 1772v122h123v-122h-123zM707 1772v122h122v-122h-122z" />
<glyph unicode="&#xcc;" horiz-adv-x="430" d="M45 1946h86l127 -226h-86zM174 0v1597h82v-1597h-82z" />
<glyph unicode="&#xcd;" horiz-adv-x="430" d="M172 1720l127 226h86l-127 -226h-86zM174 0v1597h82v-1597h-82z" />
<glyph unicode="&#xce;" horiz-adv-x="430" d="M-20 1720l204 226h62l205 -226h-93l-143 158l-143 -158h-92zM174 0v1597h82v-1597h-82z" />
<glyph unicode="&#xcf;" horiz-adv-x="430" d="M0 1772v122h123v-122h-123zM174 0v1597h82v-1597h-82zM307 1772v122h123v-122h-123z" />
<glyph unicode="&#xd0;" horiz-adv-x="1413" d="M41 776v78h246v743h399q598 0 598 -757v-82q0 -758 -598 -758h-399v776h-246zM369 78h307q98 0 176.5 22.5t144 72.5t109.5 128.5t68 193.5t24 263v82q0 148 -24 263t-68 193.5t-109.5 128.5t-144 72.5t-176.5 22.5h-307v-666h471v-78h-471v-698z" />
<glyph unicode="&#xd1;" horiz-adv-x="1331" d="M164 0v1597h92l840 -1474l-6 389v1085h77v-1597h-92l-839 1475l6 -390v-1085h-78zM379 1757q0 85 39.5 128.5t107.5 43.5q40 0 81 -19.5t69.5 -43t62 -43t60.5 -19.5q80 0 80 105h73q0 -85 -39.5 -128.5t-107.5 -43.5q-40 0 -81 19.5t-69.5 43t-62 43t-60.5 19.5 q-79 0 -79 -105h-74z" />
<glyph unicode="&#xd2;" horiz-adv-x="1310" d="M129 758v82q0 408 130 593t396 185t396.5 -185.5t130.5 -592.5v-82q0 -407 -130.5 -592.5t-396.5 -185.5t-396 185t-130 593zM215 758q0 -370 106 -535.5t328 -165.5h13q222 0 328 165.5t106 535.5v82q0 370 -106 535t-328 165h-13q-222 0 -328 -165t-106 -535v-82z M485 1946h86l127 -226h-86z" />
<glyph unicode="&#xd3;" horiz-adv-x="1310" d="M129 758v82q0 408 130 593t396 185t396.5 -185.5t130.5 -592.5v-82q0 -407 -130.5 -592.5t-396.5 -185.5t-396 185t-130 593zM215 758q0 -370 106 -535.5t328 -165.5h13q222 0 328 165.5t106 535.5v82q0 370 -106 535t-328 165h-13q-222 0 -328 -165t-106 -535v-82z M612 1720l127 226h86l-127 -226h-86z" />
<glyph unicode="&#xd4;" horiz-adv-x="1310" d="M129 758v82q0 408 130 593t396 185t396.5 -185.5t130.5 -592.5v-82q0 -407 -130.5 -592.5t-396.5 -185.5t-396 185t-130 593zM215 758q0 -370 106 -535.5t328 -165.5h13q222 0 328 165.5t106 535.5v82q0 370 -106 535t-328 165h-13q-222 0 -328 -165t-106 -535v-82z M420 1720l205 226h61l205 -226h-92l-144 158l-143 -158h-92z" />
<glyph unicode="&#xd5;" horiz-adv-x="1310" d="M129 758v82q0 408 130 593t396 185t396.5 -185.5t130.5 -592.5v-82q0 -407 -130.5 -592.5t-396.5 -185.5t-396 185t-130 593zM215 758q0 -370 106 -535.5t328 -165.5h13q222 0 328 165.5t106 535.5v82q0 370 -106 535t-328 165h-13q-222 0 -328 -165t-106 -535v-82z M369 1757q0 85 39.5 128.5t107.5 43.5q40 0 81 -19.5t69 -43t61.5 -43t60.5 -19.5q80 0 80 105h74q0 -85 -39.5 -128.5t-107.5 -43.5q-40 0 -81 19.5t-69.5 43t-62 43t-60.5 19.5q-80 0 -80 -105h-73z" />
<glyph unicode="&#xd6;" horiz-adv-x="1310" d="M129 758v82q0 408 130 593t396 185t396.5 -185.5t130.5 -592.5v-82q0 -407 -130.5 -592.5t-396.5 -185.5t-396 185t-130 593zM215 758q0 -370 106 -535.5t328 -165.5h13q222 0 328 165.5t106 535.5v82q0 370 -106 535t-328 165h-13q-222 0 -328 -165t-106 -535v-82z M440 1772v122h123v-122h-123zM748 1772v122h122v-122h-122z" />
<glyph unicode="&#xd7;" horiz-adv-x="1228" d="M78 322l477 477l-477 477l59 59l477 -477l478 477l59 -59l-477 -477l477 -477l-59 -60l-478 477l-477 -477z" />
<glyph unicode="&#xd8;" horiz-adv-x="1282" d="M123 0l117 195q-111 191 -111 563v82q0 408 130 593t396 185q228 0 355 -133l67 112h90l-106 -178q121 -192 121 -579v-82q0 -407 -130.5 -592.5t-396.5 -185.5q-242 0 -366 147l-76 -127h-90zM215 758q0 -309 74 -477l676 1128q-105 131 -303 131h-13q-222 0 -328 -165 t-106 -535v-82zM334 203q105 -146 315 -146h13q222 0 328 165.5t106 535.5v82q0 322 -84 495z" />
<glyph unicode="&#xd9;" horiz-adv-x="1290" d="M154 492v1105h82v-1095q0 -129 25.5 -216.5t80 -137.5t127 -70.5t176.5 -20.5t177 20.5t127 70.5t80 137.5t26 216.5v1095h82v-1105q0 -146 -33 -247t-99 -158.5t-153 -82t-207 -24.5t-207 24.5t-153 82t-98.5 158.5t-32.5 247zM475 1946h86l127 -226h-86z" />
<glyph unicode="&#xda;" horiz-adv-x="1290" d="M154 492v1105h82v-1095q0 -129 25.5 -216.5t80 -137.5t127 -70.5t176.5 -20.5t177 20.5t127 70.5t80 137.5t26 216.5v1095h82v-1105q0 -146 -33 -247t-99 -158.5t-153 -82t-207 -24.5t-207 24.5t-153 82t-98.5 158.5t-32.5 247zM602 1720l127 226h86l-127 -226h-86z" />
<glyph unicode="&#xdb;" horiz-adv-x="1290" d="M154 492v1105h82v-1095q0 -129 25.5 -216.5t80 -137.5t127 -70.5t176.5 -20.5t177 20.5t127 70.5t80 137.5t26 216.5v1095h82v-1105q0 -146 -33 -247t-99 -158.5t-153 -82t-207 -24.5t-207 24.5t-153 82t-98.5 158.5t-32.5 247zM410 1720l204 226h62l205 -226h-93 l-143 158l-143 -158h-92z" />
<glyph unicode="&#xdc;" horiz-adv-x="1290" d="M154 492v1105h82v-1095q0 -129 25.5 -216.5t80 -137.5t127 -70.5t176.5 -20.5t177 20.5t127 70.5t80 137.5t26 216.5v1095h82v-1105q0 -146 -33 -247t-99 -158.5t-153 -82t-207 -24.5t-207 24.5t-153 82t-98.5 158.5t-32.5 247zM430 1772v122h123v-122h-123zM737 1772 v122h123v-122h-123z" />
<glyph unicode="&#xdd;" horiz-adv-x="1146" d="M51 1597h88l434 -1013l435 1013h88l-482 -1116v-481h-82v481zM530 1720l127 226h86l-127 -226h-86z" />
<glyph unicode="&#xde;" horiz-adv-x="1146" d="M164 0v1597h82v-337h332q69 0 132 -12t125.5 -43.5t107.5 -79.5t73 -126.5t28 -179.5v-41q0 -101 -28 -179t-73 -126.5t-107.5 -79.5t-125 -43t-132.5 -12h-332v-338h-82zM246 416h332q36 0 70.5 4t73 14.5t71.5 28t64 46t53 65.5t35 90.5t13 117.5v33q0 89 -25 156.5 t-63 106.5t-91 63.5t-101 32.5t-100 8h-332v-766z" />
<glyph unicode="&#xdf;" horiz-adv-x="1126" d="M143 0v1257q0 188 97.5 295t291.5 107t292 -107t98 -295v-12q0 -131 -68 -233.5t-225 -200.5l119 -78q169 -111 243 -198t74 -205v-8q0 -50 -8.5 -94.5t-32 -91t-61 -80t-100.5 -55t-146 -21.5t-146 21.5t-100.5 54.5t-61 79.5t-32 90.5t-8.5 93v9h82q0 -271 266 -271 t266 271q0 43 -14 81t-36.5 69.5t-65.5 68t-86 66.5t-113 75l-146 94v58q175 97 246.5 187.5t71.5 221.5q0 153 -76 240.5t-232 87.5q-155 0 -231 -87.5t-76 -240.5v-1249h-82z" />
<glyph unicode="&#xe0;" horiz-adv-x="1024" d="M102 266v21q0 68 21 121.5t53 87t80 58t92 36.5t98 20l353 56v41q0 165 -64 243t-223 78q-85 0 -143.5 -23t-89 -67t-42.5 -94t-12 -117h-82v18q0 52 8.5 98t33.5 96t64.5 85.5t107 58.5t155.5 23q103 0 176.5 -29t114.5 -84.5t59.5 -125t18.5 -160.5v-400l10 -307h-62 l-20 164q-137 -184 -399 -184q-139 0 -223.5 78t-84.5 208zM184 266q0 -89 60 -149t176 -60q265 0 379 205v328l-359 -60q-256 -45 -256 -243v-21zM285 1597h86l184 -327h-86z" />
<glyph unicode="&#xe1;" horiz-adv-x="1024" d="M102 266v21q0 68 21 121.5t53 87t80 58t92 36.5t98 20l353 56v41q0 165 -64 243t-223 78q-85 0 -143.5 -23t-89 -67t-42.5 -94t-12 -117h-82v18q0 52 8.5 98t33.5 96t64.5 85.5t107 58.5t155.5 23q103 0 176.5 -29t114.5 -84.5t59.5 -125t18.5 -160.5v-400l10 -307h-62 l-20 164q-137 -184 -399 -184q-139 0 -223.5 78t-84.5 208zM184 266q0 -89 60 -149t176 -60q265 0 379 205v328l-359 -60q-256 -45 -256 -243v-21zM469 1270l184 327h86l-184 -327h-86z" />
<glyph unicode="&#xe2;" horiz-adv-x="1024" d="M102 266v21q0 68 21 121.5t53 87t80 58t92 36.5t98 20l353 56v41q0 165 -64 243t-223 78q-85 0 -143.5 -23t-89 -67t-42.5 -94t-12 -117h-82v18q0 52 8.5 98t33.5 96t64.5 85.5t107 58.5t155.5 23q103 0 176.5 -29t114.5 -84.5t59.5 -125t18.5 -160.5v-400l10 -307h-62 l-20 164q-137 -184 -399 -184q-139 0 -223.5 78t-84.5 208zM184 266q0 -89 60 -149t176 -60q265 0 379 205v328l-359 -60q-256 -45 -256 -243v-21zM215 1270l266 327h62l266 -327h-92l-205 254l-205 -254h-92z" />
<glyph unicode="&#xe3;" horiz-adv-x="1024" d="M102 266v21q0 68 21 121.5t53 87t80 58t92 36.5t98 20l353 56v41q0 165 -64 243t-223 78q-85 0 -143.5 -23t-89 -67t-42.5 -94t-12 -117h-82v18q0 52 8.5 98t33.5 96t64.5 85.5t107 58.5t155.5 23q103 0 176.5 -29t114.5 -84.5t59.5 -125t18.5 -160.5v-400l10 -307h-62 l-20 164q-137 -184 -399 -184q-139 0 -223.5 78t-84.5 208zM184 266q0 -89 60 -149t176 -60q265 0 379 205v328l-359 -60q-256 -45 -256 -243v-21zM225 1358q0 86 38 129t106 43q40 0 82 -19t71.5 -42.5t65 -42.5t63.5 -19q76 0 76 102h72q0 -86 -38 -129t-106 -43 q-40 0 -82 19t-71.5 42.5t-65 42.5t-63.5 19q-76 0 -76 -102h-72z" />
<glyph unicode="&#xe4;" horiz-adv-x="1024" d="M102 266v21q0 68 21 121.5t53 87t80 58t92 36.5t98 20l353 56v41q0 165 -64 243t-223 78q-85 0 -143.5 -23t-89 -67t-42.5 -94t-12 -117h-82v18q0 52 8.5 98t33.5 96t64.5 85.5t107 58.5t155.5 23q103 0 176.5 -29t114.5 -84.5t59.5 -125t18.5 -160.5v-400l10 -307h-62 l-20 164q-137 -184 -399 -184q-139 0 -223.5 78t-84.5 208zM184 266q0 -89 60 -149t176 -60q265 0 379 205v328l-359 -60q-256 -45 -256 -243v-21zM297 1382v123h123v-123h-123zM604 1382v123h123v-123h-123z" />
<glyph unicode="&#xe5;" horiz-adv-x="1024" d="M102 266v21q0 68 21 121.5t53 87t80 58t92 36.5t98 20l353 56v41q0 165 -64 243t-223 78q-85 0 -143.5 -23t-89 -67t-42.5 -94t-12 -117h-82v18q0 52 8.5 98t33.5 96t64.5 85.5t107 58.5t155.5 23q103 0 176.5 -29t114.5 -84.5t59.5 -125t18.5 -160.5v-400l10 -307h-62 l-20 164q-137 -184 -399 -184q-139 0 -223.5 78t-84.5 208zM184 266q0 -89 60 -149t176 -60q265 0 379 205v328l-359 -60q-256 -45 -256 -243v-21zM317 1434q0 76 54 130t131 54q76 0 130 -54t54 -130q0 -77 -54 -131t-130 -54t-130.5 54.5t-54.5 130.5zM383 1434 q0 -50 34.5 -84.5t84.5 -34.5t84.5 34.5t34.5 84.5q0 49 -34.5 83.5t-84.5 34.5t-84.5 -34.5t-34.5 -83.5z" />
<glyph unicode="&#xe6;" horiz-adv-x="1792" d="M102 266v21q0 68 21 121.5t53 87t80 58t92 36.5t98 20l353 56v41q0 165 -64 243t-223 78q-85 0 -143.5 -23t-89 -67t-42.5 -94t-12 -117h-82v18q0 52 8.5 98t33.5 96t64.5 85.5t107 58.5t155.5 23q157 0 238 -66.5t106 -189.5q101 256 383 256q90 0 164 -28t124.5 -77.5 t85 -118.5t50.5 -148.5t16 -170.5v-59h-794q3 -209 92.5 -328t271.5 -119q90 0 160 26.5t109.5 69.5t59 92.5t19.5 102.5h82v-8q0 -61 -25.5 -122.5t-75 -115.5t-135.5 -88t-194 -34q-282 0 -395 245q-22 -45 -58.5 -85.5t-90 -78t-130 -59.5t-165.5 -22q-139 0 -223.5 78 t-84.5 208zM184 266q0 -89 60 -149t176 -60q267 0 381 209l22 47q-24 95 -24 209v68l-359 -60q-256 -45 -256 -243v-21zM885 582h708q-5 208 -93 327t-261 119q-174 0 -262.5 -119t-91.5 -327z" />
<glyph unicode="&#xe7;" horiz-adv-x="1064" d="M113 522v41q0 91 16 170.5t50.5 148.5t85 118.5t124.5 77.5t164 28q85 0 154.5 -24t114 -61.5t74.5 -87.5t43 -99.5t13 -98.5v-39h-82q0 71 -17.5 129.5t-54.5 105t-99.5 72t-145.5 25.5q-177 0 -265.5 -125t-88.5 -340v-41q0 -215 88.5 -340t265.5 -125q86 0 149.5 25.5 t99 71t52 99t16.5 116.5h82v-29q0 -58 -19.5 -115.5t-59 -110.5t-110.5 -89t-163 -43l-41 -113h10q35 0 66.5 -7t60.5 -22.5t46.5 -45.5t17.5 -70q0 -80 -54 -117t-145 -37q-116 0 -180 45l27 61q58 -38 143 -38q73 0 107 18.5t34 64.5q0 80 -133 80l-53 -4l-35 33l55 150 q-106 5 -187 49.5t-129.5 119t-72.5 168.5t-24 205z" />
<glyph unicode="&#xe8;" horiz-adv-x="1105" d="M113 522v41q0 91 16 170.5t50.5 148.5t85 118.5t124.5 77.5t164 28t164 -28t124.5 -77.5t85 -118.5t50.5 -148.5t16 -170.5v-59h-794q3 -209 92.5 -328t271.5 -119q90 0 160 26.5t109.5 69.5t59 92.5t19.5 102.5h82v-8q0 -61 -25.5 -122.5t-75 -115.5t-135.5 -88 t-194 -34q-115 0 -203.5 42.5t-141 117.5t-79 171.5t-26.5 210.5zM199 582h708q-5 208 -93 327t-261 119q-174 0 -262.5 -119t-91.5 -327zM326 1597h86l184 -327h-86z" />
<glyph unicode="&#xe9;" horiz-adv-x="1105" d="M113 522v41q0 91 16 170.5t50.5 148.5t85 118.5t124.5 77.5t164 28t164 -28t124.5 -77.5t85 -118.5t50.5 -148.5t16 -170.5v-59h-794q3 -209 92.5 -328t271.5 -119q90 0 160 26.5t109.5 69.5t59 92.5t19.5 102.5h82v-8q0 -61 -25.5 -122.5t-75 -115.5t-135.5 -88 t-194 -34q-115 0 -203.5 42.5t-141 117.5t-79 171.5t-26.5 210.5zM199 582h708q-5 208 -93 327t-261 119q-174 0 -262.5 -119t-91.5 -327zM510 1270l184 327h86l-184 -327h-86z" />
<glyph unicode="&#xea;" horiz-adv-x="1105" d="M113 522v41q0 91 16 170.5t50.5 148.5t85 118.5t124.5 77.5t164 28t164 -28t124.5 -77.5t85 -118.5t50.5 -148.5t16 -170.5v-59h-794q3 -209 92.5 -328t271.5 -119q90 0 160 26.5t109.5 69.5t59 92.5t19.5 102.5h82v-8q0 -61 -25.5 -122.5t-75 -115.5t-135.5 -88 t-194 -34q-115 0 -203.5 42.5t-141 117.5t-79 171.5t-26.5 210.5zM199 582h708q-5 208 -93 327t-261 119q-174 0 -262.5 -119t-91.5 -327zM256 1270l266 327h62l266 -327h-92l-205 254l-205 -254h-92z" />
<glyph unicode="&#xeb;" horiz-adv-x="1105" d="M113 522v41q0 91 16 170.5t50.5 148.5t85 118.5t124.5 77.5t164 28t164 -28t124.5 -77.5t85 -118.5t50.5 -148.5t16 -170.5v-59h-794q3 -209 92.5 -328t271.5 -119q90 0 160 26.5t109.5 69.5t59 92.5t19.5 102.5h82v-8q0 -61 -25.5 -122.5t-75 -115.5t-135.5 -88 t-194 -34q-115 0 -203.5 42.5t-141 117.5t-79 171.5t-26.5 210.5zM199 582h708q-5 208 -93 327t-261 119q-174 0 -262.5 -119t-91.5 -327zM338 1382v123h123v-123h-123zM645 1382v123h123v-123h-123z" />
<glyph unicode="&#xec;" horiz-adv-x="409" d="M-23 1597h86l185 -327h-86zM164 0v1085h82v-1085h-82z" />
<glyph unicode="&#xed;" horiz-adv-x="409" d="M162 1270l184 327h86l-184 -327h-86zM164 0v1085h82v-1085h-82z" />
<glyph unicode="&#xee;" horiz-adv-x="409" d="M-92 1270l266 327h62l266 -327h-92l-205 254l-205 -254h-92zM164 0v1085h82v-1085h-82z" />
<glyph unicode="&#xef;" horiz-adv-x="409" d="M-10 1382v123h123v-123h-123zM164 0v1085h82v-1085h-82zM297 1382v123h123v-123h-123z" />
<glyph unicode="&#xf0;" horiz-adv-x="1105" d="M113 522v41q0 91 16 170.5t50.5 148.5t85 118.5t124.5 77.5t164 28q215 0 317 -156q-65 231 -186 357q-68 69 -139 118l-346 -202v88l272 159q-155 85 -358 111v78q257 -23 442 -139l238 139v-88l-168 -98q64 -49 125 -113q69 -73 119.5 -176t76 -214t36.5 -210.5 t11 -196.5v-41q0 -114 -26 -210.5t-77.5 -171.5t-138 -117.5t-198.5 -42.5t-198.5 42.5t-138 117.5t-77.5 171.5t-26 210.5zM199 522q0 -215 88.5 -340t265.5 -125t265.5 125t88.5 340v41q0 215 -88.5 340t-265.5 125t-265.5 -125t-88.5 -340v-41z" />
<glyph unicode="&#xf1;" horiz-adv-x="1044" d="M133 1085h62l18 -159q50 79 142.5 129.5t228.5 50.5q153 0 240 -91.5t87 -246.5v-768h-82v758q0 139 -71.5 204.5t-194.5 65.5q-221 0 -338 -188v-840h-82v778zM242 1358q0 86 37.5 129t105.5 43q51 0 103.5 -31t98.5 -61.5t81 -30.5q75 0 75 102h72q0 -86 -37.5 -129 t-105.5 -43q-40 0 -82 19t-72 42.5t-65.5 42.5t-63.5 19q-76 0 -76 -102h-71z" />
<glyph unicode="&#xf2;" horiz-adv-x="1105" d="M113 522v41q0 91 16 170.5t50.5 148.5t85 118.5t124.5 77.5t164 28t164 -28t124.5 -77.5t85 -118.5t50.5 -148.5t16 -170.5v-41q0 -114 -26 -210.5t-77.5 -171.5t-138 -117.5t-198.5 -42.5t-198.5 42.5t-138 117.5t-77.5 171.5t-26 210.5zM199 522q0 -215 88.5 -340 t265.5 -125t265.5 125t88.5 340v41q0 215 -88.5 340t-265.5 125t-265.5 -125t-88.5 -340v-41zM326 1597h86l184 -327h-86z" />
<glyph unicode="&#xf3;" horiz-adv-x="1105" d="M113 522v41q0 91 16 170.5t50.5 148.5t85 118.5t124.5 77.5t164 28t164 -28t124.5 -77.5t85 -118.5t50.5 -148.5t16 -170.5v-41q0 -114 -26 -210.5t-77.5 -171.5t-138 -117.5t-198.5 -42.5t-198.5 42.5t-138 117.5t-77.5 171.5t-26 210.5zM199 522q0 -215 88.5 -340 t265.5 -125t265.5 125t88.5 340v41q0 215 -88.5 340t-265.5 125t-265.5 -125t-88.5 -340v-41zM510 1270l184 327h86l-184 -327h-86z" />
<glyph unicode="&#xf4;" horiz-adv-x="1105" d="M113 522v41q0 91 16 170.5t50.5 148.5t85 118.5t124.5 77.5t164 28t164 -28t124.5 -77.5t85 -118.5t50.5 -148.5t16 -170.5v-41q0 -114 -26 -210.5t-77.5 -171.5t-138 -117.5t-198.5 -42.5t-198.5 42.5t-138 117.5t-77.5 171.5t-26 210.5zM199 522q0 -215 88.5 -340 t265.5 -125t265.5 125t88.5 340v41q0 215 -88.5 340t-265.5 125t-265.5 -125t-88.5 -340v-41zM256 1270l266 327h62l266 -327h-92l-205 254l-205 -254h-92z" />
<glyph unicode="&#xf5;" horiz-adv-x="1105" d="M113 522v41q0 91 16 170.5t50.5 148.5t85 118.5t124.5 77.5t164 28t164 -28t124.5 -77.5t85 -118.5t50.5 -148.5t16 -170.5v-41q0 -114 -26 -210.5t-77.5 -171.5t-138 -117.5t-198.5 -42.5t-198.5 42.5t-138 117.5t-77.5 171.5t-26 210.5zM199 522q0 -215 88.5 -340 t265.5 -125t265.5 125t88.5 340v41q0 215 -88.5 340t-265.5 125t-265.5 -125t-88.5 -340v-41zM266 1358q0 86 38 129t106 43q40 0 82 -19t71.5 -42.5t65 -42.5t63.5 -19q76 0 76 102h72q0 -86 -38 -129t-106 -43q-40 0 -82 19t-71.5 42.5t-65 42.5t-63.5 19q-76 0 -76 -102 h-72z" />
<glyph unicode="&#xf6;" horiz-adv-x="1105" d="M113 522v41q0 91 16 170.5t50.5 148.5t85 118.5t124.5 77.5t164 28t164 -28t124.5 -77.5t85 -118.5t50.5 -148.5t16 -170.5v-41q0 -114 -26 -210.5t-77.5 -171.5t-138 -117.5t-198.5 -42.5t-198.5 42.5t-138 117.5t-77.5 171.5t-26 210.5zM199 522q0 -215 88.5 -340 t265.5 -125t265.5 125t88.5 340v41q0 215 -88.5 340t-265.5 125t-265.5 -125t-88.5 -340v-41zM338 1382v123h123v-123h-123zM645 1382v123h123v-123h-123z" />
<glyph unicode="&#xf7;" horiz-adv-x="1228" d="M102 758v82h1024v-82h-1024zM553 287v123h123v-123h-123zM553 1188v123h123v-123h-123z" />
<glyph unicode="&#xf8;" horiz-adv-x="1105" d="M113 0l102 141q-102 143 -102 381v41q0 91 16 170.5t50.5 148.5t85 118.5t124.5 77.5t164 28q179 0 289 -107l61 86h90l-104 -141q104 -142 104 -381v-41q0 -114 -26 -210.5t-77.5 -171.5t-138 -117.5t-198.5 -42.5q-179 0 -289 104l-61 -84h-90zM199 522q0 -197 67 -311 l527 723q-91 94 -240 94q-177 0 -265.5 -125t-88.5 -340v-41zM311 152q89 -95 242 -95q177 0 265.5 125t88.5 340v41q0 192 -69 309z" />
<glyph unicode="&#xf9;" horiz-adv-x="1044" d="M133 317v768h82v-757q0 -140 71.5 -205.5t194.5 -65.5q220 0 338 189v839h82v-778l10 -307h-61l-21 158q-49 -79 -141 -128.5t-227 -49.5q-153 0 -240.5 91t-87.5 246zM289 1597h86l184 -327h-86z" />
<glyph unicode="&#xfa;" horiz-adv-x="1044" d="M133 317v768h82v-757q0 -140 71.5 -205.5t194.5 -65.5q220 0 338 189v839h82v-778l10 -307h-61l-21 158q-49 -79 -141 -128.5t-227 -49.5q-153 0 -240.5 91t-87.5 246zM473 1270l184 327h86l-184 -327h-86z" />
<glyph unicode="&#xfb;" horiz-adv-x="1044" d="M133 317v768h82v-757q0 -140 71.5 -205.5t194.5 -65.5q220 0 338 189v839h82v-778l10 -307h-61l-21 158q-49 -79 -141 -128.5t-227 -49.5q-153 0 -240.5 91t-87.5 246zM219 1270l266 327h62l266 -327h-92l-205 254l-205 -254h-92z" />
<glyph unicode="&#xfc;" horiz-adv-x="1044" d="M133 317v768h82v-757q0 -140 71.5 -205.5t194.5 -65.5q220 0 338 189v839h82v-778l10 -307h-61l-21 158q-49 -79 -141 -128.5t-227 -49.5q-153 0 -240.5 91t-87.5 246zM301 1382v123h123v-123h-123zM608 1382v123h123v-123h-123z" />
<glyph unicode="&#xfd;" horiz-adv-x="946" d="M59 1085h86l347 -952l346 952h86l-392 -1048l-159 -447h-90l168 447zM449 1270l184 327h86l-184 -327h-86z" />
<glyph unicode="&#xfe;" horiz-adv-x="1075" d="M143 -410v2048h82v-688q46 70 125 113t193 43q87 0 157.5 -28t119 -77.5t81 -118.5t47.5 -148.5t15 -170.5v-41q0 -114 -24.5 -210.5t-73.5 -171.5t-131.5 -117.5t-190.5 -42.5q-218 0 -318 153v-543h-82zM225 246q118 -189 307 -189q169 0 257 123.5t88 341.5v41 q0 218 -88 341.5t-257 123.5q-190 0 -307 -188v-594z" />
<glyph unicode="&#xff;" horiz-adv-x="946" d="M59 1085h86l347 -952l346 952h86l-392 -1048l-159 -447h-90l168 447zM276 1382v123h123v-123h-123zM584 1382v123h123v-123h-123z" />
<glyph unicode="&#x152;" horiz-adv-x="1925" d="M129 758v82q0 757 598 757h1116v-77h-778v-666h676v-78h-676v-698h778v-78h-1116q-598 0 -598 758zM215 758q0 -148 24 -263t68 -193.5t109.5 -128.5t144 -72.5t176.5 -22.5h246v1442h-246q-98 0 -176.5 -22.5t-144 -72.5t-109.5 -128.5t-68 -193.5t-24 -263v-82z" />
<glyph unicode="&#x153;" horiz-adv-x="1900" d="M113 522v41q0 91 16 170.5t50.5 148.5t85 118.5t124.5 77.5t164 28q157 0 255 -80.5t142 -220.5q42 139 141.5 220t256.5 81q90 0 164 -28t124.5 -77.5t85 -118.5t50.5 -148.5t16 -170.5v-59h-795q3 -209 93 -328t272 -119q90 0 160 26.5t109.5 69.5t59 92.5t19.5 102.5 h82v-8q0 -61 -25.5 -122.5t-75 -115.5t-135.5 -88t-194 -34q-162 0 -263.5 80t-144.5 221q-44 -141 -142 -221t-255 -80q-112 0 -198.5 42.5t-138 117.5t-77.5 171.5t-26 210.5zM199 522q0 -215 88.5 -340t265.5 -125t265.5 125t88.5 340v41q0 215 -88.5 340t-265.5 125 t-265.5 -125t-88.5 -340v-41zM993 582h709q-5 208 -93 327t-261 119q-174 0 -263 -119.5t-92 -326.5z" />
<glyph unicode="&#x178;" horiz-adv-x="1146" d="M51 1597h88l434 -1013l435 1013h88l-482 -1116v-481h-82v481zM358 1772v122h123v-122h-123zM666 1772v122h122v-122h-122z" />
<glyph unicode="&#x2c6;" horiz-adv-x="1024" d="M215 1270l266 327h62l266 -327h-92l-205 254l-205 -254h-92z" />
<glyph unicode="&#x2dc;" horiz-adv-x="1024" d="M225 1358q0 86 38 129t106 43q40 0 82 -19t71.5 -42.5t65 -42.5t63.5 -19q76 0 76 102h72q0 -86 -38 -129t-106 -43q-40 0 -82 19t-71.5 42.5t-65 42.5t-63.5 19q-76 0 -76 -102h-72z" />
<glyph unicode="&#x1e9e;" horiz-adv-x="1515" d="M154 0v1106q0 512 553 512q221 0 354 -82v-59l-334 -582l227 -29q240 -30 360 -142t120 -286v-20q0 -204 -125 -321t-336 -117q-228 0 -344.5 131t-116.5 381v20h82q0 -236 100 -345.5t273 -109.5h12q167 0 268 92.5t101 258.5v20q0 310 -433 365l-286 36v60l344 602 q-104 49 -266 49q-84 0 -151.5 -12.5t-128.5 -43.5t-102 -80.5t-65 -127.5t-24 -180v-1096h-82z" />
<glyph unicode="&#x2000;" horiz-adv-x="983" />
<glyph unicode="&#x2001;" horiz-adv-x="1966" />
<glyph unicode="&#x2002;" horiz-adv-x="983" />
<glyph unicode="&#x2003;" horiz-adv-x="1966" />
<glyph unicode="&#x2004;" horiz-adv-x="655" />
<glyph unicode="&#x2005;" horiz-adv-x="491" />
<glyph unicode="&#x2006;" horiz-adv-x="327" />
<glyph unicode="&#x2007;" horiz-adv-x="327" />
<glyph unicode="&#x2008;" horiz-adv-x="245" />
<glyph unicode="&#x2009;" horiz-adv-x="393" />
<glyph unicode="&#x200a;" horiz-adv-x="109" />
<glyph unicode="&#x2010;" horiz-adv-x="655" d="M82 678v78h491v-78h-491z" />
<glyph unicode="&#x2011;" horiz-adv-x="655" d="M82 678v78h491v-78h-491z" />
<glyph unicode="&#x2012;" horiz-adv-x="655" d="M82 678v78h491v-78h-491z" />
<glyph unicode="&#x2013;" horiz-adv-x="1024" d="M82 678v78h860v-78h-860z" />
<glyph unicode="&#x2014;" horiz-adv-x="2048" d="M82 678v78h1884v-78h-1884z" />
<glyph unicode="&#x2018;" horiz-adv-x="409" d="M82 1270v98q0 250 184 250v-62q-61 0 -90.5 -35.5t-32.5 -127.5h62v-123h-123z" />
<glyph unicode="&#x2019;" horiz-adv-x="409" d="M82 1249v62q61 0 90.5 36t32.5 128h-62v122h123v-98q0 -250 -184 -250z" />
<glyph unicode="&#x201a;" horiz-adv-x="409" d="M82 -164q61 0 90.5 36t32.5 128h-62v123h123v-98q0 -250 -184 -250v61z" />
<glyph unicode="&#x201b;" horiz-adv-x="409" d="M82 1499v98h123v-122h-62q3 -92 32.5 -128t90.5 -36v-62q-184 0 -184 250z" />
<glyph unicode="&#x201c;" horiz-adv-x="655" d="M82 1270v98q0 250 184 250v-62q-61 0 -90.5 -35.5t-32.5 -127.5h62v-123h-123zM328 1270v98q0 250 184 250v-62q-61 0 -90.5 -35.5t-32.5 -127.5h62v-123h-123z" />
<glyph unicode="&#x201d;" horiz-adv-x="655" d="M82 1249v62q61 0 90.5 36t32.5 128h-62v122h123v-98q0 -250 -184 -250zM328 1249v62q61 0 90.5 36t32.5 128h-62v122h123v-98q0 -250 -184 -250z" />
<glyph unicode="&#x201e;" horiz-adv-x="655" d="M82 -164q61 0 90.5 36t32.5 128h-62v123h123v-98q0 -250 -184 -250v61zM328 -164q61 0 90.5 36t32.5 128h-62v123h123v-98q0 -250 -184 -250v61z" />
<glyph unicode="&#x201f;" horiz-adv-x="655" d="M82 1499v98h123v-122h-62q3 -92 32.5 -128t90.5 -36v-62q-184 0 -184 250zM328 1499v98h123v-122h-62q3 -92 32.5 -128t90.5 -36v-62q-184 0 -184 250z" />
<glyph unicode="&#x2022;" horiz-adv-x="778" d="M143 471v492h492v-492h-492z" />
<glyph unicode="&#x2026;" horiz-adv-x="2048" d="M307 0v123h123v-123h-123zM963 0v123h122v-123h-122zM1618 0v123h123v-123h-123z" />
<glyph unicode="&#x202f;" horiz-adv-x="393" />
<glyph unicode="&#x2030;" horiz-adv-x="2621" d="M86 1260v20q0 162 93.5 250t234.5 88q66 0 125 -21q189 -65 362 -65q91 0 206 22t157 43v-75l-631 -1522h-86l618 1491q-117 -37 -264 -37q-107 0 -211 23q51 -79 51 -197v-20q0 -162 -93 -250t-234 -88t-234.5 88t-93.5 250zM164 1251q0 -119 70 -185.5t174 -66.5h12 q104 0 174 66.5t70 185.5v37q0 119 -70 185.5t-174 66.5h-12q-104 0 -174 -66.5t-70 -185.5v-37zM1102 317v21q0 162 93.5 250t234.5 88t234 -88t93 -250v-21q0 -162 -93 -249.5t-234 -87.5t-234.5 87.5t-93.5 249.5zM1180 309q0 -119 69.5 -185.5t173.5 -66.5h13 q104 0 173.5 66.5t69.5 185.5v37q0 119 -69.5 185.5t-173.5 66.5h-13q-104 0 -173.5 -66.5t-69.5 -185.5v-37zM1880 317v21q0 162 93.5 250t234.5 88t234 -88t93 -250v-21q0 -162 -93 -249.5t-234 -87.5t-234.5 87.5t-93.5 249.5zM1958 309q0 -119 70 -185.5t174 -66.5h12 q104 0 174 66.5t70 185.5v37q0 119 -70 185.5t-174 66.5h-12q-104 0 -174 -66.5t-70 -185.5v-37z" />
<glyph unicode="&#x2039;" d="M102 666v61l410 317v-92l-334 -256l334 -256v-92z" />
<glyph unicode="&#x203a;" d="M102 348v92l334 256l-334 256v92l410 -317v-61z" />
<glyph unicode="&#x203d;" horiz-adv-x="901" d="M57 1024v20q0 100 10 180t37 155.5t71 126.5t115.5 81.5t166.5 30.5q192 0 285.5 -110.5t93.5 -319.5q0 -83 -19.5 -152t-50.5 -118.5t-69 -94.5t-76 -91t-70 -96.5t-53 -121.5t-23 -156h-49l-23 1178q-76 -10 -129 -50t-82 -109.5t-41 -154t-12 -198.5h-82zM389 0v123 h123v-123h-123zM479 618q23 57 61 116t72.5 104.5t66.5 96.5t51.5 112.5t19.5 130.5q0 169 -57 259.5t-197 100.5z" />
<glyph unicode="&#x205f;" horiz-adv-x="491" />
<glyph unicode="&#x2070;" d="M63 1028v340q0 109 60 174.5t184 65.5t184 -65.5t60 -174.5v-340q0 -111 -59.5 -176.5t-184.5 -65.5t-184.5 65.5t-59.5 176.5zM135 1036q0 -184 168 -184h6q168 0 168 184v324q0 88 -39 135t-129 47h-6q-90 0 -129 -47t-39 -135v-324z" />
<glyph unicode="&#x2074;" d="M33 1010v49l344 538h72v-520h131v-67h-131v-211h-74v211h-342zM123 1075l88 2h164v291l2 105z" />
<glyph unicode="&#x2075;" d="M51 1042v13h74q0 -203 176 -203h10q75 0 126.5 46.5t51.5 137.5v19q0 91 -51.5 137.5t-128.5 46.5h-8q-58 0 -109 -28.5t-73 -80.5l-62 19l21 448h473v-67h-404l-12 -285q70 60 174 60q111 0 181.5 -66.5t70.5 -185.5v-13q0 -121 -70.5 -187.5t-183.5 -66.5 q-128 0 -192 67t-64 189z" />
<glyph unicode="&#x2076;" d="M55 1067v12q0 213 113 365q62 84 158.5 124t201.5 40v-66q-84 0 -165.5 -35t-135.5 -106q-60 -77 -82 -174q73 73 181 73q107 0 173 -64t66 -187v-11q0 -123 -68.5 -187.5t-185.5 -64.5q-113 0 -184.5 75t-71.5 206zM129 1065q0 -97 51 -155t127 -58h6q83 0 132 48.5 t49 135.5v17q0 86 -47.5 134t-127.5 48h-6q-60 0 -108.5 -30.5t-75.5 -82.5v-57z" />
<glyph unicode="&#x2077;" d="M59 1311v286h504v-45l-307 -753h-78l299 733l-112 -2h-240v-219h-66z" />
<glyph unicode="&#x2078;" d="M51 1001v17q0 71 34.5 118t94.5 68q-123 45 -123 180v15q0 96 65.5 152.5t184.5 56.5t184.5 -56.5t65.5 -152.5v-15q0 -134 -125 -180q60 -21 94.5 -68t34.5 -118v-17q0 -95 -70.5 -155t-183.5 -60q-114 0 -185 60t-71 155zM125 1004q0 -74 51.5 -113t124.5 -39h10 q75 0 126.5 39t51.5 113v14q0 74 -47 115t-120 41h-29q-73 0 -120.5 -41t-47.5 -115v-14zM129 1382q0 -70 46.5 -106.5t121.5 -36.5h20q73 0 119.5 36.5t46.5 106.5v9q0 70 -47.5 110.5t-124.5 40.5h-10q-77 0 -124.5 -40.5t-47.5 -110.5v-9z" />
<glyph unicode="&#x2079;" d="M47 1346v10q0 123 68.5 187.5t187.5 64.5q113 0 183.5 -74.5t70.5 -206.5v-10q0 -216 -113 -367q-62 -83 -159 -123.5t-201 -40.5v66q85 0 166.5 35t136.5 106q56 73 80 176q-70 -73 -180 -73q-107 0 -173.5 64t-66.5 186zM121 1341q0 -86 47 -133t127 -47h6q59 0 107 30 t75 81q2 16 2 49v10q0 96 -51.5 153.5t-128.5 57.5h-6q-82 0 -130 -48t-48 -134v-19z" />
<glyph unicode="&#x207a;" d="M49 1163v68h223v225h68v-225h225v-68h-225v-223h-68v223h-223z" />
<glyph unicode="&#x207c;" d="M49 1059v67h516v-67h-516zM49 1268v67h516v-67h-516z" />
<glyph unicode="&#x207d;" horiz-adv-x="323" d="M61 1188v20q0 215 125 389h76q-129 -190 -129 -389v-20q0 -203 129 -389h-76q-125 170 -125 389z" />
<glyph unicode="&#x207e;" horiz-adv-x="323" d="M61 799q129 186 129 389v20q0 199 -129 389h76q125 -174 125 -389v-20q0 -219 -125 -389h-76z" />
<glyph unicode="&#x2080;" d="M63 229v340q0 109 60 174.5t184 65.5t184 -65.5t60 -174.5v-340q0 -111 -59.5 -176t-184.5 -65t-184.5 65t-59.5 176zM135 238q0 -185 168 -185h6q168 0 168 185v323q0 88 -39 135t-129 47h-6q-90 0 -129 -47t-39 -135v-323z" />
<glyph unicode="&#x2081;" d="M55 633l252 170h47v-737h207v-66h-489v66h209v636l-189 -127z" />
<glyph unicode="&#x2082;" d="M57 0v45l344 367q46 47 64 83t18 80v11q0 73 -47.5 115t-126.5 42h-6q-88 0 -131 -50t-43 -161h-72v25q0 252 250 252q119 0 184.5 -58t65.5 -155v-12q0 -61 -20 -104.5t-74 -100.5l-295 -313h389v-66h-500z" />
<glyph unicode="&#x2083;" d="M51 244v12h74q0 -203 176 -203h10q74 0 126 40t52 114v14q0 74 -46.5 114t-120.5 40h-117v65h112q73 0 119.5 36t46.5 106v8q0 70 -47.5 111.5t-124.5 41.5h-10q-88 0 -130 -50t-42 -161h-72v25q0 252 250 252q119 0 184.5 -57.5t65.5 -153.5v-14q0 -132 -125 -178 q129 -46 129 -185v-16q0 -95 -71 -156t-183 -61q-128 0 -192 67t-64 189z" />
<glyph unicode="&#x2084;" d="M33 211v49l344 539h72v-520h131v-68h-131v-211h-74v211h-342zM123 276l88 3h164v290l2 105z" />
<glyph unicode="&#x2085;" d="M51 244v12h74q0 -203 176 -203h10q75 0 126.5 47t51.5 138v18q0 91 -51.5 137.5t-128.5 46.5h-8q-59 0 -109.5 -28t-72.5 -80l-62 18l21 449h473v-68h-404l-12 -285q70 60 174 60q111 0 181.5 -66.5t70.5 -185.5v-12q0 -121 -70.5 -187.5t-183.5 -66.5q-128 0 -192 67 t-64 189z" />
<glyph unicode="&#x2086;" d="M55 268v13q0 212 113 364q62 84 158.5 124t201.5 40v-66q-84 0 -165.5 -35t-135.5 -106q-60 -77 -82 -174q74 74 181 74t173 -64.5t66 -187.5v-10q0 -123 -68.5 -187.5t-185.5 -64.5q-113 0 -184.5 75t-71.5 205zM129 266q0 -97 51 -155t127 -58h6q83 0 132 49t49 136v16 q0 86 -47.5 134t-127.5 48h-6q-61 0 -109 -30t-75 -82v-58z" />
<glyph unicode="&#x2087;" d="M59 512v287h504v-45l-307 -754h-78l299 733l-112 -2h-240v-219h-66z" />
<glyph unicode="&#x2088;" d="M51 203v16q0 71 34.5 118.5t94.5 68.5q-123 45 -123 180v14q0 96 65.5 152.5t184.5 56.5t184.5 -56.5t65.5 -152.5v-14q0 -134 -125 -180q60 -21 94.5 -68.5t34.5 -118.5v-16q0 -95 -70.5 -155t-183.5 -60q-114 0 -185 60t-71 155zM125 205q0 -74 51.5 -113t124.5 -39h10 q75 0 126.5 39t51.5 113v14q0 74 -47 115t-120 41h-29q-73 0 -120.5 -41t-47.5 -115v-14zM129 584q0 -70 47 -107t121 -37h20q73 0 119.5 37t46.5 107v8q0 70 -47.5 110.5t-124.5 40.5h-10q-77 0 -124.5 -40.5t-47.5 -110.5v-8z" />
<glyph unicode="&#x2089;" d="M47 547v10q0 123 68.5 187.5t187.5 64.5q113 0 183.5 -74.5t70.5 -206.5v-10q0 -215 -113 -366q-62 -83 -159 -123.5t-201 -40.5v65q85 0 166 35.5t137 106.5q56 73 80 176q-71 -74 -180 -74q-107 0 -173.5 64t-66.5 186zM121 543q0 -86 47 -133.5t127 -47.5h6 q59 0 107 30t75 81q2 16 2 49v10q0 96 -51.5 153.5t-128.5 57.5h-6q-82 0 -130 -48t-48 -134v-18z" />
<glyph unicode="&#x208a;" d="M49 365v67h223v225h68v-225h225v-67h-225v-224h-68v224h-223z" />
<glyph unicode="&#x208c;" d="M49 260v68h516v-68h-516zM49 469v68h516v-68h-516z" />
<glyph unicode="&#x208d;" horiz-adv-x="323" d="M61 389v21q0 215 125 389h76q-129 -190 -129 -389v-21q0 -203 129 -389h-76q-125 170 -125 389z" />
<glyph unicode="&#x208e;" horiz-adv-x="323" d="M61 0q129 186 129 389v21q0 199 -129 389h76q125 -174 125 -389v-21q0 -219 -125 -389h-76z" />
<glyph unicode="&#x20ac;" horiz-adv-x="1228" d="M72 614v82h153v205h-153v82h157q20 331 138.5 483t339.5 152q223 0 321 -136t98 -407v-51h-82q0 277 -75 396.5t-252 119.5h-12q-354 0 -392 -557h588l-39 -82h-553v-205h490l-39 -82h-447q38 -557 392 -557h12q161 0 244 116t83 339h82v-20q0 -512 -419 -512 q-221 0 -339.5 151.5t-138.5 482.5h-157z" />
<glyph unicode="&#x2122;" horiz-adv-x="1044" d="M41 1573v65h360v-65h-145v-488h-70v488h-145zM473 1085v553h107l122 -446l123 446h107v-553h-70v308l4 143l-123 -451h-81l-123 451l4 -143v-308h-70z" />
<glyph unicode="&#x2153;" horiz-adv-x="1638" d="M55 1432l252 170h47v-738h207v-65h-489v65h209v637l-189 -127zM184 0l1180 1597h90l-1180 -1597h-90zM1075 244v12h74q0 -203 176 -203h10q74 0 126 40t52 114v14q0 74 -46.5 114t-120.5 40h-117v65h112q73 0 119.5 36t46.5 106v8q0 70 -47.5 111.5t-124.5 41.5h-10 q-88 0 -130 -50t-42 -161h-72v25q0 252 250 252q119 0 184.5 -57.5t65.5 -153.5v-14q0 -132 -125 -178q129 -46 129 -185v-16q0 -95 -71 -156t-183 -61q-128 0 -192 67t-64 189z" />
<glyph unicode="&#x2154;" horiz-adv-x="1638" d="M57 799v45l344 366q46 47 64 83.5t18 80.5v10q0 73 -47.5 115.5t-126.5 42.5h-6q-88 0 -131 -50t-43 -161h-72v25q0 252 250 252q119 0 184.5 -58t65.5 -155v-13q0 -61 -20 -104t-74 -100l-295 -314h389v-65h-500zM184 0l1180 1597h90l-1180 -1597h-90zM1075 244v12h74 q0 -203 176 -203h10q74 0 126 40t52 114v14q0 74 -46.5 114t-120.5 40h-117v65h112q73 0 119.5 36t46.5 106v8q0 70 -47.5 111.5t-124.5 41.5h-10q-88 0 -130 -50t-42 -161h-72v25q0 252 250 252q119 0 184.5 -57.5t65.5 -153.5v-14q0 -132 -125 -178q129 -46 129 -185v-16 q0 -95 -71 -156t-183 -61q-128 0 -192 67t-64 189z" />
<glyph unicode="&#x2155;" horiz-adv-x="1638" d="M55 1432l252 170h47v-738h207v-65h-489v65h209v637l-189 -127zM184 0l1180 1597h90l-1180 -1597h-90zM1075 244v12h74q0 -203 176 -203h10q75 0 126.5 47t51.5 138v18q0 91 -51.5 137.5t-128.5 46.5h-8q-59 0 -109.5 -28t-72.5 -80l-62 18l21 449h473v-68h-404l-12 -285 q70 60 174 60q111 0 181.5 -66.5t70.5 -185.5v-12q0 -121 -70.5 -187.5t-183.5 -66.5q-128 0 -192 67t-64 189z" />
<glyph unicode="&#x2156;" horiz-adv-x="1638" d="M57 799v45l344 366q46 47 64 83.5t18 80.5v10q0 73 -47.5 115.5t-126.5 42.5h-6q-88 0 -131 -50t-43 -161h-72v25q0 252 250 252q119 0 184.5 -58t65.5 -155v-13q0 -61 -20 -104t-74 -100l-295 -314h389v-65h-500zM184 0l1180 1597h90l-1180 -1597h-90zM1075 244v12h74 q0 -203 176 -203h10q75 0 126.5 47t51.5 138v18q0 91 -51.5 137.5t-128.5 46.5h-8q-59 0 -109.5 -28t-72.5 -80l-62 18l21 449h473v-68h-404l-12 -285q70 60 174 60q111 0 181.5 -66.5t70.5 -185.5v-12q0 -121 -70.5 -187.5t-183.5 -66.5q-128 0 -192 67t-64 189z" />
<glyph unicode="&#x2158;" horiz-adv-x="1638" d="M33 1010v49l344 538h72v-520h131v-67h-131v-211h-74v211h-342zM123 1075l88 2h164v291l2 105zM184 0l1180 1597h90l-1180 -1597h-90zM1075 244v12h74q0 -203 176 -203h10q75 0 126.5 47t51.5 138v18q0 91 -51.5 137.5t-128.5 46.5h-8q-59 0 -109.5 -28t-72.5 -80l-62 18 l21 449h473v-68h-404l-12 -285q70 60 174 60q111 0 181.5 -66.5t70.5 -185.5v-12q0 -121 -70.5 -187.5t-183.5 -66.5q-128 0 -192 67t-64 189z" />
<glyph unicode="&#x2159;" horiz-adv-x="1638" d="M55 1432l252 170h47v-738h207v-65h-489v65h209v637l-189 -127zM184 0l1180 1597h90l-1180 -1597h-90zM1079 268v13q0 212 113 364q62 84 158.5 124t201.5 40v-66q-84 0 -165.5 -35t-135.5 -106q-60 -77 -82 -174q74 74 181 74t173 -64.5t66 -187.5v-10 q0 -123 -68.5 -187.5t-185.5 -64.5q-113 0 -184.5 75t-71.5 205zM1153 266q0 -97 51 -155t127 -58h6q83 0 132 49t49 136v16q0 86 -47.5 134t-127.5 48h-6q-61 0 -109 -30t-75 -82v-58z" />
<glyph unicode="&#x215a;" horiz-adv-x="1638" d="M51 1042v13h74q0 -203 176 -203h10q75 0 126.5 46.5t51.5 137.5v19q0 91 -51.5 137.5t-128.5 46.5h-8q-58 0 -109 -28.5t-73 -80.5l-62 19l21 448h473v-67h-404l-12 -285q70 60 174 60q111 0 181.5 -66.5t70.5 -185.5v-13q0 -121 -70.5 -187.5t-183.5 -66.5 q-128 0 -192 67t-64 189zM184 0l1180 1597h90l-1180 -1597h-90zM1079 268v13q0 212 113 364q62 84 158.5 124t201.5 40v-66q-84 0 -165.5 -35t-135.5 -106q-60 -77 -82 -174q74 74 181 74t173 -64.5t66 -187.5v-10q0 -123 -68.5 -187.5t-185.5 -64.5q-113 0 -184.5 75 t-71.5 205zM1153 266q0 -97 51 -155t127 -58h6q83 0 132 49t49 136v16q0 86 -47.5 134t-127.5 48h-6q-61 0 -109 -30t-75 -82v-58z" />
<glyph unicode="&#x215b;" horiz-adv-x="1638" d="M55 1432l252 170h47v-738h207v-65h-489v65h209v637l-189 -127zM184 0l1180 1597h90l-1180 -1597h-90zM1075 203v16q0 71 34.5 118.5t94.5 68.5q-123 45 -123 180v14q0 96 65.5 152.5t184.5 56.5t184.5 -56.5t65.5 -152.5v-14q0 -134 -125 -180q60 -21 94.5 -68.5 t34.5 -118.5v-16q0 -95 -70.5 -155t-183.5 -60q-114 0 -185 60t-71 155zM1149 205q0 -74 51.5 -113t124.5 -39h10q75 0 126.5 39t51.5 113v14q0 74 -47 115t-120 41h-29q-73 0 -120.5 -41t-47.5 -115v-14zM1153 584q0 -70 47 -107t121 -37h20q73 0 119.5 37t46.5 107v8 q0 70 -47.5 110.5t-124.5 40.5h-10q-77 0 -124.5 -40.5t-47.5 -110.5v-8z" />
<glyph unicode="&#x215c;" horiz-adv-x="1638" d="M51 1042v13h74q0 -203 176 -203h10q74 0 126 40t52 114v14q0 74 -46.5 114t-120.5 40h-117v65h112q73 0 119.5 35.5t46.5 105.5v9q0 70 -47.5 111.5t-124.5 41.5h-10q-88 0 -130 -50t-42 -161h-72v25q0 252 250 252q119 0 184.5 -57.5t65.5 -153.5v-15q0 -132 -125 -178 q129 -46 129 -184v-16q0 -96 -71 -157t-183 -61q-128 0 -192 67t-64 189zM184 0l1180 1597h90l-1180 -1597h-90zM1075 203v16q0 71 34.5 118.5t94.5 68.5q-123 45 -123 180v14q0 96 65.5 152.5t184.5 56.5t184.5 -56.5t65.5 -152.5v-14q0 -134 -125 -180q60 -21 94.5 -68.5 t34.5 -118.5v-16q0 -95 -70.5 -155t-183.5 -60q-114 0 -185 60t-71 155zM1149 205q0 -74 51.5 -113t124.5 -39h10q75 0 126.5 39t51.5 113v14q0 74 -47 115t-120 41h-29q-73 0 -120.5 -41t-47.5 -115v-14zM1153 584q0 -70 47 -107t121 -37h20q73 0 119.5 37t46.5 107v8 q0 70 -47.5 110.5t-124.5 40.5h-10q-77 0 -124.5 -40.5t-47.5 -110.5v-8z" />
<glyph unicode="&#x215d;" horiz-adv-x="1638" d="M51 1042v13h74q0 -203 176 -203h10q75 0 126.5 46.5t51.5 137.5v19q0 91 -51.5 137.5t-128.5 46.5h-8q-58 0 -109 -28.5t-73 -80.5l-62 19l21 448h473v-67h-404l-12 -285q70 60 174 60q111 0 181.5 -66.5t70.5 -185.5v-13q0 -121 -70.5 -187.5t-183.5 -66.5 q-128 0 -192 67t-64 189zM184 0l1180 1597h90l-1180 -1597h-90zM1075 203v16q0 71 34.5 118.5t94.5 68.5q-123 45 -123 180v14q0 96 65.5 152.5t184.5 56.5t184.5 -56.5t65.5 -152.5v-14q0 -134 -125 -180q60 -21 94.5 -68.5t34.5 -118.5v-16q0 -95 -70.5 -155t-183.5 -60 q-114 0 -185 60t-71 155zM1149 205q0 -74 51.5 -113t124.5 -39h10q75 0 126.5 39t51.5 113v14q0 74 -47 115t-120 41h-29q-73 0 -120.5 -41t-47.5 -115v-14zM1153 584q0 -70 47 -107t121 -37h20q73 0 119.5 37t46.5 107v8q0 70 -47.5 110.5t-124.5 40.5h-10 q-77 0 -124.5 -40.5t-47.5 -110.5v-8z" />
<glyph unicode="&#x215e;" horiz-adv-x="1638" d="M59 1311v286h504v-45l-307 -753h-78l299 733l-112 -2h-240v-219h-66zM184 0l1180 1597h90l-1180 -1597h-90zM1075 203v16q0 71 34.5 118.5t94.5 68.5q-123 45 -123 180v14q0 96 65.5 152.5t184.5 56.5t184.5 -56.5t65.5 -152.5v-14q0 -134 -125 -180q60 -21 94.5 -68.5 t34.5 -118.5v-16q0 -95 -70.5 -155t-183.5 -60q-114 0 -185 60t-71 155zM1149 205q0 -74 51.5 -113t124.5 -39h10q75 0 126.5 39t51.5 113v14q0 74 -47 115t-120 41h-29q-73 0 -120.5 -41t-47.5 -115v-14zM1153 584q0 -70 47 -107t121 -37h20q73 0 119.5 37t46.5 107v8 q0 70 -47.5 110.5t-124.5 40.5h-10q-77 0 -124.5 -40.5t-47.5 -110.5v-8z" />
<glyph unicode="&#x25fc;" horiz-adv-x="1085" d="M0 0v1085h1085v-1085h-1085z" />
<glyph unicode="&#xe441;" horiz-adv-x="409" d="M143 1475v122h123v-122h-123zM158 0l22 1239h49l23 -1239h-94z" />
<glyph unicode="&#xe444;" horiz-adv-x="901" d="M66 410q0 83 19.5 152t50.5 118t68.5 94.5t75.5 91t70 96t53 121.5t23 156h49q2 -85 -14.5 -160t-45 -130t-63.5 -106t-70 -97.5t-64 -94t-47.5 -107t-18.5 -124.5q0 -181 64.5 -272t227.5 -91q74 0 129.5 24.5t91.5 67.5t57.5 109.5t30.5 142t9 172.5h82v-20 q0 -100 -10 -180t-37 -155.5t-71 -126t-115.5 -81t-166.5 -30.5q-378 0 -378 430zM389 1475v122h123v-122h-123z" />
<glyph unicode="&#xe451;" d="M102 768v61l410 318v-92l-334 -256l334 -256v-92z" />
<glyph unicode="&#xe452;" d="M102 451v92l334 256l-334 256v92l410 -318v-61z" />
<glyph unicode="&#xe453;" horiz-adv-x="1024" d="M102 768v61l410 318v-92l-334 -256l334 -256v-92zM512 768v61l410 318v-92l-334 -256l334 -256v-92z" />
<glyph unicode="&#xe454;" horiz-adv-x="1024" d="M102 451v92l334 256l-334 256v92l410 -318v-61zM512 451v92l334 256l-334 256v92l410 -318v-61z" />
<glyph unicode="&#xe461;" d="M70 0l393 1597h82l-393 -1597h-82z" />
<glyph unicode="&#xe462;" d="M70 1597h82l393 -1597h-82z" />
<glyph unicode="&#xe463;" horiz-adv-x="368" d="M143 0v1597h82v-1597h-82z" />
<glyph unicode="&#xe465;" horiz-adv-x="368" d="M143 0v717h82v-717h-82zM143 881v716h82v-716h-82z" />
<glyph unicode="&#xe466;" horiz-adv-x="778" d="M143 553v491h492v-491h-492z" />
<glyph unicode="&#xe481;" horiz-adv-x="409" d="M143 737v123h123v-123h-123z" />
<glyph unicode="&#xe482;" horiz-adv-x="655" d="M82 760v78h491v-78h-491z" />
<glyph unicode="&#xe484;" horiz-adv-x="1024" d="M82 760v78h860v-78h-860z" />
<glyph unicode="&#xe486;" horiz-adv-x="2048" d="M82 760v78h1884v-78h-1884z" />
<glyph unicode="&#xe491;" d="M133 778v41q0 406 252 778h90q-117 -169 -188.5 -370t-71.5 -408v-41q0 -207 71.5 -408t188.5 -370h-90q-252 372 -252 778z" />
<glyph unicode="&#xe492;" d="M139 0q117 169 188.5 370t71.5 408v41q0 207 -71.5 408t-188.5 370h90q252 -372 252 -778v-41q0 -406 -252 -778h-90z" />
<glyph unicode="&#xe493;" d="M143 0v1597h379v-81h-297v-1434h297v-82h-379z" />
<glyph unicode="&#xe494;" d="M92 0v82h297v1434h-297v81h379v-1597h-379z" />
<glyph unicode="&#xe495;" d="M51 758v82q50 0 81.5 6.5t56.5 26t36 56.5t11 95v317q0 73 23.5 126t63 79.5t81 38.5t88.5 12h30v-81q-104 0 -154.5 -48t-50.5 -178v-291q0 -149 -108 -200q108 -55 108 -201v-291q0 -130 50.5 -177.5t154.5 -47.5v-82h-30q-47 0 -88.5 12t-81 38.5t-63 79.5t-23.5 126 v317q0 112 -42.5 148.5t-142.5 36.5z" />
<glyph unicode="&#xe496;" d="M92 0v82q104 0 154.5 47.5t50.5 177.5v291q0 147 109 201q-109 50 -109 200v291q0 130 -50.5 178t-154.5 48v81h31q47 0 88.5 -12t81 -38.5t63 -79.5t23.5 -126v-317q0 -112 42 -148t142 -36v-82q-100 0 -142 -36.5t-42 -148.5v-317q0 -73 -23.5 -126t-63 -79.5 t-81 -38.5t-88.5 -12h-31z" />
<glyph unicode="&#xe571;" d="M63 160q0 109 59.5 174t184.5 65t184.5 -65t59.5 -174v-340q0 -111 -59.5 -176.5t-184.5 -65.5t-184.5 65.5t-59.5 176.5v340zM135 152v-324q0 -184 168 -184h6q168 0 168 184v324q0 88 -39 135t-129 47h-6q-90 0 -129 -47t-39 -135z" />
<glyph unicode="&#xe572;" d="M55 223l252 170h47v-737h207v-66h-489v66h209v637l-189 -127z" />
<glyph unicode="&#xe573;" d="M57 123v24q0 252 250 252q119 0 184.5 -58t65.5 -155v-12q0 -61 -20 -104.5t-74 -100.5l-295 -313h389v-66h-500v45l344 367q46 47 64 83.5t18 80.5v10q0 73 -47.5 115.5t-126.5 42.5h-6q-88 0 -131 -50t-43 -161h-72z" />
<glyph unicode="&#xe574;" d="M51 -154h74q0 -202 176 -202h10q74 0 126 39.5t52 113.5v15q0 74 -46.5 113.5t-120.5 39.5h-117v66h112q73 0 119.5 35.5t46.5 105.5v8q0 70 -47.5 112t-124.5 42h-10q-88 0 -130 -50t-42 -161h-72v24q0 252 250 252q119 0 184.5 -57.5t65.5 -153.5v-14q0 -134 -125 -176 q129 -49 129 -186v-17q0 -95 -71 -156t-183 -61q-128 0 -192 67t-64 189v12z" />
<glyph unicode="&#xe575;" d="M33 -150l344 539h72v-520h131v-68h-131v-211h-74v211h-342v49zM123 -133l88 2h164v291l2 104z" />
<glyph unicode="&#xe576;" d="M51 -154h74q0 -202 176 -202h10q75 0 126.5 46.5t51.5 137.5v18q0 91 -51.5 138t-128.5 47h-8q-58 0 -109 -28.5t-73 -80.5l-62 19l21 448h473v-67h-404l-12 -285q69 59 174 59q111 0 181.5 -66.5t70.5 -185.5v-12q0 -121 -70.5 -187.5t-183.5 -66.5q-128 0 -192 67 t-64 189v12z" />
<glyph unicode="&#xe577;" d="M55 -129q0 213 113 365q62 84 158 123.5t202 39.5v-65q-84 0 -165.5 -35t-135.5 -106q-59 -77 -82 -175q74 74 181 74t173 -64.5t66 -187.5v-10q0 -123 -68.5 -187.5t-185.5 -64.5q-113 0 -184.5 75t-71.5 206v12zM129 -86v-57q0 -97 51 -155t127 -58h6q83 0 132 48.5 t49 135.5v16q0 86 -48 134.5t-127 48.5h-6q-60 0 -108.5 -30.5t-75.5 -82.5z" />
<glyph unicode="&#xe578;" d="M59 102v287h504v-45l-307 -754h-78l299 734l-112 -2h-240v-220h-66z" />
<glyph unicode="&#xe579;" d="M51 -190q0 139 129 188q-123 42 -123 178v14q0 96 65.5 152.5t184.5 56.5t184.5 -56.5t65.5 -152.5v-14q0 -68 -33.5 -113t-91.5 -65q129 -49 129 -188v-17q0 -95 -70.5 -155t-183.5 -60q-114 0 -185 60t-71 155v17zM125 -190v-15q0 -74 51.5 -112.5t124.5 -38.5h10 q75 0 126.5 38.5t51.5 112.5v15q0 74 -47 114.5t-120 40.5h-29q-74 0 -121 -40.5t-47 -114.5zM129 174q0 -70 46.5 -106.5t121.5 -36.5h20q73 0 119.5 36.5t46.5 106.5v8q0 70 -47.5 111t-124.5 41h-10q-77 0 -124.5 -41t-47.5 -111v-8z" />
<glyph unicode="&#xe57a;" d="M47 137v10q0 123 68.5 187.5t187.5 64.5q113 0 183.5 -74t70.5 -206v-10q0 -216 -113 -367q-62 -83 -159 -123.5t-201 -40.5v66q85 0 166.5 35t136.5 106q57 77 80 176q-74 -74 -180 -74q-107 0 -173.5 64t-66.5 186zM121 133q0 -86 47 -133t127 -47h6q59 0 107 30t75 80 q2 16 2 50v10q0 96 -51.5 153.5t-128.5 57.5h-6q-82 0 -130 -48t-48 -134v-19z" />
<glyph unicode="&#xe57b;" d="M49 23h223v225h68v-225h225v-68h-225v-223h-68v223h-223v68z" />
<glyph unicode="&#xe57d;" d="M49 59v68h516v-68h-516zM49 -82h516v-68h-516v68z" />
<glyph unicode="&#xe57e;" horiz-adv-x="323" d="M61 0q0 215 125 389h76q-129 -190 -129 -389v-20q0 -204 129 -390h-76q-125 170 -125 390v20z" />
<glyph unicode="&#xe57f;" horiz-adv-x="323" d="M61 389h76q125 -174 125 -389v-20q0 -220 -125 -390h-76q129 186 129 390v20q0 199 -129 389z" />
<glyph unicode="&#xe785;" horiz-adv-x="409" d="M143 1382v123h123v-123h-123zM164 0v1085h82v-1085h-82z" />
<glyph unicode="&#xe935;" horiz-adv-x="901" d="M66 -61q0 83 19.5 151.5t50.5 117.5t68.5 92.5t75.5 86.5t70 89t53 110t23 141h49l21 -1075q76 9 129 46t82.5 101t42 142t12.5 182h82v-21q0 -93 -10 -167t-37 -144.5t-71 -117.5t-115.5 -75t-166.5 -28q-180 0 -279 97t-99 272zM152 -51q0 -279 251 -299l17 839 q-22 -53 -59 -108t-71.5 -98.5t-66.5 -92.5t-51.5 -110t-19.5 -131zM389 963v122h123v-122h-123z" />
<glyph unicode="&#xe99b;" horiz-adv-x="901" d="M66 410q0 83 19.5 152t50.5 118t68.5 94.5t75.5 91t70 96t53 121.5t23 156h49l21 -1180q76 11 129 51.5t82.5 110t42 154.5t12.5 198h82v-20q0 -100 -10 -180t-37 -155.5t-71 -126t-115.5 -81t-166.5 -30.5q-378 0 -378 430zM152 420q0 -171 55.5 -261.5t195.5 -101.5 l17 922q-22 -57 -59.5 -116t-71.5 -105t-66 -96.5t-51.5 -111.5t-19.5 -130zM389 1475v122h123v-122h-123z" />
<glyph unicode="&#xf182;" d="M246 0v123h123v-123h-123z" />
<glyph unicode="&#xf183;" d="M184 -164q61 0 90.5 36t32.5 128h-61v123h123v-98q0 -250 -185 -250v61z" />
<glyph unicode="&#xf184;" d="M246 0v123h123v-123h-123zM246 737v123h123v-123h-123z" />
<glyph unicode="&#xf185;" d="M184 -164q61 0 90.5 36t32.5 128h-61v123h123v-98q0 -250 -185 -250v61zM246 737v123h123v-123h-123z" />
<glyph unicode="&#xfb01;" horiz-adv-x="1167" d="M72 1008v77h174v277q0 153 77.5 225t208.5 72q95 0 144 -21v-75q-41 18 -123 18q-119 0 -172 -48.5t-53 -180.5v-267h327v-77h-327v-1008h-82v1008h-174zM901 1382v123h123v-123h-123zM922 0v1085h82v-1085h-82z" />
<glyph unicode="&#xfb02;" horiz-adv-x="1167" d="M72 1008v77h174v277q0 153 77.5 225t208.5 72q95 0 144 -21v-75q-41 18 -123 18q-119 0 -172 -48.5t-53 -180.5v-267h327v-77h-327v-1008h-82v1008h-174zM922 0v1638h82v-1638h-82z" />
</font>
</defs>
</svg>
