<?xml version="1.0" standalone="no"?>
<!DOCTYPE svg PUBLIC "-//W3C//DTD SVG 1.1//EN" "http://www.w3.org/Graphics/SVG/1.1/DTD/svg11.dtd" >
<!--
2013-9-30: Created.
-->
<svg>
<metadata>
Created by iconfont
</metadata>
<defs>

<font id="iconfont" horiz-adv-x="1024" >
  <font-face
    font-family="iconfont"
    font-weight="500"
    font-stretch="normal"
    units-per-em="1024"
    ascent="896"
    descent="-128"
  />
    <missing-glyph />
    
    <glyph glyph-name="x" unicode="x" horiz-adv-x="1001"
d="M281 543q-27 -1 -53 -1h-83q-18 0 -36.5 -6t-32.5 -18.5t-23 -32t-9 -45.5v-76h912v41q0 16 -0.5 30t-0.5 18q0 13 -5 29t-17 29.5t-31.5 22.5t-49.5 9h-133v-97h-438v97zM955 310v-52q0 -23 0.5 -52t0.5 -58t-10.5 -47.5t-26 -30t-33 -16t-31.5 -4.5q-14 -1 -29.5 -0.5
t-29.5 0.5h-32l-45 128h-439l-44 -128h-29h-34q-20 0 -45 1q-25 0 -41 9.5t-25.5 23t-13.5 29.5t-4 30v167h911zM163 247q-12 0 -21 -8.5t-9 -21.5t9 -21.5t21 -8.5q13 0 22 8.5t9 21.5t-9 21.5t-22 8.5zM316 123q-8 -26 -14 -48q-5 -19 -10.5 -37t-7.5 -25t-3 -15t1 -14.5
t9.5 -10.5t21.5 -4h37h67h81h80h64h36q23 0 34 12t2 38q-5 13 -9.5 30.5t-9.5 34.5q-5 19 -11 39h-368zM336 498v228q0 11 2.5 23t10 21.5t20.5 15.5t34 6h188q31 0 51.5 -14.5t20.5 -52.5v-227h-327z" />
    

    
    <glyph glyph-name="jisuanqi" unicode="&#58892;" d="M845.897472-61.179574H178.204857c-61.397022 0-111.333267 49.936245-111.333267 111.333266v667.692616c0 61.397022 49.936245 111.333267 111.333267 111.333266h667.692615c61.397022 0 111.333267-49.936245 111.333266-111.333266v-667.692616c-0.102328-61.397022-49.936245-111.333267-111.333266-111.333266zM178.204857 784.564405c-36.838213 0-66.718097-29.982212-66.718098-66.718097v-667.692616c0-36.838213 29.982212-66.718097 66.718098-66.718097h667.692615c36.838213 0 66.718097 29.982212 66.718097 66.718097v667.692616c0 36.838213-29.982212 66.718097-66.718097 66.718097H178.204857zM823.589887 489.858699h-623.179774v178.051364h623.179774v-178.051364z m-578.666933 44.512841h534.154092v89.025682h-534.154092v-89.025682zM367.921655 281.825122H222.717698V404.926152h145.203957v-123.10103zM267.230539 326.337963H323.408814V360.413311h-56.178275V326.337963zM367.921655 93.336265H222.717698V216.437294h145.203957v-123.101029z m-100.691116 44.512841H323.408814v34.075347h-56.178275v-34.075347zM591.09983 281.825122H445.895873V404.926152h145.203957v-123.10103zM490.408714 326.337963h56.178275V360.413311h-56.178275V326.337963zM591.09983 93.336265H445.895873V216.437294h145.203957v-123.101029z m-100.691116 44.512841h56.178275v34.075347h-56.178275v-34.075347zM801.384631 281.825122h-145.203957V404.926152h145.203957v-123.10103zM700.693515 326.337963h56.178275V360.413311h-56.178275V326.337963zM801.384631 93.336265h-145.203957V216.437294h145.203957v-123.101029z m-100.691116 44.512841h56.178275v34.075347h-56.178275v-34.075347z"  horiz-adv-x="1024" />

    
    <glyph glyph-name="wenti" unicode="&#58899;" d="M512 829.077246c-245.48576 0-445.12841-199.64265-445.12841-445.12841s199.64265-445.12841 445.12841-445.12841 445.12841 199.64265 445.12841 445.12841-199.64265 445.12841-445.12841 445.12841z m0-763.369641c-26.298391 0-47.68502 21.386629-47.68502 47.68502 0 26.298391 21.386629 47.68502 47.68502 47.685021 26.298391 0 47.68502-21.386629 47.68502-47.685021 0-26.298391-21.386629-47.68502-47.68502-47.68502z m88.002398 325.097232c-27.62866-27.62866-56.178275-56.178275-56.178275-81.862696v-53.722395c0-17.60048-14.223643-31.824123-31.824123-31.824123s-31.824123 14.223643-31.824123 31.824123V308.942141c0 51.982812 39.703408 91.788548 74.802038 126.78485 25.684421 25.684421 52.289797 52.289797 52.289798 73.47177 0 53.006096-42.773259 96.08634-95.370041 96.086339-53.517738 0-95.370041-41.238333-95.370041-93.937443 0-17.60048-14.223643-31.824123-31.824123-31.824123s-31.619466 14.325972-31.619467 31.926451c0 86.876786 71.322874 157.58569 159.018287 157.58569s159.018287-71.629859 159.018288-159.734586c-0.102328-47.582692-36.224243-83.704607-71.118218-118.496252z"  horiz-adv-x="1024" />

    
    <glyph glyph-name="danxuan-moren" unicode="&#58945;" d="M512-61.179574c-245.383432 0-445.12841 199.64265-445.12841 445.12841s199.744979 445.12841 445.12841 445.12841 445.12841-199.64265 445.12841-445.12841-199.64265-445.12841-445.12841-445.12841z m0 837.967023c-216.62916 0-392.736285-176.209453-392.736285-392.736285s176.209453-392.736285 392.736285-392.736284 392.736285 176.209453 392.736285 392.736284S728.62916 776.787449 512 776.787449z"  horiz-adv-x="1024" />

    
    <glyph glyph-name="danxuan-xuanting" unicode="&#58946;" d="M512-61.179574c-245.383432 0-445.12841 199.64265-445.12841 445.12841s199.744979 445.12841 445.12841 445.12841 445.12841-199.64265 445.12841-445.12841-199.64265-445.12841-445.12841-445.12841z m0 837.967023c-216.62916 0-392.736285-176.209453-392.736285-392.736285s176.209453-392.736285 392.736285-392.736284 392.736285 176.209453 392.736285 392.736284S728.62916 776.787449 512 776.787449z"  horiz-adv-x="1024" />

    
    <glyph glyph-name="danxuan-jinyong" unicode="&#58947;" d="M512 383.948836m-418.932347 0a418.932347 418.932347 0 1 1 837.864694 0 418.932347 418.932347 0 1 1-837.864694 0ZM512-61.179574c-245.383432 0-445.12841 199.64265-445.12841 445.12841s199.744979 445.12841 445.12841 445.12841 445.12841-199.64265 445.12841-445.12841-199.64265-445.12841-445.12841-445.12841z m0 837.967023c-216.62916 0-392.736285-176.209453-392.736285-392.736285s176.209453-392.736285 392.736285-392.736284 392.736285 176.209453 392.736285 392.736284S728.62916 776.787449 512 776.787449z"  horiz-adv-x="1024" />

    
    <glyph glyph-name="fuxuan-jinyong" unicode="&#58948;" d="M826.250425 802.881183H197.851904c-57.610872 0-104.784251-47.173379-104.784251-104.784251v-628.398521c0-57.610872 47.173379-104.784251 104.784251-104.784251h628.398521c57.610872 0 104.784251 47.173379 104.784251 104.784251v628.398521c-0.102328 57.713201-47.173379 104.784251-104.784251 104.784251zM826.250425-61.179574H197.851904c-72.243829 0-130.877985 58.736484-130.877986 130.877985v628.398521c0 72.141501 58.736484 130.877985 130.877986 130.877986h628.398521c72.243829 0 130.877985-58.736484 130.877985-130.877986v-628.398521c0-72.141501-58.736484-130.877985-130.877985-130.877985zM197.851904 776.787449c-43.284901 0-78.588188-35.200959-78.588189-78.588188v-628.398522c0-43.284901 35.200959-78.588188 78.588189-78.588188h628.398521c43.284901 0 78.588188 35.200959 78.588188 78.588188v628.398522c0 43.284901-35.200959 78.588188-78.588188 78.588188H197.851904z"  horiz-adv-x="1024" />

    
    <glyph glyph-name="danxuan-jinyongyixuanze" unicode="&#58949;" d="M512 383.948836m-418.932347 0a418.932347 418.932347 0 1 1 837.864694 0 418.932347 418.932347 0 1 1-837.864694 0ZM512-61.179574c-245.383432 0-445.12841 199.64265-445.12841 445.12841s199.744979 445.12841 445.12841 445.12841 445.12841-199.64265 445.12841-445.12841-199.64265-445.12841-445.12841-445.12841z m0 837.967023c-216.62916 0-392.736285-176.209453-392.736285-392.736285s176.209453-392.736285 392.736285-392.736284 392.736285 176.209453 392.736285 392.736284S728.62916 776.787449 512 776.787449zM512 383.948836m-209.466174 0a209.466174 209.466174 0 1 1 418.932348 0 209.466174 209.466174 0 1 1-418.932348 0Z"  horiz-adv-x="1024" />

    
    <glyph glyph-name="danxuan-xuanzhong" unicode="&#58950;" d="M512-61.179574c-245.383432 0-445.12841 199.64265-445.12841 445.12841s199.744979 445.12841 445.12841 445.12841 445.12841-199.64265 445.12841-445.12841-199.64265-445.12841-445.12841-445.12841z m0 837.967023c-216.62916 0-392.736285-176.209453-392.736285-392.736285s176.209453-392.736285 392.736285-392.736284 392.736285 176.209453 392.736285 392.736284S728.62916 776.787449 512 776.787449zM512 383.948836m-209.466174 0a209.466174 209.466174 0 1 1 418.932348 0 209.466174 209.466174 0 1 1-418.932348 0Z"  horiz-adv-x="1024" />

    
    <glyph glyph-name="fuxuan-jinyongyixuanze" unicode="&#58951;" d="M826.250425 802.881183H197.851904c-57.610872 0-104.784251-47.173379-104.784251-104.784251v-628.398521c0-57.610872 47.173379-104.784251 104.784251-104.784251h628.398521c57.610872 0 104.784251 47.173379 104.784251 104.784251v628.398521c-0.102328 57.713201-47.173379 104.784251-104.784251 104.784251zM826.250425-61.179574H197.851904c-72.243829 0-130.877985 58.736484-130.877986 130.877985v628.398521c0 72.141501 58.736484 130.877985 130.877986 130.877986h628.398521c72.243829 0 130.877985-58.736484 130.877985-130.877986v-628.398521c0-72.141501-58.736484-130.877985-130.877985-130.877985zM197.851904 776.787449c-43.284901 0-78.588188-35.200959-78.588189-78.588188v-628.398522c0-43.284901 35.200959-78.588188 78.588189-78.588188h628.398521c43.284901 0 78.588188 35.200959 78.588188 78.588188v628.398522c0 43.284901-35.200959 78.588188-78.588188 78.588188H197.851904zM711.64265 503.263715L502.176476 232.707505c-4.604777-5.935045-11.563106-9.618867-19.033076-10.130509h-1.637254c-6.856001 0-13.609673 2.762866-18.521435 7.674628l-148.376137 148.376137c-10.232837 10.232837-10.232837 26.810033 0 37.04287s26.810033 10.232837 37.04287 0L478.947936 288.27181l191.251724 247.020685c8.902568 11.460777 25.377436 13.507345 36.735885 4.707105 11.460777-8.902568 13.609673-25.377436 4.707105-36.735885z"  horiz-adv-x="1024" />

    
    <glyph glyph-name="fuxuan-moren" unicode="&#58953;" d="M826.250425-61.179574H197.851904c-72.243829 0-130.877985 58.736484-130.877986 130.877985v628.398521c0 72.141501 58.736484 130.877985 130.877986 130.877986h628.398521c72.243829 0 130.877985-58.736484 130.877985-130.877986v-628.398521c0-72.141501-58.736484-130.877985-130.877985-130.877985zM197.851904 776.787449c-43.284901 0-78.588188-35.200959-78.588189-78.588188v-628.398522c0-43.284901 35.200959-78.588188 78.588189-78.588188h628.398521c43.284901 0 78.588188 35.200959 78.588188 78.588188v628.398522c0 43.284901-35.200959 78.588188-78.588188 78.588188H197.851904z"  horiz-adv-x="1024" />

    
    <glyph glyph-name="fuxuan-xuanting" unicode="&#58955;" d="M826.250425-61.179574H197.851904c-72.243829 0-130.877985 58.736484-130.877986 130.877985v628.398521c0 72.141501 58.736484 130.877985 130.877986 130.877986h628.398521c72.243829 0 130.877985-58.736484 130.877985-130.877986v-628.398521c0-72.141501-58.736484-130.877985-130.877985-130.877985zM197.851904 776.787449c-43.284901 0-78.588188-35.200959-78.588189-78.588188v-628.398522c0-43.284901 35.200959-78.588188 78.588189-78.588188h628.398521c43.284901 0 78.588188 35.200959 78.588188 78.588188v628.398522c0 43.284901-35.200959 78.588188-78.588188 78.588188H197.851904z"  horiz-adv-x="1024" />

    
    <glyph glyph-name="icon-jiantouxia" unicode="&#58940;" d="M808.512 562.816L510.528 300.928 215.296 561.728a56.064 56.064 0 0 1-72.32 0 41.472 41.472 0 0 1 0-63.872l331.52-292.608a54.464 54.464 0 0 1 36.288-13.248 53.888 53.888 0 0 1 36.16 13.184l334.144 293.76a42.88 42.88 0 0 1 14.912 32 42.176 42.176 0 0 1-15.04 31.872 55.808 55.808 0 0 1-36.288 13.184 54.336 54.336 0 0 1-36.16-13.184z"  horiz-adv-x="1024" />

    
    <glyph glyph-name="icon-jiantoushang" unicode="&#58942;" d="M808.512 205.184L510.528 467.072l-295.232-260.8a56.064 56.064 0 0 0-72.32 0 41.472 41.472 0 0 0 0 63.872l331.52 292.608A54.464 54.464 0 0 0 510.784 576c13.888 0 26.688-4.672 36.16-13.184l334.144-293.76a42.88 42.88 0 0 0 14.912-32 42.176 42.176 0 0 0-15.04-31.872 55.808 55.808 0 0 0-36.288-13.184 54.336 54.336 0 0 0-36.16 13.184z"  horiz-adv-x="1024" />

    
    <glyph glyph-name="icon-sousuo" unicode="&#58943;" d="M886.016 57.6l-174.976 174.912A328.32 328.32 0 0 1 456.32 768 328.32 328.32 0 0 1 128 439.68a328.32 328.32 0 0 1 534.72-255.36l174.976-174.912a33.984 33.984 0 0 1 48.32 0 34.112 34.112 0 0 1 0 48.256z m-325.824 136.128a264.768 264.768 0 0 0-103.872-20.928 266.304 266.304 0 0 0-245.888 163.008A264.768 264.768 0 0 0 189.44 439.68a266.304 266.304 0 0 0 163.008 245.888A264.768 264.768 0 0 0 456.32 706.56a266.304 266.304 0 0 0 245.952-163.008c13.888-32.832 20.928-67.776 20.928-103.808a266.304 266.304 0 0 0-163.008-245.952z"  horiz-adv-x="1024" />

    
    <glyph glyph-name="xiangyou" unicode="&#58944;" d="M397.184 680.512l261.888-297.984-260.8-295.232a56.064 56.064 0 0 1 0-72.32 41.472 41.472 0 0 1 63.872 0l292.608 331.52A54.464 54.464 0 0 1 768 382.784a53.888 53.888 0 0 1-13.184 36.16l-293.76 334.144a42.88 42.88 0 0 1-32 14.912 42.176 42.176 0 0 1-31.872-15.04 55.808 55.808 0 0 1-13.184-36.288c0-13.632 4.544-26.432 13.184-36.16z"  horiz-adv-x="1024" />

    
    <glyph glyph-name="iPhoneCopy" unicode="&#58970;" d="M556.16 339.84000000000003V609.088H467.84V339.84000000000003h88.32z m0-180.928v90.496H467.84v-90.496h88.32zM512 832c81.856 0 157.568-20.48 227.2-61.44a424.64 424.64 0 0 0 159.36-159.36C939.52 541.568 960 465.92 960 384s-20.48-157.568-61.44-227.2a424.64 424.64 0 0 0-159.36-159.36A440.576 440.576 0 0 0 512-64a440.576 440.576 0 0 0-227.2 61.44 432.64 432.64 0 0 0-159.36 160.384A438.656 438.656 0 0 0 64 384c0 81.152 20.48 156.544 61.44 226.176A440.96 440.96 0 0 0 285.76 770.56 438.656 438.656 0 0 0 512 832z"  horiz-adv-x="1024" />

    
    <glyph glyph-name="shanghuajiazaigengduo" unicode="&#58885;" d="M526.336 868.352c-7.68 11.264-20.992 11.264-28.672 0L210.432 467.456c-7.68-11.264-3.072-19.968 10.24-19.968h146.944c13.824 0 26.112-11.264 28.16-24.576l8.192-54.784c2.048-13.312 14.848-24.576 28.16-24.576h160.256c13.824 0 26.112 11.264 28.16 24.576l8.192 54.784c2.048 13.312 14.848 24.576 28.16 24.576H803.84c13.824 0 18.432 9.216 10.24 19.968L526.336 868.352zM442.368 272.896c-13.824 0-23.04-11.264-20.992-24.576l5.632-38.4c2.048-13.312 14.848-24.576 28.16-24.576h113.664c13.824 0 26.112 11.264 28.16 24.576l5.632 38.4c2.048 13.312-7.68 24.576-20.992 24.576H442.368zM487.936-43.52c-13.312 0-22.016-11.264-20.48-24.576l2.56-16.384c2.048-13.312 12.288-24.576 22.528-24.576h38.4c10.24 0 20.48 11.264 22.528 24.576l2.56 16.384c2.048 13.312-7.168 24.576-20.48 24.576h-47.616zM465.92 114.688c-13.824 0-23.04-11.264-20.992-24.576l5.632-38.4c2.048-13.312 14.848-24.576 28.16-24.576H545.792c13.824 0 26.112 11.264 28.16 24.576l5.632 38.4c2.048 13.312-7.68 24.576-20.992 24.576H465.92z"  horiz-adv-x="1024" />

    
    <glyph glyph-name="canzhao" unicode="&#58960;" d="M417.28 97.28v23.04c0 0.597333 0.170667 1.450667 0.426667 2.56a5.376 5.376 0 0 0 1.28 2.56c3.413333 24.490667 14.250667 45.397333 32.426666 62.72 18.176 17.322667 39.253333 26.624 63.146667 27.733333 26.709333 2.304 50.346667-3.584 70.826667-17.493333 20.48-13.909333 34.389333-33.450667 41.813333-58.453333 1.109333-2.816 2.133333-5.973333 2.986667-9.386667 0.853333-3.413333 1.536-6.826667 2.133333-10.24v-23.04a5.973333 5.973333 0 0 0-0.426667-2.56l-1.28-2.56a106.496 106.496 0 0 0-88.746666-90.026667 33.706667 33.706667 0 0 1-5.12-1.28h-23.04a5.973333 5.973333 0 0 0-2.56 0.426667l-2.56 1.28a103.424 103.424 0 0 0-56.746667 27.306667 107.52 107.52 0 0 0-31.146667 54.613333 199.338667 199.338667 0 0 1-1.706666 6.4 199.338667 199.338667 0 0 0-1.706667 6.4z m215.04 655.36v-23.04a11.690667 11.690667 0 0 0-0.426667-2.56 5.376 5.376 0 0 0-1.28-2.56c-3.413333-24.490667-14.250667-45.397333-32.426666-62.72a96.682667 96.682667 0 0 0-64-27.733333 109.994667 109.994667 0 0 0-70.4 18.346666 103.253333 103.253333 0 0 0-44.373334 67.84 203.690667 203.690667 0 0 0-2.133333 9.386667v23.04a5.973333 5.973333 0 0 0 0.426667 2.56l1.28 2.56c4.010667 22.186667 12.373333 40.533333 25.173333 55.04a111.957333 111.957333 0 0 0 60.16 34.133333c2.816 0.853333 5.717333 1.536 8.533333 2.133334h23.893334c0.597333 0 1.28-0.256 2.133333-0.853334 0.853333-0.597333 1.536-0.853333 2.133333-0.853333a106.496 106.496 0 0 0 88.746667-82.773333c0-1.706667 0.256-3.584 0.853333-5.546667l1.706667-6.4z m0-315.733333v-23.893334a6.997333 6.997333 0 0 0-0.426667-2.133333 23.381333 23.381333 0 0 0-1.28-2.986667 107.690667 107.690667 0 0 0-33.706666-62.72 97.365333 97.365333 0 0 0-63.573334-27.733333 112.64 112.64 0 0 0-72.106666 20.48 101.205333 101.205333 0 0 0-42.24 67.413333 166.741333 166.741333 0 0 1-1.706667 7.68v23.893334c0 0.597333 0.256 1.28 0.853333 2.133333a5.290667 5.290667 0 0 1 0.853334 2.986667c3.413333 24.490667 14.506667 45.397333 33.28 62.72 18.773333 17.322667 40.106667 26.624 64 27.733333 27.306667 1.109333 51.370667-5.717333 72.106666-20.48a101.205333 101.205333 0 0 0 42.24-67.413333l1.706667-7.68z"  horiz-adv-x="1024" />

    
    <glyph glyph-name="shanchu" unicode="&#59001;" d="M288 896h448v-192H288V896z m64-64v-128h320V832H352zM96 704h832v-128H96V704z m256-256h64v-384H352V448z m448-512v-64H224v64h576zM160 512h64v-640H160V512z m640 0h64v-640h-64V512zM608 448h64v-384H608V448z"  horiz-adv-x="1024" />

    
    <glyph glyph-name="bianji" unicode="&#59002;" d="M652.227765 811.369412L89.931294 249.072941v-126.855529H216.847059l562.29647 562.29647-126.915764 126.85553zM863.774118 684.574118L241.543529 62.343529H30.117647v211.546353L652.227765 896l211.546353-211.486118zM525.251765 726.738824l169.261176-169.261177-42.345412-42.224941L483.087059 684.513882l42.285176 42.285177zM35.538824-59.211294h957.138823v-59.813647H35.478588v59.813647z"  horiz-adv-x="1024" />

    
    <glyph glyph-name="zengjia" unicode="&#59004;" d="M256 355.555556h512a42.666667 42.666667 0 1 1 0 85.333333h-512a42.666667 42.666667 0 0 1 0-85.333333zM469.333333 654.222222v-512a42.666667 42.666667 0 1 1 85.333334 0v512a42.666667 42.666667 0 0 1-85.333334 0zM512-99.555556a483.555556 483.555556 0 1 0 0 967.111112 483.555556 483.555556 0 0 0 0-967.111112z m0 56.888889a426.666667 426.666667 0 1 1 0 853.333334 426.666667 426.666667 0 0 1 0-853.333334z"  horiz-adv-x="1024" />

    
    <glyph glyph-name="jianshao" unicode="&#59005;" d="M256 355.555556h512a42.666667 42.666667 0 1 1 0 85.333333h-512a42.666667 42.666667 0 0 1 0-85.333333zM512-99.555556a483.555556 483.555556 0 1 0 0 967.111112 483.555556 483.555556 0 0 0 0-967.111112z m0 56.888889a426.666667 426.666667 0 1 1 0 853.333334 426.666667 426.666667 0 0 1 0-853.333334z"  horiz-adv-x="1024" />

    
    <glyph glyph-name="rili" unicode="&#58931;" d="M345.04704 806.1952h64v-155.1872h-64zM623.21664 806.1952h64v-155.1872h-64zM97.9968 25.8048h831.99488v-64H97.9968zM98.00704 750.848h218.0096v-64h-218.0096zM441.03168 750.848h145.92512v-64H441.03168zM717.93664 750.848h212.0704v-64h-212.0704zM97.9968 743.15264h64V-33.0752h-64zM250.93632 458.96704h343.808v-64h-343.808zM250.93632 317.40416h536.35072v-64H250.93632zM865.99168 740.18304h64v-768h-64z"  horiz-adv-x="1027" />

    
    <glyph glyph-name="tishianniutixing" unicode="&#59006;" d="M512 896C229.376 896 0 666.624 0 384s229.376-512 512-512 512 229.376 512 512S794.624 896 512 896z m51.2-768H460.8V435.2h102.4v-307.2z m0 409.6H460.8V640h102.4v-102.4z"  horiz-adv-x="1024" />

    
    <glyph glyph-name="tishianniuguanbi" unicode="&#59007;" d="M512 896c283.136 0 512-228.864 512-512s-228.864-512-512-512S0 100.864 0 384 228.864 896 512 896z m183.808-256L512 456.192 328.192 640 256 567.808 439.808 384 256 200.192 328.192 128 512 311.808 695.808 128 768 200.192 584.192 384 768 567.808 695.808 640z"  horiz-adv-x="1024" />

    
    <glyph glyph-name="tishianniuzhuyi" unicode="&#59008;" d="M0-128h1185.684211L592.842105 896 0-128z m646.736842 161.684211h-107.789474v107.789473h107.789474v-107.789473z m0 215.578947h-107.789474V464.842105h107.789474v-215.578947z"  horiz-adv-x="1185" />

    
    <glyph glyph-name="tishianniuchenggong" unicode="&#59009;" d="M512 896C229.376 896 0 666.624 0 384s229.376-512 512-512 512 229.376 512 512S794.624 896 512 896zM409.6 128l-256 256 72.192 72.192L409.6 272.896l388.608 388.608L870.4 588.8l-460.8-460.8z"  horiz-adv-x="1024" />

    
    <glyph glyph-name="xialaduoxuanxianghoverguanbi" unicode="&#58961;" d="M511.872 895.744A511.552 511.552 0 0 1 0.32 384.192a511.552 511.552 0 0 1 511.552-511.552 511.552 511.552 0 0 1 511.616 511.552A511.552 511.552 0 0 1 511.872 895.744z m205.12-666.304a35.968 35.968 0 0 0-50.944-50.752L511.872 333.248 357.76 178.688a35.712 35.712 0 0 0-50.816-0.128 35.968 35.968 0 0 0-0.128 50.88l154.368 154.752-154.368 154.752a35.968 35.968 0 0 0 50.944 50.752L512 435.2l154.112 154.688a35.968 35.968 0 0 0 50.944-50.752l-154.368-154.88 154.368-154.752z"  horiz-adv-x="1024" />

    
    <glyph glyph-name="fuzhi" unicode="&#58963;" d="M69.824 826.176h697.088v-81.344h69.824V896H0v-809.088h122.176v69.824h-52.352zM187.328 681.088V-128H1024V681.088H187.328z m766.848-739.264H257.152V611.264h697.024v-669.44z"  horiz-adv-x="1024" />

    
    <glyph glyph-name="jiaoyidalei" unicode="&#58965;" d="M601.9072 715.9808c-20.48 0-40.5504-1.8432-60.0064-5.5296 147.8656-28.0576 259.6864-158.1056 259.6864-314.1632s-111.8208-286.1056-259.6864-314.1632c19.456-3.6864 39.5264-5.5296 60.0064-5.5296 176.5376 0 319.6928 143.1552 319.6928 319.6928S778.4448 715.9808 601.9072 715.9808zM741.7856 396.288c0 176.5376-143.1552 319.6928-319.6928 319.6928S102.4 572.8256 102.4 396.288s143.1552-319.6928 319.6928-319.6928S741.7856 219.7504 741.7856 396.288z m-189.8496-29.0816c16.5888 0 29.9008-13.5168 29.9008-29.9008 0-16.5888-13.5168-29.9008-29.9008-29.9008h-89.9072v-60.0064c0-22.1184-17.8176-39.936-39.936-39.936s-39.936 17.8176-39.936 39.936v60.0064h-89.9072c-16.5888 0-29.9008 13.5168-29.9008 29.9008 0 16.5888 13.5168 29.9008 29.9008 29.9008h89.9072v20.0704h-89.9072c-16.5888 0-29.9008 13.5168-29.9008 29.9008 0 16.5888 13.5168 29.9008 29.9008 29.9008h61.8496l-36.864 63.8976c-8.192 14.336-3.2768 32.5632 11.0592 40.96 14.336 8.192 32.5632 3.2768 40.96-11.0592l48.9472-84.7872 48.9472 84.7872c8.192 14.336 26.624 19.2512 40.96 11.0592s19.2512-26.624 11.0592-40.96l-36.864-63.8976h69.8368c16.5888 0 29.9008-13.5168 29.9008-29.9008 0-16.5888-13.5168-29.9008-29.9008-29.9008h-89.9072v-20.0704h89.7024z"  horiz-adv-x="1024" />

    
    <glyph glyph-name="jiaoyileixing" unicode="&#58966;" d="M664.9856 369.0496h84.3776c69.8368 0 126.5664-56.7296 126.5664-126.5664v-84.3776c0-69.8368-56.7296-126.5664-126.5664-126.5664h-84.3776c-69.8368 0-126.5664 56.7296-126.5664 126.5664v84.3776c0 70.0416 56.7296 126.5664 126.5664 126.5664z m0 379.4944h84.3776c69.8368 0 126.5664-56.7296 126.5664-126.5664V537.6c0-69.8368-56.7296-126.5664-126.5664-126.5664h-84.3776c-69.8368 0-126.5664 56.7296-126.5664 126.5664v84.3776c0 69.8368 56.7296 126.5664 126.5664 126.5664z m-379.4944 0h84.3776c69.8368 0 126.5664-56.7296 126.5664-126.5664V537.6c0-69.8368-56.7296-126.5664-126.5664-126.5664h-84.3776c-69.8368 0-126.5664 56.7296-126.5664 126.5664v84.3776c0 69.8368 56.7296 126.5664 126.5664 126.5664z m0-379.4944h84.3776c69.8368 0 126.5664-56.7296 126.5664-126.5664v-84.3776c0-69.8368-56.7296-126.5664-126.5664-126.5664h-84.3776c-69.8368 0-126.5664 56.7296-126.5664 126.5664v84.3776c0 70.0416 56.7296 126.5664 126.5664 126.5664z"  horiz-adv-x="1024" />

    
    <glyph glyph-name="shijian" unicode="&#58967;" d="M800.5632 770.8672H254.3616c-75.3664 0-136.6016-61.0304-136.6016-136.6016v-500.5312c0-75.3664 61.0304-136.6016 136.6016-136.6016h546.2016c75.3664 0 136.6016 61.0304 136.6016 136.6016V634.2656c0 75.3664-61.2352 136.6016-136.6016 136.6016zM436.4288 270.13120000000004c0-25.1904-20.2752-45.4656-45.4656-45.4656s-45.4656 20.2752-45.4656 45.4656v182.0672c0 25.1904 20.2752 45.4656 45.4656 45.4656s45.4656-20.2752 45.4656-45.4656v-182.0672z m159.3344 0c0-25.1904-20.2752-45.4656-45.4656-45.4656s-45.4656 20.2752-45.4656 45.4656V543.3344c0 25.1904 20.2752 45.4656 45.4656 45.4656s45.4656-20.2752 45.4656-45.4656v-273.2032z m159.3344 0c0-25.1904-20.2752-45.4656-45.4656-45.4656-25.1904 0-45.4656 20.2752-45.4656 45.4656v90.9312c0 25.1904 20.2752 45.4656 45.4656 45.4656 25.1904 0 45.4656-20.2752 45.4656-45.4656v-90.9312z"  horiz-adv-x="1024" />

    
    <glyph glyph-name="gengduo" unicode="&#58968;" d="M500.5312 514.2528h23.1424c0.6144 0 1.2288-0.2048 2.048-0.4096s1.8432-0.6144 2.8672-1.2288c23.552-3.8912 43.8272-14.7456 60.6208-32.5632 16.7936-17.8176 25.6-38.2976 26.8288-61.44 1.024-26.4192-5.5296-49.5616-19.8656-69.632-14.336-20.0704-33.5872-33.1776-57.7536-39.1168-2.2528-0.6144-4.7104-1.024-7.3728-1.6384-2.6624-0.6144-5.12-1.024-7.3728-1.6384h-23.1424c-0.6144 0-1.2288 0.2048-2.048 0.8192s-1.8432 0.8192-2.8672 0.8192c-23.552 3.2768-43.8272 13.9264-60.6208 32.1536-16.7936 18.2272-25.6 38.7072-26.8288 61.8496-1.024 26.4192 5.5296 49.5616 19.8656 69.632 14.336 20.0704 33.5872 33.1776 57.7536 39.1168 2.2528 0.6144 4.7104 1.024 7.3728 1.6384 2.6624 0.6144 5.12 1.2288 7.3728 1.6384z m-304.9472 0h22.3232c0.6144 0 1.4336-0.2048 2.4576-0.4096s1.8432-0.6144 2.4576-1.2288c23.552-3.2768 43.8272-13.9264 60.6208-31.744 16.7936-17.8176 25.6-38.2976 26.8288-61.44 1.6384-25.1904-4.3008-47.9232-17.8176-67.9936-13.5168-20.0704-32.3584-33.5872-56.5248-40.7552-2.6624-0.6144-5.7344-1.2288-9.0112-2.048-3.2768-0.8192-6.3488-1.4336-9.0112-2.048H195.584c-1.024 0-1.8432 0.2048-2.4576 0.4096l-2.4576 1.2288c-21.504 3.8912-39.1168 11.8784-53.248 24.3712-13.9264 12.288-24.3712 29.0816-30.9248 49.7664-0.6144 2.6624-1.2288 5.5296-2.048 8.192-0.8192 2.6624-1.4336 5.5296-2.048 8.192v23.1424c0 0.6144 0.2048 1.2288 0.8192 2.048 0.6144 0.8192 0.8192 1.4336 0.8192 2.048 3.2768 21.504 12.0832 39.7312 26.4192 55.296 14.336 15.36 32.1536 25.6 53.6576 30.5152 1.6384 0 3.4816 0.2048 5.3248 0.8192 1.8432 0.6144 3.8912 1.2288 6.144 1.6384z m632.832-207.6672h-22.3232c-0.6144 0-1.4336 0.2048-2.4576 0.4096s-1.8432 0.6144-2.4576 1.2288c-23.552 3.2768-43.8272 13.7216-60.6208 31.3344-16.7936 17.6128-25.6 37.888-26.8288 61.0304-2.2528 25.8048 3.4816 48.5376 16.7936 68.4032 13.5168 19.8656 32.3584 33.1776 56.5248 40.3456 2.6624 1.024 5.7344 2.048 9.0112 2.8672 3.2768 0.8192 6.5536 1.4336 9.8304 2.048h22.3232c1.024 0 1.8432-0.2048 2.4576-0.4096l2.4576-1.2288c21.504-3.2768 39.936-12.288 55.7056-26.8288 15.5648-14.5408 25.6-32.5632 30.1056-54.0672 0.6144-1.6384 1.024-3.2768 1.2288-4.9152 0.2048-1.6384 0.6144-3.2768 1.2288-4.9152v-22.3232c0-1.024-0.2048-1.8432-0.4096-2.4576l-1.2288-2.4576c-3.2768-21.504-12.0832-39.7312-26.4192-54.8864-14.336-15.1552-31.9488-25.1904-52.8384-30.1056-2.2528-0.6144-4.3008-1.024-6.144-1.6384-1.6384-0.2048-3.6864-0.8192-5.9392-1.4336z"  horiz-adv-x="1024" />

    
    <glyph glyph-name="fentan" unicode="&#58969;" d="M696.079059 841.667765v-60.235294h-120.470588v60.235294h120.470588z m-180.705883 0v-60.235294h-120.470588v60.235294h120.470588z m-180.705882 0v-60.235294h-120.470588v60.235294h120.470588z m-180.705882-60.235294H119.265882v-25.539765h-60.235294V841.667765h94.930824v-60.235294zM59.030588 695.657412h60.235294v-120.470588h-60.235294v120.470588z m0-180.705883h60.235294v-120.470588h-60.235294v120.470588z m0-180.705882h60.235294v-117.037176h-60.235294V334.24564699999996z m262.02353-382.132706h622.832941V574.945882H321.054118v-622.832941zM240.941176 655.058824h783.058824v-783.058824H240.941176V655.058824z"  horiz-adv-x="1024" />

    
    <glyph glyph-name="liancha" unicode="&#58971;" d="M132.928 827.712v-887.424h758.144V827.712H132.928z m539.392-536.128a224 224 0 1 1-50.816-39.04l101.76-123.648 49.408 40.64-100.352 122.048zM64 896h896v-1024H64V896z m448-608a160 160 0 1 0 0 320 160 160 0 0 0 0-320z"  horiz-adv-x="1024" />

    
    <glyph glyph-name="jixi" unicode="&#58972;" d="M896 512V896H0v-1024h448v64H64V832h768v-320h64zM192 576h512v-64H192zM192 320h320v-64H192zM902.208 422.592L520.576 40.96v-86.144H606.72l381.632 381.632z"  horiz-adv-x="1024" />

    
    <glyph glyph-name="quxiaojixi" unicode="&#58973;" d="M896 512V896H0v-1024h448v64H64V832h768v-320h64zM987.136-78.848L832 76.288l-155.136-155.136-51.712 51.712L780.288 128 625.152 283.136l51.712 51.712L832 179.712l155.136 155.136 51.712-51.712L883.712 128l155.136-155.136zM192 576h512v-64H192zM192 320h320v-64H192z"  horiz-adv-x="1088" />

    
    <glyph glyph-name="yuti" unicode="&#58975;" d="M896 512V896H0v-1024h448v64H64V832h768v-320h64zM192 640h192v-128H192V640z m0-320h192v-128H192V320z m320 320h192v-128H512V640zM832 384c-141.312 0-256-114.688-256-256s114.688-256 256-256 256 114.688 256 256-114.688 256-256 256z m-51.2-384l-128 128 36.096 36.096 91.904-91.648 194.304 194.304 36.096-36.352-230.4-230.4z"  horiz-adv-x="1088" />

    
    <glyph glyph-name="quxiaoyuti" unicode="&#58976;" d="M896 512V896H0v-1024h448v64H64V832h768v-320h64zM987.136-78.848L832 76.288l-155.136-155.136-51.712 51.712L780.288 128 625.152 283.136l51.712 51.712L832 179.712l155.136 155.136 51.712-51.712L883.712 128l155.136-155.136zM192 640h192v-128H192V640z m0-320h192v-128H192V320z m320 320h192v-128H512V640z"  horiz-adv-x="1088" />

    
    <glyph glyph-name="guanbi" unicode="&#59010;" d="M1024 792.868571L920.868571 896 512 487.131429 103.131429 896 0 792.868571 408.868571 384 0-24.868571 103.131429-128 512 280.868571 920.868571-128 1024-24.868571 615.131429 384z"  horiz-adv-x="1024" />

    
    <glyph glyph-name="shenshuzhuangtai" unicode="&#59011;" d="M640 512H384a64 64 0 0 0 0 128h256a64 64 0 0 0 0-128zM256 384a64 64 0 0 0 64 64h384a64 64 0 0 0 0-128H320a64 64 0 0 0-64 64z m512 380.672v5.312H256v-5.312l-111.104-570.688H384V128a64 64 0 0 1 64-64h128a64 64 0 0 1 64 64v65.984h239.04L768 764.672z m256-572.8V0a128 128 0 0 0-128-128H128a128 128 0 0 0-128 128v192l128 576c17.984 66.688 57.28 128 128 128h512c70.72 0 107.968-65.28 128-128l128-576v-0.128z"  horiz-adv-x="1024" />

    
    <glyph glyph-name="zhanghuxinxi" unicode="&#59012;" d="M503.68 896L134.72 895.68l128.064-192h128L503.68 896zM213.824 576.512L64 147.968l262.784-265.152 262.72 265.152L439.68 576.512H213.824zM192 211.968l132.8 300.544 136.704-300.544-134.72-137.152L192 211.968z m386.688 333.184l134.016-383.424 140.736-33.792 49.536 165.696-264.704 281.792-59.584-30.272z"  horiz-adv-x="1024" />

    
    <glyph glyph-name="zhanghuzhongxin" unicode="&#59013;" d="M467.84 884.224c-35.712 0-30.208-10.88-49.472-13.632-19.2-2.688 3.904 2.752-53.76-8.128-57.664-10.88-78.016-84.288-80.768-111.488-2.752-27.2-3.392-103.68-1.6-144.448 5.504-24.384-13.696-24.384-13.696-24.384-34.56 2.112-19.072-104.512-19.072-104.512 4.992-26.24-1.792-39.36 49.344-59.712 24.384-68.736 86.4-103.488 86.4-103.488s3.136-44.032 4.096-75.52c-5.248 2.688 16.64-80.192-142.272-103.424-158.912-23.232-189.376-74.24-219.328-102.592-29.888-28.416-27.648-159.36-27.648-159.36h1023.36s-6.464 130.944-36.48 159.36c-29.952 28.352-62.528 79.36-221.44 102.592-158.976 23.232-130.816 103.744-131.84 108.672 0.192 12.416 5.76 64.896 5.76 64.896s51.2 42.176 75.584 110.912c38.4 23.936 52.992 27.264 59.264 54.976 0 0 12.992 104.448-28.224 104.448 0 0-17.152-2.752-11.648 21.76 5.44 24.448 3.584 100.928 0.896 128.064-2.816 27.2 5.248 104.96-52.48 115.84-39.296 7.232-43.84-3.776-63.04-1.088C600.512 846.72 577.6 896 541.888 896L467.84 884.224z"  horiz-adv-x="1024" />

    
    <glyph glyph-name="jiluzhongxin" unicode="&#59014;" d="M1406.789818 813.242182c43.752727 0 82.664727-38.912 82.664727-90.856727v-645.771637c0-51.944727-38.912-90.856727-82.664727-90.856727a76.613818 76.613818 0 0 0-29.137454 5.864727l-384.651637 158.254546v-164.119273a82.850909 82.850909 0 0 0-82.850909-82.757818H82.850909A82.757818 82.757818 0 0 0 0-14.149818V813.149091C0 858.856727 36.957091 896 82.757818 896h827.485091a82.850909 82.850909 0 0 0 82.757818-82.757818v-164.119273l384.651637 158.254546a75.031273 75.031273 0 0 0 29.137454 5.864727zM827.485091 647.726545v41.425455c0 22.807273-18.618182 41.332364-41.425455 41.332364H206.848c-22.807273 0-41.332364-18.525091-41.332364-41.332364v-579.211636c0-22.900364 18.525091-41.425455 41.332364-41.425455h579.211636c22.900364 0 41.425455 18.618182 41.425455 41.425455V647.726545z m496.453818-455.028363V606.487273l-330.938182-136.192v-141.312l330.938182-136.192z"  horiz-adv-x="1489" />

    
    <glyph glyph-name="chakan" unicode="&#59015;" d="M819.2 565.686857c0-91.209143 68.754286-165.156571 153.6-165.156571 17.773714 0 34.523429 3.876571 50.322286 9.801143 0.073143-3.291429 0.877714-6.436571 0.877714-9.801143 0-151.990857-114.614857-275.309714-256-275.309715-141.312 0-256 123.318857-256 275.309715S626.688 675.84 768 675.84c27.940571 0 54.418286-5.997714 79.725714-14.848a171.885714 171.885714 0 0 1-28.525714-95.232m-51.2 220.16c-367.616 0-665.6-385.316571-665.6-385.316571s297.984-385.389714 665.6-385.389715c367.689143 0 665.6 385.462857 665.6 385.462857s-297.910857 385.316571-665.6 385.316572m0-880.859429C343.917714-94.939429 0 348.306286 0 400.530286 0 452.827429 343.917714 896 768 896 1192.228571 896 1536 456.557714 1536 400.530286s-343.771429-495.469714-768-495.469715"  horiz-adv-x="1536" />

    
    <glyph glyph-name="guanbi1" unicode="&#59016;" d="M674.635294 503.506824c0-75.113412 56.621176-136.011294 126.494118-136.011295 14.637176 0 28.431059 3.192471 41.441882 8.07153 0.060235-2.710588 0.722824-5.300706 0.722824-8.07153 0-125.168941-94.388706-226.725647-210.82353-226.725647-116.374588 0-210.823529 101.556706-210.823529 226.725647S516.096 594.221176 632.470588 594.221176c23.009882 0 44.815059-4.939294 65.656471-12.227764a141.552941 141.552941 0 0 1-23.491765-78.426353m-42.164706 181.308235c-302.742588 0-548.141176-317.319529-548.141176-317.319529s245.398588-317.379765 548.141176-317.379765c302.802824 0 548.141176 317.44 548.141177 317.44s-245.338353 317.319529-548.141177 317.319529m0-725.413647C283.226353-40.538353 0 324.487529 0 367.495529 0 410.563765 283.226353 775.529412 632.470588 775.529412 981.835294 775.529412 1264.941176 413.635765 1264.941176 367.495529s-283.105882-408.033882-632.470588-408.033882M301.17494 835.778478l104.33059 60.235294 542.117647-938.975309-104.33059-60.235294-542.117647 938.975309Z"  horiz-adv-x="1264" />

    
    <glyph glyph-name="biangengjilu" unicode="&#58978;" d="M262.208 477.44v64h252.8v-64h-252.8z m0-192v64H736v-64H262.208zM736 855.232V672h151.168v-64H672V855.296h64zM147.2-44.8h729.6V812.8H147.2v-857.6zM64 896h896v-1024H64V896z"  horiz-adv-x="1024" />

    
    <glyph glyph-name="biangeng" unicode="&#58980;" d="M374.840889 237.340444l105.073778-79.815111-34.417778-45.283555-190.350222 144.554666L443.733333 425.073778l37.888-42.439111-99.100444-88.405334h298.496v-56.888889H374.897778z m292.579555 284.444445L568.32 610.190222l37.888 42.439111 188.586667-168.277333-190.350223-144.554667-34.417777 45.283556 105.073777 79.815111H368.924444v56.888889h298.496zM512-118.044444A502.044444 502.044444 0 1 0 512 886.044444a502.044444 502.044444 0 0 0 0-1004.088888z m0 75.434666A426.609778 426.609778 0 1 1 512 810.666667 426.609778 426.609778 0 0 1 512-42.666667z"  horiz-adv-x="1024" />

    
    <glyph glyph-name="cela" unicode="&#59021;" d="M944.384 451.776a68.16 68.16 0 0 1-1.152 1.344L571.84 875.52a54.208 54.208 0 0 1-40.448 18.88 53.312 53.312 0 0 1-40.32-19.008c-10.816-12.8-16.704-29.056-16.64-45.888 0-17.216 5.76-33.408 16.64-45.696L761.6 476.16h-630.4C94.272 476.16 64 445.888 64 408.96c0-36.992 30.208-67.2 67.2-67.2h633.216l-272-307.84a70.848 70.848 0 0 1 0-91.52 52.48 52.48 0 0 1 80.832 0l369.92 419.2a68.864 68.864 0 0 1 16.704 47.36c0 16.192-5.76 31.168-15.488 42.816z"  horiz-adv-x="1024" />

    
    <glyph glyph-name="fuxuanweiquanxuanxiang" unicode="&#59022;" d="M0 749.275429C0 830.317714 65.609143 896 146.724571 896h730.550858C958.317714 896 1024 830.390857 1024 749.275429v-730.550858A146.651429 146.651429 0 0 0 877.275429-128H146.724571A146.651429 146.651429 0 0 0 0 18.724571V749.275429zM773.412571 457.142857H250.587429C227.474286 457.142857 219.428571 424.374857 219.428571 384s8.045714-73.142857 31.158858-73.142857h522.825142C796.525714 310.857143 804.571429 343.625143 804.571429 384s-8.045714 73.142857-31.158858 73.142857z"  horiz-adv-x="1024" />

    
    <glyph glyph-name="yixuanzhongxiang" unicode="&#59023;" d="M0 749.275429C0 830.317714 65.609143 896 146.724571 896h730.550858C958.317714 896 1024 830.390857 1024 749.275429v-730.550858A146.651429 146.651429 0 0 0 877.275429-128H146.724571A146.651429 146.651429 0 0 0 0 18.724571V749.275429zM347.355429 420.571429a65.828571 65.828571 0 0 1-109.568-72.996572l146.285714-219.428571a65.828571 65.828571 0 0 1 101.302857-10.020572l365.714286 365.714286a65.828571 65.828571 0 0 1-93.037715 93.037714L449.097143 267.922286 347.355429 420.498286z"  horiz-adv-x="1024" />

    
    <glyph glyph-name="wufujian" unicode="&#59024;" d="M921.173828 243.474479l-57.539766 57.437382 19.657713 19.452946c38.291588 37.882053 59.280293 88.562096 59.17791 142.723192a200.979646 200.979646 0 0 1-60.099365 143.337496 206.405994 206.405994 0 0 1-145.589942 59.280293c-54.673016 0-105.864979-20.783937-143.9518-58.563605l-17.814803-17.610036-57.64215 57.642151 17.610035 17.405267c27.336508 26.926972 59.177909 47.710909 94.705131 61.839891 34.196231 13.514678 70.132989 20.476785 107.810274 20.476785 76.583176-0.102384 148.456692-29.691338 202.515405-83.135747a281.760564 281.760564 0 0 0 1.02384-400.730686l-19.862482-19.555329zM702.68653 27.444395l-45.458463-45.048927a377.079998 377.079998 0 0 0-127.058451-82.93098 391.004212 391.004212 0 0 0-289.74651 0.716688A383.734954 383.734954 0 0 0 28.795531 109.556304 378.001454 378.001454 0 0 0 27.97646 396.231296c19.350562 47.19899 47.506142 89.585935 83.954819 125.625077l48.529981 47.915677 57.64215-57.744534-48.120445-47.506142A293.637099 293.637099 0 0 1 82.239941 253.098568c0.204768-80.166614 31.739017-155.521183 88.869247-211.934727a305.001715 305.001715 0 0 1 215.313396-88.050176c80.883301 0 156.647406 30.817562 213.265717 86.616801l45.663231 45.048928 57.334998-57.334999zM378.846173 785.802133l99.312408 98.288569a41.055954 41.055954 0 0 0 57.949302-0.204768 40.032115 40.032115 0 0 0 0-57.334998l-99.619559-98.493337-57.642151 57.744534zM356.628862 373.604448l-31.124714-30.817562a80.678533 80.678533 0 0 1 0.409536-114.77238 82.93098 82.93098 0 0 1 116.205755-0.51192l30.408026 30.100874 57.642151-57.64215-30.203258-29.793722c-30.715178-30.305642-71.668748-47.096606-115.79622-47.096606a164.326201 164.326201 0 0 0-115.898604 47.608525c-31.022329 30.715178-48.120445 71.46398-48.222829 114.874765a159.514156 159.514156 0 0 0 47.608525 114.669997l31.329481 31.022329 57.642151-57.64215z m338.174106 96.24089a41.46549 41.46549 0 0 0 39.724963-10.44316 39.622579 39.622579 0 0 0 10.545545-39.929731l-50.270508 50.372891zM129.029395 818.360221a51.191963 51.191963 0 0 0 72.385435 0l796.444558-796.444558a51.191963 51.191963 0 0 0-72.385435-72.385435L129.029395 745.974786a51.191963 51.191963 0 0 0 0 72.385435z"  horiz-adv-x="1024" />

    
    <glyph glyph-name="youfujian" unicode="&#59025;" d="M629.407728 726.53285c-35.529851-14.130027-67.373608-34.813111-94.712139-61.844467L267.248987 400.415917a159.525959 159.525959 0 0 1-47.612048-114.780873c0-43.413997 17.201772-84.165814 48.124005-114.883264 31.024625-30.615059 72.186009-47.509657 116.009572-47.612049 44.028346 0 84.984946 16.792206 115.804788 47.100091l234.57893 231.916751a40.035077 40.035077 0 0 1 0 57.339241 41.058992 41.058992 0 0 1-57.851199 0L441.826497 227.579063a82.937116 82.937116 0 0 0-116.214354 0.511957 80.684503 80.684503 0 0 0-0.409566 114.780874l267.241819 264.374857a203.042347 203.042347 0 0 0 144.064842 58.567938 206.421267 206.421267 0 0 0 145.600715-59.38707c38.601596-38.19203 60.00142-89.080606 60.103812-143.245711a198.537121 198.537121 0 0 0-59.182288-142.733753l-283.624459-280.655106a302.054929 302.054929 0 0 0-213.281498-86.520819 305.024283 305.024283 0 0 0-215.329327 87.851909A296.730571 296.730571 0 0 0 81.920369 253.176938a293.658826 293.658826 0 0 0 87.749517 211.438451L535.821895 826.671738a40.035077 40.035077 0 0 1 0 57.339241 41.263775 41.263775 0 0 1-57.953589 0.204783L111.716296 521.95463A374.445721 374.445721 0 0 1 0.007168 252.972155c0.102392-49.455095 9.624801-97.681492 28.464837-143.348102a383.763348 383.763348 0 0 1 211.745626-209.493012 391.033144 391.033144 0 0 1 289.767949-0.614349 377.1079 377.1079 0 0 1 127.067853 82.937116l283.624459 280.552714A281.064672 281.064672 0 0 1 1023.922183 463.591474a281.781412 281.781412 0 0 1-84.165814 200.380168A287.10577 287.10577 0 0 1 737.225979 747.01115c-37.680073 0-73.721881-6.962622-107.818251-20.4783z"  horiz-adv-x="1024" />

    
    <glyph glyph-name="xiangzuo" unicode="&#59026;" d="M754.688 87.552L493.056 385.536 753.664 680.96c17.408 20.992 17.408 51.2 0 72.192-14.848 17.408-40.96 19.968-58.368 5.632-2.048-1.536-3.584-3.584-5.632-5.632L397.312 421.376c-8.704-10.24-13.312-23.04-13.312-36.352 0-13.312 4.608-26.112 13.312-36.352L691.2 14.848c8.192-9.216 19.456-14.848 31.744-14.848 12.288 0 24.064 5.632 31.744 14.848 8.704 10.24 13.312 23.04 13.312 36.352 0 13.824-4.608 26.624-13.312 36.352z"  horiz-adv-x="1024" />

    
    <glyph glyph-name="celazuo" unicode="&#59027;" d="M79.36 366.08c0.512-0.512 0.512-1.024 1.024-1.536l371.2-422.4c10.24-11.776 25.088-18.432 40.448-18.944 15.36 0 30.208 7.168 40.448 18.944 10.752 12.8 16.896 29.184 16.384 46.08 0 17.408-5.632 33.28-16.384 45.568l-270.336 307.712h630.272c36.864 0 67.072 30.208 67.072 67.072 0 36.864-30.208 67.072-67.072 67.072H259.584L531.456 783.36c22.528 26.624 22.528 65.024 0 91.648-18.432 22.528-51.712 25.6-73.728 7.168-2.56-2.048-4.608-4.608-7.168-7.168L80.896 456.192c-11.264-13.312-17.408-30.208-16.896-47.104 0-16.384 5.632-31.232 15.36-43.008z"  horiz-adv-x="1024" />

    
    <glyph glyph-name="duizhang" unicode="&#59028;" d="M459.330959 726.521591a57.599568 57.599568 0 0 1 45.695658 0L890.175728 891.768352c35.199736 15.167886 73.727447-12.351907 73.727447-52.671605v-730.618521c0-21.119842-12.03191-39.9997-30.463771-47.871641l-428.348788-183.870621a57.599568 57.599568 0 0 0-45.695657 0L31.046172 60.606585A51.711612 51.711612 0 0 0 0.5824 108.478226V839.096747c0 40.319698 38.527711 67.839491 73.727447 52.671605l385.021112-165.246761zM404.61137-16.00084c14.399892-6.207953 30.079774 5.055962 30.079774 21.503839V604.986503c0 16.767874-9.599928 31.99976-24.319817 38.271713L109.125586 772.281248c-14.399892 6.207953-30.143774-5.119962-30.143774-21.567838v-592.379558c0-21.119842 12.095909-40.0637 30.463772-47.99964l295.165786-126.335052z m450.364622 126.335052a51.839611 51.839611 0 0 1 30.463772 47.99964V750.71341c0 16.511876-15.743882 27.775792-30.143774 21.567838L554.114249 643.194216a41.407689 41.407689 0 0 1-24.447817-38.271713v-599.483504c0-16.447877 15.743882-27.711792 30.207773-21.503839l295.037788 126.335053zM312.836058 417.723907L160.709199 488.379377a28.415787 28.415787 0 0 0-15.167886 26.111804v24.575816c0 15.551883 13.439899 26.239803 25.919805 20.415847l152.126859-70.847469a28.415787 28.415787 0 0 0 15.167887-26.111804v-24.383817c0-15.551883-13.503899-26.175804-25.919806-20.415847z m0-241.534188l-152.126859 70.59147a28.415787 28.415787 0 0 0-15.167886 26.111804V297.596808c0 15.551883 13.439899 26.175804 25.919805 20.415847l152.126859-70.911468a28.415787 28.415787 0 0 0 15.167887-26.047805v-24.383817c0-15.551883-13.503899-26.239803-25.919806-20.415847z m299.837751 241.534188c-15.487884-5.759957-32.383757 4.863964-32.383757 20.415847v24.319818a28.159789 28.159789 0 0 0 19.007858 26.111804l190.078574 70.911468c15.551883 5.759957 32.447757-4.799964 32.447757-20.415847v-24.639815c0-11.519914-7.487944-21.759837-19.007858-26.111804l-190.078574-70.591471z m0-241.534188c-15.487884-5.759957-32.383757 4.863964-32.383757 20.351847v24.447817c0 11.519914 7.551943 21.759837 19.007858 26.047804l190.078574 70.911468c15.551883 5.759957 32.447757-4.863964 32.447757-20.479846v-24.575816c0-11.519914-7.487944-21.759837-19.007858-26.111804l-190.078574-70.59147z"  horiz-adv-x="1024" />

    
    <glyph glyph-name="fazhaishenqing" unicode="&#59031;" d="M787.692308 462.769231m-433.23077 0a433.230769 433.230769 0 1 1 866.461539 0 433.230769 433.230769 0 1 1-866.461539 0ZM374.153846 246.153846m-374.153846 0a374.153846 374.153846 0 1 1 748.307692 0 374.153846 374.153846 0 1 1-748.307692 0ZM630.153846 699.076923c216.615385 0 393.846154-177.230769 393.846154-393.846154s-177.230769-393.846154-393.846154-393.846154-393.846154 177.230769-393.846154 393.846154S413.538462 699.076923 630.153846 699.076923zM236.307692 305.230769c0-86.646154 27.569231-169.353846 78.769231-236.307692 3.938462 11.815385 11.815385 23.630769 19.692308 35.446154 3.938462 7.876923 55.138462 114.215385 102.4 212.676923 15.753846 27.569231 55.138462 31.507692 70.892307 3.938461l70.892308-118.153846c3.938462-7.876923 19.692308-7.876923 23.630769 0l94.523077 196.923077-98.461538 35.446154L827.076923 576.984615l35.446154-259.938461-90.584615 47.261538-141.784616-291.446154c-7.876923-7.876923-11.815385-15.753846-15.753846-23.630769-3.938462-3.938462-11.815385-7.876923-23.630769-7.876923-7.876923 0-15.753846 3.938462-23.630769 11.815385-3.938462 7.876923-11.815385 15.753846-15.753847 23.630769-3.938462 3.938462-7.876923 11.815385-15.753846 27.569231-7.876923 11.815385-15.753846 27.569231-23.630769 39.384615l-23.630769 35.446154c-3.938462 7.876923-15.753846 7.876923-19.692308 0l-82.707692-177.230769c66.953846-55.138462 153.6-86.646154 248.123077-86.646154 216.615385 0 393.846154 177.230769 393.846154 393.846154s-177.230769 393.846154-393.846154 393.846154C413.538462 699.076923 236.307692 521.846154 236.307692 305.230769z"  horiz-adv-x="1220" />

    
    <glyph glyph-name="daikuanjiaoyi" unicode="&#59032;" d="M787.692308 462.769231m-433.23077 0a433.230769 433.230769 0 1 1 866.461539 0 433.230769 433.230769 0 1 1-866.461539 0ZM374.153846 246.153846m-374.153846 0a374.153846 374.153846 0 1 1 748.307692 0 374.153846 374.153846 0 1 1-748.307692 0ZM559.261538 348.553846l-19.692307-19.692308c-11.815385-11.815385-11.815385-35.446154 0-47.261538L590.769231 230.4c11.815385-11.815385 35.446154-11.815385 47.261538 0l141.784616 137.846154c11.815385 11.815385 11.815385 35.446154 0 47.261538l-51.2 51.2c-11.815385 11.815385-35.446154 11.815385-47.261539 0l-19.692308-19.692307-118.153846 118.153846 19.692308 19.692307c11.815385 11.815385 11.815385 35.446154 0 47.261539L512 687.261538c-11.815385 11.815385-35.446154 11.815385-47.261538 0L322.953846 549.415385c-11.815385-11.815385-11.815385-35.446154 0-47.261539l51.2-51.2c11.815385-11.815385 35.446154-11.815385 47.261539 0l19.692307 19.692308 7.876923-7.876923-267.815384-267.815385s-47.261538-63.015385-7.876923-102.4c55.138462-55.138462 114.215385-7.876923 114.215384-7.876923L551.384615 356.430769l7.876923-7.876923zM917.661538-29.538462h-70.892307v55.138462c0 7.876923-15.753846 15.753846-31.507693 15.753846h-15.753846v31.507692c0 19.692308-15.753846 35.446154-31.507692 35.446154h-271.753846c-15.753846 0-31.507692-15.753846-31.507692-35.446154v-31.507692h-11.815385c-15.753846 0-31.507692-7.876923-31.507692-15.753846v-55.138462h-78.769231c-15.753846 0-27.569231-11.815385-27.569231-27.56923s11.815385-27.569231 27.569231-27.569231h575.015384c15.753846 0 27.569231 11.815385 27.569231 27.569231 0 11.815385-11.815385 27.569231-27.569231 27.56923"  horiz-adv-x="1220" />

    
    <glyph glyph-name="daikuanshenqing" unicode="&#59033;" d="M288.237037 573.62963l527.17037 303.407407c53.096296 30.340741 125.155556 11.377778 155.496297-41.718518l189.629629-329.955556c30.340741-53.096296 11.377778-125.155556-41.718518-155.496296l-527.170371-303.407408c-53.096296-30.340741-125.155556-11.377778-155.496296 41.718519l-189.629629 329.955555c-30.340741 53.096296-11.377778 125.155556 41.718518 155.496297zM79.644444 323.318519l394.42963 227.555555c53.096296 30.340741 125.155556 11.377778 155.496296-41.718518l132.740741-231.348149c30.340741-53.096296 11.377778-125.155556-41.718518-155.496296l-394.42963-227.555555c-53.096296-30.340741-125.155556-11.377778-155.496296 41.718518L37.925926 167.822222c-34.133333 56.888889-15.17037 125.155556 41.718518 155.496297zM682.666667 554.666667l113.777777-113.777778-37.925925-75.851852h-75.851852l-37.925926-113.777778-113.777778-37.925926-75.851852 75.851852V402.962963l75.851852 37.925926 113.777778 75.851852zM629.57037 342.281481c0 3.792593-3.792593 7.585185-7.585185 15.170371l-49.303704-41.718519c11.377778-7.585185 22.755556-15.17037 30.340741-15.17037 7.585185 0 15.17037 3.792593 22.755556 7.585185 3.792593 3.792593 3.792593 7.585185 3.792592 7.585185V327.111111c3.792593 7.585185 0 11.377778 0 15.17037M633.362963 439.751111c-3.792593-3.792593-7.585185-11.377778-7.585185-18.962963s3.792593-15.17037 7.585185-26.548148l45.511111 37.925926c-11.377778 7.585185-18.962963 11.377778-26.548148 11.377778-3.792593 3.792593-11.377778 0-18.962963-3.792593M728.177778 420.788148c3.792593-3.792593 7.585185-7.585185 7.585185-11.377778l-15.17037-18.962963c-3.792593 3.792593-7.585185 11.377778-11.377778 15.170371-3.792593 3.792593-7.585185 7.585185-11.377778 15.17037L644.740741 375.277037c3.792593-7.585185 7.585185-15.17037 7.585185-18.962963 3.792593-7.585185 3.792593-15.17037 7.585185-22.755555v-18.962963c0-7.585185-3.792593-11.377778-11.377778-18.962963-7.585185-7.585185-11.377778-11.377778-18.962963-15.170371-7.585185-3.792593-15.17037-3.792593-22.755555-3.792592-7.585185 0-15.17037 3.792593-26.548148 7.585185-7.585185 3.792593-15.17037 11.377778-26.548148 15.17037l-30.340741-22.755555-15.170371 15.17037 30.340741 22.755556c-7.585185 7.585185-11.377778 11.377778-15.17037 18.962963-3.792593 7.585185-7.585185 11.377778-11.377778 15.17037l18.962963 22.755555c0-7.585185 3.792593-15.17037 11.377778-18.962963 3.792593-7.585185 11.377778-11.377778 15.17037-18.962962l56.888889 45.511111c-3.792593 3.792593-7.585185 11.377778-7.585185 18.962963-3.792593 7.585185-3.792593 15.17037-3.792593 18.962963v18.962963c0 7.585185 3.792593 11.377778 11.377778 18.962962 3.792593 3.792593 11.377778 7.585185 15.17037 11.377778 7.585185 3.792593 15.17037 3.792593 22.755556 3.792593 7.585185 0 15.17037-3.792593 26.548148-3.792593 7.585185-3.792593 18.962963-7.585185 26.548148-15.17037l22.755556 18.962963 15.17037-15.170371-22.755555-18.962962c0-7.585185 3.792593-11.377778 7.585185-15.170371m178.251852 37.925926l-189.62963 189.62963c-26.548148 26.548148-68.266667 26.548148-91.022222 0l-265.481482-265.481482c-26.548148-26.548148-26.548148-64.474074 0-91.022222l189.62963-189.62963c11.377778-11.377778 26.548148-18.962963 45.511111-18.962963s34.133333 7.585185 45.511111 18.962963l79.644445 79.644445s-41.718519 68.266667-45.511112 91.022222c-3.792593 22.755556 0 45.511111 18.962963 56.888889 34.133333 22.755556 64.474074 3.792593 83.437037-22.755556 7.585185-7.585185 26.548148-45.511111 26.548149-45.511111l102.4 102.4c11.377778 11.377778 18.962963 30.340741 18.962963 45.511111 0 18.962963-7.585185 37.925926-18.962963 49.303704M728.936296-80.554667c0-3.792593-3.792593-11.377778-7.585185-11.377777h-227.555555c-7.585185 3.792593-11.377778 7.585185-11.377778 11.377777v56.888889c0 7.585185 3.792593 11.377778 11.377778 11.377778h227.555555c3.792593 0 7.585185-3.792593 7.585185-7.585185v-60.681482M831.336296 128.037926l-94.814815-106.192593s-11.377778-11.377778-22.755555-11.377777h-208.592593c-11.377778 0-22.755556 11.377778-22.755555 22.755555v117.57037l64.474074-68.266666c34.133333-26.548148 68.266667-22.755556 91.022222-3.792593l102.4 98.607408-45.511111 87.229629c-15.17037 22.755556-7.585185 53.096296 11.377778 64.474074 18.962963 11.377778 49.303704 0 60.681481-22.755555l64.474074-117.570371c11.377778-26.548148 11.377778-49.303704 0-60.681481"  horiz-adv-x="1175" />

    
    <glyph glyph-name="danbaotaizhang" unicode="&#59034;" d="M384 85.333333V768c0 72.533333 55.466667 128 128 128h426.666667c72.533333 0 128-55.466667 128-128v-682.666667c0-72.533333-55.466667-128-128-128H512c-72.533333 0-128 55.466667-128 128zM0-42.666667V469.333333c0 46.933333 38.4 85.333333 85.333333 85.333334h341.333334c46.933333 0 85.333333-38.4 85.333333-85.333334v-512c0-46.933333-38.4-85.333333-85.333333-85.333333h-341.333334c-46.933333 0-85.333333 38.4-85.333333 85.333333zM384 512h128v-597.333333h-128zM482.133333-81.066667h-89.6v46.933334h25.6c12.8 0 21.333333 12.8 21.333334 25.6v46.933333c0 12.8-8.533333 21.333333-21.333334 21.333333h-25.6v46.933334h25.6c12.8 0 21.333333 12.8 21.333334 25.6V170.666667c0 12.8-8.533333 21.333333-21.333334 21.333333h-25.6v42.666667h25.6c12.8 0 21.333333 12.8 21.333334 25.6V307.2c0 12.8-8.533333 21.333333-21.333334 21.333333h-25.6v42.666667h25.6c12.8 0 21.333333 12.8 21.333334 25.6V443.733333c0 12.8-8.533333 21.333333-21.333334 21.333334h-25.6v42.666666h89.6v-588.8zM896 554.666667H345.6v-89.6h-68.266667c-12.8 0-25.6-8.533333-25.6-21.333334v-46.933333c0-12.8 12.8-25.6 25.6-25.6h68.266667v-46.933333h-68.266667c-12.8 0-25.6-8.533333-25.6-21.333334V256c0-12.8 12.8-25.6 25.6-25.6h68.266667v-46.933333h-68.266667c-8.533333 8.533333-21.333333 0-21.333333-12.8v-46.933334c0-12.8 12.8-25.6 25.6-25.6h68.266667v-46.933333h-68.266667c-12.8 0-25.6-8.533333-25.6-21.333333v-46.933334c0-12.8 12.8-25.6 25.6-25.6h68.266667v-85.333333H896c25.6 0 42.666667 21.333333 42.666667 46.933333V512c0 25.6-17.066667 42.666667-42.666667 42.666667z"  horiz-adv-x="1066" />

    
    <glyph glyph-name="danbaoguanli" unicode="&#59035;" d="M665.6 510.030769c-7.876923 7.876923-23.630769 11.815385-35.446154 11.815385h-27.569231c-23.630769 0-63.015385 0-106.338461 11.815384-51.2 11.815385-110.276923 66.953846-129.969231 78.769231-3.938462 3.938462-15.753846 7.876923-27.569231 7.876923-7.876923 0-19.692308-3.938462-27.56923-7.876923 0 0-63.015385-63.015385-126.03077-78.769231-39.384615-7.876923-82.707692-11.815385-106.338461-11.815384h-27.569231c-11.815385 0-27.569231-3.938462-35.446154-11.815385-11.815385-7.876923-15.753846-23.630769-15.753846-35.446154v-122.092307c0-448.984615 319.015385-476.553846 330.830769-480.492308h19.692308c11.815385 3.938462 330.830769 27.569231 330.830769 480.492308V474.584615c0 11.815385-3.938462 27.569231-15.753846 35.446154L602.584615 423.384615M1126.4 769.969231c-11.815385 11.815385-27.569231 15.753846-43.323077 15.753846h-31.507692c-27.569231 0-74.830769 3.938462-122.092308 11.815385-59.076923 11.815385-129.969231 78.769231-149.661538 90.584615-7.876923 3.938462-19.692308 7.876923-31.507693 7.876923-11.815385 0-23.630769-3.938462-31.507692-7.876923-3.938462-3.938462-74.830769-74.830769-145.723077-90.584615-47.261538-11.815385-98.461538-11.815385-122.092308-11.815385h-31.507692c-15.753846 0-31.507692-3.938462-43.323077-15.753846-11.815385-11.815385-15.753846-27.569231-15.753846-39.384616v-141.784615c0-523.815385 370.215385-551.384615 385.969231-555.323077h23.630769c15.753846 3.938462 385.969231 31.507692 385.969231 555.323077v141.784615c-7.876923 11.815385-15.753846 27.569231-27.569231 39.384616l-70.892308-102.4M1126.4 769.969231c-11.815385 11.815385-27.569231 15.753846-43.323077 15.753846h-31.507692c-27.569231 0-74.830769 3.938462-122.092308 11.815385-59.076923 11.815385-129.969231 78.769231-149.661538 90.584615-7.876923 3.938462-19.692308 7.876923-31.507693 7.876923-11.815385 0-23.630769-3.938462-31.507692-7.876923-3.938462-3.938462-74.830769-74.830769-145.723077-90.584615-47.261538-11.815385-98.461538-11.815385-122.092308-11.815385h-31.507692c-15.753846 0-31.507692-3.938462-43.323077-15.753846-11.815385-11.815385-15.753846-27.569231-15.753846-39.384616v-141.784615c0-523.815385 370.215385-551.384615 385.969231-555.323077h23.630769c15.753846 3.938462 385.969231 31.507692 385.969231 555.323077v141.784615c-7.876923 11.815385-15.753846 27.569231-27.569231 39.384616l-70.892308-102.4M665.6 510.030769c-7.876923 7.876923-23.630769 11.815385-35.446154 11.815385h-27.569231c-23.630769 0-63.015385 0-106.338461 11.815384-51.2 11.815385-110.276923 66.953846-129.969231 78.769231-3.938462 3.938462-15.753846 7.876923-27.569231 7.876923-7.876923 0-19.692308-3.938462-27.56923-7.876923 0 0-63.015385-63.015385-126.03077-78.769231-39.384615-7.876923-82.707692-11.815385-106.338461-11.815384h-27.569231c-11.815385 0-27.569231-3.938462-35.446154-11.815385-11.815385-7.876923-15.753846-23.630769-15.753846-35.446154v-122.092307c0-452.923077 319.015385-476.553846 330.830769-480.492308h19.692308c11.815385 3.938462 330.830769 27.569231 330.830769 480.492308V474.584615c0 11.815385-3.938462 27.569231-15.753846 35.446154L602.584615 423.384615M512 226.461538m-78.769231 0a78.769231 78.769231 0 1 1 157.538462 0 78.769231 78.769231 0 1 1-157.538462 0ZM334.769231 462.769231c0 98.461538 78.769231 177.230769 177.230769 177.230769s177.230769-78.769231 177.230769-177.230769h-354.461538z m177.230769-295.384616c-31.507692 0-59.076923 27.569231-59.076923 59.076923s27.569231 59.076923 59.076923 59.076924 59.076923-27.569231 59.076923-59.076924-27.569231-59.076923-59.076923-59.076923z m240.246154 330.83077h-55.138462c0 110.276923-98.461538 200.861538-216.615384 200.861538s-216.615385-90.584615-216.615385-200.861538h-55.138461c-31.507692 0-55.138462-23.630769-55.138462-51.2v-405.661539c0-27.569231 23.630769-51.2 55.138462-51.2h543.507692c31.507692 0 55.138462 23.630769 55.138461 51.2V447.015385c0 27.569231-23.630769 51.2-55.138461 51.2z"  horiz-adv-x="1181" />

    
    <glyph glyph-name="jiaoyichengbenfenxi" unicode="&#59036;" d="M787.692308 462.769231m-433.23077 0a433.230769 433.230769 0 1 1 866.461539 0 433.230769 433.230769 0 1 1-866.461539 0ZM374.153846 246.153846m-374.153846 0a374.153846 374.153846 0 1 1 748.307692 0 374.153846 374.153846 0 1 1-748.307692 0ZM590.769231 620.307692c173.292308 0 315.076923-141.784615 315.076923-315.076923s-141.784615-315.076923-315.076923-315.076923-315.076923 141.784615-315.076923 315.076923 141.784615 315.076923 315.076923 315.076923zM783.753846 517.907692L370.215385 293.415385c-7.876923-3.938462-19.692308-3.938462-27.569231 7.876923-3.938462 7.876923-3.938462 19.692308 7.876923 27.56923l307.2 169.353847-27.569231 31.507692v7.876923c0 11.815385 7.876923 19.692308 19.692308 19.692308H779.815385c11.815385 0 19.692308-7.876923 19.692307-19.692308 3.938462-7.876923-7.876923-19.692308-15.753846-19.692308z m-7.876923-378.092307c0-11.815385-7.876923-15.753846-15.753846-19.692308h-378.092308v3.938461c-3.938462 3.938462-7.876923 7.876923-7.876923 15.753847V242.215385c0 7.876923 7.876923 15.753846 15.753846 19.692307L748.307692 447.015385c3.938462 3.938462 7.876923 7.876923 15.753846 7.876923 11.815385 0 19.692308-7.876923 19.692308-19.692308v-295.384615zM590.769231 699.076923C374.153846 699.076923 196.923077 521.846154 196.923077 305.230769s177.230769-393.846154 393.846154-393.846154 393.846154 177.230769 393.846154 393.846154S807.384615 699.076923 590.769231 699.076923z"  horiz-adv-x="1220" />

    
    <glyph glyph-name="fazhaijiaoyi" unicode="&#59037;" d="M1038.755043 379.573487c106.236311 106.236311 157.387128 180.995197 157.387128 224.276657s-51.150817 31.477426-157.387128-43.28146v-180.995197zM810.543708 745.498559l-90.497598 90.497599c-90.497598 31.477426-157.387128 23.608069-200.668588-23.60807-66.889529-66.889529-114.105668-157.387128-66.88953-247.884726 31.477426-59.020173 145.583093-188.864553 342.317003-381.663785h39.346782l133.779059 133.779059L1152.860711 540.895293l39.346782 114.105668c-11.804035 74.758886-39.346782 125.909702-86.56292 157.387127C1062.363112 843.865514 1023.01633 855.669549 995.473583 855.669549l-27.542747-19.673391-90.497599-23.60807-66.889529-66.889529zM590.201729 108.080692c106.236311 98.366955 157.387128 169.191162 157.387128 212.472622s-51.150817 27.542747-157.387128-43.28146V108.080692zM389.533141 438.59366l-82.628242 82.628242C224.276657 548.764649 161.321806 540.895293 118.040346 501.548511c-62.954851-62.954851-106.236311-145.583093-62.954851-232.146013 27.542747-55.085495 133.779059-177.060519 318.708933-358.055716h39.346782l125.909703 125.909702L708.242075 249.729107l39.346782 106.236311c-11.804035 70.824207-39.346782 118.040346-78.693564 145.583093-43.28146 27.542747-78.693564 43.28146-106.236311 39.346782l-23.608069-19.673391-86.562921-19.673391-62.954851-62.954851zM590.201729 619.588857l-314.774255-39.346782 39.346782-196.73391v-39.346782l354.121037-354.121037 78.693564 39.346782 118.040346 118.040346 78.693564 78.693563-39.346782 78.693564 39.346782 39.346782-78.693564 314.774256h-157.387128l-78.693564-39.346782zM495.769452 178.904899c19.673391 19.673391 19.673391 51.150817 0 66.889529-19.673391 19.673391-51.150817 19.673391-70.824207 0 19.673391 19.673391 19.673391 51.150817 0 66.88953-19.673391 19.673391-51.150817 19.673391-70.824208 0l-35.412103-35.412104c-19.673391-19.673391-19.673391-51.150817 0-66.889529 19.673391-19.673391 51.150817-19.673391 70.824207 0-19.673391-19.673391-19.673391-51.150817 0-66.88953 19.673391-19.673391 51.150817-19.673391 70.824208 0l35.412103 35.412104zM566.59366 112.01537c19.673391 19.673391 19.673391 51.150817 0 66.889529-19.673391 19.673391-51.150817 19.673391-70.824208 0l-35.412103-35.412104c-19.673391-19.673391-19.673391-51.150817 0-66.889529 19.673391-19.673391 51.150817-19.673391 70.824207 0-19.673391-19.673391-19.673391-51.150817 0-66.889529 19.673391-19.673391 51.150817-19.673391 70.824208 0l35.412103 35.412104c19.673391 19.673391 19.673391 51.150817 0 66.889529-19.673391 15.738713-51.150817 15.738713-70.824207 0M684.634006 96.276657c-3.934678 15.738713-11.804035 27.542747-23.608069 39.346782l-7.869357 7.869356-7.869356-7.869356 39.346782-39.346782zM963.996158 639.262248c-62.954851 59.020173-153.45245 70.824207-228.211336 35.412104 11.804035 0 23.608069-7.869356 31.477426-15.738713 15.738713-15.738713 23.608069-35.412104 23.608069-55.085495 0-19.673391-7.869356-39.346782-23.608069-55.085495l-23.608069-23.608069 149.517771-145.583093 43.28146-39.346782 31.477426 31.477426c74.758886 70.824207 74.758886 192.799232-3.934678 267.558117M865.629203 352.03074l-149.517772 145.583093-94.432276-94.432277c-15.738713-11.804035-35.412104-19.673391-55.085495-19.673391-19.673391 0-43.28146 7.869356-55.085495 23.608069-15.738713 15.738713-23.608069 35.412104-23.608069 55.085495 0 19.673391 7.869356 39.346782 23.608069 55.085495l94.432277 94.432276-31.477426 31.477426c-78.693564 74.758886-200.668588 74.758886-279.362151 0s-78.693564-200.668588 0-275.427474l31.477425-31.477425 7.869356 7.869356c15.738713 15.738713 39.346782 23.608069 59.020173 23.608069 23.608069 0 43.28146-7.869356 59.020173-23.608069 11.804035-11.804035 19.673391-27.542747 23.608069-43.28146 15.738713-3.934678 31.477426-11.804035 47.216139-23.608069 11.804035-11.804035 19.673391-27.542747 23.608069-43.28146 15.738713-7.869356 31.477426-15.738713 43.28146-31.477426 11.804035-11.804035 19.673391-27.542747 23.608069-43.28146 15.738713-3.934678 27.542747-7.869356 39.346782-15.738713l7.869357 3.934679 74.758885-70.824208c15.738713-15.738713 43.28146-15.738713 59.020173 0 15.738713 15.738713 15.738713 39.346782 0 55.085495l-74.758885 70.824207 15.738712 15.738713L810.543708 147.427474c15.738713-15.738713 43.28146-15.738713 59.020173 0 15.738713 15.738713 15.738713 39.346782 0 55.085494l-74.758886 70.824208 15.738713 15.738713 74.758886-70.824208c15.738713-15.738713 43.28146-15.738713 59.020173 0 15.738713 15.738713 15.738713 43.28146 0 59.020173L865.629203 352.03074zM661.025937 17.583093l-3.934679-3.934678 3.934679-3.934678c15.738713-15.738713 43.28146-15.738713 59.020173 0 15.738713 15.738713 15.738713 43.28146 0 59.020173l-35.412104 35.412103c7.869356-35.412104 0-66.889529-23.608069-86.56292M523.3122 434.658982c15.738713-15.738713 47.216138-15.738713 62.954851 0L731.850144 580.242075c15.738713 15.738713 15.738713 47.216138 0 62.954851-15.738713 15.738713-47.216138 15.738713-62.954851 0l-145.583093-145.583093c-15.738713-15.738713-15.738713-43.28146 0-62.954851"  horiz-adv-x="1219" />

    
    <glyph glyph-name="shouxinxieyijiankong" unicode="&#59038;" d="M787.692308 462.769231m-433.23077 0a433.230769 433.230769 0 1 1 866.461539 0 433.230769 433.230769 0 1 1-866.461539 0ZM374.153846 246.153846m-374.153846 0a374.153846 374.153846 0 1 1 748.307692 0 374.153846 374.153846 0 1 1-748.307692 0ZM630.153846 423.384615m-236.307692 0a236.307692 236.307692 0 1 1 472.615384 0 236.307692 236.307692 0 1 1-472.615384 0ZM720.738462 466.707692c-7.876923-15.753846-23.630769-23.630769-39.384616-23.630769-23.630769 0-47.261538 19.692308-47.261538 47.261539 0 15.753846 7.876923 27.569231 19.692307 35.446153-15.753846 3.938462-31.507692 7.876923-47.261538 7.876923-70.892308 0-129.969231-59.076923-129.969231-129.96923 0-70.892308 59.076923-129.969231 129.969231-129.969231 70.892308 0 129.969231 59.076923 129.969231 129.969231 3.938462 23.630769-3.938462 47.261538-15.753846 63.015384M464.738462 265.846154c-82.707692 82.707692-82.707692 212.676923 0 295.384615 82.707692 82.707692 216.615385 82.707692 295.384615 0 82.707692-82.707692 82.707692-212.676923 0-295.384615-82.707692-82.707692-212.676923-82.707692-295.384615 0m350.523076-330.830769V21.661538c0 7.876923-3.938462 11.815385-7.876923 15.753847-3.938462 3.938462-11.815385 7.876923-15.753846 7.876923h-149.661538V116.184615c66.953846 7.876923 129.969231 35.446154 177.230769 82.707693 114.215385 114.215385 114.215385 295.384615 0 409.6-114.215385 114.215385-299.323077 114.215385-413.538462 0-114.215385-114.215385-114.215385-295.384615 0-409.6 47.261538-47.261538 110.276923-74.830769 177.23077-82.707693v-70.892307H433.230769c-11.815385 0-23.630769-11.815385-23.630769-23.63077v-86.646153c0-11.815385 11.815385-23.630769 23.630769-23.63077h366.276923c3.938462 0 15.753846 11.815385 15.753846 23.63077"  horiz-adv-x="1220" />

    
    <glyph glyph-name="shouxinxieyiguanli" unicode="&#59039;" d="M806.199502 874.833527L1022.49693 748.987751c47.192166-27.528763 78.65361-78.65361 78.653609-137.643817v-251.691552c0-55.057527-31.461444-106.182373-78.653609-137.643818l-216.297428-125.845776c-47.192166-27.528763-110.115054-27.528763-157.30722 0L432.594855 225.941245c-47.192166 27.528763-78.65361 78.65361-78.65361 137.643817V615.276614c0 55.057527 31.461444 106.182373 78.65361 137.643818l216.297427 125.845776c51.124846 23.596083 110.115054 23.596083 157.30722-3.932681zM405.066091 560.219087L570.238672 461.902075c47.192166-27.528763 78.65361-78.65361 78.65361-137.643818v-192.701344c0-55.057527-31.461444-106.182373-78.65361-137.643818l-169.105261-98.317012c-47.192166-27.528763-110.115054-27.528763-157.30722 0L78.65361-2.154224c-47.192166 27.528763-78.65361 78.65361-78.65361 137.643817V324.258257c0 58.990207 31.461444 110.115054 78.65361 137.643818L247.758871 560.219087c47.192166 27.528763 106.182373 27.528763 157.30722 0zM503.383104 642.805378l196.634025-78.65361 82.58629-200.566706-82.58629-196.634025-196.634025-82.58629-196.634025 82.58629-82.586291 196.634025L306.749079 564.151768zM609.565477 752.920432L825.862905 627.074656c47.192166-27.528763 78.65361-78.65361 78.65361-137.643818v-255.624232c0-55.057527-31.461444-106.182373-78.65361-137.643818l-216.297428-125.845776c-47.192166-27.528763-110.115054-27.528763-157.30722 0L235.96083 100.095469c-47.192166 27.528763-78.65361 78.65361-78.65361 137.643817V493.363519c0 55.057527 31.461444 106.182373 78.65361 137.643817l216.297427 125.845776c47.192166 27.528763 110.115054 27.528763 157.30722-3.93268z m-39.326805-589.902075c0 3.93268 3.93268 23.596083 23.596083 23.596083h7.865361c-3.93268 3.93268-3.93268 7.865361-3.93268 11.798041-3.93268 11.798041 0 23.596083 3.93268 31.461444-15.730722 27.528763-15.730722 66.855568 7.865361 86.518971 11.798041 11.798041 27.528763 19.663402 47.192166 19.663403 15.730722 0 31.461444-3.93268 43.259486-15.730722 7.865361-7.865361 15.730722-19.663402 19.663402-27.528764V520.892282c0 35.394124-23.596083 62.922888-55.057527 62.922888h-263.489593c-3.93268 0-7.865361-3.93268-11.798042-3.93268-3.93268 0-7.865361-3.93268-7.865361-3.932681-7.865361-3.93268-11.798041-11.798041-15.730722-23.596083-11.798041-15.730722-11.798041-27.528763-11.798041-35.394124v-314.61444c0-35.394124 23.596083-62.922888 55.057527-62.922888h161.2399V147.287635v15.730722zM696.084448 225.941245c3.93268 3.93268 3.93268 7.865361 7.865361 7.865361 15.730722 23.596083 7.865361 55.057527-11.798041 74.720929-7.865361 7.865361-23.596083 11.798041-35.394125 11.798042-15.730722 0-27.528763-3.93268-39.326805-15.730722-19.663402-19.663402-19.663402-55.057527 0-78.65361 0-3.93268-3.93268-3.93268-3.93268-3.932681-3.93268-7.865361-7.865361-15.730722-3.932681-23.596083 3.93268-11.798041 15.730722-11.798041 19.663403-15.730722h55.057527c11.798041 0 19.663402 7.865361 19.663402 11.798042 3.93268 11.798041 0 19.663402-7.865361 31.461444 0-3.93268 0 0 0 0z m35.394125-82.586291v15.730722c0 7.865361-3.93268 11.798041-11.798042 11.798042h-117.980415c-7.865361 0-11.798041-3.93268-11.798041-11.798042v-15.730722h141.576498zM412.931452 501.22888h196.634025c11.798041 0 19.663402-7.865361 19.663403-19.663403s-7.865361-19.663402-19.663403-19.663402h-196.634025c-11.798041 0-19.663402 7.865361-19.663402 19.663402s7.865361 19.663402 19.663402 19.663403zM412.931452 422.57527h78.65361c11.798041 0 19.663402-7.865361 19.663403-19.663403s-7.865361-19.663402-19.663403-19.663402h-78.65361c-11.798041 0-19.663402 7.865361-19.663402 19.663402s7.865361 19.663402 19.663402 19.663403zM412.931452 343.92166h39.326805c11.798041 0 19.663402-7.865361 19.663403-19.663403s-7.865361-19.663402-19.663403-19.663402h-39.326805c-11.798041 0-19.663402 7.865361-19.663402 19.663402s7.865361 19.663402 19.663402 19.663403z"  horiz-adv-x="1140" />

    
    <glyph glyph-name="wangyinzhifu" unicode="&#59040;" d="M512-49.493333c238.933333 0 433.493333 194.56 433.493333 433.493333S750.933333 817.493333 512 817.493333C273.066667 817.493333 78.506667 622.933333 78.506667 384c0-238.933333 194.56-433.493333 433.493333-433.493333z m0-78.506667c-283.306667 0-512 228.693333-512 512s228.693333 512 512 512S1024 667.306667 1024 384s-228.693333-512-512-512zM709.973333 267.946667c0-10.24-13.653333-20.48-27.306666-20.48h-143.36v-81.92c0-10.24-10.24-23.893333-30.72-23.893334-17.066667 0-30.72 10.24-30.72 23.893334V247.466667h-143.36c-13.653333 0-27.306667 10.24-27.306667 23.893333 0 13.653333 13.653333 23.893333 27.306667 23.893333H477.866667v68.266667h-143.36c-13.653333 0-27.306667 10.24-27.306667 23.893333 0 10.24 13.653333 20.48 27.306667 20.48h122.88l-126.293334 184.32c-6.826667 10.24-3.413333 23.893333 13.653334 30.72 13.653333 3.413333 30.72 0 37.546666-10.24L512 428.373333l122.88 187.733334c6.826667 10.24 23.893333 13.653333 40.96 10.24 13.653333-3.413333 20.48-20.48 13.653333-30.72l-122.88-187.733334H682.666667c13.653333 0 30.72-10.24 30.72-23.893333 0-13.653333-13.653333-23.893333-30.72-23.893333h-143.36v-71.68H682.666667c13.653333 3.413333 27.306667-6.826667 27.306666-20.48"  horiz-adv-x="1024" />

    
    <glyph glyph-name="shougongqueren" unicode="&#59041;" d="M51.2 896v-1024h180.906667v64.853333h-116.053334V831.146667h764.586667V424.96h64.853333V896zM242.346667 575.146667h170.666666v64.853333h-170.666666zM655.36 295.253333c6.826667 3.413333 10.24 10.24 6.826667 30.72l-27.306667 116.053334c-3.413333 17.066667 6.826667 30.72 23.893333 34.133333l30.72 6.826667c17.066667 3.413333 30.72-6.826667 34.133334-23.893334L768 257.706667c3.413333-20.48 6.826667-40.96 10.24-58.026667v-269.653333H419.84c-23.893333 0-44.373333 20.48-44.373333 44.373333l-58.026667 296.96S314.026667 315.733333 361.813333 315.733333h3.413334l266.24-30.72 23.893333 10.24z m167.253333-95.573333h13.653334c54.613333-3.413333 47.786667-44.373333 47.786666-44.373333v-177.493334c0-23.893333-20.48-44.373333-44.373333-44.373333h-13.653333v266.24z m-508.586666-262.826667c0-34.133333 27.306667-64.853333 64.853333-64.853333h498.346667c34.133333 0 64.853333 27.306667 64.853333 64.853333v259.413334c0 34.133333-27.306667 64.853333-64.853333 64.853333h-58.026667v10.24L761.173333 534.186667c-3.413333 17.066667-20.48 27.306667-34.133333 23.893333L597.333333 527.36c-17.066667-3.413333-27.306667-20.48-23.893333-34.133333l30.72-136.533334-283.306667 27.306667c-37.546667-3.413333-64.853333-34.133333-64.853333-68.266667l58.026667-378.88z"  horiz-adv-x="1024" />

    
    <glyph glyph-name="shougongjiesuan" unicode="&#59042;" d="M51.2 896h894.293333V424.96h-64.853333V831.146667H116.053333v-894.293334h252.586667V-128H51.2v1024z m208.213333-532.48V428.373333h129.706667v-64.853333h-129.706667z m0 256v64.853333h512v-64.853333h-512z m648.533334-727.04c-3.413333-13.653333-17.066667-20.48-30.72-20.48-13.653333 3.413333-20.48 17.066667-17.066667 30.72l30.72 119.466667V274.773333c0 10.24-6.826667 17.066667-10.24 17.066667-3.413333 0-6.826667 3.413333-10.24 3.413333-3.413333 0-6.826667 0-10.24-3.413333-6.826667-3.413333-10.24-10.24-10.24-17.066667V247.466667c0-13.653333-10.24-23.893333-23.893333-23.893334-13.653333 0-23.893333 10.24-23.893334 23.893334V312.32c0 10.24-3.413333 17.066667-10.24 20.48h-20.48c-6.826667-3.413333-10.24-10.24-10.24-17.066667v-68.266666c0-13.653333-10.24-23.893333-23.893333-23.893334-13.653333 0-23.893333 10.24-23.893333 23.893334V319.146667c0 10.24-3.413333 17.066667-10.24 20.48-3.413333 0-6.826667 3.413333-10.24 3.413333-3.413333 0-6.826667 0-10.24-3.413333-6.826667-3.413333-10.24-10.24-10.24-17.066667V247.466667c0-13.653333-10.24-23.893333-23.893334-23.893334-13.653333 0-23.893333 10.24-23.893333 23.893334V486.4c0 10.24-6.826667 17.066667-13.653333 20.48-3.413333 0-6.826667 3.413333-10.24 3.413333-3.413333 0-6.826667 0-10.24-3.413333-6.826667-3.413333-10.24-10.24-10.24-20.48v-392.533333c0-13.653333-10.24-23.893333-23.893334-23.893334-13.653333 0-23.893333 10.24-23.893333 23.893334v109.226666c0 10.24-3.413333 17.066667-10.24 17.066667-3.413333 3.413333-6.826667 3.413333-10.24 3.413333-3.413333 0-6.826667 0-10.24-3.413333-6.826667-3.413333-10.24-10.24-10.24-20.48V76.8c0-47.786667 3.413333-51.2 27.306667-81.92l6.826666-10.24 54.613334-68.266667c6.826667-10.24 6.826667-27.306667-3.413334-34.133333-10.24-6.826667-27.306667-6.826667-34.133333 3.413333l-54.613333 68.266667-6.826667 10.24c-34.133333 44.373333-37.546667 47.786667-37.546667 112.64v122.88c0 34.133333 20.48 54.613333 44.373334 64.853333 10.24 3.413333 20.48 6.826667 27.306666 6.826667 6.826667 0 13.653333 0 20.48-3.413333V482.986667c0 34.133333 17.066667 54.613333 40.96 64.853333-6.826667 6.826667 3.413333 6.826667 13.653334 6.826667 10.24 0 20.48 0 27.306666-6.826667 23.893333-10.24 40.96-30.72 40.96-64.853333v-95.573334c6.826667 3.413333 13.653333 3.413333 20.48 3.413334 10.24 0 20.48-3.413333 27.306667-3.413334 6.826667-3.413333 17.066667-10.24 23.893333-17.066666 3.413333 3.413333 6.826667 3.413333 13.653334 6.826666 10.24 3.413333 17.066667 6.826667 27.306666 6.826667 10.24 0 20.48-3.413333 27.306667-6.826667 17.066667-6.826667 30.72-17.066667 37.546667-37.546666 10.24 3.413333 17.066667 6.826667 27.306666 6.826666 10.24 0 20.48-3.413333 27.306667-6.826666 30.72-10.24 47.786667-34.133333 47.786667-64.853334V15.36l-30.72-122.88z"  horiz-adv-x="1024" />

    
    <glyph glyph-name="tuihui" unicode="&#59043;" d="M51.2 896h894.020267v-607.061333h-63.829334V832.170667H115.029333v-894.020267h286.6176v-63.863467H51.2V896z m204.8-541.7984V418.133333h129.024v-63.931733H256z m0 273.066667V691.2h511.488v-63.931733H256z m501.0432-428.544c88.405333 0 159.675733-70.724267 159.675733-157.696 0-87.278933-71.2704-157.661867-159.3344-157.661867h-186.7776a26.2144 26.2144 0 0 0 0 52.4288h186.436267c58.914133 0 106.564267 47.069867 106.564267 105.233067 0 58.197333-47.650133 105.233067-106.564267 105.233066h-182.306133l41.472-40.96a23.483733 23.483733 0 0 0 0-33.792 24.234667 24.234667 0 0 0-34.269867 0l-84.650667 83.217067a22.8352 22.8352 0 0 0-7.168 17.92 23.552 23.552 0 0 0 7.168 18.295467l84.650667 83.5584a24.234667 24.234667 0 0 0 34.269867 0 23.893333 23.893333 0 0 0 0-34.167467l-41.813334-41.642667h182.613334z"  horiz-adv-x="1024" />

    
    <glyph glyph-name="shouhui" unicode="&#59044;" d="M51.2 896h894.020267v-607.061333h-63.829334V832.170667H115.029333v-894.020267h286.6176v-63.863467H51.2V896z m204.8-541.7984V418.133333h129.024v-63.931733H256z m0 273.066667V691.2h511.488v-63.931733H256z m402.432-747.281067l-157.013333 178.858667a28.228267 28.228267 0 0 0-6.485334 18.090666 29.627733 29.627733 0 0 0 7.168 19.899734l155.921067 176.674133c1.058133 1.092267 1.9456 2.1504 3.003733 3.003733a22.016 22.016 0 0 0 31.095467-3.003733 29.764267 29.764267 0 0 0 0-38.673067l-114.688-129.809066h335.223467c15.5648 0 28.330667-12.731733 28.330666-28.2624a28.398933 28.398933 0 0 0-28.330666-28.330667H578.56l114.039467-129.774933a28.740267 28.740267 0 0 0 6.929066-19.217067 29.013333 29.013333 0 0 0-6.929066-19.456 22.869333 22.869333 0 0 0-17.066667-7.9872 23.6544 23.6544 0 0 0-17.066667 7.9872z"  horiz-adv-x="1024" />

    
    <glyph glyph-name="zuofei" unicode="&#59045;" d="M293.093382 7.530228c206.428202-119.184874 471.563467-48.150689 590.748341 158.277513 119.184874 206.428202 48.150689 471.563467-158.277513 590.74834-206.428202 119.184874-471.59752 48.150689-590.782393-158.277512-119.184874-206.428202-48.116636-471.59752 158.311565-590.782394z m-37.458103-64.904677a510.11126 510.11126 0 0 0-186.949988 697.742305 510.11126 510.11126 0 0 0 697.742304 186.949988 510.11126 510.11126 0 0 0 186.949988-697.742305 510.11126 510.11126 0 0 0-697.742304-186.949988zM758.220866 792.75423c20.670062-11.918487 25.199088-38.13916 14.983241-55.846627l-434.173469-751.988448c-11.918487-20.63601-39.841801-28.12763-57.549268-17.911784-20.63601 11.918487-25.165035 38.13916-14.949189 55.846627l434.17347 751.988448c11.918487 20.63601 36.879205 29.830271 57.549267 17.911784z"  horiz-adv-x="1024" />

    
    <glyph glyph-name="tijiao" unicode="&#59046;" d="M51.2 896h894.293333V424.96h-64.853333V831.146667H116.053333v-894.293334h423.253334V-128H51.2v1024z m204.8-542.72V418.133333h129.706667v-64.853333H256z m0 273.066667V691.2h512v-64.853333H256zM600.746667 213.333333h194.56L699.733333 329.386667 600.746667 213.333333z m341.333333-68.266666H457.386667L699.733333 438.613333l242.346667-293.546666zM665.6 179.2h68.266667v-307.2h-68.266667z"  horiz-adv-x="1024" />

    


  </font>
</defs>
</svg>
