<?xml version="1.0" standalone="no"?>
<!DOCTYPE svg PUBLIC "-//W3C//DTD SVG 1.1//EN" "http://www.w3.org/Graphics/SVG/1.1/DTD/svg11.dtd" >
<svg xmlns="http://www.w3.org/2000/svg">
<metadata>
Created by FontForge 20120731 at Thu Jan 12 15:05:05 2017
 By admin
</metadata>
<defs>
<font id="iconfont_iform" horiz-adv-x="1024" >
  <font-face 
    font-family="iconfont_iform"
    font-weight="500"
    font-stretch="normal"
    units-per-em="1024"
    panose-1="2 0 6 3 0 0 0 0 0 0"
    ascent="896"
    descent="-128"
    x-height="792"
    bbox="-0.225 -212 3971 896"
    underline-thickness="0"
    underline-position="0"
    unicode-range="U+0078-E6A8"
  />
<missing-glyph 
 />
    <glyph glyph-name=".notdef" 
 />
    <glyph glyph-name=".notdef" 
 />
    <glyph glyph-name=".null" horiz-adv-x="0" 
 />
    <glyph glyph-name="nonmarkingreturn" horiz-adv-x="341" 
 />
    <glyph glyph-name="x" unicode="x" horiz-adv-x="1001" 
d="M281 543q-27 -1 -53 -1h-83q-18 0 -36.5 -6t-32.5 -18.5t-23 -32t-9 -45.5v-76h912v41q0 16 -0.5 30t-0.5 18q0 13 -5 29t-17 29.5t-31.5 22.5t-49.5 9h-133v-97h-438v97zM955 310v-52q0 -23 0.5 -52t0.5 -58t-10.5 -47.5t-26 -30t-33 -16t-31.5 -4.5q-14 -1 -29.5 -0.5
t-29.5 0.5h-32l-45 128h-439l-44 -128h-29h-34q-20 0 -45 1q-25 0 -41 9.5t-25.5 23t-13.5 29.5t-4 30v167h911zM163 247q-12 0 -21 -8.5t-9 -21.5t9 -21.5t21 -8.5q13 0 22 8.5t9 21.5t-9 21.5t-22 8.5zM316 123q-8 -26 -14 -48q-5 -19 -10.5 -37t-7.5 -25t-3 -15t1 -14.5
t9.5 -10.5t21.5 -4h37h67h81h80h64h36q23 0 34 12t2 38q-5 13 -9.5 30.5t-9.5 34.5q-5 19 -11 39h-368zM336 498v228q0 11 2.5 23t10 21.5t20.5 15.5t34 6h188q31 0 51.5 -14.5t20.5 -52.5v-227h-327z" />
    <glyph glyph-name="arrowup" unicode="&#xe612;" 
d="M512 811q18 0 30 -13l299 -298q12 -13 12 -31t-12 -30t-30 -12t-31 12l-225 226v-665q0 -18 -12.5 -30.5t-30.5 -12.5t-30.5 12.5t-12.5 30.5v665l-225 -226q-13 -12 -31 -12t-30 12t-12 30t12 31l299 298q12 13 30 13v0z" />
    <glyph glyph-name="zhongzhi" unicode="&#xe667;" 
d="M824 517l-118 86q-10 7 -24 7l-1 -57h-441q-15 0 -25.5 -7.5t-10.5 -18.5v-50q0 -10 10.5 -18t25.5 -8h440l-1 -58q14 0 24 7l121 83q10 7 10 17t-10 17v0zM748 316h-439l1 59q-14 0 -24 -7l-121 -84q-10 -7 -10 -17t9 -17l119 -85q9 -7 23 -7l1 57h441q15 0 25.5 7.5
t10.5 17.5v50q0 11 -10.5 18.5t-25.5 7.5v0zM748 316z" />
    <glyph glyph-name="xitong" unicode="&#xe67b;" 
d="M1023 161q2 -13 -1.5 -31.5t-11.5 -38.5q-7 -19 -18 -34.5t-24.5 -22t-22.5 -6.5q-11 0 -22 4q-11 3 -27.5 6t-33.5 1.5t-34.5 -7t-29.5 -18.5q-26 -28 -30 -63q-5 -35 9 -67q11 -22 -3 -44q-6 -9 -21 -18q-14 -9 -31.5 -17t-35.5 -12q-18 -5 -33 -5q-10 0 -19 8
q-8 7 -12 16h-1q-12 34 -41 59t-68 25q-37 0 -67.5 -25t-42.5 -57q-5 -14 -16 -20t-24 -6q-16 0 -35 6q-20 5 -38 14q-20 8 -35 19t-23 22q-6 7 -6.5 17.5t8.5 29.5q12 25 9.5 57.5t-28.5 60.5q-15 16 -37 21t-42 4q-23 -1 -47 -9q-16 -4 -31 2q-12 5 -22.5 20.5t-18.5 35.5
q-8 19 -12.5 39.5t-2.5 33.5q3 24 22 31q33 13 59.5 43.5t26.5 67.5q0 38 -26.5 66.5t-59.5 42.5q-10 3 -16.5 15.5t-6.5 25.5q0 15 4.5 32.5t11.5 34.5q7 16 16 30q10 13 21 20q9 6 17 4.5t18 -4.5q33 -13 69 -8t63 31q13 13 19 32.5t7.5 38t0.5 34.5q-2 15 -3 22
q-2 6 -3.5 15t1.5 15q6 16 23.5 27.5t36.5 19.5q21 7 39 11q19 4 30 4q14 0 22 -9.5t12 -19.5q12 -29 39.5 -51.5t64.5 -22.5q39 0 68.5 21t41.5 55q5 8 14 17.5t19 9.5q15 0 33.5 -4.5t36 -12t32.5 -19.5t23 -27q6 -8 4 -19q-2 -10 -5 -15q-14 -32 -8.5 -67t32 -61.5
t65 -29t71.5 12.5q9 6 21.5 4.5t21.5 -9.5q16 -16 28.5 -47t17.5 -63q2 -19 -6 -29.5t-17 -13.5q-34 -12 -58.5 -42.5t-24.5 -68.5t20.5 -66t53.5 -40q7 -4 13 -9q12 -10 17 -25zM511 62q50 0 94 19q44 18 76.5 51t50.5 77q19 43 19 92.5t-18.5 93t-51 76t-76.5 51
t-93.5 18.5t-93 -18.5t-76 -51t-51 -76t-18.5 -93t18.5 -93t51 -76.5t76 -51.5t92.5 -18.5z" />
    <glyph glyph-name="baocun" unicode="&#xe668;" 
d="M867 -65h-710l-5 2q-62 11 -83 70q0 1 -5 21v710l2 5q12 67 79 85l12 3h610q31 -7 64 -38q45 -44 88 -88q34 -35 41 -66v-611l-2 -5q-12 -67 -79 -85q-2 0 -12 -3zM512 -30h305q40 0 40 39v335q0 39 -39 39h-612q-39 0 -39 -38v-336q0 -8 1 -12q7 -27 39 -27h305z
M494 486h218q41 0 41 41v229q0 41 -41 41h-435q-41 0 -41 -41v-229q0 -41 41 -41h217zM582 762h101v-240h-101v240z" />
    <glyph glyph-name="component" unicode="&#xe655;" 
d="M845 409q37 0 69.5 -14t57 -38.5t38.5 -57.5t14 -69q0 -38 -14 -70t-38.5 -57t-57.5 -39t-69 -14q-33 0 -63 12.5t-53 32.5v-147q0 -31 -22.5 -53.5t-53.5 -22.5h-576q-31 0 -54 22.5t-23 53.5v130q6 25 21 37t44 -6q14 -8 21 -9q31 -16 62.5 -16t59 12t48 32.5t32 47.5
t11.5 58.5t-11.5 59t-32 48t-48 32.5t-59.5 12q-30 0 -59 -13q-7 -2 -12 -5q-14 -7 -27 -13q-14 -6 -24.5 -4.5t-17.5 12t-8 34.5v124q0 31 23 54t54 23h182q-18 24 -29.5 52.5t-11.5 61.5q0 39 15 72t39.5 58t57.5 39.5t70.5 14.5t70.5 -14.5t57.5 -39.5t39.5 -58t15 -72
q0 -66 -41 -114h111q31 0 53.5 -23t22.5 -54v-156q23 20 52.5 32t63.5 12v0z" />
    <glyph glyph-name="star" unicode="&#xe611;" 
d="M987 526q0 -12 -14 -27l-208 -202l49 -286q1 -4 1 -12q0 -12 -6 -20t-18 -8q-10 0 -22 7l-257 135l-257 -135q-12 -7 -22 -7q-12 0 -18 8t-6 20q0 4 1 12l49 286l-208 202q-14 15 -14 27q0 21 32 27l286 41l129 260q11 24 28 24t28 -24l129 -260l286 -41q32 -6 32 -27v0z
" />
    <glyph glyph-name="plus" unicode="&#xe614;" 
d="M864 404h-320v320q0 13 -9.5 22.5t-22.5 9.5t-22.5 -9.5t-9.5 -22.5v-320h-320q-13 0 -22.5 -9.5t-9.5 -22.5t9.5 -22.5t22.5 -9.5h320v-320q0 -13 9.5 -22.5t22.5 -9.5t22.5 9.5t9.5 22.5v320h320q13 0 22.5 9.5t9.5 22.5t-9.5 22.5t-22.5 9.5z" />
    <glyph glyph-name="mail" unicode="&#xe66a;" 
d="M904 172l-232 208l232 203v-411zM171 142l226 200l36 -32q33 -28 79.5 -28t78.5 28l37 32l225 -200h-682zM121 172v411l232 -203zM860 626l-291 -258q-38 -34 -56.5 -34t-56.5 34l-292 258h696zM881 684h-738q-30 0 -52 -21.5t-22 -52.5v-452q0 -31 22 -52.5t52 -21.5
h738q31 0 52.5 21.5t21.5 52.5v452q0 31 -21.5 52.5t-52.5 21.5z" />
    <glyph glyph-name="tongzhi" unicode="&#xe677;" 
d="M940 75q-2 61 -30.5 114t-76.5 89v224q0 97 -61 171t-154 94v5q0 44 -31.5 75.5t-75.5 31.5v0q-45 0 -76.5 -31.5t-31.5 -75.5v-5q-93 -20 -154 -94t-61 -171v-224q-48 -36 -76 -89t-31 -114h107v-1h645v1h107v0zM488 -120h27q52 0 91 35t45 86h-281q6 -51 45.5 -86
t91.5 -35h-19z" />
    <glyph glyph-name="tishi" unicode="&#xe66f;" 
d="M511 814q-91 0 -173.5 -35.5t-142.5 -95.5t-95.5 -143t-35.5 -174t35.5 -173.5t95.5 -142.5t142.5 -95.5t173.5 -35.5t174 35.5t143 95.5t95.5 142.5t35.5 173.5t-35.5 174t-95.5 143t-143 95.5t-174 35.5zM511 88q-20 0 -34 14.5t-14 34.5t14 34t34 14t34.5 -14
t14.5 -34t-14.5 -34.5t-34.5 -14.5zM560 233h-97v399h97v-399z" />
    <glyph glyph-name="ok" unicode="&#xe670;" 
d="M932 561q-36 83 -97.5 144.5t-145 97.5t-178 36t-177.5 -36t-144.5 -97.5t-97.5 -144.5t-36 -178t36 -178t97.5 -144.5t144.5 -98t177.5 -36.5t178 36.5t145 98t97.5 144.5t36 178t-36 178zM724 489l-254 -257v-1h-1q-1 -1 -6 -4q-1 -1 -2 -1.5t-2 -1.5q-6 -2 -12 -2
t-12 3l-1.5 1l-1.5 1q-6 3 -7 4v1v0l-126 128q-9 10 -8.5 23t9.5 22.5t22.5 9t22.5 -9.5l103 -106l231 235q10 9 23 9t22.5 -9t9.5 -22.5t-10 -22.5z" />
    <glyph glyph-name="star1" unicode="&#xe613;" 
d="M973 529l-320 48l-142 291l-144 -289l-321 -45l231 -227l-57 -318l287 149l286 -152l-53 319zM506 193l-226 -119l43 252l-183 178l253 37l113 229l113 -229l253 -37l-183 -178l43 -252z" />
    <glyph glyph-name="arrow-down" unicode="&#xe615;" 
d="M192 523l35 39l284 -272l281 259l38 -39l-319 -298z" />
    <glyph glyph-name="arrow-up" unicode="&#xe616;" 
d="M832 245l-35 -39l-284 272l-281 -259l-38 39l319 298z" />
    <glyph glyph-name="design" unicode="&#xe65d;" 
d="M781 597q-41 -52 -187 -240l-88 93q170 159 213 198q48 45 84.5 67.5t45.5 11.5q4 -4 -1.5 -20.5t-23 -46t-43.5 -63.5v0zM579 337q-19 -23 -64 -82l-104 106q20 19 77 72l91 -96v0zM499 235v1q-12 -50 -37 -82t-53.5 -45t-63.5 -15t-62.5 3t-56 14.5t-38.5 14t-16 7.5v0
q5 -1 12.5 -1t27 3t34 11.5t26.5 29.5t12 52q0 30 11.5 52.5t25.5 34t32 19t26.5 9t14.5 1.5l106 -108l-1 -1v0zM499 235z" />
    <glyph glyph-name="iconfont" unicode="&#xe6a8;" 
d="M854 743.5q-10 19.5 -33 19.5h-721q-24 0 -34 -19.5t6 -36.5l256 -275v-309q0 -21 20 -31l190 -86q8 -4 16 -4q10 0 19 5q17 9 18 28l13 397l246 276q14 16 4 35.5zM402 144v267h128l-11 -321zM549 478l-2 0.5t-4 0.5h-161l-202 216h563zM684 371h274v-60h-274v60z
M684 240h274v-60h-274v60zM684 121h274v-60h-274v60z" />
    <glyph glyph-name="duanxin" unicode="&#xe66b;" 
d="M878 790h-733q-33 0 -57 -24t-24 -58v-488q0 -34 24 -58t57 -24h181q6 -9 13 -16l115 -116q24 -23 58 -23t57 23l116 116q7 7 13 16h180q34 0 58 24t24 58v488q0 34 -24 58t-58 24v0zM895 244q0 -18 -12.5 -31t-29.5 -13h-180l-129 -132q-12 -12 -30 -12t-30 12l-129 132
h-184q-18 0 -30.5 13t-12.5 31v435q0 18 12.5 31t30.5 13h682q17 0 29.5 -13t12.5 -31v-435v0zM912 237zM342 433q0 -9 -6.5 -15.5t-15.5 -6.5h-51q-9 0 -15.5 6.5t-6.5 15.5v50q0 9 6.5 15.5t15.5 6.5h51q9 0 15.5 -6.5t6.5 -15.5v-50zM559 433q0 -9 -6.5 -15.5t-15.5 -6.5
h-51q-9 0 -15.5 6.5t-6.5 15.5v50q0 9 6.5 15.5t15.5 6.5h51q9 0 15.5 -6.5t6.5 -15.5v-50zM777 433q0 -9 -6.5 -15.5t-15.5 -6.5h-51q-9 0 -15.5 6.5t-6.5 15.5v50q0 9 6.5 15.5t15.5 6.5h51q9 0 15.5 -6.5t6.5 -15.5v-50z" />
    <glyph glyph-name="nccloud" unicode="&#xe600;" horiz-adv-x="4062" 
d="M2133 512q5 -4 12 -12t9 -10q3 -4 9 -13t10 -13q3 -5 8.5 -14t8.5 -13l13 -29l12 -31q0 22 -1.5 32.5t-5.5 34.5q-1 5 -3.5 16t-4.5 16q-5 16 -14 33q-10 20 -17 30q-17 26 -20 29q-14 17 -24 28l-14 12l-14 12q-11 11 -29 20q-13 9 -32 17q-18 9 -34 14q-5 2 -11 3.5
t-13.5 3.5t-11.5 3q-13 4 -37 7q-12 1 -38 1q-6 0 -19 -0.5t-19 -0.5h-3l-2 1q-13 18 -22 28l-24 25q-4 5 -12.5 12.5t-12.5 11.5q-23 18 -28 21q-25 17 -29 19q-18 11 -59 32q-39 16 -65 22q-45 10 -67 12q-6 1 -17 2t-17 2h-34q-6 0 -17 -1t-17 -1l-17 -2l-19 -3l-26 -7
l-34 -10q-5 -2 -15 -6.5t-16 -5.5l-30 -16q-5 -2 -14.5 -8t-14.5 -9q-10 -5 -28 -19l-25 -20q-4 -3 -12 -11t-12 -11q-7 -9 -22 -24l-21 -26q-2 -3 -17 -27q-2 -4 -7.5 -13.5t-7.5 -13.5q-3 -5 -7 -14.5t-7 -14.5l-10 -31q-2 -5 -4.5 -15.5t-4.5 -15.5l-5 -30l16 27
q10 17 17 25l17 24q3 5 9 12.5t10 11.5l20 22l21 21l22 19q5 3 13 9.5t9 7.5q4 2 12 7.5t12 7.5q17 10 24 14q4 1 12.5 5.5t12.5 6.5l26 10q10 2 27 8l28 7l23 5l31 4v0v0h-2h2h2h3h7l14 2h27q19 0 53 -4q39 -8 53 -12q17 -5 51 -19q4 -1 12 -5.5t12 -6.5q3 -1 24 -13
q3 -3 11 -8t11 -8l22 -15l21 -17l18 -19l19 -20l17 -21l22 -27l29 7l30 7q17 3 27 3q4 0 13.5 1t13.5 1q19 0 29 -2q1 0 11.5 -1.5t15.5 -3.5q21 -4 28 -7q1 -1 11.5 -4t15.5 -6q22 -9 27 -12l14 -7l12 -8q6 -4 24 -18zM1055 43q-21 15 -92 67t-113 83q-52 38 -113.5 83.5
t-96 70.5t-36.5 27q-27 19 -58 19q-41 0 -69 -29t-28 -69v-403h124v352q21 -15 92 -67t113 -83q52 -38 114 -83.5t96 -71t36 -26.5q27 -19 58 -19q41 0 69 28.5t28 68.5v403h-124v-351zM1256 143.5q0 -102.5 72.5 -175t175.5 -72.5h467v124h-467q-52 0 -87.5 36t-35.5 87.5
t35.5 87t87.5 35.5h467v125h-467q-103 0 -175.5 -72.5t-72.5 -175zM2756 145h-65q-52 0 -90 -37t-38 -91q0 -53 37.5 -90.5t90.5 -37.5h65q53 0 90.5 37.5t37.5 90.5q-1 54 -38 91t-90 37zM2756 -77h-65q-38 0 -65.5 28t-27.5 66t27.5 66t65.5 28h65q39 0 66.5 -28t27.5 -66
t-27.5 -66t-66.5 -28zM3219 19q0 -39 -28 -66.5t-66 -27.5h-65q-38 0 -66 27.5t-28 66.5v111h-32v-111q0 -53 37 -90.5t91 -37.5h65q52 0 90 37t38 91v111h-33v-111h-3zM2232 113h65q52 0 79 -43l27 19q-39 58 -108 58h-64q-53 0 -90.5 -37.5t-37.5 -90.5t37 -90.5t91 -37.5
h64q32 0 61 15.5t47 42.5l-27 19q-13 -21 -34 -32t-45 -11h-65q-38 0 -66 27.5t-28 66t28 66.5t66 28zM2492 -5v273h-33v-271q0 -14 0.5 -23t5 -26t12.5 -27.5t24.5 -19.5t39.5 -9v31q-28 0 -38.5 16t-10.5 56zM3581 104q-40 43 -94 43h-65q-53 0 -90.5 -37.5t-37.5 -90.5
t37 -90.5t91 -37.5h65q52 0 90 37t38 91v249h-33v-164h-1zM3487 -77h-65q-39 0 -66.5 28t-27.5 66t27.5 66t66.5 28h65q38 0 66 -28t28 -66q0 -39 -27.5 -66.5t-66.5 -27.5z" />
    <glyph glyph-name="nccloudhr" unicode="&#xe601;" horiz-adv-x="4062" 
d="M1282 468q2 -3 6.5 -8t6.5 -8q7 -7 12 -17q2 -2 5.5 -8t5.5 -9l8 -19l9 -20v22q-1 3 -2 11t-2 11q-4 17 -7 22q-1 4 -3.5 11t-4.5 10q-7 14 -12 20q-1 2 -6 9t-8 10q-5 7 -15 17l-9 9l-6 7q-18 12 -19 13q-7 5 -21 12q-12 6 -22 9q-7 3 -24 6.5t-24 3.5q-8 2 -24 2
q-17 0 -23 -2h-2l-2 2q-2 2 -6.5 8t-7.5 9l-15 17q-10 10 -17 15q-7 7 -17 14l-9 6t-10 6q-23 14 -39 20q-27 10 -43 16q-26 6 -44 8q-4 0 -11.5 1t-10.5 1h-22q-4 0 -11.5 -1t-11.5 -1l-10 -2l-12 -1l-19 -5l-22 -7q-3 -2 -10 -4.5t-10 -4.5l-21 -10q-8 -4 -19 -12l-9 -6
l-9 -6t-9 -6.5t-8 -7.5l-16 -15q-10 -10 -13 -15q-3 -3 -7.5 -9t-6.5 -8l-6 -9t-6 -8q-2 -4 -5.5 -10t-5 -9.5t-4 -9.5t-4.5 -9l-12 -17l-5 -20q-1 -4 -1.5 -11t-1.5 -10l10 17q2 3 5.5 9t4.5 8l12 16q2 2 6 7t6 8l14 14l13 13l14 12q10 7 15 12l16 10q10 7 15 9l17 8l17 7
q3 1 9 2.5t8 2.5l17 5l17 4l21 3v0v0h-2v0h2h2h5h8h17q12 0 36 -3q15 -2 34 -9q20 -5 33 -12q2 0 7.5 -3t7.5 -3q3 -2 8 -4.5t8 -4.5l15 -10l14 -10l13 -12l12 -12l12 -14l12 -14l14 -17l18 5l19 6q5 0 19 3h19q12 0 19 -2q3 -1 9 -1.5t9 -1.5q17 -4 19 -5q11 -3 17 -7
q9 -3 17 -9l9 -5l8 -5q11 -7 16 -12q8 0 17 -8zM573 159q-13 9 -34.5 25t-51 38t-48.5 36q-31 23 -74 54t-65 47.5t-24 17.5q-16 12 -39 12q-27 0 -46 -19t-19 -46v-264h84v230q14 -10 35.5 -25.5t51 -37.5t48.5 -36q31 -23 73.5 -54t64.5 -47.5t24 -17.5q17 -12 39 -12
q27 0 46 19t19 46v264h-82zM707 225q0 -67 47.5 -114.5t114.5 -47.5h307v82h-307q-34 0 -58 24t-24 58t23.5 58t58.5 24h307v82h-307q-68 -3 -115 -51t-47 -115zM1691 225h-42q-35 0 -59.5 -24.5t-24.5 -59t24.5 -59t59.5 -24.5h42q35 0 59.5 24.5t24.5 59t-24.5 59
t-59.5 24.5zM1691 80h-42q-26 0 -44 18t-18 43.5t18 43.5t44 18h42q26 0 44 -18t18 -43.5t-18 -43.5t-44 -18zM1995 142q0 -26 -18 -44t-43 -18h-43q-26 0 -43.5 18t-17.5 44v73h-23v-73q0 -35 24.5 -59.5t59.5 -24.5h43q34 0 58.5 24.5t24.5 59.5v73h-22v-73v0zM1347 203
h42q36 0 51 -29l19 12q-24 38 -70 38h-42q-35 0 -59.5 -24.5t-24.5 -59.5t24.5 -59.5t59.5 -24.5h42q46 0 70 38l-19 12q-20 -29 -51 -29h-42q-26 0 -44 18t-18 43q0 28 18 46.5t44 18.5zM1517 126v179h-22v-179q0 -68 55 -68v22q-18 0 -25.5 10.5t-7.5 35.5zM2234 198
q-25 27 -61 27h-43q-35 0 -59.5 -24.5t-24.5 -59t24.5 -59t59.5 -24.5h43q34 0 58.5 24.5t24.5 59.5v163h-22v-107zM2171 80h-43q-25 0 -43 18t-18 43.5t18 43.5t43 18h43q25 0 43 -18t18 -43q2 -26 -16.5 -44t-44.5 -18zM2430 387h22v-329h-22v329zM2987 241h-335v152h-25
v-330h25v150h335v-150h27v330h-27v-152zM3485 311q0 33 -24 57.5t-58 24.5h-292q-5 0 -9 -4.5t-4 -9.5v-318h27v168h278q23 0 39 -16t16 -39v-113h27v113q0 42 -38 68q38 24 38 69zM3403 256h-278v109h278q23 0 39 -15.5t16 -38.5q1 -23 -15.5 -39t-39.5 -16zM3596 375h319
v-27h-319v27zM3628 99q46 76 67 145h273v27h-423v-27h123q-25 -81 -74 -152q-5 -5 0 -13q3 -7 12 -7q107 0 273 34l9 2q10 -24 13 -35l6 -12l25 11l-5 12q-30 78 -63 128l-7 12l-22 -16l7 -12q15 -21 36 -63h-2q-135 -29 -248 -34z" />
    <glyph glyph-name="alarmsmd" unicode="&#xe603;" 
d="M512 -43q-31 0 -53.5 22t-22.5 54h-28q0 -43 30.5 -73.5t73.5 -30.5t73.5 30.5t30.5 73.5h-28q0 -32 -22.5 -54t-53.5 -22zM866 223q-18 14 -32 31t-23 33t-15 41t-9.5 43t-5 52t-1.5 54.5v62.5q0 54 -22 95.5t-59 65.5t-80.5 36.5t-92.5 13.5v88h-28v-88
q-49 -1 -92.5 -13.5t-81 -36.5t-59 -65.5t-21.5 -95.5v-62.5t-1.5 -54.5t-5 -52t-9.5 -43t-15 -41t-23 -33t-32 -31q-69 -51 -46 -103q12 -29 41.5 -36.5t88.5 -7.5h540q25 0 36.5 0.5t30 2.5t28.5 6.5t20 13t15 21.5q23 52 -46 103zM887 131q-8 -18 -30 -22.5t-75 -4.5
h-540q-53 0 -75 4.5t-30 22.5q-14 32 38 70q20 15 35.5 34t26 37t17.5 45t10.5 46.5t5 55.5t2 57t0.5 64q0 35 10.5 64t27 47.5t39.5 32.5t44.5 21.5t46.5 11.5t41 5.5t31 1.5t31 -1.5t41 -5.5t46.5 -11.5t44.5 -21.5t39.5 -32.5t27 -47.5t10.5 -64q0 -43 0.5 -64t2 -57
t5 -55.5t10.5 -46.5t17.5 -45t26 -37t35.5 -34q52 -38 38 -70z" />
    <glyph glyph-name="arrowdown" unicode="&#xe604;" 
d="M363 491h298l-149 -214z" />
    <glyph glyph-name="bookmarks" unicode="&#xe605;" 
d="M888 503h-752q-21 0 -36 -15t-15 -37v-357q0 -21 15 -36t36 -15h752q21 0 36 15t15 36v357q0 22 -15 37t-36 15zM254 407q28 0 47.5 -20t19.5 -48t-19.5 -48t-47.5 -20t-47.5 20t-19.5 48t19.5 48t47.5 20zM843 316h-467v47h467v-47v0zM843 152h-657v47h657v-47zM837 620
h-650q-19 0 -32.5 -14t-13.5 -33v-24h742v24q0 19 -13.5 33t-32.5 14zM195 666v17q0 17 12.5 29.5t29.5 12.5h550q17 0 29.5 -12.5t12.5 -29.5v-17h-634z" />
    <glyph glyph-name="favorite" unicode="&#xe607;" 
d="M835 811h-323h-323q-22 0 -37.5 -15t-15.5 -35v-759q0 -31 23 -41q25 -11 94 21q106 49 208 97q51 23 105 -2q31 -14 105.5 -49t99.5 -46q69 -32 94 -21q23 10 23 41v759q0 20 -15.5 35t-37.5 15zM760 480l-72 -87q-18 -21 -17 -48l4 -110q0 -11 -7.5 -16t-18.5 -2
l-110 38q-27 9 -54 0l-110 -38q-11 -3 -18.5 2t-7.5 16l4 110q1 27 -17 48l-72 87q-7 9 -4 17.5t14 11.5l113 30q27 7 44 30l65 91q7 9 16.5 9t15.5 -9l66 -91q16 -23 43 -30l113 -30q11 -3 14 -11.5t-4 -17.5z" />
    <glyph glyph-name="help" unicode="&#xe608;" 
d="M574 19.5q0 -25.5 -18 -44t-44 -18.5t-44 18.5t-18 44t18 43.5t44 18t44 -18t18 -43.5zM512 277h-62v43h62q92 0 157.5 65.5t65.5 158t-65.5 158t-157.5 65.5t-157.5 -65.5t-65.5 -157.5h-44q0 110 78.5 188.5t188.5 78.5t188.5 -78.5t78.5 -189t-78.5 -188.5t-188.5 -78
z" />
    <glyph glyph-name="home" unicode="&#xe609;" 
d="M923 406l-382 315q-14 11 -31 10t-29 -14l-380 -312q-14 -12 -15.5 -30t10.5 -32l19 -22q12 -14 30.5 -15.5t32.5 10.5l335 277l334 -280q14 -12 32 -10.5t30 15.5l19 26q12 14 10.5 32.5t-15.5 29.5zM513 478l-309 -254v-143q0 -18 12.5 -31t31.5 -13h528q19 0 31.5 13
t12.5 31v140z" />
    <glyph glyph-name="more" unicode="&#xe60a;" 
d="M178 484q42 0 71 -29t29 -71t-29 -71t-71 -29t-71 29t-29 71t29 71t71 29zM512 484q42 0 71 -29t29 -71t-29 -71t-71 -29t-71 29t-29 71t29 71t71 29zM846 484q42 0 71 -29t29 -71t-29 -71t-71 -29t-71 29t-29 71t29 71t71 29z" />
    <glyph glyph-name="pcmac" unicode="&#xe60b;" 
d="M885 757h-746q-22 0 -38 -16t-16 -38v-410h854v410q0 22 -16 38t-38 16zM85 202q0 -22 16 -38t38 -16h296l-10 -88h-64q-10 0 -17 -7t-7 -17t7 -17.5t17 -7.5h302q10 0 17 7.5t7 17.5t-7 17t-17 7h-64l-10 88h296q22 0 38 16t16 38v50h-854v-50v0z" />
    <glyph glyph-name="search" unicode="&#xe60c;" 
d="M918 -7l-237 237q83 94 83 218q0 136 -96 232.5t-232 96.5t-232.5 -96.5t-96.5 -232.5t96.5 -232t232.5 -96q124 0 218 83l236 -237zM231 243.5q-85 84.5 -85 204.5t85 205t205 85t204.5 -85t84.5 -205t-84.5 -204.5t-204.5 -84.5t-205 84.5z" />
    <glyph glyph-name="setting01" unicode="&#xe60d;" 
d="M923 468l-53 14q-6 2 -13 8t-10 13l-14 34q-8 15 0 29l29 50q7 11 5 25.5t-12 24.5l-62 61q-9 10 -23.5 12t-25.5 -5l-52 -30q-15 -8 -31 -1l-29 12q-6 2 -12.5 8.5t-7.5 12.5l-16 59q-4 13 -15.5 22t-24.5 9h-88q-13 0 -24.5 -9t-15.5 -22l-16 -59q-1 -6 -7.5 -12.5
t-12.5 -8.5l-30 -12q-5 -3 -14.5 -2.5t-15.5 3.5l-52 30q-11 7 -25.5 5t-23.5 -12l-62 -62q-10 -9 -12 -23.5t5 -25.5l29 -50q8 -14 0 -30l-15 -34q-2 -6 -9 -12t-13 -8l-53 -14q-13 -4 -22 -15.5t-9 -24.5v-88q0 -13 9 -24.5t22 -15.5l49 -13q6 -2 12.5 -8t8.5 -13l17 -41
q7 -16 -2 -30l-24 -43q-7 -11 -5 -25.5t12 -23.5l62 -62q9 -10 23.5 -11.5t25.5 4.5l40 23q15 8 30 0l46 -19q7 -2 13 -8.5t8 -13.5l11 -43q4 -13 15.5 -22t24.5 -9h88q13 0 24.5 9t15.5 22l12 43q1 7 7.5 13.5t12.5 8.5l47 20q5 3 14 2.5t15 -3.5l40 -23q11 -6 25.5 -4
t24.5 11l61 62q10 9 12 23.5t-5 25.5l-24 43q-9 14 -1 30l16 42q2 6 8.5 12t12.5 8l49 13q13 4 22 15.5t9 24.5v88q0 13 -9 24.5t-22 15.5v0zM512 118q-110 0 -188 78t-78 188t78 188t188 78t188 -78t78 -188t-78 -188t-188 -78z" />
    <glyph glyph-name="setting02" unicode="&#xe60e;" 
d="M939 599q0 -68 -48.5 -116t-116.5 -48h-524q-68 0 -116.5 48t-48.5 116v0q0 68 48.5 116.5t116.5 48.5h524q68 0 116.5 -48.5t48.5 -116.5v0zM773.5 717q-48.5 0 -83 -34.5t-34.5 -83t34.5 -83t83 -34.5t83 34.5t34.5 83t-34.5 83t-83 34.5zM85 169q0 68 48.5 116
t116.5 48h524q68 0 116.5 -48t48.5 -116v0q0 -68 -48.5 -116.5t-116.5 -48.5h-524q-68 0 -116.5 48.5t-48.5 116.5v0zM250.5 51q48.5 0 83 34.5t34.5 83t-34.5 83t-83 34.5t-83 -34.5t-34.5 -83t34.5 -83t83 -34.5z" />
    <glyph glyph-name="text" unicode="&#xe60f;" 
d="M358 799h323q52 2 95 14q18 5 33 5q49 0 96 -73.5t47 -151.5q0 -53 -33 -78q-24 -18 -58 -18q-33 0 -57 18t-47 60q-20 38 -31.5 49.5t-28.5 11.5q-23 0 -32.5 -19t-9.5 -62v-343q0 -53 11 -77t42 -37q32 -14 44.5 -26.5t12.5 -34.5q0 -44 -60 -65.5t-184 -21.5
q-152 0 -225 25q-62 21 -62 67q0 26 22 40q6 3 44 14q23 7 32 26q8 19 14 73q5 48 9 155q5 107 5 185q0 55 -9 78.5t-28 23.5q-24 0 -47 -35q-41 -62 -67 -82q-32 -24 -61 -24q-33 0 -54.5 24.5t-21.5 63.5q0 38 17 83.5t46 84.5q47 62 92 62q12 0 28 -3q34 -7 55 -9.5
t48 -2.5z" />
    <glyph glyph-name="uesrs" unicode="&#xe610;" 
d="M512 340q61 0 104.5 50t50.5 129q8 94 -39 141q-40 41 -116 41t-116 -41q-47 -47 -39 -141q7 -79 50.5 -129t104.5 -50zM647 294q-8 3 -18 3q-13 0 -22 -4q-55 -28 -95 -28q-18 0 -42.5 7.5t-36.5 12.5t-16 8q-19 10 -40 1q-15 -6 -34.5 -15.5t-53.5 -28t-56 -40
t-22 -38.5q0 -28 26 -49t70.5 -32.5t96 -17.5t108.5 -6t108.5 6t96 17.5t70.5 32.5t26 49q0 17 -22.5 38.5t-56 40t-53 28t-34.5 15.5zM742 513q-7 -75 -43 -134q12 -3 24 -3q49 0 84.5 41t41.5 106q7 76 -32 114q-33 33 -94 33h-10q38 -64 29 -157zM967 239q0 14 -18 31
t-45.5 32.5t-43 23t-28.5 12.5q-6 3 -14 3q-11 0 -18 -4q-30 -13 -44 -17q131 -71 133 -147q78 22 78 66zM282 513q7 -75 43 -134q-12 -3 -24 -3q-49 0 -84.5 41t-41.5 106q-7 76 32 114q33 33 94 33q2 0 10 -1q-38 -63 -29 -156zM57 239q0 14 18 31t45.5 32.5t43 23
t28.5 12.5q6 3 14 3q11 0 18 -4q30 -13 44 -17q-131 -71 -133 -147q-78 22 -78 66v0z" />
    <glyph glyph-name="cancel" unicode="&#xe602;" 
d="M512 811q-116 0 -214 -57.5t-155.5 -155.5t-57.5 -214t57.5 -214t155.5 -155.5t214 -57.5t214 57.5t155.5 155.5t57.5 214t-57.5 214t-155.5 155.5t-214 57.5zM756 140q-19 -19 -46.5 -19t-46.5 19l-151 151l-151 -151q-19 -19 -46.5 -19t-46.5 19t-19 46.5t19 46.5
l151 151l-151 151q-19 19 -19 46.5t19 46.5t46.5 19t46.5 -19l151 -151l151 151q19 19 46.5 19t46.5 -19t19 -46.5t-19 -46.5l-151 -151l151 -151q19 -19 19 -46.5t-19 -46.5z" />
    <glyph glyph-name="adduser" unicode="&#xe617;" 
d="M937 60h-49h-50h-5v-104h-80v104h-104v80h104v104h80v-104h105q-1 -27 -1 -80zM635 232q-15 7 -42.5 19.5t-32.5 14.5q1 2 1.5 3.5t1.5 2.5q44 88 60 128q28 72 36 128q8 60 -7 104q-25 75 -104 91q-54 11 -102 -8q-59 -23 -78 -86q-13 -42 -6 -96q8 -65 43 -139
q5 -11 14.5 -30t12.5 -26q16 -34 12 -64q-4 -40 -39 -67q-32 -25 -84 -39q-20 -5 -56.5 -14.5t-47.5 -11.5q-20 -6 -32 -16q-15 -13 -17 -40l-2 -44v-3h405v-83h-487l-1 3q1 100 1 120q2 45 21 78q18 32 56 51q22 11 79 25q65 16 91 27q11 4 23 12q12 9 7 22q-3 9 -9 19
q-37 70 -56 134q-21 69 -20 130q2 78 39 134q39 60 106 84q89 31 178 0q84 -30 122 -111q27 -59 23 -135q-5 -92 -54 -204q-4 -8 -54 -111q0 -1 -1 -2z" />
    <glyph glyph-name="dustbin" unicode="&#xe618;" 
d="M918 689q0 -1 -0.5 -1.5t-0.5 -1.5q-7 -25 -36 -28h-7h-323h-181h-30h-35.5h-29.5q-1 0 -3.5 -0.5t-3.5 -0.5v-7v-221v-321q1 -15 5 -39q6 -26 32 -31q26 -4 41 -4q146 -1 307 0q40 0 69 3q20 2 29.5 12t12.5 30q2 12 2 23v241v119.5v119.5q0 25 21 35q23 10 41 -5
q14 -11 14 -28v-174v-205v-174q0 -27 -18.5 -48t-45.5 -24q-9 -1 -16 -1h-490q-28 0 -48 14t-28 39q-1 3 -3 21v3q0 387 -1 614q0 7 -0.5 7.5t-7.5 0.5h-32q-30 1 -39 30v1v15q1 1 1 2q9 28 38 28h92h209h4h2q0 5 0.5 12.5t0.5 14t-1 11.5q0 23 18.5 33.5t36.5 2.5q3 -1 7 0
q18 7 33.5 -1.5t18.5 -26.5q1 -5 1 -26v-20h6h236h65q28 0 35 -27q1 -1 1.5 -2t0.5 -2v-13zM574 347v215v23q0 15 13 26t27 10q15 0 26 -11t11 -27v-11v-13.5v-11.5v-236v-199q0 -28 -23 -38q-22 -9 -42 9q-12 10 -12 26v238v0zM384 346v237q0 23 20 34q20 10 39 -3
q15 -11 16 -30v-3v-472q0 -14 -8 -24t-22 -13q-13 -3 -25 3t-17 19q-3 7 -3 15v63v174v0z" />
    <glyph glyph-name="morebarrow" unicode="&#xe619;" 
d="M696 462q-81 -93 -185 -211q-40 45 -185 211h370zM500 791h25h2h3q35 -2 70 -9q99 -22 176 -88q84 -72 121 -177q17 -50 21 -102q0 -2 0.5 -5.5t0.5 -7v-5.5v-26v-3q-1 -4 -1 -10.5t-0.5 -12t-1.5 -10.5q-5 -47 -22 -93q-31 -82 -92 -144q-67 -67 -155 -98
q-51 -18 -104 -22h-6t-6.5 -0.5t-5.5 -0.5h-26h-1.5h-2.5q-36 2 -70 10q-99 22 -176 87q-85 72 -121 177q-18 50 -22 102l-1 18v26l1 4q0 3 0.5 10t1 12t0.5 10q5 47 23 93q30 82 92 144q66 67 154 98q51 18 104 22q3 0 6 0.5t6.5 0.5h6.5zM512 40q93 -1 172.5 45
t125.5 125.5t47 173.5q0 93 -46 172.5t-125.5 125.5t-173.5 47q-93 0 -172 -46t-125.5 -125.5t-46.5 -172.5q-1 -94 45 -173t125.5 -125.5t173.5 -46.5z" />
    <glyph glyph-name="picture" unicode="&#xe61b;" 
d="M735 517zM647 517.5q0 36.5 26 62.5t62.5 26t62.5 -26t26 -62.5t-26 -62.5t-62.5 -26t-62.5 26t-26 62.5zM911 741q2 0 5.5 -0.5t11.5 -3t14.5 -7t11.5 -13.5t5 -21v-624q0 -2 -0.5 -5t-3.5 -10.5t-7.5 -13.5t-14 -11t-22.5 -5v714v0zM911 741zM65 72q0 -2 0.5 -5t3 -11
t7 -14t14 -10.5t21.5 -4.5h800v132h-87l-178 180l-134 -135l-182 225l-179 -269l-40 -1l-1 537h-45v-624v0zM65 72zM911 741h-800q-2 1 -5 0.5t-11 -3t-14 -6.5t-11 -13.5t-5 -22.5h846v45v0zM911 741z" />
    <glyph glyph-name="appicon" unicode="&#xe61a;" 
d="M351 749q24 0 42 -16q17 -17 17 -41v-232q0 -24 -17 -41.5t-42 -17.5h-231q-24 0 -40.5 17.5t-16.5 41.5v232q0 24 16.5 40.5t40.5 16.5h231zM351 285q24 0 42 -16q17 -17 17 -41v-233q0 -24 -17 -41t-42 -17h-231q-24 0 -40.5 17t-16.5 41v233q0 24 16.5 40.5t40.5 16.5
h231zM815 285q24 0 41 -16.5t17 -40.5v-233q0 -24 -16.5 -41t-41.5 -17h-231q-24 0 -41.5 17t-17.5 41v233q0 24 17.5 40.5t41.5 16.5h231zM944 647q19 -18 19 -43t-19 -43l-172 -173q-19 -18 -43.5 -18t-42.5 18l-173 173q-17 18 -17 43t17 43l173 173q18 17 42.5 17
t43.5 -17z" />
    <glyph glyph-name="informationicon" unicode="&#xe61d;" 
d="M897 727h-771q-27 0 -46 -19t-19 -46v-546q0 -27 19 -45.5t46 -18.5h771q27 0 45.5 18.5t18.5 45.5v546q0 27 -18.5 46t-45.5 19zM897 180q0 -26 -19 -45t-45 -19h-643q-27 0 -45.5 19t-18.5 45v418q0 27 18.5 45.5t45.5 18.5h643q27 0 45.5 -18.5t18.5 -45.5v-418z
M850 301h-252q-7 0 -11 -4.5t-4 -10.5v-30q0 -6 4 -10.5t11 -4.5h252q6 0 10.5 4.5t4.5 10.5v30q0 6 -4.5 10.5t-10.5 4.5zM330.5 362q-85.5 0 -129 -44.5t-43.5 -117.5v-19h345v27q0 70 -43.5 112t-129 42zM329 379q38 0 67 29.5t29 65.5q0 35 -29.5 63t-66.5 28
q-36 0 -64.5 -25.5t-28.5 -60.5q0 -36 29 -68t64 -32zM850 502h-252q-7 0 -11 -4.5t-4 -10.5v-31q0 -6 4 -10.5t11 -4.5h252q6 0 10.5 4.5t4.5 10.5v31q0 6 -4.5 10.5t-10.5 4.5zM850 401h-252q-7 0 -11 -4t-4 -11v-30q0 -6 4 -10.5t11 -4.5h252q6 0 10.5 4.5t4.5 10.5v30
q0 7 -4.5 11t-10.5 4z" />
    <glyph glyph-name="organizationicon" unicode="&#xe61e;" 
d="M814 306q61 0 104 -43t43 -104t-43 -104.5t-104 -43.5t-104.5 43.5t-43.5 104.5q0 41 22 76t57 54l-60 120q-62 -44 -137 -44q-54 0 -104 25l-68 -113q32 -27 50.5 -65.5t18.5 -82.5q0 -79 -56 -135t-135.5 -56t-136 56t-56.5 135.5t56.5 135.5t135.5 56q37 0 72 -14
l70 116q-39 33 -61 79.5t-22 98.5q0 98 69.5 167.5t167 69.5t166.5 -69.5t69 -167.5q0 -84 -54 -150l73 -146q2 0 5.5 0.5t5.5 0.5z" />
    <glyph glyph-name="usericon" unicode="&#xe61f;" 
d="M502 838q95 0 162 -66t67 -159.5t-67 -159t-162 -65.5t-162 65.5t-67 159t67 159.5t162 66zM502 838q95 0 162 -66t67 -159.5t-67 -159t-162 -65.5t-162 65.5t-67 159t67 159.5t162 66zM416 313h191q122 0 208.5 -85.5t86.5 -205.5v-19q0 -15 -9.5 -26.5t-31.5 -18.5
t-44.5 -11.5t-61.5 -6t-69 -2t-79 -0.5h-191h-79.5t-68 2t-62.5 6t-44 11t-32 18.5t-9 27.5v19q0 120 86.5 205.5t208.5 85.5z" />
    <glyph glyph-name="moreicon" unicode="&#xe621;" 
d="M31 388q0 -98 38 -187t102.5 -153t153.5 -102t186.5 -38t186.5 38t153 102t102 153t38 187t-38 186.5t-102 153t-153 102.5t-186.5 38t-186.5 -38t-153.5 -102.5t-102.5 -153t-38 -186.5zM581 182.5q0 -28.5 -20.5 -48.5t-49.5 -20q-28 0 -48.5 20t-20.5 48.5t20.5 49
t48.5 20.5q29 0 49.5 -20.5t20.5 -49zM581 382q0 -29 -20.5 -49t-49.5 -20q-28 0 -48.5 20t-20.5 49q0 28 20.5 48.5t48.5 20.5q29 0 49.5 -20.5t20.5 -48.5zM581 594q0 -29 -20.5 -49.5t-49.5 -20.5q-28 0 -48.5 20.5t-20.5 49.5q0 28 20.5 48t48.5 20q29 0 49.5 -20
t20.5 -48z" />
    <glyph glyph-name="money" unicode="&#xe623;" 
d="M818 250q-30 -49 -117.5 -80t-199.5 -31t-199.5 31t-117.5 80q-4 6 -7 7t-4.5 -1.5t-1.5 -5.5v-95q0 -45 43.5 -88t121 -70.5t165.5 -27.5t165 27.5t121 70.5t44 88v95q0 3 -1.5 5.5t-4.5 1.5t-7 -7v0v0zM819 491q-30 -43 -118 -70.5t-200 -27.5t-200 27.5t-118 70.5
q-3 6 -6 6.5t-4.5 -1.5t-1.5 -5v-111q0 -41 44 -75.5t120 -54.5t166 -20t166 20t120 54.5t44 75.5v111q0 3 -1.5 5.5t-4.5 1.5t-6 -7v0v0zM501 799q-90 0 -166 -16.5t-120 -45t-44 -62.5v-59q0 -36 44 -66.5t120 -48t166 -17.5t166 17.5t120 48t44 66.5v59q0 34 -44 62.5
t-120 45t-166 16.5v0v0z" />
    <glyph glyph-name="formthree" unicode="&#xe624;" 
d="M925 772h-795q-21 0 -36 -15t-15 -36v-684q0 -20 15 -35t36 -15h795q21 0 36 15t15 35v684q0 21 -15 36t-36 15zM361 45h-223v557h223v-557zM640 45h-222v557h222v-557zM918 45h-222v557h222v-557v0z" />
    <glyph glyph-name="date" unicode="&#xe625;" 
d="M795 262h-55q-15 0 -26 -11t-11 -26v-56q0 -15 11 -26t26 -11h55q15 0 25.5 11t10.5 26v56q0 15 -10.5 26t-25.5 11v0zM912 756h-39q-12 0 -20 -8t-8 -20v-66q0 -36 -25 -62t-61 -26t-61.5 26t-25.5 62v66q0 12 -8 20t-20 8h-229q-12 0 -20 -8t-8 -20v-66q0 -36 -25 -62
t-61 -26t-61.5 26t-25.5 62v66q0 12 -8 20t-20 8h-43q-26 0 -44 -18.5t-18 -44.5v-697q0 -26 18 -44.5t44 -18.5h769q26 0 44 18.5t18 44.5v697q0 26 -18 44.5t-44 18.5v0zM892 45v-2q-1 -11 -8.5 -18.5t-17.5 -7.5h-2h-1h-670h-2h-1q-11 0 -18.5 8t-7.5 18v462q0 12 8 19.5
t19 7.5h673q11 0 19 -7.5t9 -18.5v-2v-2v-455v-2v0v0zM758 614q20 0 34 14t14 34v0v122q-2 18 -15.5 30t-31.5 12q-20 0 -34 -14.5t-14 -34.5v0v-121q2 -18 15.5 -30t31.5 -12v0zM301 614q19 0 33 14t14 34h1v122q-3 18 -16 30t-32 12t-33 -14.5t-14 -34.5h-1v-121
q3 -18 16.5 -30t31.5 -12v0z" />
    <glyph glyph-name="date1" unicode="&#xe626;" 
d="M912 756h-39q-12 0 -20 -8t-8 -20v-66q0 -36 -25 -62t-61 -26t-61.5 26t-25.5 62v66q0 12 -8 20t-20 8h-229q-12 0 -20 -8t-8 -20v-66q0 -36 -25 -62t-61 -26t-61.5 26t-25.5 62v66q0 12 -8 20t-20 8h-43q-26 0 -44 -18.5t-18 -44.5v-697q0 -26 18 -44.5t44 -18.5h769
q26 0 44 18.5t18 44.5v697q0 26 -18 44.5t-44 18.5v0zM892 45v-2q-1 -11 -8.5 -18.5t-17.5 -7.5h-2h-1h-670h-2h-1q-11 0 -18.5 8t-7.5 18v462q0 12 8 19.5t19 7.5h673q11 0 19 -7.5t9 -18.5v-2v-2v-455v-2v0v0zM758 614q20 0 34 14t14 34v0v122q-2 18 -15.5 30t-31.5 12
q-20 0 -34 -14.5t-14 -34.5v0v-121q2 -18 15.5 -30t31.5 -12v0zM301 614q19 0 33 14t14 34h1v122q-3 18 -16 30t-32 12t-33 -14.5t-14 -34.5h-1v-121q3 -18 16.5 -30t31.5 -12v0z" />
    <glyph glyph-name="mtext" unicode="&#xe62f;" horiz-adv-x="1388" 
d="M786 14l364 361l1 -361h-365zM1111 530h-809q-18 0 -30.5 -12.5t-12.5 -30.5v0q0 -18 12.5 -30.5t30.5 -12.5h809q18 0 30.5 12.5t12.5 30.5v0q0 18 -12.5 30.5t-30.5 12.5zM300 659h809q18 0 30.5 12.5t12.5 30.5v0q0 17 -12.5 30t-30.5 13h-809q-18 0 -30.5 -13
t-12.5 -30v0q0 -18 12.5 -30.5t30.5 -12.5zM302 100q-18 0 -30.5 -12.5t-12.5 -30.5v0q0 -18 12.5 -30.5t30.5 -12.5h398l86 86h-484zM300 315q-18 0 -30.5 -12.5t-12.5 -30.5v0q0 -18 12.5 -30.5t30.5 -12.5h615l86 86h-701zM786 100zM1001 315z" />
    <glyph glyph-name="formtwo" unicode="&#xe627;" 
d="M925 793h-795q-21 0 -36 -14.5t-15 -35.5v-684q0 -21 15 -36t36 -15h795q21 0 36 15t15 36v684q0 21 -15 35.5t-36 14.5zM499 66h-362v557h362v-557zM918 66h-362v557h362v-557v0z" />
    <glyph glyph-name="mobilephone" unicode="&#xe628;" 
d="M752 848h-449q-22 0 -38 -15.5t-16 -38.5v-785q0 -22 16 -38t38 -16h449q23 0 38.5 16t15.5 38v785q0 23 -15.5 38.5t-38.5 15.5v0v0zM477 781h101q6 0 10 -4.5t4 -10t-4 -10t-10 -4.5h-101q-6 0 -10 4.5t-4 10t4 10t10 4.5v0v0zM528 -2q-19 0 -32 13t-13 31t13 31
t31.5 13t31.5 -13t13 -31t-13 -31t-31 -13v0v0zM754 124h-453v581h453v-581v0v0z" />
    <glyph glyph-name="mail1" unicode="&#xe629;" 
d="M528 351l415 346q-1 0 -3 0.5t-4 0.5h-817q-2 0 -4 -0.5t-3 -0.5l416 -346v0zM973 661q0 4 -2 11l-294 -246l295 -294q1 7 1 9v520v0zM84 672q-2 -7 -2 -11v-520q0 -2 1 -9l295 294l-294 246v0zM648 403l-109 -91q-5 -4 -11.5 -4t-11.5 4l-109 91l-297 -298q7 -2 9 -2
h817q2 0 9 2l-297 298v0z" />
    <glyph glyph-name="morebarrow1" unicode="&#xe62a;" 
d="M677 469l-149 -150l-150 150q-5 5 -12 5t-12 -5t-5 -12t5 -12l152 -152q9 -9 21.5 -9t21.5 9l152 152q5 5 5 12t-5 12t-12 5t-12 -5v0v0zM528 784q-105 0 -193 -51.5t-139 -139.5t-51 -192t51 -192.5t139 -139.5t192.5 -51t192.5 51t139 139.5t51 192.5t-51 192
t-139 139.5t-192 51.5v0v0zM528 51q-95 0 -175.5 47t-127.5 127.5t-47 175.5t47 175.5t127.5 127t175 46.5t175 -46.5t127.5 -127t47 -175.5t-47 -175.5t-127.5 -127.5t-174.5 -47v0v0z" />
    <glyph glyph-name="text1" unicode="&#xe62b;" 
d="M115 623h693q14 0 23.5 9.5t9.5 23.5v16q0 14 -9.5 23.5t-23.5 9.5h-693q-13 0 -23 -9.5t-10 -23.5v-16q0 -14 10 -23.5t23 -9.5v0zM940 441h-825q-13 0 -23 -9.5t-10 -23.5v-16q0 -14 10 -23.5t23 -9.5h825q14 0 23.5 9.5t9.5 23.5v16q0 14 -9.5 23.5t-23.5 9.5v0z
M808 177h-693q-13 0 -23 -9.5t-10 -23.5v-16q0 -14 10 -23.5t23 -9.5h693q14 0 23.5 9.5t9.5 23.5v16q0 14 -9.5 23.5t-23.5 9.5v0z" />
    <glyph glyph-name="checkbox" unicode="&#xe62c;" 
d="M974 737q0 46 -33 79t-79 33h-669q-46 0 -79 -33t-33 -79v-670q0 -46 33 -78.5t79 -32.5h669q46 0 79 32.5t33 78.5v670v0zM918 67q0 -25 -15.5 -40t-40.5 -15h-669q-25 0 -40.5 15t-15.5 40v670q0 25 15.5 40.5t40.5 15.5h669q25 0 40.5 -15.5t15.5 -40.5v-670v0z
M723 597l-274 -273l-117 117q-17 17 -39 17t-39 -17t-17 -39t17 -39l195 -195l357 357q17 17 17 39t-17 39q-17 16 -41.5 14t-41.5 -20v0z" />
    <glyph glyph-name="radio" unicode="&#xe62d;" 
d="M526.5 786q-104.5 0 -193 -51.5t-140 -140t-51.5 -193t51.5 -193t140 -140t193 -51.5t193 51.5t140 140t51.5 193t-51.5 193t-140 140t-193 51.5zM526 55q-94 0 -173.5 46.5t-126 126t-46.5 173.5t46.5 174t126 126t173.5 46t174 -46t126 -126t46 -174t-46 -173.5
t-126 -126t-174 -46.5zM315 401v0q0 -87 62 -149t149.5 -62t149.5 62t62 149v0q0 88 -62 150t-149.5 62t-149.5 -62t-62 -150z" />
    <glyph glyph-name="enclosure" unicode="&#xe62e;" 
d="M383 -46q-106 0 -180 74t-74.5 179.5t71.5 179.5q364 364 406 407q56 55 134 55t133 -55t55 -133q0 -79 -55 -134l-408 -407q-35 -32 -81.5 -31t-80 34t-34.5 80t31 81q3 4 363 361q9 8 21 8t20.5 -8.5t8.5 -21t-8 -20.5q-343 -340 -362 -359q-15 -17 -14.5 -40t17 -39
t39 -16.5t39.5 14.5l407 406q38 38 38 92q0 53 -38 91t-91.5 38t-91.5 -38q-13 -14 -405 -406q-56 -57 -55.5 -138t57 -138t137.5 -57.5t138 55.5q4 4 5 4l352 352q8 8 20.5 8t21 -8.5t8.5 -20.5t-9 -21l-354 -354q-76 -74 -181 -74v0z" />
    <glyph glyph-name="form" unicode="&#xe622;" 
d="M530 793h386q34 0 47 -13t13 -46v-666q0 -34 -13 -47t-46 -13h-780q-31 0 -44.5 13t-13.5 44v673q0 29 13.5 42t43.5 13h394v0zM361 218h-223v-151h223v151v0zM639 66v151h-222v-151h222v0zM695 67h222v151h-222v-151v0zM138 421v-150h222v150h-222v0zM694 269h213
q3 0 7 4t4 7q1 30 1 140h-225v-151v0zM416 271h223v149h-223v-149v0zM360 472v151h-224q0 -110 1 -137q0 -3 5.5 -8t8.5 -5q47 -1 209 -1v0zM417 474h221v149h-221v-149v0zM917 474v150h-222v-150h222v0z" />
    <glyph glyph-name="setting" unicode="&#xe630;" 
d="M528 535v0v0q-65 0 -111 -45.5t-46 -110t46 -110.5t111 -46v0v0q64 0 110 46t46 110.5t-46 110t-110 45.5zM528 257v0v0v0v0v0v0q-51 0 -87 36t-36 86.5t36 86.5t87 36v0v0v0v0v0v0q50 0 86 -36t36 -86.5t-36 -86.5t-86 -36zM963 297v163l-127 27q-5 18 -13 35l69 105
l-118 117l-104 -70q-20 10 -35 14l-24 127h-167l-24 -127q-15 -4 -35 -14l-104 70l-118 -117l69 -105q-8 -17 -13 -35l-127 -27v-163l127 -26q6 -20 14 -35l-71 -108l116 -114l108 70q19 -9 34 -14l25 -126h165l25 126q15 5 34 14l108 -70l116 114l-71 108q8 15 15 35z
M794 206l54 -76l-73 -72l-76 54q-12 8 -26 8q-10 0 -19 -4q-17 -8 -28 -11q-27 -8 -32 -36l-15 -92h-103l-15 92q-5 28 -32 36q-11 3 -28 11q-9 4 -19 4q-14 0 -26 -8l-76 -54l-73 72l54 76q17 22 3 47q-6 12 -12 29q-8 26 -35 31l-92 15v103l92 15q28 5 36 32q4 14 11 27
q13 24 -3 47l-54 75l73 72l75 -53q11 -8 26 -8q10 0 20 4q17 9 28 12q27 8 32 36l15 92h103l15 -92q5 -28 32 -36q11 -3 28 -12q10 -4 20 -4q15 0 26 8l76 53l72 -72l-53 -75q-16 -23 -4 -47q7 -13 11 -27q8 -27 36 -32l92 -15v-103l-92 -15q-27 -5 -35 -31q-6 -17 -12 -29
q-14 -25 3 -47z" />
    <glyph glyph-name="input" unicode="&#xe631;" 
d="M948 685q10 -10 10 -23.5t-10 -23.5l-95 -93l-183 184l97 93q10 10 24 9.5t23 -10.5l134 -136v0zM181 238q21 22 54 55l72 72l79 79l210 212l184 -185l-211 -212l-78 -79l-71 -71q-31 -32 -51.5 -52.5t-24.5 -23.5q-10 -9 -22.5 -19t-26.5 -15q-14 -7 -40.5 -17
t-55.5 -19.5t-55 -16.5t-38 -8q-27 -3 -35.5 7.5t-4.5 36.5q2 14 9 40q7 25 15.5 53.5t16.5 51.5q8 24 12 33q6 14 13.5 25t21.5 25q6 6 27 28v0zM462 36h99v-99h-99v99v0v0zM661 36h99v-99h-99v99v0v0zM860 36h99v-99h-99v99v0v0zM860 36z" />
    <glyph glyph-name="phone" unicode="&#xe632;" 
d="M954 152l-4 6l-10 11q-10 13 -38 36q-41 34 -75 56l-45 29l-20 10q-16 8 -34 1q-15 -5 -22 -17l-18 -26q-2 -5 -5 -10t-11.5 -22l-13.5 -27q-12 -21 -34.5 -30.5t-50.5 2.5q-96 54 -161 116q-94 90 -127 162q-7 12 -1 35t25 32q13 6 32.5 14t29.5 14q6 4 13.5 8t17.5 11
l3.5 3t4.5 3q1 1 2 3q18 17 9 40l-2 7q-14 31 -34 66q-17 27 -39 58q-15 19 -31 33.5t-24 19.5l-8 4q-9 5 -13 7q-22 9 -46 -2q-15 -5 -29.5 -14t-20.5 -14t-25 -20q-42 -34 -65.5 -77t-18.5 -82q10 -67 83.5 -186.5t171.5 -212.5t223.5 -162.5t196.5 -78.5q74 -9 159 69
q36 33 53 68q6 13 7.5 28t-5.5 29v0zM954 152z" />
    <glyph glyph-name="add" unicode="&#xe61c;" 
d="M512 -59q-89 0 -170.5 33.5t-144.5 96t-96.5 143.5t-33.5 170t33.5 170t96.5 143.5t144.5 96t170.5 33.5t170.5 -33.5t144.5 -96t96.5 -143.5t33.5 -170t-33.5 -170t-96.5 -143.5t-144.5 -96t-170.5 -33.5v0v0zM512 764q-76 0 -146 -29t-124 -82.5t-82.5 -123
t-28.5 -145.5t28.5 -145.5t82.5 -123t124 -82t146 -28.5t146 28.5t124 82t83 123t28.5 145.5t-29 145.5t-82.5 123t-124 82.5t-146 29v0zM735 416h-191v191q0 13 -9.5 22t-22.5 9t-22.5 -9t-9.5 -22v-191h-191q-13 0 -22 -9.5t-9 -22.5t9 -22.5t22 -9.5h191v-191
q0 -13 9.5 -22t22.5 -9t22.5 9t9.5 22v191h191q13 0 22 9.5t9 22.5t-9 22.5t-22 9.5v0zM735 416z" />
    <glyph glyph-name="lock" unicode="&#xe633;" 
d="M768 533h-43v86q0 88 -62.5 150.5t-150.5 62.5t-150.5 -62.5t-62.5 -150.5v-86h-43q-35 0 -60 -25t-25 -60v-427q0 -35 25 -60t60 -25h512q35 0 60 25t25 60v427q0 35 -25 60t-60 25zM512 149q-35 0 -60 25t-25 60.5t25 60.5t60 25t60 -25t25 -60.5t-25 -60.5t-60 -25z
M644 533h-264v86q0 54 38.5 93t93.5 39t93.5 -39t38.5 -93v-86z" />
    <glyph glyph-name="palette" unicode="&#xe634;" 
d="M512.5 821q-119.5 0 -220 -58.5t-159 -159t-58.5 -220t58.5 -220t159 -158.5t219.5 -58q29 0 51 21.5t22 51t-19 48.5q-20 29 -20 49q0 29 22 50.5t51 21.5h88q102 0 172 70.5t70 172.5q0 106 -58 195t-158.5 141.5t-220 52.5zM245 384q-29 0 -51 21.5t-22 51t22 51
t51 21.5t51 -21.5t22 -51t-22 -51t-51 -21.5zM391 578q-29 0 -51 22t-22 51t22 51t51 22t51 -22t22 -51t-22 -51t-51 -22zM634 578q-29 0 -51 22t-22 51t22 51t51 22t51 -22t22 -51t-22 -51t-51 -22zM779.5 384q-29.5 0 -51 21.5t-21.5 51t21.5 51t51 21.5t51 -21.5
t21.5 -51t-21.5 -51t-51 -21.5z" />
    <glyph glyph-name="systemmanagement" unicode="&#xe635;" 
d="M384 512l-192 -128l192 320l192 -192l128 128l128 -256l-128 64l-128 -128zM960 128h-320v128h320v-128zM896 320v384q0 29 -17.5 46.5t-46.5 17.5h-640q-29 0 -46.5 -17.5t-17.5 -46.5v-384q0 -29 17.5 -46.5t46.5 -17.5h384v-128l-32 -64h160q20 0 36 -32t22 -64l6 -32
h-512q1 5 2.5 13.5t7 31t12.5 39t18 30.5t24 14h160l-32 64h-288q-27 0 -46.5 10.5t-29 23t-14.5 33.5t-5.5 32.5t-0.5 28.5v512q0 29 17.5 46.5t46.5 17.5h768q29 0 46.5 -17.5t17.5 -46.5v-448h-64z" />
    <glyph glyph-name="message" unicode="&#xe606;" 
d="M940 812h-856q-8 0 -15 -7.5t-7 -15.5v-607q0 -9 7 -16t15 -7h237l-17 -203l354 203h282q8 0 15 7t7 16v607q0 8 -7 15.5t-15 7.5zM917 204h-270l-11 -6l-282 -157l12 118l5 51h-264v562h810v-568z" />
    <glyph glyph-name="adduser02" unicode="&#xe620;" 
d="M907 37h-79l1 -81q0 -17 -11.5 -28.5t-28 -11.5t-28 11.5t-11.5 28.5v81l-80 1q-17 0 -28.5 11.5t-11.5 27.5t11.5 27t28.5 11l80 1v81q0 16 11.5 27.5t28 11.5t27.5 -11.5t11 -27.5v-81h79q16 0 28 -11.5t12 -28t-12 -28t-28 -11.5v0zM628 325q24 -10 52 -28
q7 -4 19 -12q1 -1 5.5 -4t6.5 -5q1 -2 1.5 -6t-0.5 -14.5t-4.5 -18.5t-13.5 -14.5t-25 -5.5q-27 10 -28 11q-73 46 -159 49q-1 0 -4.5 -0.5t-5.5 -0.5t-5.5 0.5t-4.5 0.5q-118 -4 -204 -83t-100 -195h-1v0q0 -16 -11.5 -28t-28 -12t-28 12t-11.5 28l-1 4q0 7 3 14
q15 103 78 185t158 123q-56 38 -89 98.5t-33 130.5q0 115 81.5 196t196.5 81t196 -81t81 -196q0 -70 -32.5 -130.5t-88.5 -98.5zM472 752q-82 0 -140 -58t-58 -140t58 -140t140 -58t140 58t58 140t-58 140t-140 58z" />
    <glyph glyph-name="link" unicode="&#xe636;" 
d="M499 -162zM487 -149zM474 -136zM461 -124zM449 -111zM436 -98zM423 -86zM410 -73zM398 -60zM385 -48zM372 -35zM360 -22zM347 -10zM334 3zM322 16zM309 29zM296 41zM284 54zM271 67zM258 79zM245 92zM233 105zM220 117zM207 130zM195 143zM182 156zM169 168zM157 181z
M144 194zM131 206zM118 219zM106 232zM93 244zM80 257zM68 270zM55 282zM42 295zM30 308zM17 321zM4 333zM-8 346zM-21 359zM-34 371zM525 -162zM537 -149zM550 -136zM563 -124zM575 -111zM588 -98zM601 -86zM614 -73zM626 -60zM639 -48zM652 -35zM664 -22zM677 -10zM690 3z
M702 16zM715 29zM728 41zM740 54zM753 67zM766 79zM779 92zM791 105zM804 117zM817 130zM829 143zM842 156zM855 168zM867 181zM880 194zM893 206zM906 219zM918 232zM931 244zM944 257zM956 270zM969 282zM982 295zM994 308zM1007 321zM1020 333zM1032 346zM1045 359z
M1058 371zM943 384q0 -74 -52.5 -127t-127.5 -53l-107 1q-47 -1 -90 24q23 29 36 62q26 -15 54 -15h107q45 0 76.5 31.5t31.5 76.5t-31.5 76.5t-76.5 31.5h-107q-35 0 -62.5 -20t-38.5 -52h101q15 0 25.5 -10.5t10.5 -25.5t-10.5 -25.5t-25.5 -10.5h-112
q-12 -62 -61.5 -102.5t-114.5 -41.5h-107q-75 1 -127.5 53.5t-52.5 126.5t52.5 127t127.5 53l107 -1q47 1 90 -24q-22 -29 -36 -62q-25 15 -54 15h-107q-45 0 -76.5 -31.5t-31.5 -76.5t31.5 -76.5t76.5 -31.5h107q35 0 62.5 20t39.5 52h-102q-14 0 -25 10.5t-11 25.5
t10.5 25.5t25.5 10.5h112q12 62 61.5 103t114.5 41h107q75 0 127.5 -53t52.5 -127z" />
    <glyph glyph-name="linkbreak" unicode="&#xe637;" 
d="M443 487l-114 -113q-9 -9 -9 -22t9 -22.5t22 -9.5t23 9l120 121v32l-51 -51v56zM616 450q12 -3 23.5 4t14 19.5t-4 23.5t-19.5 14l-98 22l-47 -29l71 -17q-20 -12 -28 -17zM250 170q-11 -11 -35.5 -11t-35.5 11l-11 11q-11 12 -4 43t20 44l89 88q1 2 10.5 12.5t16 18.5
t16 25t15.5 36q-32 6 -64 -3t-56 -33l-94 -93q-39 -39 -39 -94.5t39 -94.5l11 -11q39 -39 94.5 -39t94.5 39l94 94q25 25 34 58t1 67q-34 -18 -103 -75zM714 611q-68 16 -120 -31q11 -9 25 -15.5t39.5 -15.5t38.5 -14l125 -29q17 -4 33 -26t13 -37l-4 -15q-4 -16 -26 -32.5
t-37 -12.5l-127 29q-11 1 -32 4t-29 4t-21 2t-21 0t-15 -3q11 -31 36 -52.5t58 -29.5l130 -30q54 -12 101 17t59 82l4 16q13 53 -16.5 100t-83.5 59zM381 607l-24 -56l72 -26zM539 643l-39 -23l32 -47zM447 687l-39 2l55 -119z" />
    <glyph glyph-name="pencil" unicode="&#xe639;" horiz-adv-x="1028" 
d="M927 699q4 -9 6 -20.5t2 -24t-4.5 -25t-15.5 -23.5q-11 -12 -20.5 -20.5t-15.5 -15.5q-8 -7 -15 -13l-179 179q11 11 27 26t27 23q13 11 27.5 15t28.5 3.5t27 -4t22 -8.5q20 -11 44.5 -37t38.5 -55zM179 231q6 5 27 27t53 53l354 354l179 -180l-206 -206l-77 -78
q-38 -37 -68.5 -68.5t-51 -51.5t-24.5 -23q-9 -9 -21.5 -18.5t-26.5 -15.5q-13 -6 -39 -16t-54 -19t-53.5 -15.5t-38.5 -8.5q-26 -3 -34.5 7.5t-4.5 35.5q2 14 9 39t15.5 52.5t16 50.5t12.5 32q5 13 12.5 24t20.5 25z" />
    <glyph glyph-name="delete" unicode="&#xe63a;" 
d="M823 539q-18 0 -28.5 -10.5t-10.5 -27.5v-459q0 -22 -14 -34t-33 -12h-450q-22 0 -34.5 13.5t-12.5 32.5v459q0 17 -10.5 27.5t-28 10.5t-28.5 -10.5t-11 -27.5v-459q0 -52 36 -88t89 -36h442q53 0 89 36t36 88v459q5 17 -4 27.5t-27 10.5zM450 112v389q0 16 -9.5 27
t-21.5 11q-14 0 -30.5 -11.5t-16.5 -26.5v-389q0 -17 11 -28t28.5 -11t28 11t10.5 28zM652 112v389q0 16 -14 27t-33 11q-31 0 -31 -38v-389q0 -17 9.5 -28t21.5 -11q14 0 30.5 11.5t16.5 27.5zM900 695h-194v54q0 41 -30 71t-71 30h-186q-41 0 -71 -30t-30 -71v-54h-194
q-18 0 -28.5 -11t-10.5 -28.5t10.5 -28t28.5 -10.5h776q18 0 28.5 10.5t10.5 28t-10.5 28.5t-28.5 11zM395 749q0 23 24 23h186q24 0 24 -23v-54h-234v54z" />
    <glyph glyph-name="cancel02" unicode="&#xe63b;" 
d="M823 20q-22 0 -37 15l-274 274l-274 -274q-15 -15 -37 -15t-37.5 15.5t-15.5 37.5t15 37l274 274l-274 274q-15 15 -15 37t15.5 37.5t37.5 15.5t37 -15l274 -274l274 274q15 15 37 15t37.5 -15.5t15.5 -37.5t-15 -37l-274 -274l274 -274q15 -15 15 -37t-15.5 -37.5
t-37.5 -15.5z" />
    <glyph glyph-name="confirm" unicode="&#xe63c;" 
d="M374 84q-20 0 -30 12l-254 279q-12 14 -11 31.5t14 29.5q13 11 30 11q19 0 32 -14l223 -247l492 485q13 13 31 13q19 0 31.5 -13t12.5 -31t-13 -31l-525 -515q-10 -10 -31 -10h-2v0z" />
    <glyph glyph-name="s-plus" unicode="&#xe63d;" 
d="M784 399h-247v248q0 10 -7.5 17t-17.5 7t-17.5 -7t-7.5 -17v-248h-247q-10 0 -17.5 -7t-7.5 -17.5t7.5 -17.5t17.5 -7h247v-247q0 -10 7.5 -17.5t17.5 -7.5t17.5 7.5t7.5 17.5v247h247q10 0 17.5 7t7.5 17.5t-7.5 17.5t-17.5 7z" />
    <glyph glyph-name="xs-plus" unicode="&#xe63e;" 
d="M751 398h-217v217q0 9 -6.5 15.5t-15.5 6.5t-15.5 -6.5t-6.5 -15.5v-217h-217q-9 0 -15.5 -6.5t-6.5 -15.5t6.5 -15.5t15.5 -6.5h217v-217q0 -9 6.5 -15.5t15.5 -6.5t15.5 6.5t6.5 15.5v217h217q9 0 15.5 6.5t6.5 15.5t-6.5 15.5t-15.5 6.5z" />
    <glyph glyph-name="authorizationicon" unicode="&#xe638;" 
d="M512 -96q-9 3 -23.5 8.5t-57 25.5t-81 42t-85.5 57t-81 72.5t-57 87t-23 100.5v422l408 145l408 -145v-422q0 -51 -22.5 -100.5t-58.5 -87.5t-80 -72t-86.5 -57.5t-79.5 -41t-58.5 -26t-22.5 -8.5zM682 534l-204 -204l-112 112l-68 -68l112 -112v0l68 -68l68 68v0
l204 204z" />
    <glyph glyph-name="selecticon" unicode="&#xe63f;" 
d="M512 864q-98 0 -186.5 -38t-153 -102.5t-102.5 -153t-38 -186.5t38 -186.5t102.5 -153t153 -102.5t186.5 -38t186.5 38t153 102.5t102.5 153t38 186.5t-38 186.5t-102.5 153t-153 102.5t-186.5 38zM796 565l-325 -432q-15 -22 -42 -24h-2.5h-1.5q-24 0 -41 17l-181 178
q-18 17 -18 41t17 41.5t41 17.5t42 -17l133 -130l285 378q14 20 38 23.5t43.5 -11.5t23 -39t-11.5 -43z" />
    <glyph glyph-name="accounticon" unicode="&#xe640;" 
d="M841 534q0 90 -44 166t-120 120t-165 44t-165 -44t-120 -120t-44 -166q0 -77 33.5 -144.5t91.5 -113.5q-104 -54 -170 -153t-74 -219h49q9 114 76 206.5t169 133.5q81 -39 154 -39q74 0 142 33l34 19l28 19q58 46 91.5 113.5t33.5 144.5v0zM512 259q-114 0 -195 80.5
t-81 195t81 195t195 80.5t195 -80.5t81 -195.5t-79 -195t-197 -80v0zM790 227v0q-8 8 -20 8q-30 0 -30 -23q0 -17 16 -26v-1q130 -94 144 -281h60q-6 96 -51 180.5t-119 142.5v0z" />
    <glyph glyph-name="passwordicon" unicode="&#xe642;" 
d="M777 -96h-509q-82 0 -138 41t-56 100v299q0 60 56 100.5t138 40.5h509q82 0 137.5 -40.5t55.5 -100.5v-299q0 -59 -55.5 -100t-137.5 -41v0zM268 421q-51 0 -88 -22.5t-37 -54.5v-299q0 -31 37 -54t88 -23h509q51 0 88 23t37 54v299q0 32 -37 54.5t-88 22.5h-509v0z
M522 314q-31 0 -53.5 -20.5t-22.5 -50.5q0 -21 12 -38.5t32 -26.5v-78q0 -13 9.5 -22t23 -9t23 9t9.5 22v78q20 9 31.5 26.5t11.5 38.5q0 30 -22 50.5t-54 20.5v0v0zM248 425q-12 0 -21.5 7.5t-11.5 18.5q-39 173 46 287q37 50 93 81.5t125 41.5q127 18 230 -54.5
t122 -192.5q2 -13 -6.5 -24t-22.5 -13t-25.5 6t-13.5 22q-14 93 -94.5 149.5t-179.5 42.5q-113 -16 -172 -95q-68 -92 -36 -238q3 -13 -4.5 -24t-21.5 -14q-4 -1 -7 -1v0z" />
    <glyph glyph-name="hiddentexticon" unicode="&#xe643;" 
d="M521 -96q-160 0 -240 27q-83 28 -83 97q0 42 36 66q10 5 52 18q11 3 14 10q7 15 12 65q5 48 10 157q4 107 4 188q0 51 -7 70q-7 7 -23 -18q-45 -68 -76 -91q-44 -33 -87 -31t-72 36q-29 33 -29 84q0 44 20 96q19 51 51 94q56 76 118 76q15 0 35 -5q33 -6 52 -9
q20 -2 47 -2h330q49 2 89 13q23 7 41 7q67 0 124 -90q53 -82 53 -170q0 -70 -45 -104q-33 -24 -77 -24.5t-77 24.5q-29 22 -56 70q-19 36 -28 44q-4 4 -8.5 3.5t-5.5 -3.5q-7 -12 -7 -50v-351q0 -47 9 -66q6 -13 27 -22q39 -17 56 -34q20 -22 20 -56q0 -67 -81 -96
q-65 -23 -198 -23zM318 666q41 0 58 -44q10 -28 10 -90q0 -84 -4 -191q-5 -112 -10 -160q-6 -61 -17 -84q-15 -32 -52 -43q-33 -10 -39 -13q-6 -4 -6 -13q0 -26 42 -40q70 -24 221 -24q122 0 178 20q41 14 41 38q0 11 -4 15q-8 9 -36 20q-42 18 -58 53q-14 31 -14 91v351
q0 52 14 78q18 35 59 35q29 0 50 -20q15 -15 38 -58q21 -36 40 -51q18 -13 41.5 -13t40.5 13q21 16 21 56q0 70 -43 138q-39 62 -74 62q-10 0 -25 -4q-46 -14 -104 -16h-331q-30 0 -53 3q-23 2 -59 10q-14 3 -22 3q-32 0 -70 -52q-27 -36 -43 -79q-16 -41 -16 -75
q0 -28 15 -45q28 -34 77 3q22 18 62 77q32 49 72 49z" />
    <glyph glyph-name="pinicon" unicode="&#xe644;" 
d="M738 864l-113 -85l56 -56l-280 -228l-189 104l-85 -85l187 -187l-282 -423l423 282l-141 141l328 -327l85 84l-104 189l228 280l56 -56l85 113z" />
    <glyph glyph-name="icon4" unicode="&#xe66e;" 
d="M921 677l-87 -87l-116 116l87 87q12 12 29 12t29 -12l58 -58q12 -12 12 -29t-12 -29zM312 301l116 -116l-155 -38zM805 561l-348 -347l-116 116l348 347zM177 680v-631h632v455l82 82v-579q0 -17 -12 -29t-29 -12h-714q-17 0 -29 12t-12 29v714q0 17 12 29t29 12h581
l-82 -82h-458z" />
    <glyph glyph-name="autohiddenicon" unicode="&#xe641;" 
d="M512 -96q-130 0 -240.5 64.5t-175 175t-64.5 240.5t64.5 240.5t175 175t240.5 64.5t240.5 -64.5t175 -175t64.5 -240.5t-64.5 -240.5t-175 -175t-240.5 -64.5zM512 804q-114 0 -211 -56t-153 -153t-56 -211t56 -211t153 -153t211 -56t211 56t153 153t56 211t-56 211
t-153 153t-211 56zM207 506h610v-61h-610v61zM207 323h610v-61h-610v61z" />
    <glyph glyph-name="adminicon" unicode="&#xe645;" 
d="M32 384q0 -98 38 -186.5t102.5 -153t153 -102.5t186.5 -38t186.5 38t153 102.5t102.5 153t38 186.5t-38 186.5t-102.5 153t-153 102.5t-186.5 38t-186.5 -38t-153 -102.5t-102.5 -153t-38 -186.5zM631 109q-12 7 -16.5 37t-3.5 46t2 27v0l18 16q5 42 13 57t17 38t14 39
l5 15q19 13 19 37q0 10 -4.5 19t-9.5 13l-5 4q7 66 7 111q0 71 -43 109t-123 38q-85 0 -135.5 -36.5t-50.5 -110.5q0 -20 4 -48t7 -45l4 -18q-19 -13 -19 -36q0 -11 5 -20t9 -13l5 -4q21 -67 37 -92q4 -6 7 -20.5t4 -25.5l1 -11l19 -16q1 -11 1.5 -27t-4 -46t-16.5 -37
q-12 -8 -77 -26t-77 -25l-33 33q-117 129 -122 280v13q0 115 56.5 212t153.5 153.5t212 56.5t212 -56.5t153.5 -153.5t56.5 -212q0 -96 -40.5 -180.5t-111.5 -144.5z" />
    <glyph glyph-name="arrowicon" unicode="&#xe646;" 
d="M510 23q-17 0 -29.5 12.5t-12.5 29.5v725q0 17 12.5 29.5t30 12.5t29.5 -12.5t12 -29.5v-725q0 -17 -12.5 -29.5t-29.5 -12.5zM210 323q17 0 30 -12l272 -274l274 274q12 12 29.5 12t29.5 -12.5t12 -29.5t-12 -30l-303 -303q-12 -12 -30 -12v0q-17 0 -29 12l-303 303
q-12 13 -12 30t12.5 29.5t29.5 12.5z" />
    <glyph glyph-name="row2column" unicode="&#xe648;" 
d="M889 797h-379h-378l-70 -110h448h448zM899 687h60v-693h-60v693zM486 687h59v-693h-59v693zM62 687h60v-717h-60v717zM62 24h896v-58h-896v58z" />
    <glyph glyph-name="row3column" unicode="&#xe649;" 
d="M897 796h-379h-379l-69 -110h448h448zM907 686h59v-693h-59v693zM337 686h60v-693h-60v693zM647 686h59v-693h-59v693zM70 686h59v-717h-59v717zM70 23h896v-58h-896v58z" />
    <glyph glyph-name="tablelayout" unicode="&#xe64a;" 
d="M960 756h-448h-448v-60v-636v-58h59h837v2v0v693v0v59zM901 230h-201v118h201v-118zM901 407h-201v118h201v-118zM641 407h-251v118h251v-118zM641 348v-118h-251v118h251zM641 170v-110h-251v110h251zM700 170h201v-110h-201v110zM901 585h-201v111h201v-111zM641 696
v-111h-251v111h122h129zM331 696v-111h-208v111h208zM123 525h208v-118h-206v-59h206v-118h-206v-60h206v-110h-208v465z" />
    <glyph glyph-name="childtable" unicode="&#xe64b;" 
d="M958 769h-448h-448v-191v-516v-58h59h837v2v0v693v0v70zM899 255h-201v131h201v-131zM639 255h-251v131h251v-131zM639 195v-133h-251v133h251zM698 195h201v-133h-201v133zM899 445h-201v133h201v-133zM639 578v-133h-251v133h122h129zM121 578h208v-133h-206v-59h206
v-131h-206v-60h206v-133h-208v516z" />
    <glyph glyph-name="canvas" unicode="&#xe64d;" 
d="M1009 -30h-992v836h992v-836zM75 28h875v719h-875v-719zM182 325h26v-68h-26v68zM182 521h26v-68h-26v68zM308 665h64v-26h-64v26zM506 665h32v-26h-32v26zM179 403h32v-27h-32v27zM822 403h32v-27h-32v27zM408 665h64v-26h-64v26zM565 665h64v-26h-64v26zM660 665h64
v-26h-64v26zM825 521h26v-67h-26v67zM825 325h26v-67h-26v67zM661 133h64v-26h-64v26zM408 133h64v-26h-64v26zM506 133h32v-26h-32v26zM308 133h64v-26h-64v26zM565 133h64v-26h-64v26zM278 639v27h-96v-97h26v70h70zM825 569h26v97h-96v-27h70v-70zM755 133v-27h96v97h-26
v-70h-70zM208 203h-26v-96h96v26h-70v70z" />
    <glyph glyph-name="component1" unicode="&#xe64c;" 
d="M127 161v455l386 213l386 -213v-455l-386 -213zM542 15l307 169v415zM180 176l310 -161v435l-310 148v-422zM250 629l263 -138l268 129l-268 148z" />
    <glyph glyph-name="property" unicode="&#xe64e;" 
d="M534 -16q-19 0 -33 12l-320 195l-1 2q-15 13 -15 32t15 32l1 2l43 27l-43 27l-1 1q-15 14 -15 33t15 32l1 1l33 21l-33 21l-1 1q-15 14 -15 33t15 32v1l321 204q14 11 33 11t33 -11l320 -204l1 -1q15 -13 15 -32t-15 -33l-2 -1l-32 -21l33 -21l1 -1q15 -13 15 -32
t-15 -33l-2 -1l-43 -27l44 -27l1 -2q15 -13 15 -32t-15 -32l-1 -1l-320 -196q-14 -12 -33 -12zM531 30l1 -2h2h2l1 2l319 194v1l-1 1l-54 34l-234 -143q-14 -11 -33 -11t-33 11l-234 143l-55 -34v-1v-1zM531 151l1 -1q1 -1 2 -1t2 1l1 1l318 195q1 1 0 1l-44 29l-244 -150
q-14 -11 -33 -11t-33 11l-244 150l-45 -29v-1zM856 455v0.5t-1 0.5l-318 203l-1 1q-1 1 -2 1t-2 -1v0l-320 -204v-0.5v-0.5h644z" />
    <glyph glyph-name="youyuncai" unicode="&#xe64f;" horiz-adv-x="4062" 
d="M1282 468q2 -3 6.5 -8t6.5 -8q7 -7 12 -17q2 -2 5.5 -8t5.5 -9l8 -19l9 -20v22q-1 3 -2 11t-2 11q-4 17 -7 22q-1 4 -3.5 11t-4.5 10q-7 14 -12 20q-1 2 -6 9t-8 10q-5 7 -15 17l-9 9l-6 7q-18 12 -19 13q-7 5 -21 12q-12 6 -22 9q-7 3 -24 6.5t-24 3.5q-8 2 -24 2
q-17 0 -23 -2h-2l-2 2q-2 2 -6.5 8t-7.5 9l-15 17q-10 10 -17 15q-7 7 -17 14l-9 6t-10 6q-23 14 -39 20q-27 10 -43 16q-26 6 -44 8q-4 0 -11.5 1t-10.5 1h-22q-4 0 -11.5 -1t-11.5 -1l-10 -2l-12 -1l-19 -5l-22 -7q-3 -2 -10 -4.5t-10 -4.5q-11 -5 -21 -10q-8 -4 -19 -12
l-9 -6l-9 -6t-9 -6.5t-8 -7.5l-16 -15q-10 -10 -13 -15q-3 -3 -7.5 -9t-6.5 -8l-6 -9t-6 -8q-2 -4 -5.5 -10t-5 -9.5t-4 -9.5t-4.5 -9l-12 -17q-2 -11 -5 -20q-1 -4 -1.5 -11t-1.5 -10l10 17q2 3 5.5 9t4.5 8l12 16q2 2 6 7t6 8l14 14l13 13l14 12q10 7 15 12l16 10
q10 7 15 9l5 2.5t6.5 3t5.5 2.5l17 7q3 1 9 2.5t8 2.5l17 5l17 4l21 3v0v0h-2v0h2h2h5h8h17q12 0 36 -3q15 -2 34 -9q20 -5 33 -12q2 0 7.5 -3t7.5 -3q3 -2 8 -4.5t7 -4.5l16 -10l14 -10l13 -12l12 -12l12 -14l12 -14l14 -17l18 5l19 6q5 0 19 3h19q12 0 19 -2q3 -1 9 -1.5
t9 -1.5q17 -4 19 -5q11 -3 17 -7q9 -3 17 -9l9 -5l8 -5q11 -7 16 -12q8 0 17 -8zM573 159q-13 9 -34.5 25t-51 38t-48.5 36q-31 23 -74 54t-65 47.5t-24 17.5q-16 12 -39 12q-27 0 -46 -19t-19 -46v-264h84v230q14 -10 35.5 -25.5t51 -37.5t48.5 -36q31 -23 73.5 -54
t64.5 -47.5t24 -17.5q17 -12 39 -12q27 0 46 19t19 46v264h-82zM707 225q0 -67 47.5 -114.5t114.5 -47.5h307v82h-307q-34 0 -58 24t-24 58t23.5 58t58.5 24h307v82h-307q-68 -3 -115 -51t-47 -115zM1691 225h-42q-35 0 -59.5 -24.5t-24.5 -59t24.5 -59t59.5 -24.5h42
q35 0 59.5 24.5t24.5 59t-24.5 59t-59.5 24.5zM1691 80h-42q-26 0 -44 18t-18 43.5t18 43.5t44 18h42q26 0 44 -18t18 -43.5t-18 -43.5t-44 -18zM1995 142q0 -26 -18 -44t-43 -18h-43q-26 0 -43.5 18t-17.5 44v73h-23v-73q0 -35 24.5 -59.5t59.5 -24.5h43q34 0 58.5 24.5
t24.5 59.5v73h-22v-73v0zM1347 203h42q36 0 51 -29l19 12q-24 38 -70 38h-42q-35 0 -59.5 -24.5t-24.5 -59.5t24.5 -59.5t59.5 -24.5h42q46 0 70 38l-19 12q-20 -29 -51 -29h-42q-26 0 -44 18t-18 43q0 28 18 46.5t44 18.5zM1517 126v179h-22v-179q0 -68 55 -68v22
q-18 0 -25.5 10.5t-7.5 35.5zM2234 198q-25 27 -61 27h-43q-35 0 -59.5 -24.5t-24.5 -59t24.5 -59t59.5 -24.5h43q34 0 58.5 24.5t24.5 59.5v163h-22v-107zM2171 80h-43q-25 0 -43 18t-18 43.5t18 43.5t43 18h43q25 0 43 -18t18 -43q2 -26 -16.5 -44t-44.5 -18zM2430 387h22
v-329h-22v329zM3074 383h-232l9 26q2 5 0 8.5t-7 3.5h-39q-10 0 -14 -9q-3 -11 -10 -29h-60q-10 0 -12 -9l-8 -28q-2 -9 7 -9h56q-67 -174 -133 -249q-6 -6 -4 -12q1 -3 6 -3h39v0q10 0 18 9l1 1h1q47 57 99 174h154q6 0 5 -6q-5 -16 -59 -62q-14 19 -23 41l-6 4h-54
q-4 0 -5 -2t-1 -4q12 -42 38 -78q-30 -20 -49 -28q-11 -3 -21 -3h-11q-9 0 -12 -11l-7 -27q-3 -8 6 -8h27q16 0 32 7q27 11 65 35q30 -29 42 -32q19 -10 48 -12h25q10 0 12 9l8 31q2 7 -5 7h-5q-21 0 -40 8q-18 12 -34 27q93 73 107 126q3 13 -3.5 19t-18.5 6h-195
q7 16 14 33h237q10 0 12 9l8 28q2 9 -8 9zM3243 257l-124 -138h168q14 0 13 13l-20 84h65l21 -99q-2 -40 -39 -44h-237q-55 -1 -32 58l116 126h69zM3417 254h-308q-10 0 -7 10l7 27q3 9 12 9h308q10 0 7 -9l-7 -27q-2 -10 -12 -10zM3426 350h-276q-9 0 -7 9l7 27q3 10 13 10
h275q10 0 7 -10l-7 -27q-3 -9 -12 -9zM3796 356h-284q-4 0 -6.5 2.5t-1.5 6.5l8 27q3 10 14 10h284q4 0 6.5 -3t1.5 -7l-8 -27q-3 -9 -14 -9zM3737 198h-269q-4 0 -6.5 2.5t-1.5 6.5l8 27q3 10 14 10h268q5 0 7 -3t1 -7l-8 -27q-2 -9 -13 -9zM3523 341h54l-30 -70h-54z
M3628 341h53l-30 -70h-53zM3731 341h53l-30 -70h-53zM3586 69h-30q-5 0 -7.5 2.5t-0.5 6.5l53 174q3 10 14 10h30q4 0 6.5 -3t1.5 -7l-53 -174q-3 -9 -14 -9zM3494 174l-32 -59q-3 -5 -7 -7q-8 -2 -13 -2h-12q-9 0 -12 -9l-7 -23q-2 -8 7 -8h26h4h18q12 0 21.5 6t13.5 11
l4 6l48 85h-59zM3922 425q22 -42 22 -88q0 -57 -27 -110.5t-80 -88.5t-118 -36q-9 2 -13 7t-4 10l1 5l10 50h-57q-2 -18 -11 -59q-4 -18 3 -30.5t16 -15.5l9 -3q10 -2 30 -3v0q19 0 41 1q94 6 160.5 76t66.5 157q0 72 -49 128zM3905 385l-8 21l-9 19q-1 1 -5 7.5t-6 10.5
q-2 2 -6 7.5t-7 8.5q-1 1 -5.5 7t-7.5 8q-14 12 -16 14q-10 8 -16 11l-8 6l-8 4q-7 4 -18 9q-4 2 -18 6l-6 2t-6.5 1.5t-5.5 1.5q-4 1 -11 2t-8 1q-4 0 -10.5 0.5t-8.5 0.5q-3 0 -9.5 -0.5t-8.5 -0.5q-4 0 -10 -1t-9 -2l-19 -4l-19 -5l-14 18l-11 14l-13 14l-12 12l-14 12
l-14 10q-2 1 -7 4.5t-8 5.5q-2 1 -7.5 4t-8.5 5q-2 1 -7.5 3.5t-8.5 3.5q-16 8 -33 13q-20 5 -35 7q-16 3 -36 4h-9h-9l-9 -1h-4l-3 -1h-1v0l1 1v0l-1 -1l-20 -2l-17 -4l-17 -4q-4 -1 -10 -3.5t-8 -2.5l-17 -7q-3 -2 -9 -5t-7 -3q-4 -2 -9.5 -5.5t-7.5 -4.5q-3 -2 -8.5 -5.5
t-6.5 -4.5q-3 -2 -8.5 -6.5t-7.5 -4.5l-14 -13q-3 -2 -8 -7l-6 -6l-13 -15q-9 -10 -13 -15l-11 -16q-4 -7 -11 -17l-10 -18q1 8 3 20q4 15 6 21l7 20q6 13 8 19q10 18 11 19q11 17 11 18q8 10 14 17l14 16l16 15l7 5.5t10 8.5q18 12 18.5 12t8 4.5t11.5 6.5q19 10 20 10
q20 8 21 8l22 7l20 5l12 2l11 1q2 0 23 2h22l23 -2q24 -3 44 -8q22 -6 43 -15q19 -8 40 -21q1 -1 19 -13q3 -2 18 -14q2 -2 17 -15l15 -17q2 -2 14 -18l13 -18l-33 13l11 2l5 1l7 1q22 1 25 1q24 -1 25 -1q24 -4 25 -4q2 -1 7 -2.5t9 -2.5t7 -2q21 -8 23 -10q16 -8 21 -11
q12 -8 20 -14l9 -8l9 -8q6 -5 16 -18q2 -2 14 -19q2 -3 3.5 -6t4 -7.5t3.5 -6.5q2 -4 9 -21q1 -4 2 -7.5t2 -8t2 -6.5q2 -7 4 -23v-22v0z" />
    <glyph glyph-name="regisered" unicode="&#xe650;" 
d="M907 -7l-42 125q-6 14 3 25q36 54 55 115q19 62 19 127q0 87 -33 165.5t-92.5 138t-138.5 92.5t-166 33t-166 -33t-138.5 -92.5t-92.5 -138t-33 -166t33 -165.5t92.5 -137.5t138 -93t166.5 -33.5q40 0 77 7q38 7 74 21q10 3 19.5 -1t13 -14t-1 -19t-13.5 -13
q-41 -15 -83 -23q-43 -7 -86 -7q-98 0 -185.5 37t-154 103t-103.5 153.5t-37 185t37 185t103.5 154t154 103.5t185.5 37t185.5 -37t154 -103.5t103.5 -154t37 -184.5q0 -73 -21 -142q-20 -63 -56 -119l46 -137v0q5 -15 4 -27q-3 -15 -14 -23q-9 -6 -21 -6h-1q-10 1 -21 6h-1
l-130 64q-9 5 -12.5 14.5t1 19t14.5 12.5t19 -1zM294 356q0 11 7.5 18t17.5 7t17.5 -7t7.5 -18q0 -69 49 -118v0q49 -50 119 -50t119 50l1 1q48 49 48 117q0 11 7.5 18t17.5 7t17.5 -7t7.5 -18q0 -89 -62 -152l-2 -2q-64 -63 -154 -63t-154 63v0v0q-64 64 -64 154v0z
M673 468q0 -10 -7.5 -17t-17.5 -7t-17.5 7t-7.5 17q0 37 26.5 63.5t63.5 26.5t63 -26t26 -64q0 -10 -7.5 -17t-17.5 -7t-17.5 7t-7.5 17q0 17 -12 29q-11 11 -27.5 11t-28 -11.5t-11.5 -28.5v0zM272 468q0 -10 -7.5 -17t-17.5 -7t-17.5 7t-7.5 17q0 37 26 63.5t63 26.5
t63.5 -26.5t26.5 -63.5q0 -10 -7.5 -17t-17.5 -7t-17.5 7t-7.5 17q0 17 -11.5 28.5t-28 11.5t-28 -11.5t-11.5 -28.5v0z" />
    <glyph glyph-name="logout" unicode="&#xe651;" 
d="M512 -90q-91 0 -174.5 35.5t-143.5 96t-95.5 143.5t-35.5 175q0 127 65 233t173 163v-61q-85 -54 -135 -142.5t-50 -192.5q0 -108 53 -199.5t144 -144.5t199 -53t199.5 53t144.5 144.5t53 199.5q0 104 -50 192.5t-135 142.5v61q108 -57 173 -163t65 -233q0 -92 -36 -175
t-96 -143.5t-143 -96t-175 -35.5v0zM512 413q-11 0 -18.5 7.5t-7.5 18.5v397q0 11 7.5 18.5t18.5 7.5t19 -7.5t8 -18.5v-397q0 -11 -8 -18.5t-19 -7.5v0z" />
    <glyph glyph-name="part" unicode="&#xe652;" 
d="M872 405q-31 0 -59 -14t-46 -40l-1 -1v-1q-2 6 -1 15v169q0 44 -31 75.5t-75 31.5v0h-170q-9 1 -13 2v0q26 18 40.5 46t14.5 59q0 53 -37.5 90.5t-90.5 37.5t-90.5 -37.5t-37.5 -90.5q0 -66 54 -104l1.5 -1.5t1.5 -0.5q-7 -1 -15 -1h-173v0q-43 -1 -73.5 -32t-30.5 -75v0
v-166q-2 -18 4.5 -36.5t25.5 -25.5q27 -10 50 22q26 36 70 36q35 0 60 -25t25 -60.5t-25 -60.5t-60 -25q-45 0 -71 37q-20 30 -47 20q-11 -4 -18.5 -13t-10 -20t-3 -16.5t-0.5 -9.5v-167v-0.5v-1.5q0 -44 31 -75t75 -31h534q9 0 15 6t6 15t-6 15t-15 6h-534q-26 0 -45 19
t-19 45h1v170q0 7 1 13h1q17 -25 45 -40t60 -15q53 0 90.5 37.5t37.5 90.5t-37.5 90.5t-90.5 37.5q-66 0 -105 -54l-2 -2q-1 6 0 15v169h-1q0 27 19 45.5t45 18.5v1h168q4 -1 10 -1q41 0 52 31q9 27 -22 50q-36 25 -36 69q0 36 25 61t60 25t60 -25t25 -61q0 -44 -37 -70
q-30 -21 -20 -47q4 -12 13 -19.5t20 -9.5t16.5 -2.5t9.5 -0.5h167l0.5 -0.5l0.5 -0.5q27 0 45.5 -18.5t18.5 -45.5l1 -166q-3 -18 3.5 -36.5t26.5 -25.5q27 -10 49 22q26 36 70 36q35 0 60 -25t25 -60.5t-25 -60.5t-60 -25q-45 0 -71 37q-20 30 -47 20q-11 -4 -18.5 -13
t-10 -20t-3 -16.5t-0.5 -9.5v-147q0 -9 6.5 -15.5t15.5 -6.5t15 6.5t6 15.5v148q0 6 2 13v0q18 -25 46 -40t59 -15q53 0 90.5 37.5t37.5 90.5t-37.5 90.5t-90.5 37.5z" />
    <glyph glyph-name="personalized" unicode="&#xe653;" 
d="M387 -72q-52 0 -98 24.5t-73 64.5l-30 36l48 -6q25 -2 44 2t33 16t22 23t19 30q13 22 21 33t25 28.5t41 25t55 7.5h6l77 -65v-6q9 -91 -48 -147q-40 -66 -142 -66zM275 5q49 -39 117 -35.5t108 47.5q35 45 35 113l-53 47q-21 -2 -36.5 -7.5t-28 -18t-18 -19.5t-17.5 -26
q-16 -42 -39 -67.5t-68 -33.5zM594 159l-82 65l6 36q10 60 22.5 87.5t53.5 60.5q32 28 109 96t138 122l61 54q18 13 37 9.5t28 -21.5q10 -21 0 -42q0 -4 -86.5 -148t-126.5 -206q-29 -46 -55 -63.5t-81 -37.5zM559 242l41 -36l12 6q50 18 70.5 33t42.5 50q40 62 126.5 206.5
t86.5 148.5v0q-5 0 -130 -109t-184 -163q-9 -8 -16 -15t-11.5 -12t-9 -14t-7 -12.5t-6 -15.5t-4.5 -16t-5 -21.5t-6 -23.5v-6zM340 218q-40 0 -67 27.5t-27 67.5t27 67.5t67 27.5t67.5 -27.5t27.5 -67.5q0 -36 -29.5 -65.5t-65.5 -29.5v0zM340 366q-22 0 -37.5 -15.5
t-15.5 -37.5t15.5 -37.5t37.5 -15.5v-24v24q10 0 21 4.5t15 12.5q8 5 12.5 15.5t4.5 20.5q0 22 -15.5 37.5t-37.5 15.5zM376 437q-40 0 -67.5 27.5t-27.5 67.5q0 35 29.5 64.5t65.5 29.5q40 0 67 -27t27 -67q0 -36 -29.5 -65.5t-64.5 -29.5v0zM376 579q-10 0 -21 -4.5
t-15 -13.5q-18 -9 -18 -29q0 -22 15.5 -37.5t38.5 -15.5v-24v24q10 0 20.5 4.5t14.5 12.5q8 4 13 15t5 21q0 21 -15 34t-38 13zM594 508q-39 0 -66.5 27.5t-27.5 67.5q0 35 29.5 64.5t64.5 29.5q40 0 67.5 -27t27.5 -67t-27.5 -67.5t-67.5 -27.5v0zM594 656q-9 0 -20 -5
t-15 -13q-18 -18 -18 -35q0 -22 15.5 -37.5t37.5 -15.5v-24v24q23 0 38.5 15.5t15.5 37.5t-15.5 37.5t-38.5 15.5zM163 82q-38 38 -63 80.5t-36.5 87.5t-15.5 82.5t-4 86.5q18 195 140 310t322 128q68 2 126 -11.5t92.5 -31.5t62 -44t38 -41.5t18.5 -31.5l12 -23l-42 -18
l-6 24q-7 15 -16.5 28.5t-33.5 35.5t-54 37t-80.5 25.5t-110.5 9.5q-185 -9 -296.5 -116t-129.5 -287q0 -98 22 -168.5t84 -132.5zM524 -89l-6 41q122 14 191 49t104 105q5 14 8 27t2.5 24t-1 19.5t-4 17t-5.5 13.5t-7.5 11.5t-7.5 9t-8 8t-6 6.5q-3 0 -4.5 1.5t-1.5 2.5v2
l29 29l6 -5q84 -63 42 -184q-40 -79 -120.5 -121.5t-210.5 -55.5z" />
    <glyph glyph-name="skin" unicode="&#xe654;" 
d="M708 4h-393q-44 0 -75.5 31t-31.5 74l33 293q0 14 -3 23v0q-22 -19 -54 -19q-46 0 -84 34l-4 3q-32 30 -33 73.5t30 74.5l115 113q26 26 59 45t57 19t54.5 -23.5t51.5 -54.5q3 -4 9 -10.5t27 -16t45.5 -9.5t45 10t27 16t8.5 10q22 31 53 54.5t57 23.5q25 0 59 -20t60 -45
l109 -112q31 -31 30.5 -75t-32.5 -74q-37 -36 -85 -36v0q-33 0 -55 19q-1 1 -3 2q-4 -9 -4 -25l33 -293q0 -43 -31 -74t-75 -31zM241 477q20 0 34.5 -18.5t14.5 -56.5l-33 -293q0 -23 17 -40t41 -17h393q23 0 40 17t17 40l-33 293q0 38 15.5 56.5t35.5 18.5q19 0 37 -15
q9 -7 23 -7v0q28 0 51 22q17 16 17 39.5t-16 40.5l-110 111q-21 22 -46 36.5t-37 14.5q-9 0 -30.5 -15.5t-38.5 -40.5q-2 -3 -5.5 -7.5t-14.5 -14t-24 -17t-34 -13.5t-44 -6t-44 6t-34 13.5t-24 17t-14.5 14t-5.5 7.5q-16 24 -36.5 40t-28.5 16q-11 0 -35.5 -14.5
t-45.5 -35.5l-115 -113q-17 -16 -16.5 -38.5t18.5 -38.5l3 -3q24 -21 51 -21q13 0 21 6q17 16 36 16z" />
    <glyph glyph-name="usermanagement" unicode="&#xe656;" 
d="M799 -95h-129l-2 17q-3 30 -8 44q-1 0 -2 1q-19 -11 -55 -34l-15 -10l-94 123l15 12q17 13 30 26q-16 6 -46 12l-15 3v125l15 3q23 5 42 10q-12 14 -27 30l-12 12l92 124l15 -13q30 -25 46 -37q4 2 8 3q8 23 12 46l3 16l124 -1l4 -14q10 -34 17 -49q0 -1 1 -1h1
q17 12 46 36l16 13l92 -124l-13 -11q-18 -15 -31 -29q17 -5 46 -11l16 -3v-125l-16 -3q-34 -7 -48 -13v-1q12 -11 32 -25l19 -12l-123 -125l-13 14q-21 21 -34 32q-1 -1 -2 -1.5t-2 -0.5q-3 -15 -4 -41zM704 -56h59q3 31 8 41t14 13q10 3 18 7l7 3l7 -3q10 -3 38 -30l64 64
q-23 17 -30 28l-7 9l5 10q4 9 6 16q2 4 4.5 7.5t16.5 9.5t38 11v63q-39 8 -49 13t-13 14q-1 7 -3 13l-3 7l4 8q7 12 33 36l-47 63q-34 -28 -45 -33l-7 -3l-8 3q-8 3 -15 5q-5 1 -8 3.5t-9.5 16t-14.5 40.5l-63 1q-13 -55 -37 -61q-5 -2 -12 -5l-8 -4l-8 4q-11 6 -45 33
l-48 -65q29 -30 32 -45l1 -5l-3 -6q-1 -4 -3 -10l-3 -9l-9 -3q-12 -4 -45 -11v-63q42 -10 53 -19l5 -8l6 -14l5 -11l-7 -9q-9 -11 -31 -30l50 -64q46 28 57 31l6 2l6 -3q6 -3 13 -5q5 -2 8 -4.5t8 -15.5t9 -36zM419 -34q-41 0 -87 2t-114.5 7t-119.5 18t-64 32q-11 13 -6 29
l54 168q20 61 71.5 93t108.5 32h215v-38h-215q-25 0 -50.5 -8t-53.5 -31.5t-39 -59.5l-53 -164q16 -16 112.5 -28.5t247.5 -12.5v-39h-7zM733 25q-57 0 -97 40t-40 97t40 97.5t97 40.5t97.5 -40.5t40.5 -97.5t-40.5 -97t-97.5 -40zM733 261q-41 0 -70 -29t-29 -70t29 -70
t70 -29t70 29t29 70t-29 70t-70 29zM433 384q-90 0 -159.5 71t-69.5 163q0 61 33.5 119t88 93.5t112.5 35.5q57 0 110.5 -35t87 -92t33.5 -118q0 -90 -73.5 -163.5t-162.5 -73.5zM438 828q-71 0 -133 -66.5t-62 -143.5q0 -75 58 -135t132 -60t135.5 61.5t61.5 136.5
q0 77 -60.5 142t-131.5 65z" />
    <glyph glyph-name="layout" unicode="&#xe647;" 
d="M835 864h-642q-66 0 -112.5 -46.5t-46.5 -112.5v-642q0 -66 46.5 -112.5t112.5 -46.5h642q66 0 112.5 46.5t46.5 112.5v642q0 66 -46.5 112.5t-112.5 46.5zM177 818h674q41 0 70.5 -31t29.5 -75v-107h-874v107q0 44 29.5 75t70.5 31zM78 50v516h303v-618h-191
q-46 0 -79 30t-33 72zM851 -52h-433v612h532v-511q0 -42 -29 -71.5t-70 -29.5z" />
    <glyph glyph-name="packup" unicode="&#xe657;" 
d="M68 390q0 22 16 38l390 390q16 16 38 16t38 -16l390 -390q16 -16 16 -38t-15.5 -37.5t-38 -15.5t-37.5 16l-353 352l-353 -352q-15 -16 -37.5 -16t-38 15.5t-15.5 37.5v0v0v0zM68 -13q0 22 16 38l390 390q16 16 38 16t38 -16l390 -390q16 -16 16 -38t-15.5 -37.5
t-38 -15.5t-37.5 16l-353 352l-353 -352q-15 -16 -37.5 -16t-38 15.5t-15.5 37.5v0v0v0z" />
    <glyph glyph-name="max" unicode="&#xe658;" horiz-adv-x="1027" 
d="M999 -71q0 3 -1 12.5t-2 14.5q-1 8 -5 44.5t-7 56.5q0 7 -4 40.5t-6 50.5q-1 10 -7 54q0 3 -2 6q-4 14 -13.5 17t-20.5 -5q-5 -4 -12 -11q-8 -7 -22 -21t-20 -19q-11 -11 -18.5 -11.5t-20.5 8.5q-7 6 -20 19q-17 16 -75 73.5t-90 89.5q-5 4 -16 11q-22 13 -42 -5
q-26 -23 -53 -52q-19 -19 -2 -42q8 -11 19 -22q33 -33 95.5 -94.5t73.5 -72.5q7 -7 12 -13q10 -14 -1 -26q-4 -4 -31 -33q-28 -30 -29 -30q-12 -14 -8.5 -26t20.5 -16q10 -3 43 -7q24 -2 94 -10q69 -8 104 -12q17 -2 32 -2q6 -1 14 1q18 3 20 23l1 7v2zM27 837q3 -24 3 -26
q0 -4 4.5 -43t7.5 -59q1 -7 4.5 -40t5.5 -51q1 -10 7 -54q0 -2 2 -6q4 -13 13.5 -16t20.5 5q5 3 12 10t21.5 21t20.5 20q11 11 18.5 11.5t20.5 -9.5q7 -5 20 -18q17 -16 75 -73.5t90 -89.5q5 -4 16 -12q22 -13 42 5q26 24 53 52q19 20 2 43q-8 10 -19 21l-53 53t-62.5 62
t-53.5 52q-7 7 -11 12q-11 15 1 29q3 3 30 32t29 30q12 14 8.5 25.5t-20.5 16.5q-10 2 -43 6q-17 2 -93 11q-15 1 -50.5 5t-54.5 6q-1 0 -24 3h-15l-4 -1q-21 -2 -23 -23q0 -1 -1 -8v-2z" />
    <glyph glyph-name="mini" unicode="&#xe659;" horiz-adv-x="1027" 
d="M493 436q0 5 -1 13.5t-2 13.5q-11 97 -11 101q-1 6 -5 39.5t-6 51.5q-1 10 -7 54q0 3 -1 6q-4 13 -14 16.5t-21 -5.5q-5 -3 -12 -10t-21.5 -21t-19.5 -19q-11 -11 -19 -11.5t-20 8.5q-8 6 -21 18q-16 16 -74.5 74t-90.5 89q-4 5 -16 12q-22 13 -42 -5q-26 -24 -53 -52
q-18 -19 -2 -42q8 -11 19 -22q34 -33 97.5 -96.5l71.5 -71.5q8 -7 12 -12q10 -14 -1 -27q-3 -3 -31 -32q-27 -30 -28 -31q-13 -13 -9.5 -25t21.5 -17q9 -2 42 -6q24 -3 94 -11q70 -7 104 -11q17 -2 32 -3q6 0 14 1q19 4 20 24l1 7v2zM533 331q0 -1 1 -11.5t2 -15.5
q1 -7 5 -44t6 -57q1 -7 5 -40.5t6 -50.5q1 -10 7 -54q0 -3 1 -6q5 -14 14.5 -17t20.5 5q5 4 11 10l22 22t20 19q11 11 19 11.5t20 -8.5q8 -6 21 -18q17 -18 75 -75t89 -88q5 -5 17 -12q22 -13 42 5q26 24 53 52q18 19 2 42q-8 11 -19 22l-169 167q-7 7 -11 12q-12 15 1 29
q3 2 30 31q27 30 28 31q13 13 9.5 25t-21.5 16q-9 3 -43 7q-17 2 -92 10q-14 2 -49.5 6t-55.5 6q-2 0 -24 3h-15q-4 -1 -5 -1q-20 -3 -22 -24q0 -1 -1 -7v-2z" />
    <glyph glyph-name="unfold" unicode="&#xe65a;" 
d="M956 378q0 -22 -16 -38l-390 -390q-16 -16 -38 -16t-38 16l-390 390q-16 16 -16 38t15.5 37.5t38 15.5t37.5 -16l353 -352l353 352q15 16 37.5 16t38 -15.5t15.5 -37.5v0v0v0zM956 781q0 -22 -16 -38l-390 -390q-16 -16 -38 -16t-38 16l-390 390q-16 16 -16 38t15.5 37.5
t38 15.5t37.5 -16l353 -352l353 352q15 16 37.5 16t38 -15.5t15.5 -37.5v0v0v0z" />
    <glyph glyph-name="management" unicode="&#xe65b;" 
d="M383 611q0 62 -43.5 105.5t-105 43.5t-105 -43.5t-43.5 -105.5q0 -59 42 -102q-11 -45 -11 -91q0 -105 50.5 -193.5t135.5 -141.5l30 122q-47 39 -73 94.5t-26 118.5q0 22 3 45q61 1 103.5 44.5t42.5 103.5v0v0zM510 694q76 0 141 -38q-10 -26 -10 -53q0 -62 43.5 -105.5
t104.5 -43.5t104.5 43.5t43.5 105t-43 105t-105 43.5q-28 0 -54 -11q-102 71 -225 71q-83 0 -159 -34l68 -98q43 15 91 15v0v0zM787 405q-3 -75 -43 -137t-105 -96q-18 37 -53.5 59t-78.5 22q-61 0 -104.5 -43.5t-43.5 -104.5t43.5 -104.5t104.5 -43.5q46 0 83 25t54 65
q115 42 187.5 143.5t72.5 227.5q0 12 -1 26l-116 -39v0v0z" />
    <glyph glyph-name="template" unicode="&#xe65c;" 
d="M141 864h742q45 0 77 -34.5t32 -82.5v-117h-960v117q0 49 32 83t77 34zM33 20v567h333v-679h-210q-51 0 -87 32.5t-36 79.5zM883 -92h-477v672h585v-562q0 -45 -31.5 -77.5t-76.5 -32.5z" />
    <glyph glyph-name="adminmanagement" unicode="&#xe65e;" 
d="M512 -96q-98 0 -187 38q-86 36 -152 103q-66 65 -103 152q-38 90 -38 187t38 187q37 87 103 152q66 67 152 103q89 38 187 38t187 -38q86 -36 153 -103q65 -65 103 -152q37 -89 37 -187t-37 -187q-38 -87 -103 -152q-67 -67 -153 -103q-89 -38 -187 -38zM512 831
q-91 0 -173.5 -35.5t-142.5 -95.5t-95.5 -142.5t-35.5 -173.5t35.5 -173.5t95.5 -142.5t142.5 -95.5t173.5 -35.5t173.5 35.5t142.5 95.5t95.5 142.5t35.5 173.5t-35.5 173.5t-95.5 142.5t-142.5 95.5t-173.5 35.5zM504.5 701q61.5 0 105.5 -43t44 -104t-44 -104t-105.5 -43
t-105.5 43t-44 104t44 104t105.5 43zM504.5 701q61.5 0 105.5 -43t44 -104t-44 -104t-105.5 -43t-105.5 43t-44 104t44 104t105.5 43zM448 358h125q80 0 136.5 -56t56.5 -134v-13q0 -10 -6 -17.5t-20.5 -12t-29.5 -7t-40 -4t-45 -2t-52 -0.5h-125q-35 0 -52 0.5t-44.5 1.5
t-41 3.5t-28.5 7.5t-21 12.5t-6 17.5v13q0 78 56.5 134t136.5 56z" />
    <glyph glyph-name="adminmenu" unicode="&#xe65f;" 
d="M887.5 159.5q-3.5 49.5 -25.5 91.5t-56 73q-35 30 -79.5 46t-94.5 12q-50 -3 -92 -25t-72 -57t-46 -79.5t-12.5 -94t25.5 -91.5t56 -73q35 -30 79.5 -45.5t94.5 -11.5q50 3 92 24.5t72 56.5t46 80q16 44 12.5 93.5zM785 200q-4 -14 -9 -34q-6 -21 -12 -40q-7 -22 -14 -43
q-4 -12 -14 -43q-9 -25 -31 -38.5t-47.5 -14.5t-50 12t-37.5 40q-6 13 -14 32q-10 21 -17.5 37.5t-16.5 37.5q-6 14 -15 34q-7 14 1 26.5t21 19t27 6t21 -12.5q4 -7 10 -21q5 -10 15 -29q6 -13 16 -33q8 -16 18 -32q8 -14 22.5 -14.5t20.5 19.5q6 18 10 33t6 27l6 24
q1 4 2.5 12t2.5 12q6 19 20 25q14 5 28.5 1t24.5 -16q9 -12 6 -27zM136 182q1 18 7 41t16 36q38 51 91.5 77.5t135.5 34.5q15 3 25 15t10 27q0 5 -5.5 13t-12.5 16t-14 15.5t-12 12.5l-5 5q-37 38 -58 95t-21 109q0 77 54 131t130 54t130 -54t54 -131q0 -53 -20.5 -110
t-57.5 -95q-49 -45 -49 -61v-6q-8 -5 -14 -10q-26 -16 -44 -35q-48 -46 -74.5 -107t-26.5 -130q0 -16 2 -33q-8 -25 9 -49q2 -9 5 -18h-185q-29 0 -49.5 20.5t-20.5 49.5v87z" />
    <glyph glyph-name="application" unicode="&#xe660;" 
d="M512 -96q-98 0 -187 38q-86 36 -152 103q-66 65 -103 152q-38 90 -38 187t38 187q37 87 103 152q66 67 152 103q89 38 187 38t187 -38q86 -36 153 -103q65 -65 103 -152q37 -89 37 -187t-37 -187q-38 -87 -103 -152q-67 -67 -153 -103q-89 -38 -187 -38zM512 831
q-91 0 -173.5 -35.5t-142.5 -95.5t-95.5 -142.5t-35.5 -173.5t35.5 -173.5t95.5 -142.5t142.5 -95.5t173.5 -35.5t173.5 35.5t142.5 95.5t95.5 142.5t35.5 173.5t-35.5 173.5t-95.5 142.5t-142.5 95.5t-173.5 35.5zM412 661h-104q-29 0 -49 -20.5t-20 -48.5v-104
q0 -29 20 -49.5t49 -20.5h104q29 0 49 20.5t20 49.5v104q0 28 -20 48.5t-49 20.5zM724 661h-104q-29 0 -49.5 -20.5t-20.5 -48.5v-104q0 -29 20.5 -49.5t49.5 -20.5h104q28 0 48.5 20.5t20.5 49.5v104q0 28 -20.5 48.5t-48.5 20.5zM412 349h-104q-29 0 -49 -20t-20 -49v-104
q0 -29 20 -49t49 -20h104q29 0 49 20t20 49v104q0 29 -20 49t-49 20zM724 349h-104q-29 0 -49.5 -20t-20.5 -49v-104q0 -29 20.5 -49t49.5 -20h104q28 0 48.5 20t20.5 49v104q0 29 -20.5 49t-48.5 20z" />
    <glyph glyph-name="company" unicode="&#xe661;" 
d="M512 -56q-98 0 -186.5 38t-153 102t-102.5 153t-38 186q0 124 59 231h42q-65 -107 -65 -231q0 -90 35 -172t94.5 -141.5t142 -95t172.5 -35.5t172.5 35.5t142 95t94.5 141.5t35 172q0 124 -65 231h42q59 -107 59 -231q0 -97 -38 -186t-102.5 -153t-153 -102t-186.5 -38z
M636.5 512q-7.5 0 -12.5 5.5t-5 12.5v18q0 7 5 12.5t12.5 5.5t12.5 -5.5t5 -12.5v-18q0 -7 -5 -12.5t-12.5 -5.5zM654 406q0 -8 -5 -13t-12.5 -5t-12.5 5t-5 13v17q0 8 5 13t12.5 5t12.5 -5t5 -13v-17zM849 264h-65h-244h-38h-242h-67q-8 0 -13.5 5t-5.5 13t5 12.5t13 4.5
h53v533h285v-142h178v-36h-178v-355h213v302h36v-302l70 1q8 0 13.5 -5t5.5 -13t-5.5 -13t-13.5 -5zM494 690v106h-213v-497h213v391zM370 690h18h17q8 0 13 -5.5t5 -12.5t-5 -12.5t-13 -5.5h-17h-18q-8 0 -13 5.5t-5 12.5t5 12.5t13 5.5zM370 566h18h17q8 0 13 -5.5t5 -13
t-5 -12.5t-13 -5h-17h-18q-8 0 -13 5t-5 12.5t5 13t13 5.5zM370 441h18h17q8 0 13 -5t5 -12.5t-5 -12.5t-13 -5h-17h-18q-8 0 -13 5t-5 12.5t5 12.5t13 5z" />
    <glyph glyph-name="license" unicode="&#xe662;" 
d="M750 625h-165q0 30 -21.5 51.5t-52 21.5t-52 -21.5t-21.5 -51.5h-165q-7 0 -12.5 -5.5t-5.5 -13.5v-476q0 -8 5.5 -13.5t12.5 -5.5h477q8 0 13.5 5.5t5.5 13.5v476q0 8 -5.5 13.5t-13.5 5.5v0zM512 662q15 0 25.5 -11t10.5 -26t-10.5 -26t-25.5 -11t-26 11t-11 26t11 26
t26 11zM732 148h-440v440h73v-55q0 -7 5.5 -12.5t12.5 -5.5h257q8 0 13 5t5 13v55h74v-440v0zM475 206l-118 136l34 34l84 -66l158 139l33 -33l-191 -210v0zM512 -96q-98 0 -187 38q-86 36 -152 103q-66 65 -103 152q-38 90 -38 187t38 187q37 87 103 152q66 67 152 103
q89 38 187 38t187 -38q86 -36 153 -103q65 -65 103 -152q37 -89 37 -187t-37 -187q-38 -87 -103 -152q-67 -67 -153 -103q-89 -38 -187 -38zM512 831q-91 0 -173.5 -35.5t-142.5 -95.5t-95.5 -142.5t-35.5 -173.5t35.5 -173.5t95.5 -142.5t142.5 -95.5t173.5 -35.5
t173.5 35.5t142.5 95.5t95.5 142.5t35.5 173.5t-35.5 173.5t-95.5 142.5t-142.5 95.5t-173.5 35.5z" />
    <glyph glyph-name="menu" unicode="&#xe663;" 
d="M32 376v16q1 5 1 7q6 60 6 64q12 79 52 150q60 111 166 177q107 68 235 73q70 4 137 -13q144 -37 242 -148q101 -113 118 -266q9 -78 -9 -157q-20 -89 -71 -165q-57 -83 -143 -137q-94 -59 -206 -71q-50 -5 -102 1q-60 7 -115 28q-85 32 -152 93q-69 62 -109 144
q-42 84 -48 175q-1 15 -2 29zM586 346h166q6 0 12 1q18 2 27 19.5t1 33.5q-11 22 -37 22h-166.5h-166.5q-6 0 -13 -1q-16 -2 -25.5 -16.5t-5.5 -29.5q8 -29 40 -29h84h84zM586 151h59h56h56q23 0 34 19t-1 38q-11 18 -36 18h-331h-13q-17 -2 -26.5 -16.5t-5.5 -30.5
q9 -28 39 -28h85h84zM586 543h164h13q19 2 28.5 19t0.5 34q-11 21 -37 21h-335q-7 0 -12 -1q-23 -5 -30 -28q-6 -22 12 -37q11 -8 29 -8h167zM229 579q0 -16 12 -28t29 -12q16 0 27.5 12t11.5 28q0 17 -12 29t-28 12t-28 -12.5t-12 -28.5zM229 189q0 -16 12 -28.5t28 -12.5
t28 12t12 29q0 16 -11.5 27.5t-28 12t-28.5 -11.5t-12 -28zM229 384q-1 -15 11 -27t29 -13q16 0 28 11.5t12 27.5q1 16 -11 28t-28 12.5t-28.5 -11.5t-12.5 -28z" />
    <glyph glyph-name="rolemanagement" unicode="&#xe664;" 
d="M512 -96q-98 0 -187 38q-86 36 -152 103q-66 65 -103 152q-38 90 -38 187t38 187q37 87 103 152q66 67 152 103q89 38 187 38t187 -38q86 -36 153 -103q65 -65 103 -152q37 -89 37 -187t-37 -187q-38 -87 -103 -152q-67 -67 -153 -103q-89 -38 -187 -38zM512 831
q-91 0 -173.5 -35.5t-142.5 -95.5t-95.5 -142.5t-35.5 -173.5t35.5 -173.5t95.5 -142.5t142.5 -95.5t173.5 -35.5t173.5 35.5t142.5 95.5t95.5 142.5t35.5 173.5t-35.5 173.5t-95.5 142.5t-142.5 95.5t-173.5 35.5zM754 141q0 -3 -49 -4q1 5 1 9q0 80 -56.5 136.5t-136 56.5
t-136 -56.5t-56.5 -136.5v-8q-48 1 -48 3q0 78 45 140t116 87q37 -18 79 -18t79 18q72 -25 117 -87t45 -140zM335 527q0 -74 52 -126.5t126 -52.5t126.5 52.5t52.5 126.5t-52.5 126t-126.5 52t-126 -52t-52 -126z" />
    <glyph glyph-name="smallauthorization" unicode="&#xe665;" 
d="M989 440h-1q0 8 -6.5 13.5t-15 5.5t-14.5 -5.5t-7 -13.5v0v-3t1 -4q2 -25 2 -49q0 -89 -34.5 -169.5t-93 -139t-139 -93t-169.5 -34.5t-169.5 34.5t-139 93t-93 139t-34.5 169.5t34.5 169.5t93 139t139 93t169.5 34.5q101 0 190 -43.5t150 -119.5l-400 -390q-7 -7 -12 -7
q-3 0 -5.5 2t-4.5 4l-2 1l-129 130q-7 8 -17 8q-9 0 -15.5 -6.5t-6.5 -15.5q0 -11 8 -18l160 -159q6 -5 12 -5q3 0 6.5 1.5t4.5 2.5l2 2l438 426q1 2 2.5 4t4 7.5t2.5 10.5q-1 12 -9 23q-67 87 -166.5 136.5t-212.5 49.5q-98 0 -186.5 -38t-153 -102.5t-102.5 -153
t-38 -186.5t38 -186.5t102.5 -153t153 -102.5t186.5 -38t186.5 38t153 102.5t102.5 153t38 186.5q0 27 -3 56z" />
    <glyph glyph-name="thewidget" unicode="&#xe666;" 
d="M762 438q22 0 42 -8.5t34 -23.5q15 -14 24 -34q8 -20 8 -42q0 -23 -8.5 -42.5t-23 -34.5t-34.5 -23.5t-42 -8.5q-20 0 -38 8q-18 7 -32 19v-88q0 -20 -13.5 -33.5t-32.5 -13.5h-349q-19 0 -32.5 13.5t-13.5 33.5v78q3 15 12.5 22t26.5 -3q9 -5 13 -6q18 -9 37.5 -9
t35.5 7q17 7 29.5 19.5t19.5 28.5t7 35.5t-7 36t-19.5 29t-29 19.5t-35.5 7t-36 -8q-5 -1 -8 -3q-8 -4 -16 -7q-8 -4 -14.5 -3t-10.5 7t-5 21v75q0 19 13.5 32.5t32.5 13.5h111q-12 14 -18.5 31.5t-6.5 37.5q0 24 9 44t23.5 35t34.5 24t43 9t43 -9t35 -24q14 -15 23 -35
t9 -44q0 -39 -24 -69h67q19 0 32.5 -13.5t13.5 -32.5v-95q14 12 32 19.5t38 7.5v0zM512 -96q-98 0 -187 38q-86 36 -152 103q-66 65 -103 152q-38 90 -38 187t38 187q37 87 103 152q66 67 152 103q89 38 187 38t187 -38q86 -36 153 -103q65 -65 103 -152q37 -89 37 -187
t-37 -187q-38 -87 -103 -152q-67 -67 -153 -103q-89 -38 -187 -38zM512 831q-91 0 -173.5 -35.5t-142.5 -95.5t-95.5 -142.5t-35.5 -173.5t35.5 -173.5t95.5 -142.5t142.5 -95.5t173.5 -35.5t173.5 35.5t142.5 95.5t95.5 142.5t35.5 173.5t-35.5 173.5t-95.5 142.5
t-142.5 95.5t-173.5 35.5z" />
    <glyph glyph-name="bumen" unicode="&#xe67c;" 
d="M316 -8h-127q-6 0 -10 4.5t-4 9.5v757q0 5 4 9.5t10 4.5h644q6 0 10 -4.5t4 -9.5v-408l56 -24v432q0 29 -20.5 49.5t-49.5 20.5h-644q-29 0 -49.5 -20.5t-20.5 -49.5v-757q0 -28 20.5 -49t49.5 -21h127v56v0zM771 430q0 55 -39 93.5t-93.5 38.5t-93.5 -38.5t-39 -93.5
t39 -93.5t93.5 -38.5t93.5 38.5t39 93.5v0zM815 253v0h-25l-137 -278l52 256l-67 67l-66 -67l52 -256l-138 278h-24v0q-19 0 -33 -3.5t-23 -9t-15.5 -16.5t-10 -19.5t-5 -25.5t-1.5 -27v-31v-185h529v185v31t-2 27t-5 25.5t-9.5 19.5t-15.5 16.5t-23.5 9t-32.5 3.5v0z
M263 686h492v-52h-492v52v0zM263 554h170v-56h-170v56v0zM263 412h190v-52h-190v52v0zM263 412z" />
    <glyph glyph-name="bianjituxing" unicode="&#xe676;" 
d="M610 -123q-8 0 -14 5t-8 12q-1 9 3.5 16.5t13.5 8.5q112 23 199 92t134 170t43 214q-3 95 -43.5 180.5t-105.5 146.5t-153 95t-183.5 30.5t-181 -43.5t-146 -105t-94.5 -153t-31 -184q6 -160 108.5 -283t259.5 -158q9 -2 13.5 -9.5t2.5 -16t-9.5 -13t-15.5 -3.5
q-171 38 -283.5 172.5t-118.5 309.5q-3 104 34 200t103.5 167t159.5 115t197 47.5t200 -33.5t167 -103.5t115 -159.5t48 -197q4 -124 -47 -234t-146.5 -185.5t-216.5 -99.5q-2 -1 -4 -1zM512 43q-6 0 -11 3l-256 160q-10 6 -10 18v320q0 12 10 18l256 160q11 7 22 0l132 -82
q7 -5 9 -13.5t-2.5 -16t-13 -9.5t-16.5 3l-120 75l-235 -147v-296l235 -147l235 147v215q0 9 6 15.5t15 6.5t15 -6.5t6 -15.5v-227q0 -12 -10 -18l-256 -160q-5 -3 -11 -3zM751 604q-10 0 -16 -7l-168 -193q-6 -7 -5 -16t7 -15q6 -5 14 -5q10 0 17 8l167 193q6 7 5.5 15.5
t-7.5 14.5q-6 5 -14 5v0zM543 365q-9 0 -16 -8l-28 -32q-6 -7 -5 -15.5t7 -14.5q6 -5 14 -5q10 0 16 7l28 32q6 7 5.5 16t-7.5 15q-6 5 -14 5v0z" />
    <glyph glyph-name="jian" unicode="&#xe66c;" 
d="M128 196h319v-68h-319v68zM128 320h192v-68h-192v68zM128 452h192v-68h-192v68zM894 706l2 2h-2q-9 27 -32 44.5t-52 17.5h-595q-36 0 -61.5 -25.5t-25.5 -61.5v-170h63v137l263 -262q25 -25 61 -25t62 25l256 257v-553q0 -10 -6.5 -17t-16.5 -7h-681v-63h681
q36 0 61.5 25t25.5 62v591q0 11 -3 23zM531 433q-6 -7 -16 -7t-16 7l-273 273h578z" />
    <glyph glyph-name="head" unicode="&#xe669;" 
d="M512 864q-98 0 -186.5 -38t-153 -102t-102.5 -153t-38 -187t38 -186.5t102.5 -153t153 -102.5t186.5 -38t186.5 38t153 102.5t102.5 153t38 186.5t-38 187t-102.5 153t-153 102t-186.5 38zM256 140q-1 12 0 42.5t1 35.5q3 9 10 15t13.5 9t19 7.5t17.5 6.5q10 4 38 16
l42 18q16 4 22 6q8 5 22 36l11 3q-1 7 -7 13.5t-7 9.5l-4 42l-2.5 0.5t-5 1.5t-3.5 1q-4 2 -6.5 7t-4 13t-2.5 13t-1.5 14.5t-0.5 10.5q0 2 3.5 9.5t2.5 14.5q-20 95 40 115q68 27 108 2l11 -10l16 -2q4 -3 7 -8t5 -9l1 -4q5 -19 5 -37l-2 -21.5t-1 -26.5q0 -4 6 -16
q7 -13 1 -39q-2 -14 -7 -21q-2 -2 -8 -5.5t-8 -6.5q-3 -5 -3.5 -17.5t-1.5 -16.5q-2 -4 -8 -11.5t-6 -16.5q2 0 7 -1t7 -1q14 -31 22 -36q2 -1 22 -6q15 -6 43 -18t37 -16q5 -2 17.5 -6.5t19 -7.5t13.5 -9.5t10 -14.5q0 -5 1 -35.5t0 -43.5h-512v1z" />
    <glyph glyph-name="xiaobujianshouquan" unicode="&#xe66d;" 
d="M880 407h-64v170q0 35 -25 60t-60 25h-169v63q0 44 -31.5 75t-75 31t-74.5 -31t-31 -75v-63h-170q-35 0 -59.5 -25t-24.5 -60l-1 -161h64q47 0 80.5 -33.5t33.5 -81t-33.5 -81t-80.5 -33.5h-64v-161q0 -35 25 -60t60 -25h161v63q0 48 33.5 81.5t81 33.5t81 -33.5
t33.5 -81.5v-63h161q35 0 60 25t25 60v169h64q43 0 74.5 31t31.5 75t-31.5 75t-74.5 31zM496.5 156q-91.5 0 -156 64.5t-64.5 155.5t64.5 155.5t155.5 64.5q53 0 98 -23t76 -62q4 -5 5 -11q0 -2 -1.5 -4.5t-2.5 -3.5l-1 -2l-201 -196q-2 -2 -6 -2l-5 2l-73 73q-4 3 -4 8
q0 10 10 10q5 0 8 -3l59 -60q3 -3 5 -3l6 3l183 179q-28 35 -68.5 55t-87.5 20q-82 0 -141 -58.5t-59 -141.5t59 -141.5t141.5 -58.5t141.5 58.5t59 141.5q0 11 -2 22v2v1v0q1 9 10 9t10 -9v0q2 -13 2 -25q0 -91 -64.5 -155.5t-156 -64.5z" />
    <glyph glyph-name="arrowright" unicode="&#xe671;" 
d="M756 384v0q2 22 -13 38l-395 395q-14 14 -34 14t-34 -14t-14 -34t14 -34l365 -364l-365 -365q-14 -14 -14 -34t14 -34t34 -14t34 14l395 396q15 15 13 36v0z" />
    <glyph glyph-name="arrowleft" unicode="&#xe672;" 
d="M363 332zM266 384q-1 -21 13 -36l396 -396q14 -14 33.5 -14t33.5 14t14 34t-13 34l-365 365l365 364q14 14 14 34t-14 34t-34 14t-34 -14l-396 -395q-14 -16 -13 -38v0v0zM266 384z" />
    <glyph glyph-name="qiyegongchangjianzhu" unicode="&#xe678;" 
d="M928 64h-32v448q0 53 -37.5 90.5t-90.5 37.5h-192v64q0 53 -37.5 90.5t-90.5 37.5h-256q-53 0 -90.5 -37.5t-37.5 -90.5v-640h-32q-13 0 -22.5 -9.5t-9.5 -22.5t9.5 -22.5t22.5 -9.5h896q13 0 22.5 9.5t9.5 22.5t-9.5 22.5t-22.5 9.5zM512 640v-64v-512h-384v640
q0 26 19 45t45 19h256q26 0 45 -19t19 -45v-64zM832 64h-256v512h192q26 0 45 -19t19 -45v-448zM416 640h-192q-13 0 -22.5 -9.5t-9.5 -22.5t9.5 -22.5t22.5 -9.5h192q13 0 22.5 9.5t9.5 22.5t-9.5 22.5t-22.5 9.5zM416 448h-192q-13 0 -22.5 -9.5t-9.5 -22.5t9.5 -22.5
t22.5 -9.5h192q13 0 22.5 9.5t9.5 22.5t-9.5 22.5t-22.5 9.5zM416 256h-192q-13 0 -22.5 -9.5t-9.5 -22.5t9.5 -22.5t22.5 -9.5h192q13 0 22.5 9.5t9.5 22.5t-9.5 22.5t-22.5 9.5zM736 448h-64q-13 0 -22.5 -9.5t-9.5 -22.5t9.5 -22.5t22.5 -9.5h64q13 0 22.5 9.5t9.5 22.5
t-9.5 22.5t-22.5 9.5zM736 256h-64q-13 0 -22.5 -9.5t-9.5 -22.5t9.5 -22.5t22.5 -9.5h64q13 0 22.5 9.5t9.5 22.5t-9.5 22.5t-22.5 9.5z" />
    <glyph glyph-name="shenqing" unicode="&#xe673;" 
d="M759 -96h-615q-33 0 -56 22.5t-23 53.5v752q0 32 23 54t56 22h534v-44h-534q-14 0 -24 -10t-10 -23v-753q0 -13 10 -22.5t24 -9.5h615q14 0 23.5 9.5t9.5 22.5v583h46v-580q0 -32 -23.5 -54.5t-55.5 -22.5zM722 545l-82 82l235 237l83 -83zM686 628l35 -34l190 187
l-36 36zM886 716l-12 11l-64 64l24 24l12 -11l63 -63zM604 510l30 110l81 -82zM645 577l-10 -36l36 10zM225 576h295v-44h-295v44v0zM225 406h433v-44h-433v44v0zM225 241h433v-44h-433v44v0z" />
    <glyph glyph-name="sousuo1" unicode="&#xe674;" 
d="M982 -39l-163 175q102 124 102 284q0 90 -35 172.5t-95 142t-142.5 95t-172.5 35.5t-172.5 -35.5t-142 -95t-95 -142t-35.5 -172.5t35.5 -172.5t95 -142.5t142 -95t172.5 -35q96 0 184 40q13 5 18 18.5t-0.5 26.5t-19 18t-26.5 -1q-73 -33 -156 -33q-101 0 -188 50
t-137.5 137t-50.5 189t50.5 188.5t137.5 137t189.5 50.5t189 -50.5t137 -137t50.5 -188.5q0 -73 -27.5 -140.5t-77.5 -119.5q-10 -10 -9.5 -24.5t10.5 -24.5q1 -1 2 -1.5t1.5 -1t1.5 -2l1 -1.5l178 -189q9 -11 25 -11q13 0 23 9t10.5 22.5t-10.5 24.5v0z" />
    <glyph glyph-name="sousuo2" unicode="&#xe675;" 
d="M512.5 864q-97.5 0 -186.5 -38.5t-153 -102.5t-102.5 -153t-38.5 -186.5t38.5 -186.5t102.5 -153t153 -102t186.5 -38t186.5 38t153 102t102 153t38 186.5t-38 186.5t-102 153t-153 102.5t-186.5 38.5zM772 124q-10 -10 -25 -10t-25 10l-138 137q-56 -40 -126 -40
q-90 0 -154 63.5t-64 153.5t64 154t153.5 64t153.5 -64t64 -154q0 -68 -40 -126l139 -138q10 -11 10 -25.5t-12 -24.5zM314 438q0 -60 42.5 -102t102.5 -42t101.5 42t41.5 102t-42 102t-102 42t-102 -42t-42 -102v0z" />
    <glyph glyph-name="guanliyuan" unicode="&#xe67d;" 
d="M972 116q-6 20 -16 37l30 45v0l-43 42v0l-44 -30q-18 11 -38 16l-10 52v0h-60v0l-11 -52q-19 -5 -37 -16l-45 30v0l-42 -42v0l30 -45q-10 -17 -16 -37l-52 -11v0v-59v-1l52 -10q6 -20 16 -38l-30 -44v0l42 -42v-1l45 30q18 -10 37 -16l11 -52v0h60v0l10 52q20 6 38 16
l44 -30v1l43 42v0l-30 44q10 18 16 38l52 10v1v59v0zM821 5q-29 0 -50 20.5t-21 49.5t21 50t50 21t49.5 -21t20.5 -50t-20.5 -49.5t-49.5 -20.5zM594 69q0 96 59 173q-11 8 -18 16q-12 12 -16 24q-5 12 -5 25q0 11 1 28q2 24 16 37q15 15 30 27q8 7 14 19q5 11 11 26
q4 12 10 31q8 2 14 7t13 14t12 26t4 30q-2 14 -6 24q-3 10 -12 21q1 40 -4 76q-4 31 -14.5 67.5t-30.5 65.5q-19 27 -42 44q-24 18 -48 28q-23 9 -48 14q-27 4 -47 4v0h-8q-22 0 -47 -4q-26 -5 -49 -14q-24 -10 -47.5 -27.5t-42.5 -44.5q-20 -29 -30 -65q-11 -37 -15 -68
q-5 -36 -4 -76q-8 -11 -12 -21t-5 -24q-2 -13 3 -30t12 -26t13 -14q7 -5 14 -7q6 -18 10 -31q6 -15 11 -26q6 -13 14 -19q16 -13 31 -27q13 -13 15 -37q1 -17 1 -28q0 -13 -4 -25q-5 -12 -16.5 -24.5t-32.5 -24.5q-25 -17 -60 -26q-20 -6 -145 -48q-33 -11 -57 -30
q-23 -19 -30 -56q-5 -35 -5.5 -44.5t1.5 -32.5q5 -41 16 -49q10 -7 52 -16q26 -6 74.5 -14t148.5 -17.5t194 -9.5v0q80 1 164 8q-57 75 -57 171z" />
    <glyph glyph-name="zhongzhi1" unicode="&#xe679;" 
d="M869 741q-75 74 -180 74t-179 -74q-75 -75 -75 -180q0 -67 36 -128l-371 -372q-19 -18 -19 -44.5t18.5 -45t45 -18.5t44.5 19l119 119l75 -74q18 -19 44.5 -19t45 18.5t18.5 45t-19 44.5l-74 74l163 163q61 -36 128 -36q105 0 180 75q74 74 74 179t-74 180v0zM779 471
q-36 -36 -89.5 -36t-90.5 37t-37 89.5t38 89.5q37 37 89.5 37t89.5 -37t37 -89.5t-37 -90.5v0z" />
    <glyph glyph-name="jiaose" unicode="&#xe67a;" 
d="M512 275q64 0 121 28l1 -0.5t2 -0.5q67 34 108 99.5t41 143.5q0 113 -80 193t-193 80t-193 -80t-80 -193q0 -78 41 -143.5t108 -99.5q1 0 2 0.5l1 0.5q57 -28 121 -28zM636 302q-58 -30 -124 -30t-124 30q-108 -39 -175.5 -133.5t-67.5 -212.5q0 -2 74 -4q-1 7 -1 13
q0 121 86 207t208 86t208 -86t86 -207q0 -8 -1 -15q74 2 74 6q0 118 -67.5 212.5t-175.5 133.5z" />
    <glyph glyph-name="mimacelve" unicode="&#xe67e;" 
d="M665 468h-192h-104v0v50q-3 61 38 99t89 40q62 3 100.5 -30.5t43.5 -96.5q1 -3 0 -12.5t1 -11.5q1 -4 3.5 -7t6 -7t5.5 -5l4.5 4.5t5.5 6.5t3 6q11 67 -31 120t-111.5 61t-124.5 -34.5t-60 -109.5q-2 -22 -1 -52q1 -19 -17 -26q-70 -24 -72 -100v-176q1 -44 26.5 -72.5
t67.5 -29.5h324q50 1 75 29t25 79v170q0 48 -28.5 76t-76.5 29zM514 240v0q-23 0 -40.5 17t-17.5 40t17.5 40.5t40.5 17.5q22 -1 39 -17.5t18 -39.5q0 -22 -17 -40t-40 -18zM973 579q-39 90 -107 159q-69 69 -159 107q-93 39 -195 39t-194 -39q-90 -38 -160 -107
q-68 -69 -106 -159q-40 -94 -40 -195t40 -195q38 -90 106 -159q70 -69 160 -107q92 -39 194 -39t195 39q90 38 159 107q68 69 107 159q39 93 39 195t-39 195zM512.5 -82q-94.5 0 -181 37t-148.5 99.5t-99 148.5t-37 181t37 181t99 148.5t148.5 99.5t181 37t180.5 -37
t148.5 -99.5t99.5 -148.5t37 -181t-37 -181t-99.5 -148.5t-148.5 -99.5t-180.5 -37z" />
    <glyph glyph-name="anquanrizhi" unicode="&#xe67f;" 
d="M789 884h-553q-92 0 -158 -65t-66 -157v-555q0 -92 66 -158t158 -66h553q92 0 157.5 66t65.5 158v555q0 92 -65.5 157t-157.5 65zM514 41q-283 157 -290 536q175 9 289 113q113 -104 288 -113q-5 -372 -287 -536zM639 509l-160 -158l-80 79q-7 7 -17.5 7t-18 -7.5
t-7.5 -17.5t7 -17l93 -92q2 -3 4 -5q8 -7 19 -7t18 7q2 2 4 5l174 171q8 7 8 17.5t-7.5 17.5t-18 7t-18.5 -7z" />
    <glyph glyph-name="bianmaguizedingyi" unicode="&#xe680;" 
d="M689 884l-677 -677l323 -323l677 677zM335 -28l-235 235l59 59l113 -113l44 45l-113 112l62 62l113 -112l44 44l-112 113l62 62l112 -113l45 44l-113 113l63 64l113 -113l44 44l-112 113l63 63l113 -112l44 44l-113 112l58 58l235 -235z" />
    <glyph glyph-name="bujuguanli" unicode="&#xe681;" 
d="M973 579q-39 90 -107 159q-69 69 -159 107q-93 39 -195 39t-194 -39q-90 -38 -160 -107q-68 -69 -106 -159q-40 -94 -40 -195t40 -195q38 -90 106 -159q70 -69 160 -107q92 -39 194 -39t195 39q90 38 159 107q68 69 107 159q39 93 39 195t-39 195zM512.5 -82
q-94.5 0 -181 37t-148.5 99.5t-99 148.5t-37 181t37 181t99 148.5t148.5 99.5t181 37t180.5 -37t148.5 -99.5t99.5 -148.5t37 -181t-37 -181t-99.5 -148.5t-148.5 -99.5t-180.5 -37zM288 672h448q27 0 46 -20.5t19 -49.5v-72h-578v72q0 29 19 49.5t46 20.5v0zM224 163v343
h200v-410h-127q-30 0 -51.5 19.5t-21.5 47.5v0zM736 96h-286v404h352v-338q0 -28 -19.5 -47t-46.5 -19v0z" />
    <glyph glyph-name="bianmaguiyingshe" unicode="&#xe682;" 
d="M512 884q-136 0 -251 -67t-182 -182t-67 -251t67 -251t182 -182t251 -67t251 67t182 182t67 251t-67 251t-182 182t-251 67zM846 134q0 -27 -19.5 -46.5t-46.5 -19.5h-530q-27 0 -46.5 19.5t-19.5 46.5v368q0 28 19.5 47t46.5 19h182v50q0 35 24.5 60t58.5 25t58.5 -25
t24.5 -60v-50h182q27 0 46.5 -19t19.5 -47v-368zM737 518h-142q-1 -34 -25 -58.5t-58 -24.5t-58 24.5t-25 58.5h-142q-23 0 -40 -16.5t-17 -39.5v-288q0 -23 17 -39.5t40 -16.5h450q23 0 40 16.5t17 39.5v288q0 23 -17 39.5t-40 16.5zM636 218h-248q-10 0 -17.5 7t-7.5 17.5
t7.5 18t17.5 7.5h248q10 0 17.5 -7.5t7.5 -18t-7.5 -17.5t-17.5 -7zM636 318h-248q-10 0 -17.5 7.5t-7.5 17.5t7.5 17.5t17.5 7.5h248q10 0 17.5 -7.5t7.5 -17.5t-7.5 -17.5t-17.5 -7.5z" />
    <glyph glyph-name="chaxunmobanguanli" unicode="&#xe683;" 
d="M964 55h-320v-78l106 -27v-52h-474v52l104 27v78h-320q-20 0 -34.5 14t-14.5 34v641q0 20 15 34t35 14h177q-22 -35 -33 -78h-113v-500h842v500h-193q-11 43 -33 78h256q20 0 34 -14t14 -34v-641q0 -20 -14 -34t-34 -14zM788 375q14 -14 14 -34t-14 -34.5t-34 -14.5
t-35 14l-142 143q-49 -26 -104 -26q-93 0 -158.5 66t-65.5 158.5t65.5 158t158.5 65.5t158.5 -65.5t65.5 -158.5q0 -75 -46 -135zM473 790q-59 0 -100.5 -42t-41.5 -101t41.5 -100.5t100.5 -41.5t100.5 41.5t41.5 100.5t-41.5 101t-100.5 42z" />
    <glyph glyph-name="chaxunmobansheji" unicode="&#xe684;" 
d="M86 886q-33 0 -53.5 -22.5t-20.5 -47.5v-703q0 -44 14.5 -60.5t47.5 -16.5h452l-43 56h-413v574h736v-258l56 -42v450q0 30 -19 50t-53 20h-704zM120.5 741q-12.5 0 -21 9t-8.5 21t8.5 21t21 9t21.5 -9t9 -21t-9 -21t-21.5 -9zM204 741q-12 0 -21 9t-9 21t9 21t21 9
t21 -9t9 -21t-9 -21t-21 -9zM286.5 741q-12.5 0 -21.5 9t-9 21t9 21t21.5 9t21 -9t8.5 -21t-8.5 -21t-21 -9zM366 602v0h-212v-182h212v182zM310 474h-100v76h100v-76zM436 574h220v-54h-220v54zM720 432v54h-284v-54h116h168zM366 348v0h-212v-182h212v182zM310 220h-100
v74h100v-74zM436 320h42v-54h-42v54zM436 230h42v-54h-42v54zM1003 -50l-129 128q31 47 31 104q0 79 -56.5 135.5t-136.5 56.5t-136 -56.5t-56 -136t56 -136t136 -56.5q56 0 103 30l129 -129q8 -7 23 -7t24 7q6 5 12 12q9 10 9 24t-9 24zM712 56q-52 0 -89 36.5t-37 89
t37 89.5t89 37t89 -37t37 -89.5t-37 -89t-89 -36.5z" />
    <glyph glyph-name="tiaodurenwujiankong" unicode="&#xe685;" 
d="M193 -50q-39 0 -54 23.5t-15 68.5v448h50v-457q0 -32 34 -32h171l70 -51h-256zM835 0q13 0 21 8t8 21v53l24 28l-24 25v525q0 14 -8 25t-21 11h-279v48h290q38 0 52 -21.5t14 -66.5v-614q0 -46 -14 -68.5t-52 -22.5h-132l75 50h46v-1zM242 576q11 -11 27 -11t27 11
l176 176q7 6 10 9.5t8 10t6 11t0.5 11t-4.5 12.5q-22 22 -44 0l-179 -180l-110 110q-21 23 -42 3q-17 -21 18 -56zM586 -17q31 0 63.5 13t56.5 31.5t43.5 37.5t29.5 32l10 13q-4 5 -10.5 13.5t-28.5 30.5t-44.5 38.5t-55.5 30t-64 13.5t-63.5 -13t-56.5 -31.5t-43.5 -37
t-29.5 -31.5l-10 -13q4 -5 10.5 -14t28.5 -30.5t44.5 -38.5t55.5 -30.5t64 -13.5zM586 177q28 0 47.5 -19.5t19.5 -47.5t-19.5 -48t-47.5 -20t-47.5 20t-19.5 48t19.5 47.5t47.5 19.5zM586 119zM555 119q0 -13 9 -22t22 -9t22 9t9 22t-9 22t-22 9t-22 -9t-9 -22zM746 324
q11 0 18 7t7 17t-7 17t-18 7h-238q-10 0 -17 -7t-7 -17t7 -17t17 -7h238zM746 552h-238q-10 0 -17 -7.5t-7 -18t7 -17.5t17 -7h238q11 0 18 7t7 17.5t-7 18t-18 7.5zM411 348q0 10 -7 17t-17 7h-94q-10 0 -17.5 -7t-7.5 -17t7.5 -17t17.5 -7h94q10 0 17 7t7 17z" />
    <glyph glyph-name="tiaodurenwurizhi" unicode="&#xe686;" 
d="M819 752h-265v-52h279q14 0 23.5 -10t9.5 -23v-630q0 -13 -10 -22t-23 -9h-629q-14 0 -24 9t-10 22v461h-52v-446q0 -100 70 -100h661q69 0 69 100v631q0 69 -99 69zM236 575q11 -11 26.5 -11t26.5 11l176 176q7 6 10 9t7.5 9.5t6 11.5t1 11t-4.5 12q-23 23 -44 0
l-178 -178l-110 109q-21 22 -41 2q-18 -21 17 -55zM738 376h-237q-10 0 -17 -7t-7 -17t7 -17t17 -7h237q10 0 17.5 7t7.5 17t-7.5 17t-17.5 7zM738 550h-237q-10 0 -17 -7t-7 -17t7 -17t17 -7h237q10 0 17.5 7t7.5 17t-7.5 17t-17.5 7zM380 376h-94q-10 0 -17 -7t-7 -17
t7 -17t17 -7h94q10 0 17 7t7 17t-7 17t-17 7zM738 194h-237q-10 0 -17 -7.5t-7 -17.5t7 -17.5t17 -7.5h237q10 0 17.5 7.5t7.5 17.5t-7.5 17.5t-17.5 7.5zM380 194h-94q-10 0 -17 -7.5t-7 -17.5t7 -17.5t17 -7.5h94q10 0 17 7.5t7 17.5t-7 17.5t-17 7.5z" />
    <glyph glyph-name="liuchengdingyi" unicode="&#xe687;" 
d="M579 818h-134q-41 -1 -70 -31t-28 -71t29.5 -69.5t68.5 -28.5h134q41 0 70 30t28 71t-29.5 69.5t-68.5 29.5zM579 484h-134q-41 -1 -70 -31t-28 -71t29.5 -69t68.5 -29h134q41 1 70 30.5t28 70.5t-29.5 69.5t-68.5 29.5zM579 150h-134q-41 -1 -70 -30.5t-28 -70.5
t29.5 -69.5t68.5 -29.5h134q41 1 69.5 31t28.5 71q-1 41 -29.5 69.5t-68.5 28.5v0v0zM212 84q-55 0 -94.5 39t-38.5 94q-1 56 39 95q38 39 94 39h66v67h-66q-83 0 -141.5 -59t-58.5 -141.5t58.5 -141.5t141.5 -59v-66l99 100l-99 100v-67v0zM812 750h-66v-66h66q56 0 94 -39
q39 -39 39 -94t-39 -95q-39 -39 -95 -39v67l-100 -100l101 -100v67q82 0 141 58.5t59 141t-58.5 141.5t-141.5 58z" />
    <glyph glyph-name="jiaosefenpeiyonghu" unicode="&#xe688;" 
d="M730 564q0 117 -83 200t-200 83t-199.5 -83t-82.5 -200q0 -81 41.5 -148t111.5 -103q-129 -40 -213.5 -146.5t-92.5 -244.5h61q5 73 44 141t94.5 115t118.5 75t117 28q117 0 200 83t83 200zM989 99q-4 1 -6 1h-381q-10 0 -17.5 -7.5t-7.5 -17.5t7.5 -17.5t17.5 -7.5h322
l-86 -85q-8 -8 -8 -18t7.5 -17.5t18 -7.5t17.5 7l130 128q8 8 8 18t-8 18q-5 5 -14 6zM597 179q3 -1 7 -1h383q10 0 17.5 7.5t7.5 18t-7.5 17.5t-17.5 7h-324l87 87q7 7 7 17.5t-7.5 18t-18 7.5t-17.5 -7l-131 -129q-7 -8 -7 -18.5t7 -17.5q5 -5 14 -7z" />
    <glyph glyph-name="jichengxitongguanli" unicode="&#xe689;" 
d="M973 579q-39 90 -107 159q-69 69 -159 107q-93 39 -195 39t-194 -39q-90 -38 -160 -107q-68 -69 -106 -159q-40 -94 -40 -195t40 -195q38 -90 106 -159q70 -69 160 -107q92 -39 194 -39t195 39q90 38 159 107q68 69 107 159q39 93 39 195t-39 195zM512.5 -82
q-94.5 0 -181 37t-148.5 99.5t-99 148.5t-37 181t37 181t99 148.5t148.5 99.5t181 37t180.5 -37t148.5 -99.5t99.5 -148.5t37 -181t-37 -181t-99.5 -148.5t-148.5 -99.5t-180.5 -37zM485 350q16 -8 26.5 -8t27.5 8l243 117q13 6 13.5 27.5t-13.5 29.5l-243 137
q-15 9 -26.5 9t-27.5 -9l-243 -137q-14 -9 -14 -29t14 -28zM485 228q16 -8 26.5 -8t27.5 8l243 117q8 4 12 19.5t4 29.5l-38 -20l-248 -122l-248 121l-38 21q0 -40 16 -49zM512 130l-248 122l-38 20q0 -40 16 -49l243 -117q16 -8 26.5 -8t27.5 8l243 117q8 4 12 19.5t4 29.5
l-38 -20z" />
    <glyph glyph-name="liuchengjiankong" unicode="&#xe68a;" 
d="M1012 196v-1v-1v0v-0.5v-0.5v0q-2 -7 -6 -11q-6 -9 -17 -20q-51 -56 -108 -88q-42 -24 -81 -32q-47 -9 -93 2q-71 17 -145 81q-34 30 -55 57q-11 14 0 29q6 8 17 20q52 56 108 88q43 24 82 32q47 9 93 -2q71 -17 144 -81q35 -30 55 -57q5 -5 6 -11v0v-0.5v-0.5v0v-1v-0.5
v-0.5v-0.5v-0.5v-1v1v0zM757 303q-40 0 -68 -30t-28 -72.5t28 -72.5t68 -30t68 30t28 72.5t-28 72.5t-68 30zM757 149q-20 0 -34 15.5t-14 36.5t14 36t34 15t34 -15t14 -36t-14 -36.5t-34 -15.5zM473 488q-65 2 -111 48.5t-46 110.5q0 65 47.5 111.5t114 46.5t113.5 -46.5
t47 -112t-47 -112t-114 -46.5h-4zM477 742q-40 0 -68.5 -28t-28.5 -67.5t28.5 -67.5t68.5 -28t68.5 28t28.5 67.5t-28.5 67.5t-68.5 28zM778 474l4 -1q-40 78 -113 127l-14 10l-5 -16q-6 -22 -17 -42l-6 -9l9 -7q50 -36 79 -89l0.5 0.5l0.5 0.5q25 26 62 26zM169 10
q-65 0 -111 47t-46 111q0 66 47 112t113.5 46t114 -46t47.5 -112t-47.5 -112.5t-113.5 -46.5zM173 263q-40 0 -68.5 -28t-28.5 -67.5t28.5 -67.5t68.5 -28t68 28t28 67.5t-28 67.5t-68 28zM175 348h14l2 10q9 56 40 104t78 80l9 6l-5 9q-11 20 -16 43l-4 16l-15 -9
q-66 -42 -108.5 -107.5t-52.5 -143.5l-2 -17l17 4q21 5 43 5zM484 30q1 2 1 4h-16q-69 0 -131 31l-9 5l-6 -8q-14 -19 -32 -34l-13 -11l15 -8q81 -47 176 -47q7 0 16 1q-15 34 -1 67z" />
    <glyph glyph-name="liuchengtongji" unicode="&#xe68b;" 
d="M503 -50q-91 0 -175 37l-17 8l19 45l-123 -39l57 -116l21 48l17 -7q96 -42 201 -42q89 0 172 31q78 28 142 80l-44 50q-118 -95 -270 -95zM115 569l8 17l45 -19l-39 123l-116 -57l48 -21l-7 -17q-57 -131 -37 -273q20 -135 106 -242l50 44q-76 95 -91.5 214t33.5 231z
M970 175q57 131 37 273q-20 135 -106 242l-50 -44q76 -95 91.5 -214t-33.5 -231l-8 -18l-45 20l39 -123l116 57l-48 21zM739 835l-17 7q-96 42 -201 42q-89 0 -172 -31q-78 -28 -142 -80l44 -50q118 95 270 95q91 0 175 -37l17 -8l-19 -45l123 39l-57 116zM436 330h62v-188
h-62v188zM336 270h62v-128h-62v128zM325 303v0v0v0zM548 378h62v-236h-62v236zM656 446h62v-304h-62v304zM467 511l-176 -175l34 -35l144 147l58 -49l143 142l40 -38l24 135l-134 -31l35 -34l-110 -114z" />
    <glyph glyph-name="renwuchajian" unicode="&#xe68c;" 
d="M254 162q0 -16 10.5 -27.5t25.5 -11.5h444q15 0 25.5 11.5t10.5 27.5v332h-517zM734 640h-444q-16 0 -26 -9.5t-10 -24.5v-74h516v74q0 15 -10 24.5t-26 9.5zM308.5 569q-7.5 0 -13 5.5t-5.5 13t5.5 13t13 5.5t13 -5.5t5.5 -13t-5.5 -13t-13 -5.5zM382.5 569
q-7.5 0 -13 5.5t-5.5 13t5.5 13t13 5.5t13 -5.5t5.5 -13t-5.5 -13t-13 -5.5zM456.5 569q-7.5 0 -13 5.5t-5.5 13t5.5 13t13 5.5t13 -5.5t5.5 -13t-5.5 -13t-13 -5.5zM973 579q-39 90 -107 159q-69 69 -159 107q-93 39 -195 39t-194 -39q-90 -38 -160 -107q-68 -69 -106 -159
q-40 -94 -40 -195t40 -195q38 -90 106 -159q70 -69 160 -107q92 -39 194 -39t195 39q90 38 159 107q68 69 107 159q39 93 39 195t-39 195zM808 162q0 -31 -21.5 -52.5t-52.5 -21.5h-444q-31 0 -52.5 21.5t-21.5 52.5v444q0 31 21.5 52.5t52.5 21.5h444q31 0 52 -21.5
t21 -52.5z" />
    <glyph glyph-name="liuchengxiaoxishezhi" unicode="&#xe68d;" 
d="M374 232q5 -5 3 -11l-12 -55q-2 -7 4 -12t13 -1l63 30q3 1 6 1h3q29 -9 58 -9q77 0 131 49.5t54 120t-54 120t-131 49.5t-131 -49.5t-54 -120.5q0 -64 47 -112zM592 376q12 0 21 -7.5t9 -19t-9 -19.5t-21 -8t-20.5 8t-8.5 19.5t8.5 19t20.5 7.5zM507 376q12 0 21 -7.5
t9 -19t-9 -19.5t-21 -8t-20.5 8t-8.5 19.5t8.5 19t20.5 7.5zM420 376q12 0 21 -7.5t9 -19t-9 -19.5t-21 -8t-20.5 8t-8.5 19.5t8.5 19t20.5 7.5zM512 622q52 0 88.5 36.5t36.5 88.5t-36.5 88.5t-88.5 36.5t-88.5 -36.5t-36.5 -88.5t36.5 -88.5t88.5 -36.5zM512 809
q26 0 44 -18t18 -44t-18 -44t-44 -18t-44 18t-18 44t18 44t44 18zM896 342v0h62q0 132 -70 241.5t-188 164.5l-27 -56q101 -47 162 -142.5t61 -207.5zM511 -41q-138 0 -245 88l-39 -49q123 -102 284 -102q162 0 286 104l-40 48q-107 -89 -246 -89zM887.5 291
q-51.5 0 -88 -36.5t-36.5 -88t36.5 -88.5t88 -37t88 37t36.5 88.5t-36.5 88t-88 36.5zM887.5 104q-25.5 0 -44 18.5t-18.5 44t18.5 43.5t44 18t43.5 -18t18 -43.5t-18 -44t-43.5 -18.5zM136.5 291q-51.5 0 -88 -36.5t-36.5 -88t36.5 -88t88 -36.5t88 36.5t36.5 88t-36.5 88
t-88 36.5zM136.5 104q-25.5 0 -43.5 18.5t-18 44t18 43.5t43.5 18t44 -18t18.5 -43.5t-18.5 -44t-44 -18.5zM349 691l-27 56q-118 -55 -188 -164t-70 -241h62q0 111 61 206.5t162 142.5z" />
    <glyph glyph-name="liuchengshezhi" unicode="&#xe68e;" 
d="M500 510q-69 2 -118 51t-49 117q0 70 50 119t120.5 49t120.5 -49t50 -118.5t-50 -118.5t-121 -49zM503.5 779q-42.5 0 -72.5 -29.5t-30 -71.5t30 -71.5t72.5 -29.5t72.5 29.5t30 71.5t-30 71.5t-72.5 29.5zM822 495h4q-43 82 -120 134l-14 10l-5 -17q-7 -23 -19 -44
l-6 -10l9 -7q53 -38 84 -94l0.5 0.5l0.5 0.5q26 27 66 27zM178 4q-68 1 -117 50.5t-49 117.5q0 69 50 118.5t120 49.5t120 -49.5t50 -118.5t-50 -118t-120 -49h-4v-1zM182 273q-42 0 -72 -30t-30 -71.5t30 -71.5t72 -30t72 30t30 71.5t-30 71.5t-72 30zM184 363l15 -1l2 11
q10 59 42.5 109.5t82.5 84.5l10 6l-6 10q-11 22 -17 45l-4 18l-15 -10q-71 -44 -115.5 -113.5t-55.5 -151.5l-2 -18l18 4q22 6 45 6zM511 27q1 1 1 4q-9 -1 -17 -1q-73 0 -138 34l-10 5l-6 -9q-15 -20 -34 -36l-14 -11l16 -9q86 -49 185 -49h18q-16 36 -1 72zM726 297
q-44 0 -75 -31t-31 -74.5t31 -74.5t75 -31t75 31t31 74.5t-31 74.5t-75 31zM726 140q-21 0 -36 15t-15 36.5t15 36.5t36 15t36 -15t15 -36.5t-15 -36.5t-36 -15zM1006 247q-3 16 -12.5 25.5t-22.5 9.5h-2q-25 0 -42.5 17.5t-17.5 41.5q0 11 5 23q7 14 2 29t-18 25l-70 39
q-8 3 -18 3q-20 0 -33 -14q-27 -27 -48 -27q-11 0 -25.5 9.5t-22.5 18.5q-14 14 -34 14q-10 0 -18 -4h-1l-71 -39l-2 -1q-12 -9 -16.5 -24t1.5 -29q6 -12 6 -23q0 -24 -18 -41.5t-42 -17.5h-3q-13 0 -22 -9.5t-12 -25.5q-6 -31 -6 -56q0 -24 6 -55q3 -16 12 -25.5t22 -9.5h3
q24 0 42 -17.5t18 -42.5q0 -10 -6 -22q-6 -14 -1.5 -29.5t18.5 -24.5l68 -39q9 -3 18 -3q21 0 34 14q9 10 23.5 20t25.5 10t25.5 -10t23.5 -20q13 -15 34 -15q10 0 19 4l70 39l2 1q12 8 16 23.5t-2 28.5q-5 13 -5 23q0 25 17.5 42.5t42.5 17.5h3q12 0 21.5 9.5t12.5 25.5
q6 32 6 55.5t-6 55.5zM954 155q-43 -6 -71.5 -38.5t-28.5 -75.5q0 -16 7 -35l-51 -27q-9 9 -20 17q-34 25 -64 25t-63 -24q-11 -8 -21 -17l-48 26q6 19 6 35q0 43 -28.5 75.5t-70.5 38.5q-4 22 -4 36.5t4 36.5q42 5 70.5 37.5t28.5 75.5q0 17 -6 35l52 28q10 -9 20 -16
q33 -24 63 -24q29 0 62 23q10 8 20 17l50 -28q-7 -18 -7 -35q0 -43 28.5 -75.5t71.5 -37.5q3 -23 3 -37t-3 -36z" />
    <glyph glyph-name="shijianpeizhijiemian" unicode="&#xe68f;" 
d="M878 828h-169q-2 21 -19.5 38.5t-37.5 17.5h-276q-21 0 -38 -17.5t-20 -38.5h-168q-60 0 -60 -38v-839q0 -11 1.5 -19.5t3 -15t5.5 -12t6 -8.5t8 -5.5t8.5 -3.5t9.5 -2t9.5 -1h10.5h10h716q27 0 41.5 14t14.5 53v839q0 18 -16 28t-40 10zM378 814q0 6 4 10t9 4h243
q5 0 8.5 -4t3.5 -10v-37q0 -11 -12 -11h-243q-13 0 -13 11v37zM874 -49q0 -8 -8 -8h-704q-12 0 -12 8v802q0 5 3.5 10t8.5 5h156q3 -22 20 -40t38 -18h276q21 0 38 18t19 40h157q3 0 5.5 -4.5t2.5 -10.5v-802zM277 405v26q0 13 8 21t21 8h53q11 0 19 -8t9 -19v-56
q-1 -12 -9 -19.5t-19 -7.5h-53q-13 0 -21 8t-8 20v27zM302 436v-62h60v62h-60zM276 248v26q1 12 8.5 20t20.5 8h53q12 0 20 -7.5t8 -19.5v-55q0 -12 -8 -19.5t-20 -7.5h-53q-12 0 -20 7.5t-9 20.5v27zM300 278v-60h62v60h-62zM276 95v26q1 13 8.5 21t20.5 8h53q12 0 20 -7.5
t8 -19.5v-56q0 -11 -8 -19t-20 -8h-53q-12 0 -20 8t-9 20v27zM300 126v-60h62v60h-62zM314 553q3 2 7 6.5t7.5 8l6.5 6.5q28 27 55 54q13 14 26 1t-1 -26q-44 -44 -87 -88q-14 -13 -27 0q-18 17 -35 35q-13 13 -0.5 25.5t26.5 -0.5q4 -4 12 -12.5t9 -9.5h1zM762 562
q0 -9 -6 -15.5t-15 -6.5h-262q-9 0 -15 6.5t-6 15.5v0q0 9 6 15.5t15 6.5h262q9 0 15 -6.5t6 -15.5v0zM762 404q0 -9 -6 -15.5t-15 -6.5h-262q-9 0 -15 6.5t-6 15.5v0q0 9 6 15.5t15 6.5h262q9 0 15 -6.5t6 -15.5v0zM762 246q0 -9 -6 -15.5t-15 -6.5h-262q-9 0 -15 6.5
t-6 15.5v0q0 9 6 15.5t15 6.5h262q9 0 15 -6.5t6 -15.5v0zM762 90q0 -9 -6 -15.5t-15 -6.5h-262q-9 0 -15 6.5t-6 15.5v0q0 9 6 15t15 6h262q9 0 15 -6t6 -15v0z" />
    </font>
</defs>
</svg>
