<?xml version="1.0" standalone="no"?>
<!DOCTYPE svg PUBLIC "-//W3C//DTD SVG 1.1//EN" "http://www.w3.org/Graphics/SVG/1.1/DTD/svg11.dtd" >
<svg xmlns="http://www.w3.org/2000/svg">
    <defs>
        <font id="Montserrat-Bold">
            <font-face font-family="Montserrat-Bold"
                       units-per-em="1000"
                       ascent="1006"
                       descent="-194"
                       bbox="-275 -295 1445 975"
                    />
            <missing-glyph horiz-adv-x="0" />
            
            <glyph glyph-name="!" unicode="&#x21;" horiz-adv-x="216" d=" M216,518 L186,240 L82,240 L52,518 L52,696 L216,696 M131,159 Q168,159 191.5,136 Q215,113 215,76 Q215,39 191.5,15.5 Q168,-8 131,-8 Q95,-8 71.5,15.5 Q48,39 48,76 Q48,113 71.5,136 Q95,159 131,159"/> 
            <glyph glyph-name="&quot;" unicode="&#x22;" horiz-adv-x="379" d=" M190,427 L60,427 L60,700 L190,700 M379,427 L249,427 L249,700 L379,700"/> 
            <glyph glyph-name="#" unicode="&#x23;" horiz-adv-x="720" d=" M570,418 L552,275 L687,275 L673,156 L537,156 L518,0 L394,0 L413,156 L274,156 L255,0 L131,0 L150,156 L15,156 L29,275 L165,275 L182,418 L49,418 L62,537 L197,537 L217,700 L341,700 L321,537 L461,537 L481,700 L605,700 L585,537 L720,537 L707,418 M446,418 L307,418 L289,275 L428,275"/> 
            <glyph glyph-name="$" unicode="&#x24;" horiz-adv-x="617" d=" M617,208 Q617,118 554,63.5 Q491,9 389,-3 L389,-154 L257,-154 L257,1 Q118,23 17,106 L86,243 Q139,197 211,167.5 Q283,138 339,138 Q382,138 406,153.5 Q430,169 430,199 Q430,228 402.5,247.5 Q375,267 334,276.5 Q293,286 245,302 Q197,318 156,337 Q115,356 87.5,397.5 Q60,439 60,497 Q60,576 112.5,630 Q165,684 257,701 L257,849 L389,849 L389,706 Q520,692 615,630 L548,491 Q493,523 430,543.5 Q367,564 324,564 Q247,564 247,513 Q247,480 285,460 Q323,440 377.5,425.5 Q432,411 486.5,390.5 Q541,370 579,324 Q617,278 617,208"/> 
            <glyph glyph-name="%" unicode="&#x25;" horiz-adv-x="992" d=" M137,703 Q317,703 369.5,646 Q422,589 422,492 Q422,394 369.5,337 Q317,280 227,280 Q137,280 84,337 Q31,394 31,492 Q31,589 137,703 M178,0 L678,701 L840,701 L340,0 M267,611 Q187,611 164.5,579.5 Q142,548 142,492 Q142,436 164.5,404.5 Q187,373 227,373 Q267,373 289.5,404.5 Q312,436 312,492 Q312,548 267,611 M707,420 Q887,420 939.5,363 Q992,306 992,209 Q992,111 939.5,53.5 Q887,-4 797,-4 Q707,-4 654,53.5 Q601,111 601,209 Q601,306 707,420 M837,328 Q757,328 734.5,296.5 Q712,265 712,209 Q712,153 734.5,121 Q757,89 797,89 Q837,89 859.5,121 Q882,153 882,209 Q882,265 837,328"/> 
            <glyph glyph-name="&amp;" unicode="&#x26;" horiz-adv-x="678" d=" M591,-30 L492,66 Q403,-8 293,-8 Q190,-8 122.5,49.5 Q55,107 55,196 Q55,260 92,303.5 Q129,347 194,383 Q135,467 135,540 Q135,617 189.5,662.5 Q244,708 335,708 Q423,708 479,664 Q535,620 535,551 Q535,485 491.5,442 Q448,399 370,359 Q423,301 481,244 Q510,294 528,356 L638,278 Q613,210 574,154 L678,55 M270,540 Q270,496 306,441 Q400,492 400,550 Q400,577 382.5,594 Q365,611 337,611 Q306,611 288,591 Q270,571 270,540 M300,113 Q354,113 404,152 Q298,258 261,300 Q196,257 196,208 Q196,166 225.5,139.5 Q255,113 300,113"/> 
            <glyph glyph-name="'" unicode="&#x27;" horiz-adv-x="190" d=" M190,427 L60,427 L60,700 L190,700"/> 
            <glyph glyph-name="(" unicode="&#x28;" horiz-adv-x="344" d=" M189,742 L344,742 Q223,548 223,309 Q223,70 344,-124 L189,-124 Q61,59 61,309 Q61,559 189,742"/> 
            <glyph glyph-name=")" unicode="&#x29;" horiz-adv-x="333" d=" M51,742 L206,742 Q333,561 333,309 Q333,57 206,-124 L51,-124 Q171,68 171,309 Q171,550 51,742"/> 
            <glyph glyph-name="*" unicode="&#x2A;" horiz-adv-x="356" d=" M230,480 L232,384 L146,384 L148,480 L66,431 L23,505 L106,552 L23,597 L66,674 L147,624 L146,719 L232,719 L231,624 L313,672 L356,597 L271,552 L356,505 L313,429"/> 
            <glyph glyph-name="+" unicode="&#x2B;" horiz-adv-x="477" d=" M477,272 L309,272 L309,104 L200,104 L200,272 L33,272 L33,381 L200,381 L200,549 L309,549 L309,381 L477,381"/> 
            <glyph glyph-name="," unicode="&#x2C;" horiz-adv-x="204" d=" M122,158 Q157,158 180.5,136 Q204,114 204,76 Q204,44 182,10 L109,-96 L27,-96 L72,11 Q39,33 39,76 Q39,112 62.5,135 Q86,158 122,158"/> 
            <glyph glyph-name="-" unicode="&#x2D;" horiz-adv-x="319" d=" M319,252 L55,252 L55,361 L319,361"/> 
            <glyph glyph-name="." unicode="&#x2E;" horiz-adv-x="205" d=" M84,159 Q158,159 181.5,136 Q205,113 205,76 Q205,39 181.5,15.5 Q158,-8 121,-8 Q84,-8 61,15.5 Q38,39 38,76 Q38,113 84,159"/> 
            <glyph glyph-name="/" unicode="&#x2F;" horiz-adv-x="432" d=" M109,-111 L-36,-111 L287,811 L432,811"/> 
            <glyph glyph-name="0" unicode="&#x30;" horiz-adv-x="661" d=" M352,706 Q501,706 581,614 Q661,522 661,351 Q661,179 581,87 Q501,-5 352,-5 Q202,-5 121.5,87 Q41,179 41,351 Q41,522 121.5,614 Q202,706 352,706 M352,576 Q284,576 254,523.5 Q224,471 224,351 Q224,231 254,178 Q284,125 352,125 Q418,125 448.5,178.5 Q479,232 479,351 Q479,470 448.5,523 Q418,576 352,576"/> 
            <glyph glyph-name="1" unicode="&#x31;" horiz-adv-x="314" d=" M314,0 L136,0 L136,558 L7,558 L7,701 L314,701"/> 
            <glyph glyph-name="2" unicode="&#x32;" horiz-adv-x="566" d=" M306,708 Q411,708 478,657.5 Q545,607 545,525 Q545,427 413,292 L271,141 L566,141 L566,0 L42,0 L42,115 L292,380 Q359,450 359,500 Q359,530 338,547 Q317,564 280,564 Q193,564 89,475 L22,603 Q162,708 306,708"/> 
            <glyph glyph-name="3" unicode="&#x33;" horiz-adv-x="527" d=" M320,416 L353,411 Q432,399 479.5,349 Q527,299 527,220 Q527,119 453.5,55.5 Q380,-8 259,-8 Q188,-8 117,15 Q46,38 -2,77 L70,212 Q149,127 245,127 Q297,127 325,151 Q353,175 353,218 Q353,306 244,306 L132,306 L132,401 L288,563 L33,563 L33,699 L495,699 L495,598"/> 
            <glyph glyph-name="4" unicode="&#x34;" horiz-adv-x="619" d=" M211,289 L359,289 L359,439 L524,439 L524,289 L619,289 L619,154 L524,154 L524,0 L359,0 L359,154 L27,154 L27,273 L248,700 L419,700"/> 
            <glyph glyph-name="5" unicode="&#x35;" horiz-adv-x="563" d=" M532,559 L235,559 L235,446 L298,446 Q417,446 490,387.5 Q563,329 563,235 Q563,125 487,59 Q411,-7 284,-7 Q216,-7 142.5,17 Q69,41 14,80 L85,215 Q165,129 263,129 Q315,129 343.5,153.5 Q372,178 372,223 Q372,264 343.5,287 Q315,310 263,310 Q145,310 73,305 L73,700 L532,700"/> 
            <glyph glyph-name="6" unicode="&#x36;" horiz-adv-x="605" d=" M365,708 Q496,708 591,650 L523,526 Q461,571 376,571 Q294,571 252,522 Q210,473 212,385 Q265,460 379,460 Q482,460 543.5,398 Q605,336 605,234 Q605,123 533.5,57.5 Q462,-8 343,-8 Q202,-8 121.5,85 Q41,178 41,340 Q41,507 129,607.5 Q217,708 365,708 M339,330 Q288,330 259.5,303 Q231,276 231,232 Q231,190 258,162 Q285,134 336,134 Q385,134 412.5,160.5 Q440,187 440,235 Q440,280 413.5,305 Q387,330 339,330"/> 
            <glyph glyph-name="7" unicode="&#x37;" horiz-adv-x="578" d=" M578,579 L320,0 L132,0 L382,559 L189,559 L189,461 L33,461 L33,700 L578,700"/> 
            <glyph glyph-name="8" unicode="&#x38;" horiz-adv-x="608" d=" M320,708 Q435,708 503,657 Q571,606 571,520 Q571,474 547.5,436 Q524,398 483,375 Q541,351 574.5,303.5 Q608,256 608,198 Q608,104 530,48 Q452,-8 321,-8 Q190,-8 112,47 Q34,102 34,195 Q34,255 70,303 Q106,351 167,375 Q122,400 96,440 Q70,480 70,525 Q70,609 138,658.5 Q206,708 320,708 M370,591 Q272,591 246,570 Q220,549 220,510 Q220,472 246,452 Q272,432 321,432 Q370,432 396,452 Q422,472 422,510 Q422,549 370,591 M379,304 Q263,304 232.5,280.5 Q202,257 202,213 Q202,169 232.5,145 Q263,121 321,121 Q379,121 410,144.5 Q441,168 441,213 Q441,257 379,304"/> 
            <glyph glyph-name="9" unicode="&#x39;" horiz-adv-x="594" d=" M270,-7 Q139,-7 44,51 L112,175 Q174,130 259,130 Q341,130 383,179 Q425,228 423,316 Q370,241 256,241 Q153,241 91.5,303 Q30,365 30,467 Q30,578 101.5,643.5 Q173,709 292,709 Q433,709 513.5,616 Q594,523 594,361 Q594,194 506,93.5 Q418,-7 270,-7 M296,371 Q347,371 375.5,398 Q404,425 404,469 Q404,511 377,539 Q350,567 299,567 Q250,567 222.5,540.5 Q195,514 195,466 Q195,421 221.5,396 Q248,371 296,371"/> 
            <glyph glyph-name=":" unicode="&#x3A;" horiz-adv-x="205" d=" M84,456 Q158,456 181.5,433 Q205,410 205,373 Q205,336 181.5,312.5 Q158,289 121,289 Q84,289 61,312.5 Q38,336 38,373 Q38,410 84,456 M84,159 Q158,159 181.5,136 Q205,113 205,76 Q205,39 181.5,15.5 Q158,-8 121,-8 Q84,-8 61,15.5 Q38,39 38,76 Q38,113 84,159"/> 
            <glyph glyph-name=";" unicode="&#x3B;" horiz-adv-x="205" d=" M158,289 Q84,289 61,312.5 Q38,336 38,373 Q38,410 61,433 Q84,456 121,456 Q158,456 181.5,433 Q205,410 205,373 Q205,336 158,289 M122,158 Q157,158 180.5,136 Q204,114 204,76 Q204,44 182,10 L109,-96 L27,-96 L72,11 Q39,33 39,76 Q39,112 62.5,135 Q86,158 122,158"/> 
            <glyph glyph-name="&lt;" unicode="&#x3C;" horiz-adv-x="477" d=" M477,457 L145,324 L477,191 L477,70 L33,255 L33,394 L477,579"/> 
            <glyph glyph-name="=" unicode="&#x3D;" horiz-adv-x="477" d=" M477,380 L33,380 L33,489 L477,489 M477,165 L33,165 L33,274 L477,274"/> 
            <glyph glyph-name="&gt;" unicode="&#x3E;" horiz-adv-x="477" d=" M32,199 L365,332 L32,465 L32,586 L477,401 L477,262 L32,77"/> 
            <glyph glyph-name="?" unicode="&#x3F;" horiz-adv-x="446" d=" M136,475 L3,476 Q4,583 64.5,643 Q125,703 231,703 Q332,703 389,657.5 Q446,612 446,529 Q446,487 430,452.5 Q414,418 392,395 Q370,372 347.5,350 Q325,328 309,300 Q293,272 293,239 L164,239 Q164,282 176.5,315.5 Q189,349 207.5,370 Q226,391 244,410 Q262,429 274.5,451.5 Q287,474 287,501 Q287,566 215,566 Q137,566 136,475 M189,159 Q263,159 286.5,136 Q310,113 310,76 Q310,39 286.5,15.5 Q263,-8 226,-8 Q189,-8 166,15.5 Q143,39 143,76 Q143,113 189,159"/> 
            <glyph glyph-name="@" unicode="&#x40;" horiz-adv-x="893" d=" M465,700 Q649,700 771,579 Q893,458 893,274 Q893,163 839.5,95.5 Q786,28 701,28 Q603,28 584,106 L582,119 Q526,39 431,39 Q344,39 278.5,104 Q213,169 213,270 Q213,369 270,437 Q327,505 418,505 Q454,505 487,490.5 Q520,476 535,462.5 Q550,449 554,441 L554,494 L676,494 L676,157 Q676,108 713,108 Q746,108 771,154.5 Q796,201 796,271 Q796,418 706.5,514 Q617,610 465,610 Q322,610 222,510 Q122,410 122,268 Q122,128 216.5,35 Q311,-58 452,-58 Q560,-58 641,3 L687,-77 Q644,-109 577.5,-129 Q511,-149 452,-149 Q269,-149 146.5,-30 Q24,89 24,268 Q24,450 152,575 Q280,700 465,700 M443,394 Q400,394 373,359.5 Q346,325 346,275 Q346,222 373,185 Q400,148 444,148 Q491,148 518.5,184 Q546,220 546,274 Q546,325 518,359.5 Q490,394 443,394"/> 
            <glyph glyph-name="A" unicode="&#x41;" horiz-adv-x="775" d=" M535,129 L229,129 L178,0 L-5,0 L297,700 L480,700 L775,0 L585,0 M483,264 L383,523 L281,264"/> 
            <glyph glyph-name="B" unicode="&#x42;" horiz-adv-x="682" d=" M70,700 L401,700 Q519,700 588.5,652.5 Q658,605 658,525 Q658,470 626,428.5 Q594,387 538,371 Q604,358 643,310 Q682,262 682,194 Q682,105 609.5,52.5 Q537,0 413,0 L70,0 M247,564 L247,420 L391,420 Q430,420 453,439.5 Q476,459 476,493 Q476,526 453,545 Q430,564 391,564 M247,292 L247,137 L391,137 Q441,137 469.5,158 Q498,179 498,216 Q498,251 469.5,271.5 Q441,292 391,292"/> 
            <glyph glyph-name="C" unicode="&#x43;" horiz-adv-x="681" d=" M398,706 Q476,706 551.5,674 Q627,642 680,588 L577,466 Q543,508 495.5,532.5 Q448,557 401,557 Q318,557 262,498.5 Q206,440 206,354 Q206,266 262,207 Q318,148 401,148 Q445,148 492.5,170 Q540,192 577,230 L681,120 Q624,62 546.5,27 Q469,-8 392,-8 Q234,-8 129,95 Q24,198 24,352 Q24,503 131,604.5 Q238,706 398,706"/> 
            <glyph glyph-name="D" unicode="&#x44;" horiz-adv-x="743" d=" M70,700 L371,700 Q536,700 639.5,603 Q743,506 743,350 Q743,195 638,97.5 Q533,0 364,0 L70,0 M248,558 L248,142 L375,142 Q457,142 509.5,199.5 Q562,257 562,349 Q562,441 507,499.5 Q452,558 367,558"/> 
            <glyph glyph-name="E" unicode="&#x45;" horiz-adv-x="629" d=" M618,560 L248,560 L248,421 L582,421 L582,281 L248,281 L248,140 L629,140 L629,0 L70,0 L70,700 L618,700"/> 
            <glyph glyph-name="F" unicode="&#x46;" horiz-adv-x="589" d=" M589,560 L248,560 L248,398 L562,398 L562,258 L248,258 L248,0 L70,0 L70,700 L589,700"/> 
            <glyph glyph-name="G" unicode="&#x47;" horiz-adv-x="696" d=" M535,356 L689,356 L689,83 Q632,43 551.5,17.5 Q471,-8 398,-8 Q238,-8 131,94.5 Q24,197 24,350 Q24,502 134,604 Q244,706 410,706 Q488,706 565,678 Q642,650 696,602 L596,481 Q558,516 508,536.5 Q458,557 409,557 Q323,557 264.5,497.5 Q206,438 206,350 Q206,261 265,201 Q324,141 411,141 Q467,141 535,175"/> 
            <glyph glyph-name="H" unicode="&#x48;" horiz-adv-x="716" d=" M716,0 L538,0 L538,272 L248,272 L248,0 L70,0 L70,700 L248,700 L248,412 L538,412 L538,700 L716,700"/> 
            <glyph glyph-name="I" unicode="&#x49;" horiz-adv-x="248" d=" M248,0 L70,0 L70,700 L248,700"/> 
            <glyph glyph-name="J" unicode="&#x4A;" horiz-adv-x="478" d=" M478,701 L478,227 Q478,116 413.5,54 Q349,-8 236,-8 Q93,-8 -5,104 L77,223 Q152,145 224,145 Q299,145 299,231 L299,557 L59,557 L59,701"/> 
            <glyph glyph-name="K" unicode="&#x4B;" horiz-adv-x="739" d=" M526,0 L341,275 L248,172 L248,0 L70,0 L70,700 L248,700 L248,397 L516,700 L722,700 L462,410 L739,0"/> 
            <glyph glyph-name="L" unicode="&#x4C;" horiz-adv-x="545" d=" M248,149 L545,149 L545,0 L70,0 L70,700 L248,700"/> 
            <glyph glyph-name="M" unicode="&#x4D;" horiz-adv-x="839" d=" M839,0 L682,0 L681,455 L513,70 L397,70 L229,455 L229,0 L70,0 L70,701 L265,701 L455,284 L645,701 L839,701"/> 
            <glyph glyph-name="N" unicode="&#x4E;" horiz-adv-x="716" d=" M716,0 L559,0 L237,431 L237,0 L70,0 L70,700 L227,700 L550,268 L550,700 L716,700"/> 
            <glyph glyph-name="O" unicode="&#x4F;" horiz-adv-x="781" d=" M402,706 Q565,706 673,604.5 Q781,503 781,351 Q781,198 672.5,95 Q564,-8 402,-8 Q240,-8 132,94.5 Q24,197 24,351 Q24,504 132,605 Q240,706 402,706 M404,557 Q322,557 264,497.5 Q206,438 206,350 Q206,262 264.5,201.5 Q323,141 404,141 Q485,141 541.5,201.5 Q598,262 598,350 Q598,438 541.5,497.5 Q485,557 404,557"/> 
            <glyph glyph-name="P" unicode="&#x50;" horiz-adv-x="657" d=" M70,700 L375,700 Q509,700 583,636.5 Q657,573 657,456 Q657,333 583,265 Q509,197 375,197 L248,197 L248,0 L70,0 M248,560 L248,337 L366,337 Q425,337 457,366 Q489,395 489,450 Q489,504 457,532 Q425,560 366,560"/> 
            <glyph glyph-name="Q" unicode="&#x51;" horiz-adv-x="816" d=" M753,22 L816,-88 Q776,-124 721,-144.5 Q666,-165 613,-165 Q541,-165 482,-123.5 Q423,-82 388,-8 Q231,-3 127.5,99 Q24,201 24,351 Q24,504 132,605 Q240,706 402,706 Q565,706 673,604.5 Q781,503 781,351 Q781,236 717.5,146 Q654,56 548,17 Q586,-31 633,-31 Q684,-31 753,22 M206,438 Q206,262 264.5,201.5 Q323,141 404,141 Q485,141 541.5,201.5 Q598,262 598,350 Q598,438 541.5,497.5 Q485,557 404,557 Q322,557 206,438"/> 
            <glyph glyph-name="R" unicode="&#x52;" horiz-adv-x="694" d=" M492,0 L388,197 L383,197 L248,197 L248,0 L70,0 L70,700 L383,700 Q522,700 598,636.5 Q674,573 674,456 Q674,294 547,231 L694,0 M248,337 L383,337 Q441,337 473,366 Q505,395 505,450 Q505,504 473,532 Q441,560 383,560 L248,560"/> 
            <glyph glyph-name="S" unicode="&#x53;" horiz-adv-x="617" d=" M339,708 Q496,708 615,630 L548,491 Q493,523 430,543.5 Q367,564 324,564 Q247,564 247,513 Q247,480 285,460 Q323,440 377.5,425.5 Q432,411 486.5,390.5 Q541,370 579,324 Q617,278 617,208 Q617,107 538,50.5 Q459,-6 337,-6 Q250,-6 165,24 Q80,54 17,106 L86,243 Q139,197 211,167.5 Q283,138 339,138 Q382,138 406,153.5 Q430,169 430,199 Q430,228 402.5,247.5 Q375,267 334,276.5 Q293,286 245,302 Q197,318 156,337 Q115,356 87.5,397.5 Q60,439 60,497 Q60,593 136.5,650.5 Q213,708 339,708"/> 
            <glyph glyph-name="T" unicode="&#x54;" horiz-adv-x="605" d=" M605,557 L394,557 L394,0 L216,0 L216,557 L7,557 L7,701 L605,701"/> 
            <glyph glyph-name="U" unicode="&#x55;" horiz-adv-x="700" d=" M700,700 L700,294 Q700,155 614,73.5 Q528,-8 381,-8 Q233,-8 145.5,73.5 Q58,155 58,294 L58,700 L236,700 L236,294 Q236,224 276.5,182.5 Q317,141 382,141 Q446,141 484.5,182 Q523,223 523,294 L523,700"/> 
            <glyph glyph-name="V" unicode="&#x56;" horiz-adv-x="730" d=" M455,0 L271,0 L-1,700 L189,700 L368,185 L547,700 L730,700"/> 
            <glyph glyph-name="W" unicode="&#x57;" horiz-adv-x="1088" d=" M857,0 L674,0 L544,484 L412,0 L228,0 L-1,700 L189,700 L326,185 L460,700 L634,700 L771,185 L906,700 L1088,700"/> 
            <glyph glyph-name="X" unicode="&#x58;" horiz-adv-x="727" d=" M476,366 L727,0 L514,0 L363,223 L212,0 L5,0 L255,358 L21,700 L228,700 L363,496 L498,700 L707,700"/> 
            <glyph glyph-name="Y" unicode="&#x59;" horiz-adv-x="685" d=" M431,226 L431,0 L254,0 L254,221 L-5,700 L173,700 L342,395 L507,700 L685,700"/> 
            <glyph glyph-name="Z" unicode="&#x5A;" horiz-adv-x="646" d=" M640,586 L266,141 L646,141 L646,0 L28,0 L28,114 L403,559 L41,559 L41,700 L640,700"/> 
            <glyph glyph-name="[" unicode="&#x5B;" horiz-adv-x="344" d=" M344,614 L224,614 L224,4 L344,4 L344,-124 L70,-124 L70,742 L344,742"/> 
            <glyph glyph-name="\" unicode="&#x5C;" horiz-adv-x="481" d=" M158,811 L481,-111 L336,-111 L13,811"/> 
            <glyph glyph-name="]" unicode="&#x5D;" horiz-adv-x="363" d=" M363,742 L363,-124 L89,-124 L89,4 L209,4 L209,614 L89,614 L89,742"/> 
            <glyph glyph-name="^" unicode="&#x5E;" horiz-adv-x="542" d=" M420,138 L287,427 L154,138 L32,138 L218,525 L357,525 L542,138"/> 
            <glyph glyph-name="_" unicode="&#x5F;" horiz-adv-x="583" d=" M583,-204 L0,-204 L0,-110 L583,-110"/> 
            <glyph glyph-name="`" unicode="&#x60;" horiz-adv-x="303" d=" M303,600 L171,600 L41,713 L197,768"/> 
            <glyph glyph-name="a" unicode="&#x61;" horiz-adv-x="546" d=" M311,547 Q422,547 483.5,495.5 Q545,444 546,352 L546,0 L377,0 L377,62 Q324,-8 212,-8 Q127,-8 77,39 Q27,86 27,161 Q27,238 80.5,280.5 Q134,323 234,324 L376,324 L376,332 Q376,372 349.5,394.5 Q323,417 271,417 Q198,417 110,372 L61,486 Q192,547 311,547 M265,109 Q306,109 337,129.5 Q368,150 376,183 L376,231 L267,231 Q189,231 189,173 Q189,143 209,126 Q229,109 265,109"/> 
            <glyph glyph-name="b" unicode="&#x62;" horiz-adv-x="661" d=" M408,545 Q522,545 591.5,468.5 Q661,392 661,267 Q661,144 593,69 Q525,-6 412,-6 Q306,-6 247,72 L247,0 L74,0 L74,742 L247,742 L247,468 Q307,545 408,545 M366,131 Q420,131 453.5,170.5 Q487,210 487,272 Q487,334 453.5,373 Q420,412 366,412 Q314,412 280.5,373 Q247,334 247,272 Q247,209 280,170 Q313,131 366,131"/> 
            <glyph glyph-name="c" unicode="&#x63;" horiz-adv-x="547" d=" M304,545 Q384,545 446.5,513.5 Q509,482 544,424 L420,349 Q380,405 311,405 Q261,405 229.5,367.5 Q198,330 198,269 Q198,207 229,169.5 Q260,132 311,132 Q387,132 421,193 L547,119 Q514,59 450.5,26.5 Q387,-6 302,-6 Q177,-6 100.5,69.5 Q24,145 24,268 Q24,392 101.5,468.5 Q179,545 304,545"/> 
            <glyph glyph-name="d" unicode="&#x64;" horiz-adv-x="612" d=" M612,742 L612,0 L439,0 L439,71 Q380,-7 277,-7 Q163,-7 94,70 Q25,147 25,272 Q25,396 93,471 Q161,546 273,546 Q380,546 439,468 L439,742 M265,127 Q373,127 406,166 Q439,205 439,268 Q439,330 406,369 Q373,408 319,408 Q265,408 232,369.5 Q199,331 198,268 Q199,205 265,127"/> 
            <glyph glyph-name="e" unicode="&#x65;" horiz-adv-x="586" d=" M305,545 Q445,545 515.5,459 Q586,373 577,223 L198,223 Q211,175 244,149 Q277,123 325,123 Q399,123 454,178 L545,89 Q458,-6 310,-6 Q179,-6 101.5,69 Q24,144 24,268 Q24,393 101.5,469 Q179,545 305,545 M195,316 L411,316 Q411,365 382.5,395 Q354,425 307,425 Q263,425 233,395.5 Q203,366 195,316"/> 
            <glyph glyph-name="f" unicode="&#x66;" horiz-adv-x="458" d=" M334,613 Q307,614 289.5,598.5 Q272,583 272,554 L272,515 L394,515 L394,401 L272,401 L272,0 L101,0 L101,401 L28,401 L28,515 L101,515 L101,565 Q101,652 159,701 Q217,750 307,750 Q393,750 458,712 L397,591 Q367,613 334,613"/> 
            <glyph glyph-name="g" unicode="&#x67;" horiz-adv-x="584" d=" M584,539 L584,49 Q584,-65 503.5,-133 Q423,-201 292,-201 Q158,-201 52,-130 L112,-13 Q190,-67 279,-67 Q341,-67 376.5,-37 Q412,-7 412,44 L412,101 Q357,29 257,29 Q154,29 89.5,101 Q25,173 25,290 Q25,404 88,474.5 Q151,545 253,545 Q356,546 412,473 L412,539 M300,154 Q350,154 381,190.5 Q412,227 412,285 Q412,344 381,380.5 Q350,417 300,417 Q249,417 217.5,380.5 Q186,344 186,285 Q186,227 217.5,190.5 Q249,154 300,154"/> 
            <glyph glyph-name="h" unicode="&#x68;" horiz-adv-x="625" d=" M428,547 Q517,547 571,490.5 Q625,434 625,340 L625,0 L452,0 L452,292 Q452,339 426.5,366.5 Q401,394 357,394 Q307,394 277,358 Q247,322 247,266 L247,0 L74,0 L74,742 L247,742 L247,450 Q304,545 428,547"/> 
            <glyph glyph-name="i" unicode="&#x69;" horiz-adv-x="247" d=" M116,785 Q196,785 221.5,759.5 Q247,734 247,694 Q247,654 221.5,628 Q196,602 156,602 Q116,602 90.5,628 Q65,654 65,694 Q65,734 116,785 M241,0 L69,0 L69,539 L241,539"/> 
            <glyph glyph-name="j" unicode="&#x6A;" horiz-adv-x="255" d=" M114,785 Q200,785 227.5,759.5 Q255,734 255,693 Q255,653 227.5,627.5 Q200,602 157,602 Q114,602 86.5,627.5 Q59,653 59,693 Q59,733 114,785 M244,539 L244,-16 Q244,-104 189,-153 Q134,-202 48,-201 Q-31,-201 -87,-166 L-43,-45 Q-11,-64 18,-64 Q43,-65 57,-50 Q71,-35 71,-5 L71,539"/> 
            <glyph glyph-name="k" unicode="&#x6B;" horiz-adv-x="627" d=" M305,208 L247,147 L247,0 L74,0 L74,742 L247,742 L247,350 L425,539 L621,539 L423,332 L627,0 L422,0"/> 
            <glyph glyph-name="l" unicode="&#x6C;" horiz-adv-x="247" d=" M247,0 L74,0 L74,742 L247,742"/> 
            <glyph glyph-name="m" unicode="&#x6D;" horiz-adv-x="983" d=" M789,547 Q878,547 930.5,490.5 Q983,434 983,340 L983,0 L811,0 L811,292 Q811,340 786,367.5 Q761,395 718,395 Q670,394 641.5,358.5 Q613,323 613,267 L613,0 L440,0 L440,292 Q440,340 415.5,367.5 Q391,395 348,395 Q299,394 270,358 Q241,322 241,267 L241,0 L69,0 L69,539 L241,539 L241,450 Q296,545 419,547 Q484,547 531.5,514.5 Q579,482 599,425 Q652,545 789,547"/> 
            <glyph glyph-name="n" unicode="&#x6E;" horiz-adv-x="619" d=" M422,547 Q511,547 565,490.5 Q619,434 619,340 L619,0 L447,0 L447,292 Q447,339 421.5,366.5 Q396,394 352,394 Q306,394 276.5,364 Q247,334 242,285 L242,0 L69,0 L69,539 L242,539 L242,451 Q299,545 422,547"/> 
            <glyph glyph-name="o" unicode="&#x6F;" horiz-adv-x="613" d=" M319,545 Q451,545 532,469.5 Q613,394 613,270 Q613,146 532,70 Q451,-6 319,-6 Q186,-6 105,70 Q24,146 24,270 Q24,394 105,469.5 Q186,545 319,545 M319,408 Q265,408 231.5,369 Q198,330 198,268 Q198,205 231.5,166.5 Q265,128 319,128 Q372,128 405.5,166.5 Q439,205 439,268 Q439,330 405.5,369 Q372,408 319,408"/> 
            <glyph glyph-name="p" unicode="&#x70;" horiz-adv-x="661" d=" M408,545 Q522,545 591.5,468.5 Q661,392 661,267 Q661,144 593,69 Q525,-6 412,-6 Q306,-6 247,72 L247,-194 L74,-194 L74,539 L247,539 L247,468 Q307,545 408,545 M366,131 Q420,131 453.5,170.5 Q487,210 487,272 Q487,334 453.5,373 Q420,412 366,412 Q314,412 280.5,373 Q247,334 247,272 Q247,209 280,170 Q313,131 366,131"/> 
            <glyph glyph-name="q" unicode="&#x71;" horiz-adv-x="612" d=" M612,539 L612,-194 L439,-194 L439,71 Q380,-7 277,-7 Q163,-7 94,70 Q25,147 25,272 Q25,396 93,471 Q161,546 273,546 Q380,546 439,468 L439,539 M265,127 Q373,127 406,166 Q439,205 439,268 Q439,330 406,369 Q373,408 319,408 Q265,408 232,369.5 Q199,331 198,268 Q199,205 265,127"/> 
            <glyph glyph-name="r" unicode="&#x72;" horiz-adv-x="417" d=" M242,539 L242,448 Q299,545 417,547 L417,391 Q343,398 296,366.5 Q249,335 242,277 L242,0 L69,0 L69,539"/> 
            <glyph glyph-name="s" unicode="&#x73;" horiz-adv-x="485" d=" M262,547 Q381,547 484,486 L425,374 Q325,428 255,428 Q202,428 202,391 Q202,371 231,357.5 Q260,344 302,333 Q344,322 385.5,305.5 Q427,289 456,253 Q485,217 485,165 Q485,84 422,38.5 Q359,-7 258,-7 Q115,-7 16,69 L71,179 Q166,112 262,112 Q321,112 321,149 Q321,170 292.5,184 Q264,198 223,209 Q182,220 141,236.5 Q100,253 71.5,288 Q43,323 43,376 Q43,457 104,502 Q165,547 262,547"/> 
            <glyph glyph-name="t" unicode="&#x74;" horiz-adv-x="417" d=" M383,149 L417,29 Q354,-8 273,-8 Q193,-8 143.5,36.5 Q94,81 94,163 L94,401 L19,401 L19,514 L94,514 L94,664 L266,664 L266,515 L407,515 L407,401 L266,401 L266,190 Q266,159 278.5,144.5 Q291,130 316,131 Q340,131 383,149"/> 
            <glyph glyph-name="u" unicode="&#x75;" horiz-adv-x="594" d=" M594,539 L594,0 L421,0 L421,89 Q366,-7 246,-7 Q158,-7 105.5,49 Q53,105 53,199 L53,539 L226,539 L226,248 Q226,200 250.5,172.5 Q275,145 316,145 Q365,146 393,181.5 Q421,217 421,273 L421,539"/> 
            <glyph glyph-name="v" unicode="&#x76;" horiz-adv-x="578" d=" M375,0 L198,0 L-5,539 L173,539 L289,158 L406,539 L578,539"/> 
            <glyph glyph-name="w" unicode="&#x77;" horiz-adv-x="944" d=" M747,0 L576,0 L470,342 L364,0 L192,0 L-5,539 L171,539 L282,166 L390,539 L555,539 L666,166 L775,539 L944,539"/> 
            <glyph glyph-name="x" unicode="&#x78;" horiz-adv-x="601" d=" M304,384 L400,539 L589,539 L418,277 L601,0 L402,0 L304,169 L194,0 L4,0 L188,276 L16,539 L214,539"/> 
            <glyph glyph-name="y" unicode="&#x79;" horiz-adv-x="587" d=" M587,539 L354,-56 Q294,-202 146,-202 Q60,-202 -11,-147 L61,-29 Q97,-58 132,-58 Q178,-58 199,-15 L212,12 L-12,539 L166,539 L298,181 L415,539"/> 
            <glyph glyph-name="z" unicode="&#x7A;" horiz-adv-x="524" d=" M515,435 L251,130 L524,130 L524,0 L34,0 L34,104 L299,409 L44,409 L44,539 L515,539"/> 
            <glyph glyph-name="{" unicode="&#x7B;" horiz-adv-x="342" d=" M254,551 L254,429 Q254,374 235,346.5 Q216,319 170,309 Q216,298 235,270 Q254,242 254,188 L254,67 Q254,31 272.5,16.5 Q291,2 342,2 L342,-126 L275,-126 Q178,-126 139,-94.5 Q100,-63 100,14 L100,199 Q100,223 91.5,233 Q83,243 63,243 L24,243 L24,375 L63,375 Q83,375 91.5,384.5 Q100,394 100,418 L100,604 Q100,681 139,712 Q178,743 275,743 L342,743 L342,616 Q291,616 272.5,601.5 Q254,587 254,551"/> 
            <glyph glyph-name="|" unicode="&#x7C;" horiz-adv-x="214" d=" M214,-110 L85,-110 L85,803 L214,803"/> 
            <glyph glyph-name="}" unicode="&#x7D;" horiz-adv-x="384" d=" M384,375 L384,243 L346,243 Q326,243 317,233 Q308,223 308,199 L308,14 Q308,-63 269,-94.5 Q230,-126 133,-126 L67,-126 L67,2 Q117,2 136,16.5 Q155,31 155,67 L155,188 Q155,243 173.5,270.5 Q192,298 239,308 Q192,319 173.5,346.5 Q155,374 155,429 L155,551 Q155,587 136,601.5 Q117,616 67,616 L67,743 L133,743 Q230,743 269,712 Q308,681 308,604 L308,418 Q308,394 316.5,384.5 Q325,375 346,375"/> 
            <glyph glyph-name="~" unicode="&#x7E;" horiz-adv-x="454" d=" M169,412 Q207,412 250.5,386.5 Q294,361 306,361 Q339,361 339,407 L454,407 Q454,237 341,237 Q303,237 259.5,262.5 Q216,288 204,288 Q172,288 172,242 L56,242 Q56,412 169,412"/> 
            <glyph glyph-name="¡" unicode="&#xA1;" horiz-adv-x="219" d=" M136,379 Q99,379 75.5,402 Q52,425 52,462 Q52,500 75.5,523.5 Q99,547 136,547 Q172,547 195.5,523 Q219,499 219,462 Q219,425 195.5,402 Q172,379 136,379 M51,21 L81,298 L185,298 L215,21 L215,-158 L51,-158"/> 
            <glyph glyph-name="¢" unicode="&#xA2;" horiz-adv-x="547" d=" M421,193 L547,119 Q495,25 377,1 L377,-154 L243,-154 L243,-1 Q143,16 83.5,88.5 Q24,161 24,268 Q24,376 83.5,449 Q143,522 243,540 L243,699 L377,699 L377,538 Q489,513 544,424 L420,349 Q380,405 311,405 Q261,405 229.5,367.5 Q198,330 198,269 Q198,207 229,169.5 Q260,132 311,132 Q387,132 421,193"/> 
            <glyph glyph-name="£" unicode="&#xA3;" horiz-adv-x="555" d=" M283,134 L541,134 L541,0 L28,0 L28,134 L104,134 L104,281 L28,281 L28,399 L104,399 L104,474 Q104,586 166.5,647 Q229,708 342,708 Q469,708 555,622 L488,492 Q424,559 361,559 Q283,559 283,470 L283,399 L450,399 L450,281 L283,281"/> 
            <glyph glyph-name="¤" unicode="&#xA4;" horiz-adv-x="677" d=" M612,321 Q612,249 575,190 L677,88 L580,-9 L477,95 Q416,63 350,63 Q284,63 225,95 L121,-9 L24,88 L126,190 Q90,249 90,321 Q90,391 124,448 L24,547 L121,644 L220,545 Q280,580 350,580 Q420,580 482,545 L580,644 L677,547 L578,448 Q612,391 612,321 M350,198 Q403,198 440,234 Q477,270 477,321 Q477,373 440,409.5 Q403,446 350,446 Q298,446 261.5,409.5 Q225,373 225,321 Q225,270 261.5,234 Q298,198 350,198"/> 
            <glyph glyph-name="¥" unicode="&#xA5;" horiz-adv-x="685" d=" M491,339 L606,339 L606,274 L456,274 L431,227 L431,209 L606,209 L606,143 L431,143 L431,0 L254,0 L254,143 L69,143 L69,209 L254,209 L254,222 L226,274 L69,274 L69,339 L191,339 L-5,701 L173,701 L342,394 L507,701 L685,701"/> 
            <glyph glyph-name="¦" unicode="&#xA6;" horiz-adv-x="214" d=" M214,461 L85,461 L85,803 L214,803 M214,-110 L85,-110 L85,233 L214,233"/> 
            <glyph glyph-name="§" unicode="&#xA7;" horiz-adv-x="520" d=" M282,694 Q396,694 505,633 L453,527 Q351,580 284,580 Q220,580 220,542 Q220,523 242,508.5 Q264,494 297.5,484.5 Q331,475 370,461 Q409,447 442.5,430 Q476,413 498,381.5 Q520,350 520,307 Q520,263 493,227.5 Q466,192 421,174 Q456,153 471,131 Q486,109 486,72 Q486,1 424.5,-43.5 Q363,-88 261,-88 Q124,-88 16,-11 L65,96 Q165,28 257,28 Q289,28 308,39 Q327,50 327,67 Q327,89 296.5,104.5 Q266,120 223,133 Q180,146 136.5,163.5 Q93,181 62.5,215.5 Q32,250 32,300 Q32,394 137,432 Q96,454 80.5,477.5 Q65,501 65,535 Q65,606 124,650 Q183,694 282,694 M259,353 Q186,353 186,311 Q186,287 215,271.5 Q244,256 287,256 Q361,256 361,298 Q361,322 331.5,337.5 Q302,353 259,353"/> 
            <glyph glyph-name="¨" unicode="&#xA8;" horiz-adv-x="350" d=" M45,770 Q113,770 134.5,748 Q156,726 156,692 Q156,658 134.5,636 Q113,614 79,614 Q44,614 22.5,636 Q1,658 1,692 Q1,726 45,770 M238,770 Q306,770 328,748 Q350,726 350,692 Q350,658 328,636 Q306,614 272,614 Q238,614 216,636 Q194,658 194,692 Q194,726 238,770"/> 
            <glyph glyph-name="©" unicode="&#xA9;" horiz-adv-x="701" d=" M221,689 Q505,689 603,589.5 Q701,490 701,350 Q701,210 602,109.5 Q503,9 361,9 Q220,9 122,108.5 Q24,208 24,348 Q24,488 221,689 M472,609 Q254,609 179,532.5 Q104,456 104,348 Q104,241 178,165 Q252,89 361,89 Q470,89 546,166 Q622,243 622,350 Q622,457 472,609 M369,515 Q448,515 501,460 L453,403 Q417,445 371,445 Q331,445 304.5,418 Q278,391 278,351 Q278,310 304.5,282 Q331,254 371,254 Q415,254 453,292 L501,241 Q444,181 366,181 Q292,181 243,229 Q194,277 194,349 Q194,420 244,467.5 Q294,515 369,515"/> 
            <glyph glyph-name="ª" unicode="&#xAA;" horiz-adv-x="356" d=" M204,785 Q276,785 316,754 Q356,723 355,668 L355,458 L239,458 L239,499 Q205,453 134,453 Q82,453 51.5,480.5 Q21,508 21,553 Q21,599 55,624 Q89,649 152,649 L239,649 L239,654 Q239,700 176,700 Q132,700 70,676 L42,752 Q128,785 204,785 M175,526 Q219,526 239,561 L239,595 L177,595 Q133,595 133,562 Q133,526 175,526"/> 
            <glyph glyph-name="«" unicode="&#xAB;" horiz-adv-x="484" d=" M156,266 L262,82 L122,82 L2,266 L122,450 L262,450 M377,266 L484,82 L344,82 L224,266 L344,450 L484,450"/> 
            <glyph glyph-name="¬" unicode="&#xAC;" horiz-adv-x="514" d=" M514,426 L514,137 L390,137 L390,317 L33,317 L33,426"/> 
            <glyph glyph-name="­" unicode="&#xAD;" horiz-adv-x="319" d=" M319,252 L55,252 L55,361 L319,361"/> 
            <glyph glyph-name="®" unicode="&#xAE;" horiz-adv-x="701" d=" M221,689 Q505,689 603,589.5 Q701,490 701,350 Q701,210 602,109.5 Q503,9 361,9 Q220,9 122,108.5 Q24,208 24,348 Q24,488 221,689 M252,89 Q470,89 546,166 Q622,243 622,350 Q622,457 547,533 Q472,609 363,609 Q254,609 179,532.5 Q104,456 104,348 Q104,241 252,89 M505,409 Q505,335 447,305 L515,200 L424,200 L376,290 L372,290 L313,290 L313,200 L234,200 L234,520 L372,520 Q436,520 470.5,491 Q505,462 505,409 M313,352 L372,352 Q399,352 414,366 Q429,380 429,406 Q429,459 372,459 L313,459"/> 
            <glyph glyph-name="¯" unicode="&#xAF;" horiz-adv-x="314" d=" M314,632 L36,632 L36,748 L314,748"/> 
            <glyph glyph-name="°" unicode="&#xB0;" horiz-adv-x="321" d=" M153,817 Q251,817 286,782.5 Q321,748 321,699 Q321,650 286,615.5 Q251,581 202,581 Q153,581 118,615.5 Q83,650 83,699 Q83,748 153,817 M202,750 Q181,750 165.5,735 Q150,720 150,699 Q150,678 165.5,663 Q181,648 202,648 Q224,648 239,663 Q254,678 254,699 Q254,720 239,735 Q224,750 202,750"/> 
            <glyph glyph-name="±" unicode="&#xB1;" horiz-adv-x="477" d=" M477,453 L477,348 L309,348 L309,187 L200,187 L200,348 L33,348 L33,453 L200,453 L200,615 L309,615 L309,453 M33,112 L477,112 L477,2 L33,2"/> 
            <glyph glyph-name="²" unicode="&#xB2;" horiz-adv-x="363" d=" M201,705 Q267,705 309.5,674.5 Q352,644 352,595 Q352,535 269,455 L187,374 L363,374 L363,283 L32,283 L32,358 L187,513 Q225,553 225,578 Q225,610 182,610 Q128,610 64,557 L18,641 Q109,705 201,705"/> 
            <glyph glyph-name="³" unicode="&#xB3;" horiz-adv-x="341" d=" M217,533 L237,529 Q284,521 312.5,491.5 Q341,462 341,415 Q341,354 294.5,316 Q248,278 172,278 Q72,278 5,330 L54,419 Q102,365 162,365 Q222,365 222,414 Q222,461 161,461 L89,461 L89,522 L183,614 L26,614 L26,699 L321,699 L321,632"/> 
            <glyph glyph-name="´" unicode="&#xB4;" horiz-adv-x="306" d=" M306,713 L176,600 L44,600 L150,768"/> 
            <glyph glyph-name="µ" unicode="&#xB5;" horiz-adv-x="615" d=" M615,539 L615,0 L442,0 L442,89 Q387,-7 267,-7 L247,-6 L247,-194 L74,-194 L74,539 L247,539 L247,248 Q247,200 271.5,172.5 Q296,145 337,145 Q386,146 414,181.5 Q442,217 442,273 L442,539"/> 
            <glyph glyph-name="¶" unicode="&#xB6;" horiz-adv-x="580" d=" M580,-107 L451,-107 L451,645 L351,645 L351,-107 L223,-107 L223,325 L196,325 Q139,325 97,345 Q55,365 34,397.5 Q13,430 3.5,462.5 Q-6,495 -6,529 Q-6,619 54,680.5 Q114,742 237,742 L580,742"/> 
            <glyph glyph-name="·" unicode="&#xB7;" horiz-adv-x="201" d=" M119,371 Q155,371 178,348 Q201,325 201,289 Q201,253 178,230 Q155,207 119,207 Q84,207 61,230 Q38,253 38,289 Q38,325 61,348 Q84,371 119,371"/> 
            <glyph glyph-name="¸" unicode="&#xB8;" horiz-adv-x="285" d=" M250,14 L217,-51 Q248,-59 266.5,-80.5 Q285,-102 285,-132 Q285,-179 250,-207 Q215,-235 160,-235 Q111,-235 65,-204 L97,-133 Q119,-153 146,-153 Q165,-153 176.5,-142.5 Q188,-132 188,-116 Q188,-100 176,-90 Q164,-80 142,-80 Q130,-80 106,-84 L153,14"/> 
            <glyph glyph-name="¹" unicode="&#xB9;" horiz-adv-x="211" d=" M89,283 L89,607 L10,607 L10,700 L211,700 L211,283"/> 
            <glyph glyph-name="º" unicode="&#xBA;" horiz-adv-x="393" d=" M206,785 Q291,785 342,739.5 Q393,694 393,619 Q393,545 342,499.5 Q291,454 206,454 Q122,454 71,499.5 Q20,545 20,619 Q20,694 71,739.5 Q122,785 206,785 M236,694 Q176,694 157.5,673 Q139,652 139,618 Q139,584 157.5,563 Q176,542 206,542 Q236,542 254.5,563 Q273,584 273,618 Q273,652 236,694"/> 
            <glyph glyph-name="»" unicode="&#xBB;" horiz-adv-x="517" d=" M141,266 L35,450 L175,450 L295,266 L175,82 L35,82 M363,266 L257,450 L397,450 L517,266 L397,82 L257,82"/> 
            <glyph glyph-name="¼" unicode="&#xBC;" horiz-adv-x="868" d=" M67,0 L567,701 L729,701 L229,0 M89,283 L89,607 L10,607 L10,700 L211,700 L211,283 M697,171 L697,260 L810,260 L810,171 L868,171 L868,87 L810,87 L810,0 L697,0 L697,87 L490,87 L490,166 L624,417 L741,417 L614,171"/> 
            <glyph glyph-name="½" unicode="&#xBD;" horiz-adv-x="876" d=" M67,0 L567,701 L729,701 L229,0 M89,283 L89,607 L10,607 L10,700 L211,700 L211,283 M714,422 Q781,422 823,391.5 Q865,361 865,311 Q865,252 782,172 L700,90 L876,90 L876,0 L545,0 L545,75 L700,229 Q738,271 738,295 Q738,327 695,327 Q643,327 577,274 L531,358 Q622,422 714,422"/> 
            <glyph glyph-name="¾" unicode="&#xBE;" horiz-adv-x="927" d=" M127,0 L627,701 L789,701 L289,0 M217,533 L237,529 Q284,521 312.5,491.5 Q341,462 341,415 Q341,354 294.5,316 Q248,278 172,278 Q72,278 5,330 L54,419 Q102,365 162,365 Q222,365 222,414 Q222,461 161,461 L89,461 L89,522 L183,614 L26,614 L26,699 L321,699 L321,632 M756,171 L756,260 L869,260 L869,171 L927,171 L927,87 L869,87 L869,0 L756,0 L756,87 L549,87 L549,166 L683,417 L800,417 L673,171"/> 
            <glyph glyph-name="¿" unicode="&#xBF;" horiz-adv-x="469" d=" M246,380 Q209,380 185.5,403 Q162,426 162,463 Q162,500 185.5,523.5 Q209,547 246,547 Q282,547 305.5,523.5 Q329,500 329,463 Q329,426 305.5,403 Q282,380 246,380 M336,64 L469,63 Q468,-44 407.5,-104 Q347,-164 241,-164 Q140,-164 82.5,-118.5 Q25,-73 25,10 Q25,52 41,86.5 Q57,121 79.5,144 Q102,167 124.5,189 Q147,211 163,239 Q179,267 179,300 L308,300 Q308,257 295,223.5 Q282,190 264,168.5 Q246,147 228,128.5 Q210,110 197,87 Q184,64 184,37 Q184,-27 257,-27 Q333,-27 336,64"/> 
            <glyph glyph-name="À" unicode="&#xC0;" horiz-adv-x="775" d=" M341,761 L211,874 L367,929 L473,761 M535,129 L229,129 L178,0 L-5,0 L297,700 L480,700 L775,0 L585,0 M483,264 L383,523 L281,264"/> 
            <glyph glyph-name="Á" unicode="&#xC1;" horiz-adv-x="775" d=" M431,761 L299,761 L405,929 L561,874 M535,129 L229,129 L178,0 L-5,0 L297,700 L480,700 L775,0 L585,0 M483,264 L383,523 L281,264"/> 
            <glyph glyph-name="Â" unicode="&#xC2;" horiz-adv-x="775" d=" M327,771 L203,771 L316,922 L454,922 L567,771 L443,771 L385,856 M535,129 L229,129 L178,0 L-5,0 L297,700 L480,700 L775,0 L585,0 M483,264 L383,523 L281,264"/> 
            <glyph glyph-name="Ã" unicode="&#xC3;" horiz-adv-x="775" d=" M343,825 Q313,825 313,782 L207,782 Q207,938 312,938 Q345,938 381,914.5 Q417,891 427,891 Q458,891 458,933 L563,933 Q563,778 459,778 Q425,778 389.5,801.5 Q354,825 343,825 M535,129 L229,129 L178,0 L-5,0 L297,700 L480,700 L775,0 L585,0 M483,264 L383,523 L281,264"/> 
            <glyph glyph-name="Ä" unicode="&#xC4;" horiz-adv-x="775" d=" M323,775 Q255,775 233,796.5 Q211,818 211,852 Q211,886 233,908 Q255,930 289,930 Q323,930 345,908 Q367,886 367,852 Q367,818 323,775 M516,775 Q448,775 426,796.5 Q404,818 404,852 Q404,886 426,908 Q448,930 482,930 Q516,930 538,908 Q560,886 560,852 Q560,818 516,775 M535,129 L229,129 L178,0 L-5,0 L297,700 L480,700 L775,0 L585,0 M483,264 L383,523 L281,264"/> 
            <glyph glyph-name="Å" unicode="&#xC5;" horiz-adv-x="775" d=" M535,129 L229,129 L178,0 L-5,0 L290,685 Q260,720 260,768 Q260,821 297.5,858 Q335,895 388,895 Q442,895 479.5,858 Q517,821 517,768 Q517,719 486,685 L775,0 L585,0 M388,822 Q366,822 350,806 Q334,790 334,768 Q334,746 350,730 Q366,714 388,714 Q411,714 427,729.5 Q443,745 443,768 Q443,791 427,806.5 Q411,822 388,822 M483,264 L383,523 L281,264"/> 
            <glyph glyph-name="Æ" unicode="&#xC6;" horiz-adv-x="1057" d=" M1057,140 L1057,0 L498,0 L498,148 L258,148 L180,0 L-5,0 L393,700 L498,700 L498,701 L1046,701 L1046,560 L675,560 L675,421 L1010,421 L1010,282 L675,282 L675,140 M498,276 L498,564 L478,564 L326,276"/> 
            <glyph glyph-name="Ç" unicode="&#xC7;" horiz-adv-x="681" d=" M577,230 L681,120 Q581,17 441,-4 L417,-51 Q448,-59 466.5,-80.5 Q485,-102 485,-132 Q485,-179 450,-207 Q415,-235 360,-235 Q311,-235 265,-204 L297,-133 Q319,-153 346,-153 Q365,-153 376.5,-142.5 Q388,-132 388,-116 Q388,-100 376,-90 Q364,-80 342,-80 Q330,-80 306,-84 L344,-5 Q204,11 114,111 Q24,211 24,352 Q24,503 131,604.5 Q238,706 398,706 Q476,706 551.5,674 Q627,642 680,588 L577,466 Q543,508 495.5,532.5 Q448,557 401,557 Q318,557 262,498.5 Q206,440 206,354 Q206,266 262,207 Q318,148 401,148 Q445,148 492.5,170 Q540,192 577,230"/> 
            <glyph glyph-name="È" unicode="&#xC8;" horiz-adv-x="629" d=" M434,761 L302,761 L172,874 L328,929 M618,560 L248,560 L248,421 L582,421 L582,281 L248,281 L248,140 L629,140 L629,0 L70,0 L70,700 L618,700"/> 
            <glyph glyph-name="É" unicode="&#xC9;" horiz-adv-x="629" d=" M522,874 L392,761 L260,761 L366,929 M618,560 L248,560 L248,421 L582,421 L582,281 L248,281 L248,140 L629,140 L629,0 L70,0 L70,700 L618,700"/> 
            <glyph glyph-name="Ê" unicode="&#xCA;" horiz-adv-x="629" d=" M528,771 L404,771 L346,856 L288,771 L164,771 L277,922 L415,922 M618,560 L248,560 L248,421 L582,421 L582,281 L248,281 L248,140 L629,140 L629,0 L70,0 L70,700 L618,700"/> 
            <glyph glyph-name="Ë" unicode="&#xCB;" horiz-adv-x="629" d=" M216,930 Q284,930 306,908 Q328,886 328,852 Q328,818 306,796.5 Q284,775 250,775 Q216,775 194,796.5 Q172,818 172,852 Q172,886 216,930 M409,930 Q477,930 499,908 Q521,886 521,852 Q521,818 499,796.5 Q477,775 443,775 Q409,775 387,796.5 Q365,818 365,852 Q365,886 409,930 M618,560 L248,560 L248,421 L582,421 L582,281 L248,281 L248,140 L629,140 L629,0 L70,0 L70,700 L618,700"/> 
            <glyph glyph-name="Ì" unicode="&#xCC;" horiz-adv-x="248" d=" M247,761 L115,761 L-15,874 L141,929 M248,0 L70,0 L70,700 L248,700"/> 
            <glyph glyph-name="Í" unicode="&#xCD;" horiz-adv-x="334" d=" M334,874 L204,761 L72,761 L178,929 M248,0 L70,0 L70,700 L248,700"/> 
            <glyph glyph-name="Î" unicode="&#xCE;" horiz-adv-x="341" d=" M341,771 L217,771 L159,856 L101,771 L-23,771 L90,922 L228,922 M248,0 L70,0 L70,700 L248,700"/> 
            <glyph glyph-name="Ï" unicode="&#xCF;" horiz-adv-x="334" d=" M29,930 Q97,930 119,908 Q141,886 141,852 Q141,818 119,796.5 Q97,775 63,775 Q29,775 7,796.5 Q-15,818 -15,852 Q-15,886 29,930 M222,930 Q290,930 312,908 Q334,886 334,852 Q334,818 312,796.5 Q290,775 256,775 Q222,775 200,796.5 Q178,818 178,852 Q178,886 222,930 M248,0 L70,0 L70,700 L248,700"/> 
            <glyph glyph-name="Ð" unicode="&#xD0;" horiz-adv-x="775" d=" M102,700 L403,700 Q568,700 671.5,603 Q775,506 775,350 Q775,195 670,97.5 Q565,0 396,0 L102,0 L102,304 L0,304 L0,398 L102,398 M279,142 L407,142 Q489,142 541.5,199.5 Q594,257 594,349 Q594,441 539,499.5 Q484,558 399,558 L279,558 L279,398 L438,398 L438,304 L279,304"/> 
            <glyph glyph-name="Ñ" unicode="&#xD1;" horiz-adv-x="716" d=" M320,938 Q353,938 389,914.5 Q425,891 435,891 Q466,891 466,933 L571,933 Q571,778 467,778 Q432,778 397,801.5 Q362,825 351,825 Q321,825 321,782 L215,782 Q215,938 320,938 M716,0 L559,0 L237,431 L237,0 L70,0 L70,700 L227,700 L550,268 L550,700 L716,700"/> 
            <glyph glyph-name="Ò" unicode="&#xD2;" horiz-adv-x="781" d=" M483,761 L351,761 L221,874 L377,929 M402,706 Q565,706 673,604.5 Q781,503 781,351 Q781,198 672.5,95 Q564,-8 402,-8 Q240,-8 132,94.5 Q24,197 24,351 Q24,504 132,605 Q240,706 402,706 M404,557 Q322,557 264,497.5 Q206,438 206,350 Q206,262 264.5,201.5 Q323,141 404,141 Q485,141 541.5,201.5 Q598,262 598,350 Q598,438 541.5,497.5 Q485,557 404,557"/> 
            <glyph glyph-name="Ó" unicode="&#xD3;" horiz-adv-x="781" d=" M570,874 L440,761 L308,761 L414,929 M402,706 Q565,706 673,604.5 Q781,503 781,351 Q781,198 672.5,95 Q564,-8 402,-8 Q240,-8 132,94.5 Q24,197 24,351 Q24,504 132,605 Q240,706 402,706 M404,557 Q322,557 264,497.5 Q206,438 206,350 Q206,262 264.5,201.5 Q323,141 404,141 Q485,141 541.5,201.5 Q598,262 598,350 Q598,438 541.5,497.5 Q485,557 404,557"/> 
            <glyph glyph-name="Ô" unicode="&#xD4;" horiz-adv-x="781" d=" M577,771 L453,771 L395,856 L337,771 L213,771 L326,922 L464,922 M402,706 Q565,706 673,604.5 Q781,503 781,351 Q781,198 672.5,95 Q564,-8 402,-8 Q240,-8 132,94.5 Q24,197 24,351 Q24,504 132,605 Q240,706 402,706 M404,557 Q322,557 264,497.5 Q206,438 206,350 Q206,262 264.5,201.5 Q323,141 404,141 Q485,141 541.5,201.5 Q598,262 598,350 Q598,438 541.5,497.5 Q485,557 404,557"/> 
            <glyph glyph-name="Õ" unicode="&#xD5;" horiz-adv-x="781" d=" M322,938 Q355,938 391,914.5 Q427,891 437,891 Q468,891 468,933 L573,933 Q573,778 469,778 Q434,778 399,801.5 Q364,825 353,825 Q323,825 323,782 L217,782 Q217,938 322,938 M402,706 Q565,706 673,604.5 Q781,503 781,351 Q781,198 672.5,95 Q564,-8 402,-8 Q240,-8 132,94.5 Q24,197 24,351 Q24,504 132,605 Q240,706 402,706 M404,557 Q322,557 264,497.5 Q206,438 206,350 Q206,262 264.5,201.5 Q323,141 404,141 Q485,141 541.5,201.5 Q598,262 598,350 Q598,438 541.5,497.5 Q485,557 404,557"/> 
            <glyph glyph-name="Ö" unicode="&#xD6;" horiz-adv-x="781" d=" M265,930 Q333,930 355,908 Q377,886 377,852 Q377,818 355,796.5 Q333,775 299,775 Q265,775 243,796.5 Q221,818 221,852 Q221,886 265,930 M458,930 Q526,930 548,908 Q570,886 570,852 Q570,818 548,796.5 Q526,775 492,775 Q458,775 436,796.5 Q414,818 414,852 Q414,886 458,930 M402,706 Q565,706 673,604.5 Q781,503 781,351 Q781,198 672.5,95 Q564,-8 402,-8 Q240,-8 132,94.5 Q24,197 24,351 Q24,504 132,605 Q240,706 402,706 M404,557 Q322,557 264,497.5 Q206,438 206,350 Q206,262 264.5,201.5 Q323,141 404,141 Q485,141 541.5,201.5 Q598,262 598,350 Q598,438 541.5,497.5 Q485,557 404,557"/> 
            <glyph glyph-name="×" unicode="&#xD7;" horiz-adv-x="450" d=" M332,327 L450,208 L373,131 L255,250 L136,131 L59,208 L178,327 L59,445 L136,522 L255,404 L373,522 L450,445"/> 
            <glyph glyph-name="Ø" unicode="&#xD8;" horiz-adv-x="781" d=" M596,809 L551,680 Q656,641 718.5,552.5 Q781,464 781,351 Q781,198 672.5,95 Q564,-8 402,-8 Q355,-8 313,1 L273,-113 L173,-113 L224,32 Q132,76 78,160.5 Q24,245 24,351 Q24,504 132,605 Q240,706 402,706 Q434,706 459,702 L496,809 M206,350 Q206,251 279,188 L408,557 L404,557 Q322,557 264,497.5 Q206,438 206,350 M404,141 Q485,141 541.5,201.5 Q598,262 598,350 Q598,409 571.5,457 Q545,505 499,532 L364,145 Q390,141 404,141"/> 
            <glyph glyph-name="Ù" unicode="&#xD9;" horiz-adv-x="700" d=" M467,761 L335,761 L205,874 L361,929 M700,700 L700,294 Q700,155 614,73.5 Q528,-8 381,-8 Q233,-8 145.5,73.5 Q58,155 58,294 L58,700 L236,700 L236,294 Q236,224 276.5,182.5 Q317,141 382,141 Q446,141 484.5,182 Q523,223 523,294 L523,700"/> 
            <glyph glyph-name="Ú" unicode="&#xDA;" horiz-adv-x="700" d=" M555,874 L425,761 L293,761 L399,929 M700,700 L700,294 Q700,155 614,73.5 Q528,-8 381,-8 Q233,-8 145.5,73.5 Q58,155 58,294 L58,700 L236,700 L236,294 Q236,224 276.5,182.5 Q317,141 382,141 Q446,141 484.5,182 Q523,223 523,294 L523,700"/> 
            <glyph glyph-name="Û" unicode="&#xDB;" horiz-adv-x="700" d=" M562,771 L438,771 L380,856 L322,771 L198,771 L311,922 L449,922 M700,700 L700,294 Q700,155 614,73.5 Q528,-8 381,-8 Q233,-8 145.5,73.5 Q58,155 58,294 L58,700 L236,700 L236,294 Q236,224 276.5,182.5 Q317,141 382,141 Q446,141 484.5,182 Q523,223 523,294 L523,700"/> 
            <glyph glyph-name="Ü" unicode="&#xDC;" horiz-adv-x="700" d=" M250,930 Q318,930 340,908 Q362,886 362,852 Q362,818 340,796.5 Q318,775 284,775 Q250,775 228,796.5 Q206,818 206,852 Q206,886 250,930 M443,930 Q511,930 533,908 Q555,886 555,852 Q555,818 533,796.5 Q511,775 477,775 Q443,775 421,796.5 Q399,818 399,852 Q399,886 443,930 M700,700 L700,294 Q700,155 614,73.5 Q528,-8 381,-8 Q233,-8 145.5,73.5 Q58,155 58,294 L58,700 L236,700 L236,294 Q236,224 276.5,182.5 Q317,141 382,141 Q446,141 484.5,182 Q523,223 523,294 L523,700"/> 
            <glyph glyph-name="Ý" unicode="&#xDD;" horiz-adv-x="685" d=" M385,761 L253,761 L359,929 L515,874 M431,226 L431,0 L254,0 L254,221 L-5,700 L173,700 L342,395 L507,700 L685,700"/> 
            <glyph glyph-name="Þ" unicode="&#xDE;" horiz-adv-x="666" d=" M248,608 L370,608 Q509,608 587.5,544 Q666,480 666,367 Q666,248 587,180 Q508,112 370,112 L248,112 L248,0 L70,0 L70,700 L248,700 M248,248 L363,248 Q421,248 452.5,277.5 Q484,307 484,362 Q484,415 452.5,443.5 Q421,472 363,472 L248,472"/> 
            <glyph glyph-name="ß" unicode="&#xDF;" horiz-adv-x="629" d=" M329,750 Q445,750 516,695.5 Q587,641 587,550 Q587,498 561,452.5 Q535,407 491,383 Q553,366 591,321.5 Q629,277 629,214 Q629,118 553,59 Q477,0 351,0 L302,0 L302,123 L343,123 Q400,123 431,147.5 Q462,172 462,215 Q462,259 428,282 Q394,305 331,305 L313,305 L313,427 Q365,427 392.5,452.5 Q420,478 420,525 Q420,571 396.5,595.5 Q373,620 330,620 Q282,620 256,590 Q230,560 230,504 L230,0 L58,0 L58,492 Q58,610 131,680 Q204,750 329,750"/> 
            <glyph glyph-name="à" unicode="&#xE0;" horiz-adv-x="546" d=" M255,600 L125,713 L281,768 L387,600 M311,547 Q422,547 483.5,495.5 Q545,444 546,352 L546,0 L377,0 L377,62 Q324,-8 212,-8 Q127,-8 77,39 Q27,86 27,161 Q27,238 80.5,280.5 Q134,323 234,324 L376,324 L376,332 Q376,372 349.5,394.5 Q323,417 271,417 Q198,417 110,372 L61,486 Q192,547 311,547 M265,109 Q306,109 337,129.5 Q368,150 376,183 L376,231 L267,231 Q189,231 189,173 Q189,143 209,126 Q229,109 265,109"/> 
            <glyph glyph-name="á" unicode="&#xE1;" horiz-adv-x="546" d=" M345,600 L213,600 L319,768 L475,713 M311,547 Q422,547 483.5,495.5 Q545,444 546,352 L546,0 L377,0 L377,62 Q324,-8 212,-8 Q127,-8 77,39 Q27,86 27,161 Q27,238 80.5,280.5 Q134,323 234,324 L376,324 L376,332 Q376,372 349.5,394.5 Q323,417 271,417 Q198,417 110,372 L61,486 Q192,547 311,547 M265,109 Q306,109 337,129.5 Q368,150 376,183 L376,231 L267,231 Q189,231 189,173 Q189,143 209,126 Q229,109 265,109"/> 
            <glyph glyph-name="â" unicode="&#xE2;" horiz-adv-x="546" d=" M241,610 L117,610 L230,761 L368,761 L481,610 L357,610 L299,695 M311,547 Q422,547 483.5,495.5 Q545,444 546,352 L546,0 L377,0 L377,62 Q324,-8 212,-8 Q127,-8 77,39 Q27,86 27,161 Q27,238 80.5,280.5 Q134,323 234,324 L376,324 L376,332 Q376,372 349.5,394.5 Q323,417 271,417 Q198,417 110,372 L61,486 Q192,547 311,547 M265,109 Q306,109 337,129.5 Q368,150 376,183 L376,231 L267,231 Q189,231 189,173 Q189,143 209,126 Q229,109 265,109"/> 
            <glyph glyph-name="ã" unicode="&#xE3;" horiz-adv-x="546" d=" M257,664 Q227,664 227,621 L121,621 Q121,777 226,777 Q259,777 295,753.5 Q331,730 341,730 Q372,730 372,772 L477,772 Q477,617 373,617 Q338,617 303,640.5 Q268,664 257,664 M311,547 Q422,547 483.5,495.5 Q545,444 546,352 L546,0 L377,0 L377,62 Q324,-8 212,-8 Q127,-8 77,39 Q27,86 27,161 Q27,238 80.5,280.5 Q134,323 234,324 L376,324 L376,332 Q376,372 349.5,394.5 Q323,417 271,417 Q198,417 110,372 L61,486 Q192,547 311,547 M265,109 Q306,109 337,129.5 Q368,150 376,183 L376,231 L267,231 Q189,231 189,173 Q189,143 209,126 Q229,109 265,109"/> 
            <glyph glyph-name="ä" unicode="&#xE4;" horiz-adv-x="546" d=" M237,614 Q169,614 147,635.5 Q125,657 125,691 Q125,725 147,747 Q169,769 203,769 Q237,769 259,747 Q281,725 281,691 Q281,657 237,614 M430,614 Q362,614 340,635.5 Q318,657 318,691 Q318,725 340,747 Q362,769 396,769 Q430,769 452,747 Q474,725 474,691 Q474,657 430,614 M311,547 Q422,547 483.5,495.5 Q545,444 546,352 L546,0 L377,0 L377,62 Q324,-8 212,-8 Q127,-8 77,39 Q27,86 27,161 Q27,238 80.5,280.5 Q134,323 234,324 L376,324 L376,332 Q376,372 349.5,394.5 Q323,417 271,417 Q198,417 110,372 L61,486 Q192,547 311,547 M265,109 Q306,109 337,129.5 Q368,150 376,183 L376,231 L267,231 Q189,231 189,173 Q189,143 209,126 Q229,109 265,109"/> 
            <glyph glyph-name="å" unicode="&#xE5;" horiz-adv-x="546" d=" M349,574 Q249,574 213.5,609 Q178,644 178,694 Q178,744 213.5,779 Q249,814 299,814 Q349,814 384.5,779 Q420,744 420,694 Q420,644 349,574 M321,746 Q277,746 261.5,730.5 Q246,715 246,694 Q246,672 261.5,657 Q277,642 299,642 Q321,642 336.5,657 Q352,672 352,694 Q352,715 321,746 M311,547 Q422,547 483.5,495.5 Q545,444 546,352 L546,0 L377,0 L377,62 Q324,-8 212,-8 Q127,-8 77,39 Q27,86 27,161 Q27,238 80.5,280.5 Q134,323 234,324 L376,324 L376,332 Q376,372 349.5,394.5 Q323,417 271,417 Q198,417 110,372 L61,486 Q192,547 311,547 M265,109 Q306,109 337,129.5 Q368,150 376,183 L376,231 L267,231 Q189,231 189,173 Q189,143 209,126 Q229,109 265,109"/> 
            <glyph glyph-name="æ" unicode="&#xE6;" horiz-adv-x="949" d=" M663,545 Q797,545 873,459.5 Q949,374 942,232 L554,232 Q564,180 598,151.5 Q632,123 682,123 Q757,123 812,178 L903,89 Q816,-6 667,-6 Q512,-6 444,107 Q379,-8 223,-8 Q132,-8 79.5,37.5 Q27,83 27,159 Q27,235 81,275.5 Q135,316 235,317 L379,317 L379,332 Q379,372 351.5,394.5 Q324,417 273,417 Q196,417 101,372 L61,488 Q197,547 312,547 Q430,547 494,488 Q560,545 663,545 M552,315 L769,315 Q769,365 740,397 Q711,429 664,429 Q620,429 590,397.5 Q560,366 552,315 M266,104 Q342,104 379,173 L379,235 L270,235 Q232,235 210.5,219 Q189,203 189,173 Q189,141 210,122.5 Q231,104 266,104 M420,158 L420,161 L415,162"/> 
            <glyph glyph-name="ç" unicode="&#xE7;" horiz-adv-x="547" d=" M421,193 L547,119 Q489,16 357,-2 L332,-51 Q363,-59 381.5,-80.5 Q400,-102 400,-132 Q400,-179 365,-207 Q330,-235 275,-235 Q226,-235 180,-204 L212,-133 Q234,-153 261,-153 Q280,-153 291.5,-142.5 Q303,-132 303,-116 Q303,-100 291,-90 Q279,-80 257,-80 Q245,-80 221,-84 L260,-3 Q152,10 88,83 Q24,156 24,268 Q24,392 101.5,468.5 Q179,545 304,545 Q384,545 446.5,513.5 Q509,482 544,424 L420,349 Q380,405 311,405 Q261,405 229.5,367.5 Q198,330 198,269 Q198,207 229,169.5 Q260,132 311,132 Q387,132 421,193"/> 
            <glyph glyph-name="è" unicode="&#xE8;" horiz-adv-x="586" d=" M257,600 L127,713 L283,768 L389,600 M305,545 Q445,545 515.5,459 Q586,373 577,223 L198,223 Q211,175 244,149 Q277,123 325,123 Q399,123 454,178 L545,89 Q458,-6 310,-6 Q179,-6 101.5,69 Q24,144 24,268 Q24,393 101.5,469 Q179,545 305,545 M195,316 L411,316 Q411,365 382.5,395 Q354,425 307,425 Q263,425 233,395.5 Q203,366 195,316"/> 
            <glyph glyph-name="é" unicode="&#xE9;" horiz-adv-x="586" d=" M346,600 L214,600 L320,768 L476,713 M305,545 Q445,545 515.5,459 Q586,373 577,223 L198,223 Q211,175 244,149 Q277,123 325,123 Q399,123 454,178 L545,89 Q458,-6 310,-6 Q179,-6 101.5,69 Q24,144 24,268 Q24,393 101.5,469 Q179,545 305,545 M195,316 L411,316 Q411,365 382.5,395 Q354,425 307,425 Q263,425 233,395.5 Q203,366 195,316"/> 
            <glyph glyph-name="ê" unicode="&#xEA;" horiz-adv-x="586" d=" M243,609 L119,609 L232,760 L370,760 L483,609 L359,609 L301,694 M305,545 Q445,545 515.5,459 Q586,373 577,223 L198,223 Q211,175 244,149 Q277,123 325,123 Q399,123 454,178 L545,89 Q458,-6 310,-6 Q179,-6 101.5,69 Q24,144 24,268 Q24,393 101.5,469 Q179,545 305,545 M195,316 L411,316 Q411,365 382.5,395 Q354,425 307,425 Q263,425 233,395.5 Q203,366 195,316"/> 
            <glyph glyph-name="ë" unicode="&#xEB;" horiz-adv-x="586" d=" M239,614 Q171,614 149,635.5 Q127,657 127,691 Q127,725 149,747 Q171,769 205,769 Q239,769 261,747 Q283,725 283,691 Q283,657 239,614 M432,614 Q364,614 342,635.5 Q320,657 320,691 Q320,725 342,747 Q364,769 398,769 Q432,769 454,747 Q476,725 476,691 Q476,657 432,614 M305,545 Q445,545 515.5,459 Q586,373 577,223 L198,223 Q211,175 244,149 Q277,123 325,123 Q399,123 454,178 L545,89 Q458,-6 310,-6 Q179,-6 101.5,69 Q24,144 24,268 Q24,393 101.5,469 Q179,545 305,545 M195,316 L411,316 Q411,365 382.5,395 Q354,425 307,425 Q263,425 233,395.5 Q203,366 195,316"/> 
            <glyph glyph-name="ì" unicode="&#xEC;" horiz-adv-x="244" d=" M244,600 L112,600 L-18,713 L138,768 M241,0 L69,0 L69,539 L241,539"/> 
            <glyph glyph-name="í" unicode="&#xED;" horiz-adv-x="331" d=" M331,713 L201,600 L69,600 L175,768 M241,0 L69,0 L69,539 L241,539"/> 
            <glyph glyph-name="î" unicode="&#xEE;" horiz-adv-x="338" d=" M338,610 L214,610 L156,695 L98,610 L-26,610 L87,761 L225,761 M241,0 L69,0 L69,539 L241,539"/> 
            <glyph glyph-name="ï" unicode="&#xEF;" horiz-adv-x="331" d=" M26,769 Q94,769 116,747 Q138,725 138,691 Q138,657 116,635.5 Q94,614 60,614 Q26,614 4,635.5 Q-18,657 -18,691 Q-18,725 26,769 M219,769 Q287,769 309,747 Q331,725 331,691 Q331,657 309,635.5 Q287,614 253,614 Q219,614 197,635.5 Q175,657 175,691 Q175,725 219,769 M241,0 L69,0 L69,539 L241,539"/> 
            <glyph glyph-name="ð" unicode="&#xF0;" horiz-adv-x="580" d=" M550,625 L452,592 Q580,453 580,284 Q580,151 499,71.5 Q418,-8 283,-8 Q164,-8 93,56 Q22,120 22,226 Q22,326 84,385.5 Q146,445 249,445 Q299,445 342.5,429 Q386,413 410,385 Q383,465 303,542 L140,488 L114,568 L227,606 Q167,649 102,679 L218,749 Q310,712 380,657 L523,705 M290,135 Q339,135 367.5,161.5 Q396,188 396,232 Q396,276 367.5,303 Q339,330 290,330 Q243,330 215,304 Q187,278 187,234 Q187,189 215,162 Q243,135 290,135"/> 
            <glyph glyph-name="ñ" unicode="&#xF1;" horiz-adv-x="619" d=" M311,664 Q281,664 281,621 L175,621 Q175,777 280,777 Q313,777 349,753.5 Q385,730 395,730 Q426,730 426,772 L531,772 Q531,617 427,617 Q392,617 357,640.5 Q322,664 311,664 M422,547 Q511,547 565,490.5 Q619,434 619,340 L619,0 L447,0 L447,292 Q447,339 421.5,366.5 Q396,394 352,394 Q306,394 276.5,364 Q247,334 242,285 L242,0 L69,0 L69,539 L242,539 L242,451 Q299,545 422,547"/> 
            <glyph glyph-name="ò" unicode="&#xF2;" horiz-adv-x="613" d=" M407,600 L275,600 L145,713 L301,768 M319,545 Q451,545 532,469.5 Q613,394 613,270 Q613,146 532,70 Q451,-6 319,-6 Q186,-6 105,70 Q24,146 24,270 Q24,394 105,469.5 Q186,545 319,545 M319,408 Q265,408 231.5,369 Q198,330 198,268 Q198,205 231.5,166.5 Q265,128 319,128 Q372,128 405.5,166.5 Q439,205 439,268 Q439,330 405.5,369 Q372,408 319,408"/> 
            <glyph glyph-name="ó" unicode="&#xF3;" horiz-adv-x="613" d=" M494,713 L364,600 L232,600 L338,768 M319,545 Q451,545 532,469.5 Q613,394 613,270 Q613,146 532,70 Q451,-6 319,-6 Q186,-6 105,70 Q24,146 24,270 Q24,394 105,469.5 Q186,545 319,545 M319,408 Q265,408 231.5,369 Q198,330 198,268 Q198,205 231.5,166.5 Q265,128 319,128 Q372,128 405.5,166.5 Q439,205 439,268 Q439,330 405.5,369 Q372,408 319,408"/> 
            <glyph glyph-name="ô" unicode="&#xF4;" horiz-adv-x="613" d=" M501,609 L377,609 L319,694 L261,609 L137,609 L250,760 L388,760 M319,545 Q451,545 532,469.5 Q613,394 613,270 Q613,146 532,70 Q451,-6 319,-6 Q186,-6 105,70 Q24,146 24,270 Q24,394 105,469.5 Q186,545 319,545 M319,408 Q265,408 231.5,369 Q198,330 198,268 Q198,205 231.5,166.5 Q265,128 319,128 Q372,128 405.5,166.5 Q439,205 439,268 Q439,330 405.5,369 Q372,408 319,408"/> 
            <glyph glyph-name="õ" unicode="&#xF5;" horiz-adv-x="613" d=" M245,777 Q278,777 314,753.5 Q350,730 360,730 Q391,730 391,772 L496,772 Q496,617 392,617 Q358,617 322,640.5 Q286,664 276,664 Q246,664 246,621 L140,621 Q140,777 245,777 M319,545 Q451,545 532,469.5 Q613,394 613,270 Q613,146 532,70 Q451,-6 319,-6 Q186,-6 105,70 Q24,146 24,270 Q24,394 105,469.5 Q186,545 319,545 M319,408 Q265,408 231.5,369 Q198,330 198,268 Q198,205 231.5,166.5 Q265,128 319,128 Q372,128 405.5,166.5 Q439,205 439,268 Q439,330 405.5,369 Q372,408 319,408"/> 
            <glyph glyph-name="ö" unicode="&#xF6;" horiz-adv-x="613" d=" M189,769 Q257,769 279,747 Q301,725 301,691 Q301,657 279,635.5 Q257,614 223,614 Q189,614 167,635.5 Q145,657 145,691 Q145,725 189,769 M382,769 Q450,769 472,747 Q494,725 494,691 Q494,657 472,635.5 Q450,614 416,614 Q382,614 360,635.5 Q338,657 338,691 Q338,725 382,769 M319,545 Q451,545 532,469.5 Q613,394 613,270 Q613,146 532,70 Q451,-6 319,-6 Q186,-6 105,70 Q24,146 24,270 Q24,394 105,469.5 Q186,545 319,545 M319,408 Q265,408 231.5,369 Q198,330 198,268 Q198,205 231.5,166.5 Q265,128 319,128 Q372,128 405.5,166.5 Q439,205 439,268 Q439,330 405.5,369 Q372,408 319,408"/> 
            <glyph glyph-name="÷" unicode="&#xF7;" horiz-adv-x="477" d=" M247,584 Q282,584 303.5,562 Q325,540 325,506 Q325,472 303,450.5 Q281,429 247,429 Q213,429 191,450.5 Q169,472 169,506 Q169,540 191,562 Q213,584 247,584 M477,272 L33,272 L33,381 L477,381 M213,227 Q281,227 303,205 Q325,183 325,149 Q325,115 303,93 Q281,71 247,71 Q213,71 191,93 Q169,115 169,149 Q169,183 213,227"/> 
            <glyph glyph-name="ø" unicode="&#xF8;" horiz-adv-x="613" d=" M485,671 L438,526 Q520,497 566.5,430 Q613,363 613,270 Q613,146 532,70 Q451,-6 319,-6 Q292,-6 266,-3 L221,-142 L150,-142 L200,13 Q118,42 71,109.5 Q24,177 24,270 Q24,394 105,469.5 Q186,545 319,545 Q346,545 372,542 L414,671 M187,268 Q187,180 241,139 L333,421 L319,422 Q260,422 223.5,379.5 Q187,337 187,268 M304,115 L319,114 Q378,114 414,156 Q450,198 450,268 Q450,353 396,397"/> 
            <glyph glyph-name="ù" unicode="&#xF9;" horiz-adv-x="594" d=" M283,600 L153,713 L309,768 L415,600 M594,539 L594,0 L421,0 L421,89 Q366,-7 246,-7 Q158,-7 105.5,49 Q53,105 53,199 L53,539 L226,539 L226,248 Q226,200 250.5,172.5 Q275,145 316,145 Q365,146 393,181.5 Q421,217 421,273 L421,539"/> 
            <glyph glyph-name="ú" unicode="&#xFA;" horiz-adv-x="594" d=" M372,600 L240,600 L346,768 L502,713 M594,539 L594,0 L421,0 L421,89 Q366,-7 246,-7 Q158,-7 105.5,49 Q53,105 53,199 L53,539 L226,539 L226,248 Q226,200 250.5,172.5 Q275,145 316,145 Q365,146 393,181.5 Q421,217 421,273 L421,539"/> 
            <glyph glyph-name="û" unicode="&#xFB;" horiz-adv-x="594" d=" M269,610 L145,610 L258,761 L396,761 L509,610 L385,610 L327,695 M594,539 L594,0 L421,0 L421,89 Q366,-7 246,-7 Q158,-7 105.5,49 Q53,105 53,199 L53,539 L226,539 L226,248 Q226,200 250.5,172.5 Q275,145 316,145 Q365,146 393,181.5 Q421,217 421,273 L421,539"/> 
            <glyph glyph-name="ü" unicode="&#xFC;" horiz-adv-x="594" d=" M265,614 Q197,614 175,635.5 Q153,657 153,691 Q153,725 175,747 Q197,769 231,769 Q265,769 287,747 Q309,725 309,691 Q309,657 265,614 M458,614 Q390,614 368,635.5 Q346,657 346,691 Q346,725 368,747 Q390,769 424,769 Q458,769 480,747 Q502,725 502,691 Q502,657 458,614 M594,539 L594,0 L421,0 L421,89 Q366,-7 246,-7 Q158,-7 105.5,49 Q53,105 53,199 L53,539 L226,539 L226,248 Q226,200 250.5,172.5 Q275,145 316,145 Q365,146 393,181.5 Q421,217 421,273 L421,539"/> 
            <glyph glyph-name="ý" unicode="&#xFD;" horiz-adv-x="587" d=" M466,713 L336,600 L204,600 L310,768 M587,539 L354,-56 Q294,-202 146,-202 Q60,-202 -11,-147 L61,-29 Q97,-58 132,-58 Q178,-58 199,-15 L212,12 L-12,539 L166,539 L298,181 L415,539"/> 
            <glyph glyph-name="þ" unicode="&#xFE;" horiz-adv-x="661" d=" M408,545 Q522,545 591.5,468.5 Q661,392 661,267 Q661,144 593,69 Q525,-6 412,-6 Q306,-6 247,72 L247,-194 L74,-194 L74,742 L247,742 L247,468 Q307,545 408,545 M366,131 Q420,131 453.5,170.5 Q487,210 487,272 Q487,334 453.5,373 Q420,412 366,412 Q314,412 280.5,373 Q247,334 247,272 Q247,209 280,170 Q313,131 366,131"/> 
            <glyph glyph-name="ÿ" unicode="&#xFF;" horiz-adv-x="587" d=" M161,769 Q229,769 251,747 Q273,725 273,691 Q273,657 251,635.5 Q229,614 195,614 Q161,614 139,635.5 Q117,657 117,691 Q117,725 161,769 M354,769 Q422,769 444,747 Q466,725 466,691 Q466,657 444,635.5 Q422,614 388,614 Q354,614 332,635.5 Q310,657 310,691 Q310,725 354,769 M587,539 L354,-56 Q294,-202 146,-202 Q60,-202 -11,-147 L61,-29 Q97,-58 132,-58 Q178,-58 199,-15 L212,12 L-12,539 L166,539 L298,181 L415,539"/> 
            <glyph glyph-name="Ā" unicode="&#x100;" horiz-adv-x="775" d=" M524,793 L246,793 L246,909 L524,909 M535,129 L229,129 L178,0 L-5,0 L297,700 L480,700 L775,0 L585,0 M483,264 L383,523 L281,264"/> 
            <glyph glyph-name="ā" unicode="&#x101;" horiz-adv-x="546" d=" M438,632 L160,632 L160,748 L438,748 M311,547 Q422,547 483.5,495.5 Q545,444 546,352 L546,0 L377,0 L377,62 Q324,-8 212,-8 Q127,-8 77,39 Q27,86 27,161 Q27,238 80.5,280.5 Q134,323 234,324 L376,324 L376,332 Q376,372 349.5,394.5 Q323,417 271,417 Q198,417 110,372 L61,486 Q192,547 311,547 M265,109 Q306,109 337,129.5 Q368,150 376,183 L376,231 L267,231 Q189,231 189,173 Q189,143 209,126 Q229,109 265,109"/> 
            <glyph glyph-name="Ă" unicode="&#x102;" horiz-adv-x="775" d=" M456,762 Q314,762 269.5,805 Q225,848 221,920 L329,920 Q331,894 346.5,878 Q362,862 385,862 Q408,862 423.5,878 Q439,894 441,920 L549,920 Q545,848 456,762 M535,129 L229,129 L178,0 L-5,0 L297,700 L480,700 L775,0 L585,0 M483,264 L383,523 L281,264"/> 
            <glyph glyph-name="ă" unicode="&#x103;" horiz-adv-x="546" d=" M370,601 Q228,601 183.5,644 Q139,687 135,759 L243,759 Q245,733 260.5,717 Q276,701 299,701 Q322,701 337.5,717 Q353,733 355,759 L463,759 Q459,687 370,601 M311,547 Q422,547 483.5,495.5 Q545,444 546,352 L546,0 L377,0 L377,62 Q324,-8 212,-8 Q127,-8 77,39 Q27,86 27,161 Q27,238 80.5,280.5 Q134,323 234,324 L376,324 L376,332 Q376,372 349.5,394.5 Q323,417 271,417 Q198,417 110,372 L61,486 Q192,547 311,547 M265,109 Q306,109 337,129.5 Q368,150 376,183 L376,231 L267,231 Q189,231 189,173 Q189,143 209,126 Q229,109 265,109"/> 
            <glyph glyph-name="Ą" unicode="&#x104;" horiz-adv-x="789" d=" M775,0 L724,0 Q681,-63 681,-92 Q681,-116 702,-116 Q724,-116 745,-85 L789,-136 Q750,-203 681,-203 Q646,-203 619.5,-183 Q593,-163 593,-120 Q593,-72 641,0 L586,0 L535,129 L230,129 L178,0 L-5,0 L297,701 L480,701 M281,264 L485,264 L384,523"/> 
            <glyph glyph-name="ą" unicode="&#x105;" horiz-adv-x="573" d=" M313,547 Q424,547 486,495.5 Q548,444 549,352 L549,0 L508,0 Q464,-64 464,-92 Q464,-116 486,-116 Q508,-116 529,-85 L573,-136 Q534,-203 465,-203 Q430,-203 403.5,-183 Q377,-163 377,-120 Q377,-68 425,0 L379,0 L379,62 Q326,-8 213,-8 Q127,-8 77,39 Q27,86 27,161 Q27,238 81,280.5 Q135,323 235,324 L379,324 L379,333 Q376,417 272,417 Q200,417 110,372 L61,486 Q192,547 313,547 M379,231 L268,231 Q189,231 189,173 Q189,144 209.5,126.5 Q230,109 266,109 Q306,109 338.5,130 Q371,151 379,181"/> 
            <glyph glyph-name="Ć" unicode="&#x106;" horiz-adv-x="681" d=" M559,874 L429,761 L297,761 L403,929 M398,706 Q476,706 551.5,674 Q627,642 680,588 L577,466 Q543,508 495.5,532.5 Q448,557 401,557 Q318,557 262,498.5 Q206,440 206,354 Q206,266 262,207 Q318,148 401,148 Q445,148 492.5,170 Q540,192 577,230 L681,120 Q624,62 546.5,27 Q469,-8 392,-8 Q234,-8 129,95 Q24,198 24,352 Q24,503 131,604.5 Q238,706 398,706"/> 
            <glyph glyph-name="ć" unicode="&#x107;" horiz-adv-x="547" d=" M468,713 L338,600 L206,600 L312,768 M304,545 Q384,545 446.5,513.5 Q509,482 544,424 L420,349 Q380,405 311,405 Q261,405 229.5,367.5 Q198,330 198,269 Q198,207 229,169.5 Q260,132 311,132 Q387,132 421,193 L547,119 Q514,59 450.5,26.5 Q387,-6 302,-6 Q177,-6 100.5,69.5 Q24,145 24,268 Q24,392 101.5,468.5 Q179,545 304,545"/> 
            <glyph glyph-name="Č" unicode="&#x10C;" horiz-adv-x="681" d=" M183,922 L318,922 L379,830 L440,922 L575,922 L454,758 L304,758 M398,706 Q476,706 551.5,674 Q627,642 680,588 L577,466 Q543,508 495.5,532.5 Q448,557 401,557 Q318,557 262,498.5 Q206,440 206,354 Q206,266 262,207 Q318,148 401,148 Q445,148 492.5,170 Q540,192 577,230 L681,120 Q624,62 546.5,27 Q469,-8 392,-8 Q234,-8 129,95 Q24,198 24,352 Q24,503 131,604.5 Q238,706 398,706"/> 
            <glyph glyph-name="č" unicode="&#x10D;" horiz-adv-x="547" d=" M93,760 L228,760 L289,668 L350,760 L485,760 L364,596 L214,596 M304,545 Q384,545 446.5,513.5 Q509,482 544,424 L420,349 Q380,405 311,405 Q261,405 229.5,367.5 Q198,330 198,269 Q198,207 229,169.5 Q260,132 311,132 Q387,132 421,193 L547,119 Q514,59 450.5,26.5 Q387,-6 302,-6 Q177,-6 100.5,69.5 Q24,145 24,268 Q24,392 101.5,468.5 Q179,545 304,545"/> 
            <glyph glyph-name="Ď" unicode="&#x10E;" horiz-adv-x="743" d=" M158,922 L293,922 L354,830 L415,922 L550,922 L429,758 L279,758 M70,700 L371,700 Q536,700 639.5,603 Q743,506 743,350 Q743,195 638,97.5 Q533,0 364,0 L70,0 M248,558 L248,142 L375,142 Q457,142 509.5,199.5 Q562,257 562,349 Q562,441 507,499.5 Q452,558 367,558"/> 
            <glyph glyph-name="ď" unicode="&#x10F;" horiz-adv-x="827" d=" M439,742 L612,742 L612,0 L439,0 L439,71 Q380,-7 277,-7 Q163,-7 94,70 Q25,147 25,272 Q25,396 93,471 Q161,546 273,546 Q380,546 439,468 M745,677 Q780,677 803.5,655 Q827,633 827,595 Q827,563 805,529 L732,423 L650,423 L695,530 Q662,552 662,595 Q662,631 685.5,654 Q709,677 745,677 M265,127 Q373,127 406,166 Q439,205 439,268 Q439,330 406,369 Q373,408 319,408 Q265,408 232,369.5 Q199,331 198,268 Q199,205 265,127"/> 
            <glyph glyph-name="Đ" unicode="&#x110;" horiz-adv-x="743" d=" M497,793 L219,793 L219,909 L497,909 M70,700 L371,700 Q536,700 639.5,603 Q743,506 743,350 Q743,195 638,97.5 Q533,0 364,0 L70,0 M248,558 L248,142 L375,142 Q457,142 509.5,199.5 Q562,257 562,349 Q562,441 507,499.5 Q452,558 367,558"/> 
            <glyph glyph-name="đ" unicode="&#x111;" horiz-adv-x="677" d=" M677,595 L612,595 L612,0 L439,0 L439,71 Q380,-7 277,-7 Q163,-7 94,70 Q25,147 25,272 Q25,396 93,471 Q161,546 273,546 Q380,546 439,468 L439,595 L354,595 L354,684 L439,684 L439,742 L612,742 L612,684 L677,684 M265,127 Q373,127 406,166 Q439,205 439,268 Q439,330 406,369 Q373,408 319,408 Q265,408 232,369.5 Q199,331 198,268 Q199,205 265,127"/> 
            <glyph glyph-name="Ē" unicode="&#x112;" horiz-adv-x="629" d=" M485,793 L207,793 L207,909 L485,909 M618,560 L248,560 L248,421 L582,421 L582,281 L248,281 L248,140 L629,140 L629,0 L70,0 L70,700 L618,700"/> 
            <glyph glyph-name="ē" unicode="&#x113;" horiz-adv-x="586" d=" M440,632 L162,632 L162,748 L440,748 M305,545 Q445,545 515.5,459 Q586,373 577,223 L198,223 Q211,175 244,149 Q277,123 325,123 Q399,123 454,178 L545,89 Q458,-6 310,-6 Q179,-6 101.5,69 Q24,144 24,268 Q24,393 101.5,469 Q179,545 305,545 M195,316 L411,316 Q411,365 382.5,395 Q354,425 307,425 Q263,425 233,395.5 Q203,366 195,316"/> 
            <glyph glyph-name="Ė" unicode="&#x116;" horiz-adv-x="629" d=" M306,946 Q386,946 411.5,920.5 Q437,895 437,855 Q437,815 411.5,789 Q386,763 346,763 Q306,763 280.5,789 Q255,815 255,855 Q255,895 306,946 M618,560 L248,560 L248,421 L582,421 L582,281 L248,281 L248,140 L629,140 L629,0 L70,0 L70,700 L618,700"/> 
            <glyph glyph-name="ė" unicode="&#x117;" horiz-adv-x="586" d=" M341,602 Q261,602 235.5,628 Q210,654 210,694 Q210,734 235.5,759.5 Q261,785 301,785 Q341,785 366.5,759.5 Q392,734 392,694 Q392,654 341,602 M305,545 Q445,545 515.5,459 Q586,373 577,223 L198,223 Q211,175 244,149 Q277,123 325,123 Q399,123 454,178 L545,89 Q458,-6 310,-6 Q179,-6 101.5,69 Q24,144 24,268 Q24,393 101.5,469 Q179,545 305,545 M195,316 L411,316 Q411,365 382.5,395 Q354,425 307,425 Q263,425 233,395.5 Q203,366 195,316"/> 
            <glyph glyph-name="Ę" unicode="&#x118;" horiz-adv-x="633" d=" M623,564 L248,564 L248,421 L587,421 L587,285 L248,285 L248,136 L633,136 L633,0 L562,0 Q519,-62 519,-92 Q519,-116 540,-116 Q562,-116 583,-85 L628,-136 Q587,-203 519,-203 Q484,-203 458,-183 Q432,-163 432,-120 Q432,-70 479,0 L70,0 L70,700 L623,700"/> 
            <glyph glyph-name="ę" unicode="&#x119;" horiz-adv-x="587" d=" M306,545 Q443,546 515,459.5 Q587,373 577,223 L199,223 Q212,175 244.5,148.5 Q277,122 325,122 Q398,122 454,178 L545,89 Q436,-36 436,-91 Q436,-116 457,-116 Q478,-116 499,-85 L543,-136 Q504,-203 436,-203 Q401,-203 374.5,-182.5 Q348,-162 348,-119 Q348,-60 404,17 Q359,-6 308,-6 Q179,-6 102,69 Q25,144 25,269 Q25,392 100.5,468 Q176,544 306,545 M308,425 Q263,425 232.5,395 Q202,365 195,316 L411,316 Q411,364 382.5,394.5 Q354,425 308,425"/> 
            <glyph glyph-name="Ě" unicode="&#x11A;" horiz-adv-x="629" d=" M146,922 L281,922 L342,830 L403,922 L538,922 L417,758 L267,758 M618,560 L248,560 L248,421 L582,421 L582,281 L248,281 L248,140 L629,140 L629,0 L70,0 L70,700 L618,700"/> 
            <glyph glyph-name="ě" unicode="&#x11B;" horiz-adv-x="586" d=" M221,596 L100,760 L235,760 L296,668 L357,760 L492,760 L371,596 M305,545 Q445,545 515.5,459 Q586,373 577,223 L198,223 Q211,175 244,149 Q277,123 325,123 Q399,123 454,178 L545,89 Q458,-6 310,-6 Q179,-6 101.5,69 Q24,144 24,268 Q24,393 101.5,469 Q179,545 305,545 M195,316 L411,316 Q411,365 382.5,395 Q354,425 307,425 Q263,425 233,395.5 Q203,366 195,316"/> 
            <glyph glyph-name="Ğ" unicode="&#x11E;" horiz-adv-x="696" d=" M463,762 Q321,762 276.5,805 Q232,848 228,920 L336,920 Q338,894 353.5,878 Q369,862 392,862 Q415,862 430.5,878 Q446,894 448,920 L556,920 Q552,848 463,762 M535,356 L689,356 L689,83 Q632,43 551.5,17.5 Q471,-8 398,-8 Q238,-8 131,94.5 Q24,197 24,350 Q24,502 134,604 Q244,706 410,706 Q488,706 565,678 Q642,650 696,602 L596,481 Q558,516 508,536.5 Q458,557 409,557 Q323,557 264.5,497.5 Q206,438 206,350 Q206,261 265,201 Q324,141 411,141 Q467,141 535,175"/> 
            <glyph glyph-name="ğ" unicode="&#x11F;" horiz-adv-x="584" d=" M395,601 Q253,601 208.5,644 Q164,687 160,759 L268,759 Q270,733 285.5,717 Q301,701 324,701 Q347,701 362.5,717 Q378,733 380,759 L488,759 Q484,687 395,601 M584,539 L584,49 Q584,-65 503.5,-133 Q423,-201 292,-201 Q158,-201 52,-130 L112,-13 Q190,-67 279,-67 Q341,-67 376.5,-37 Q412,-7 412,44 L412,101 Q357,29 257,29 Q154,29 89.5,101 Q25,173 25,290 Q25,404 88,474.5 Q151,545 253,545 Q356,546 412,473 L412,539 M300,154 Q350,154 381,190.5 Q412,227 412,285 Q412,344 381,380.5 Q350,417 300,417 Q249,417 217.5,380.5 Q186,344 186,285 Q186,227 217.5,190.5 Q249,154 300,154"/> 
            <glyph glyph-name="Ģ" unicode="&#x122;" horiz-adv-x="696" d=" M535,356 L689,356 L689,83 Q632,43 551.5,17.5 Q471,-8 398,-8 Q238,-8 131,94.5 Q24,197 24,350 Q24,502 134,604 Q244,706 410,706 Q488,706 565,678 Q642,650 696,602 L596,481 Q558,516 508,536.5 Q458,557 409,557 Q323,557 264.5,497.5 Q206,438 206,350 Q206,261 265,201 Q324,141 411,141 Q467,141 535,175 M398,-41 Q433,-41 456.5,-63 Q480,-85 480,-123 Q480,-157 458,-189 L385,-295 L303,-295 L348,-189 Q315,-166 315,-124 Q315,-87 338.5,-64 Q362,-41 398,-41"/> 
            <glyph glyph-name="ģ" unicode="&#x123;" horiz-adv-x="584" d=" M317,580 Q282,580 258.5,602 Q235,624 235,662 Q235,696 257,728 L330,834 L412,834 L367,728 Q400,705 400,663 Q400,626 376.5,603 Q353,580 317,580 M584,539 L584,49 Q584,-65 503.5,-133 Q423,-201 292,-201 Q158,-201 52,-130 L112,-13 Q190,-67 279,-67 Q341,-67 376.5,-37 Q412,-7 412,44 L412,101 Q357,29 257,29 Q154,29 89.5,101 Q25,173 25,290 Q25,404 88,474.5 Q151,545 253,545 Q356,546 412,473 L412,539 M300,154 Q350,154 381,190.5 Q412,227 412,285 Q412,344 381,380.5 Q350,417 300,417 Q249,417 217.5,380.5 Q186,344 186,285 Q186,227 217.5,190.5 Q249,154 300,154"/> 
            <glyph glyph-name="ħ" unicode="&#x127;" horiz-adv-x="625" d=" M428,547 Q517,547 571,490.5 Q625,434 625,340 L625,0 L452,0 L452,292 Q452,339 426.5,366.5 Q401,394 357,394 Q307,394 277,358 Q247,322 247,266 L247,0 L74,0 L74,576 L-5,576 L-5,670 L74,670 L74,742 L247,742 L247,670 L365,670 L365,576 L247,576 L247,450 Q304,545 428,547"/> 
            <glyph glyph-name="Ĩ" unicode="&#x128;" horiz-adv-x="337" d=" M86,938 Q119,938 155,914.5 Q191,891 201,891 Q232,891 232,933 L337,933 Q337,778 233,778 Q198,778 163,801.5 Q128,825 117,825 Q87,825 87,782 L-19,782 Q-19,938 86,938 M248,0 L70,0 L70,700 L248,700"/> 
            <glyph glyph-name="ĩ" unicode="&#x129;" horiz-adv-x="333" d=" M82,777 Q115,777 151,753.5 Q187,730 197,730 Q228,730 228,772 L333,772 Q333,617 229,617 Q195,617 159.5,640.5 Q124,664 113,664 Q83,664 83,621 L-23,621 Q-23,777 82,777 M241,0 L69,0 L69,539 L241,539"/> 
            <glyph glyph-name="Ī" unicode="&#x12A;" horiz-adv-x="298" d=" M298,793 L20,793 L20,909 L298,909 M248,0 L70,0 L70,700 L248,700"/> 
            <glyph glyph-name="ī" unicode="&#x12B;" horiz-adv-x="294" d=" M294,632 L16,632 L16,748 L294,748 M241,0 L69,0 L69,539 L241,539"/> 
            <glyph glyph-name="Į" unicode="&#x12E;" horiz-adv-x="275" d=" M231,-85 L275,-136 Q236,-203 167,-203 Q132,-203 105.5,-183 Q79,-163 79,-120 Q79,-70 126,0 L70,0 L70,701 L248,701 L248,0 L210,0 Q166,-64 166,-92 Q166,-116 187,-116 Q210,-116 231,-85"/> 
            <glyph glyph-name="į" unicode="&#x12F;" horiz-adv-x="257" d=" M106,785 Q186,785 212,759.5 Q238,734 238,693 Q238,653 212,627.5 Q186,602 146,602 Q106,602 80,627.5 Q54,653 54,693 Q54,733 106,785 M232,0 L192,0 Q148,-64 148,-92 Q148,-116 170,-116 Q192,-116 213,-85 L257,-136 Q218,-203 149,-203 Q113,-203 87,-183 Q61,-163 61,-120 Q61,-70 108,0 L60,0 L60,539 L232,539"/> 
            <glyph glyph-name="İ" unicode="&#x130;" horiz-adv-x="250" d=" M119,946 Q199,946 224.5,920.5 Q250,895 250,855 Q250,815 224.5,789 Q199,763 159,763 Q119,763 93.5,789 Q68,815 68,855 Q68,895 119,946 M248,0 L70,0 L70,700 L248,700"/> 
            <glyph glyph-name="ı" unicode="&#x131;" horiz-adv-x="241" d=" M241,0 L69,0 L69,539 L241,539"/> 
            <glyph glyph-name="Ĳ" unicode="&#x132;" horiz-adv-x="796" d=" M796,701 L796,227 Q796,116 731.5,54 Q667,-8 554,-8 Q411,-8 313,104 L395,223 Q470,145 542,145 Q617,145 617,231 L617,557 L377,557 L377,701 M248,0 L70,0 L70,700 L248,700"/> 
            <glyph glyph-name="ĳ" unicode="&#x133;" horiz-adv-x="566" d=" M116,785 Q196,785 221.5,759.5 Q247,734 247,694 Q247,654 221.5,628 Q196,602 156,602 Q116,602 90.5,628 Q65,654 65,694 Q65,734 116,785 M425,785 Q511,785 538.5,759.5 Q566,734 566,693 Q566,653 538.5,627.5 Q511,602 468,602 Q425,602 397.5,627.5 Q370,653 370,693 Q370,733 425,785 M241,0 L69,0 L69,539 L241,539 M555,539 L555,-16 Q555,-104 500,-153 Q445,-202 359,-201 Q280,-201 224,-166 L268,-45 Q300,-64 329,-64 Q354,-65 368,-50 Q382,-35 382,-5 L382,539"/> 
            <glyph glyph-name="Ĵ" unicode="&#x134;" horiz-adv-x="478" d=" M448,771 L324,771 L266,856 L208,771 L84,771 L197,922 L335,922 M478,701 L478,227 Q478,116 413.5,54 Q349,-8 236,-8 Q93,-8 -5,104 L77,223 Q152,145 224,145 Q299,145 299,231 L299,557 L59,557 L59,701"/> 
            <glyph glyph-name="ĵ" unicode="&#x135;" horiz-adv-x="333" d=" M333,610 L209,610 L151,695 L93,610 L-31,610 L82,761 L220,761 M244,539 L244,-20 Q244,-105 192.5,-153.5 Q141,-202 53,-201 Q-29,-199 -90,-166 L-50,-47 Q-17,-66 14,-66 Q42,-67 56.5,-49 Q71,-31 71,5 L71,539"/> 
            <glyph glyph-name="Ķ" unicode="&#x136;" horiz-adv-x="739" d=" M739,0 L526,0 L341,275 L248,172 L248,0 L70,0 L70,700 L248,700 L248,397 L516,700 L722,700 L462,410 M370,-41 Q405,-41 428.5,-63 Q452,-85 452,-123 Q452,-157 430,-189 L357,-295 L275,-295 L320,-189 Q287,-166 287,-124 Q287,-87 310.5,-64 Q334,-41 370,-41"/> 
            <glyph glyph-name="ķ" unicode="&#x137;" horiz-adv-x="627" d=" M305,208 L247,147 L247,0 L201,0 L175,-49 Q205,-57 224,-78.5 Q243,-100 243,-128 Q243,-176 209,-205 Q175,-234 117,-234 Q68,-234 24,-203 L55,-132 Q76,-151 102,-151 Q122,-151 134.5,-140 Q147,-129 146,-111 Q146,-94 133.5,-83.5 Q121,-73 101,-73 Q82,-73 66,-76 L104,0 L74,0 L74,742 L247,742 L247,350 L425,539 L621,539 L423,332 L627,0 L422,0"/> 
            <glyph glyph-name="ĸ" unicode="&#x138;" horiz-adv-x="621" d=" M299,208 L241,147 L241,0 L69,0 L69,539 L241,539 L241,350 L419,539 L615,539 L417,332 L621,0 L416,0"/> 
            <glyph glyph-name="Ĺ" unicode="&#x139;" horiz-adv-x="545" d=" M331,874 L201,761 L69,761 L175,929 M248,149 L545,149 L545,0 L70,0 L70,700 L248,700"/> 
            <glyph glyph-name="ĺ" unicode="&#x13A;" horiz-adv-x="336" d=" M336,916 L206,803 L74,803 L180,971 M247,0 L74,0 L74,742 L247,742"/> 
            <glyph glyph-name="Ļ" unicode="&#x13B;" horiz-adv-x="545" d=" M545,149 L545,0 L70,0 L70,700 L248,700 L248,149 M297,-41 Q332,-41 355.5,-63 Q379,-85 379,-123 Q379,-157 357,-189 L284,-295 L202,-295 L247,-189 Q214,-166 214,-124 Q214,-87 237.5,-64 Q261,-41 297,-41"/> 
            <glyph glyph-name="ļ" unicode="&#x13C;" horiz-adv-x="250" d=" M247,0 L74,0 L74,742 L247,742 M168,-41 Q203,-41 226.5,-63 Q250,-85 250,-123 Q250,-157 228,-189 L155,-295 L73,-295 L118,-189 Q85,-166 85,-124 Q85,-87 108.5,-64 Q132,-41 168,-41"/> 
            <glyph glyph-name="Ľ" unicode="&#x13D;" horiz-adv-x="545" d=" M545,149 L545,0 L70,0 L70,700 L248,700 L248,149 M356,415 L401,522 Q368,544 368,587 Q368,623 391.5,646 Q415,669 451,669 Q486,669 509.5,647 Q533,625 533,587 Q533,555 511,521 L438,415"/> 
            <glyph glyph-name="ľ" unicode="&#x13E;" horiz-adv-x="447" d=" M74,742 L247,742 L247,0 L74,0 M365,677 Q400,677 423.5,655 Q447,633 447,595 Q447,563 425,529 L352,423 L270,423 L315,530 Q282,552 282,595 Q282,631 305.5,654 Q329,677 365,677"/> 
            <glyph glyph-name="Ŀ" unicode="&#x13F;" horiz-adv-x="545" d=" M248,149 L545,149 L545,0 L70,0 L70,700 L248,700 M413,562 Q449,562 472.5,539 Q496,516 496,480 Q496,444 472.5,421 Q449,398 413,398 Q378,398 355,421 Q332,444 332,480 Q332,516 355,539 Q378,562 413,562"/> 
            <glyph glyph-name="ŀ" unicode="&#x140;" horiz-adv-x="429" d=" M247,0 L74,0 L74,742 L247,742 M347,395 Q383,395 406,372 Q429,349 429,312 Q429,275 406,252 Q383,229 347,229 Q310,229 287,252 Q264,275 264,312 Q264,349 287,372 Q310,395 347,395"/> 
            <glyph glyph-name="Ł" unicode="&#x141;" horiz-adv-x="564" d=" M564,149 L564,0 L89,0 L89,333 L16,312 L-13,416 L89,446 L89,700 L267,700 L267,497 L411,539 L440,434 L267,384 L267,149"/> 
            <glyph glyph-name="ł" unicode="&#x142;" horiz-adv-x="379" d=" M268,402 L268,0 L95,0 L95,352 L-4,324 L-34,428 L95,465 L95,742 L268,742 L268,515 L350,539 L379,434"/> 
            <glyph glyph-name="Ń" unicode="&#x143;" horiz-adv-x="716" d=" M569,874 L439,761 L307,761 L413,929 M716,0 L559,0 L237,431 L237,0 L70,0 L70,700 L227,700 L550,268 L550,700 L716,700"/> 
            <glyph glyph-name="ń" unicode="&#x144;" horiz-adv-x="619" d=" M399,600 L267,600 L373,768 L529,713 M422,547 Q511,547 565,490.5 Q619,434 619,340 L619,0 L447,0 L447,292 Q447,339 421.5,366.5 Q396,394 352,394 Q306,394 276.5,364 Q247,334 242,285 L242,0 L69,0 L69,539 L242,539 L242,451 Q299,545 422,547"/> 
            <glyph glyph-name="Ņ" unicode="&#x145;" horiz-adv-x="716" d=" M716,700 L716,0 L559,0 L237,431 L237,0 L70,0 L70,700 L227,700 L550,268 L550,700 M400,-41 Q435,-41 458.5,-63 Q482,-85 482,-123 Q482,-157 460,-189 L387,-295 L305,-295 L350,-189 Q317,-166 317,-124 Q317,-87 340.5,-64 Q364,-41 400,-41"/> 
            <glyph glyph-name="ņ" unicode="&#x146;" horiz-adv-x="619" d=" M422,547 Q511,547 565,490.5 Q619,434 619,340 L619,0 L447,0 L447,292 Q447,339 421.5,366.5 Q396,394 352,394 Q306,394 276.5,364 Q247,334 242,285 L242,0 L69,0 L69,539 L242,539 L242,451 Q299,545 422,547 M348,-41 Q383,-41 406.5,-63 Q430,-85 430,-123 Q430,-157 408,-189 L335,-295 L253,-295 L298,-189 Q265,-166 265,-124 Q265,-87 288.5,-64 Q312,-41 348,-41"/> 
            <glyph glyph-name="Ň" unicode="&#x147;" horiz-adv-x="716" d=" M193,922 L328,922 L389,830 L450,922 L585,922 L464,758 L314,758 M716,0 L559,0 L237,431 L237,0 L70,0 L70,700 L227,700 L550,268 L550,700 L716,700"/> 
            <glyph glyph-name="ň" unicode="&#x148;" horiz-adv-x="619" d=" M274,597 L153,761 L288,761 L349,669 L410,761 L545,761 L424,597 M422,547 Q511,547 565,490.5 Q619,434 619,340 L619,0 L447,0 L447,292 Q447,339 421.5,366.5 Q396,394 352,394 Q306,394 276.5,364 Q247,334 242,285 L242,0 L69,0 L69,539 L242,539 L242,451 Q299,545 422,547"/> 
            <glyph glyph-name="Ō" unicode="&#x14C;" horiz-adv-x="781" d=" M534,793 L256,793 L256,909 L534,909 M402,706 Q565,706 673,604.5 Q781,503 781,351 Q781,198 672.5,95 Q564,-8 402,-8 Q240,-8 132,94.5 Q24,197 24,351 Q24,504 132,605 Q240,706 402,706 M404,557 Q322,557 264,497.5 Q206,438 206,350 Q206,262 264.5,201.5 Q323,141 404,141 Q485,141 541.5,201.5 Q598,262 598,350 Q598,438 541.5,497.5 Q485,557 404,557"/> 
            <glyph glyph-name="ō" unicode="&#x14D;" horiz-adv-x="613" d=" M457,632 L179,632 L179,748 L457,748 M319,545 Q451,545 532,469.5 Q613,394 613,270 Q613,146 532,70 Q451,-6 319,-6 Q186,-6 105,70 Q24,146 24,270 Q24,394 105,469.5 Q186,545 319,545 M319,408 Q265,408 231.5,369 Q198,330 198,268 Q198,205 231.5,166.5 Q265,128 319,128 Q372,128 405.5,166.5 Q439,205 439,268 Q439,330 405.5,369 Q372,408 319,408"/> 
            <glyph glyph-name="Ő" unicode="&#x150;" horiz-adv-x="781" d=" M437,883 L347,760 L221,760 L306,931 M631,883 L541,760 L415,760 L500,931 M402,706 Q565,706 673,604.5 Q781,503 781,351 Q781,198 672.5,95 Q564,-8 402,-8 Q240,-8 132,94.5 Q24,197 24,351 Q24,504 132,605 Q240,706 402,706 M404,557 Q322,557 264,497.5 Q206,438 206,350 Q206,262 264.5,201.5 Q323,141 404,141 Q485,141 541.5,201.5 Q598,262 598,350 Q598,438 541.5,497.5 Q485,557 404,557"/> 
            <glyph glyph-name="ő" unicode="&#x151;" horiz-adv-x="613" d=" M361,721 L271,598 L145,598 L230,769 M555,721 L465,598 L339,598 L424,769 M319,545 Q451,545 532,469.5 Q613,394 613,270 Q613,146 532,70 Q451,-6 319,-6 Q186,-6 105,70 Q24,146 24,270 Q24,394 105,469.5 Q186,545 319,545 M319,408 Q265,408 231.5,369 Q198,330 198,268 Q198,205 231.5,166.5 Q265,128 319,128 Q372,128 405.5,166.5 Q439,205 439,268 Q439,330 405.5,369 Q372,408 319,408"/> 
            <glyph glyph-name="Œ" unicode="&#x152;" horiz-adv-x="1068" d=" M1068,140 L1068,0 L401,0 Q240,0 132,99.5 Q24,199 24,349 Q24,499 131.5,600 Q239,701 401,701 L1058,701 L1058,560 L687,560 L687,421 L1021,421 L1021,282 L687,282 L687,140 M509,144 L509,554 L402,554 Q318,554 262,495 Q206,436 206,348 Q206,260 262,201.5 Q318,143 402,143"/> 
            <glyph glyph-name="œ" unicode="&#x153;" horiz-adv-x="1001" d=" M715,545 Q849,545 925,459.5 Q1001,374 994,232 L603,232 Q614,180 648.5,151.5 Q683,123 734,123 Q808,123 865,178 L956,89 Q867,-6 719,-6 Q587,-6 521,84 Q452,-6 319,-6 Q186,-6 105,70 Q24,146 24,270 Q24,394 105,469.5 Q186,545 319,545 Q453,545 522,454 Q586,545 715,545 M602,315 L822,315 Q822,365 792.5,397 Q763,429 716,429 Q671,429 640.5,397.5 Q610,366 602,315 M319,128 Q372,128 405.5,166.5 Q439,205 439,268 Q439,330 405.5,369 Q372,408 319,408 Q265,408 231.5,369 Q198,330 198,268 Q198,205 231.5,166.5 Q265,128 319,128"/> 
            <glyph glyph-name="Ŕ" unicode="&#x154;" horiz-adv-x="694" d=" M409,761 L277,761 L383,929 L539,874 M492,0 L388,197 L383,197 L248,197 L248,0 L70,0 L70,700 L383,700 Q522,700 598,636.5 Q674,573 674,456 Q674,294 547,231 L694,0 M248,337 L383,337 Q441,337 473,366 Q505,395 505,450 Q505,504 473,532 Q441,560 383,560 L248,560"/> 
            <glyph glyph-name="ŕ" unicode="&#x155;" horiz-adv-x="417" d=" M270,600 L138,600 L244,768 L400,713 M242,539 L242,448 Q299,545 417,547 L417,391 Q343,398 296,366.5 Q249,335 242,277 L242,0 L69,0 L69,539"/> 
            <glyph glyph-name="Ŗ" unicode="&#x156;" horiz-adv-x="694" d=" M694,0 L492,0 L388,197 L383,197 L248,197 L248,0 L70,0 L70,700 L383,700 Q522,700 598,636.5 Q674,573 674,456 Q674,294 547,231 M248,337 L383,337 Q441,337 473,366 Q505,395 505,450 Q505,504 473,532 Q441,560 383,560 L248,560 M366,-41 Q401,-41 424.5,-63 Q448,-85 448,-123 Q448,-157 426,-189 L353,-295 L271,-295 L316,-189 Q283,-166 283,-124 Q283,-87 306.5,-64 Q330,-41 366,-41"/> 
            <glyph glyph-name="ŗ" unicode="&#x157;" horiz-adv-x="417" d=" M242,539 L242,448 Q299,545 417,547 L417,391 Q343,398 296,366.5 Q249,335 242,277 L242,0 L69,0 L69,539 M157,-41 Q192,-41 215.5,-63 Q239,-85 239,-123 Q239,-157 217,-189 L144,-295 L62,-295 L107,-189 Q74,-166 74,-124 Q74,-87 97.5,-64 Q121,-41 157,-41"/> 
            <glyph glyph-name="Ř" unicode="&#x158;" horiz-adv-x="694" d=" M284,758 L163,922 L298,922 L359,830 L420,922 L555,922 L434,758 M492,0 L388,197 L383,197 L248,197 L248,0 L70,0 L70,700 L383,700 Q522,700 598,636.5 Q674,573 674,456 Q674,294 547,231 L694,0 M248,337 L383,337 Q441,337 473,366 Q505,395 505,450 Q505,504 473,532 Q441,560 383,560 L248,560"/> 
            <glyph glyph-name="ř" unicode="&#x159;" horiz-adv-x="417" d=" M145,597 L24,761 L159,761 L220,669 L281,761 L416,761 L295,597 M242,539 L242,448 Q299,545 417,547 L417,391 Q343,398 296,366.5 Q249,335 242,277 L242,0 L69,0 L69,539"/> 
            <glyph glyph-name="Ś" unicode="&#x15A;" horiz-adv-x="617" d=" M515,874 L385,761 L253,761 L359,929 M339,708 Q496,708 615,630 L548,491 Q493,523 430,543.5 Q367,564 324,564 Q247,564 247,513 Q247,480 285,460 Q323,440 377.5,425.5 Q432,411 486.5,390.5 Q541,370 579,324 Q617,278 617,208 Q617,107 538,50.5 Q459,-6 337,-6 Q250,-6 165,24 Q80,54 17,106 L86,243 Q139,197 211,167.5 Q283,138 339,138 Q382,138 406,153.5 Q430,169 430,199 Q430,228 402.5,247.5 Q375,267 334,276.5 Q293,286 245,302 Q197,318 156,337 Q115,356 87.5,397.5 Q60,439 60,497 Q60,593 136.5,650.5 Q213,708 339,708"/> 
            <glyph glyph-name="ś" unicode="&#x15B;" horiz-adv-x="485" d=" M441,713 L311,600 L179,600 L285,768 M262,547 Q381,547 484,486 L425,374 Q325,428 255,428 Q202,428 202,391 Q202,371 231,357.5 Q260,344 302,333 Q344,322 385.5,305.5 Q427,289 456,253 Q485,217 485,165 Q485,84 422,38.5 Q359,-7 258,-7 Q115,-7 16,69 L71,179 Q166,112 262,112 Q321,112 321,149 Q321,170 292.5,184 Q264,198 223,209 Q182,220 141,236.5 Q100,253 71.5,288 Q43,323 43,376 Q43,457 104,502 Q165,547 262,547"/> 
            <glyph glyph-name="Ş" unicode="&#x15E;" horiz-adv-x="617" d=" M617,208 Q617,120 556.5,65.5 Q496,11 398,-2 L373,-51 Q404,-59 422.5,-80.5 Q441,-102 441,-132 Q441,-179 406,-207 Q371,-235 316,-235 Q267,-235 221,-204 L253,-133 Q275,-153 302,-153 Q321,-153 332.5,-142.5 Q344,-132 344,-116 Q344,-100 332,-90 Q320,-80 298,-80 Q286,-80 262,-84 L300,-5 Q221,2 147,31 Q73,60 17,106 L86,243 Q139,197 211,167.5 Q283,138 339,138 Q382,138 406,153.5 Q430,169 430,199 Q430,228 402.5,247.5 Q375,267 334,276.5 Q293,286 245,302 Q197,318 156,337 Q115,356 87.5,397.5 Q60,439 60,497 Q60,593 136.5,650.5 Q213,708 339,708 Q496,708 615,630 L548,491 Q493,523 430,543.5 Q367,564 324,564 Q247,564 247,513 Q247,480 285,460 Q323,440 377.5,425.5 Q432,411 486.5,390.5 Q541,370 579,324 Q617,278 617,208"/> 
            <glyph glyph-name="ş" unicode="&#x15F;" horiz-adv-x="485" d=" M202,391 Q202,371 231,357.5 Q260,344 302,333 Q344,322 385.5,305.5 Q427,289 456,253 Q485,217 485,165 Q485,98 441,55 Q397,12 322,-2 L297,-51 Q328,-59 346.5,-80.5 Q365,-102 365,-132 Q365,-179 330,-207 Q295,-235 240,-235 Q191,-235 145,-204 L177,-133 Q199,-153 226,-153 Q245,-153 256.5,-142.5 Q268,-132 268,-116 Q268,-100 256,-90 Q244,-80 222,-80 Q210,-80 186,-84 L224,-6 Q101,3 16,69 L71,179 Q166,112 262,112 Q321,112 321,149 Q321,170 292.5,184 Q264,198 223,209 Q182,220 141,236.5 Q100,253 71.5,288 Q43,323 43,376 Q43,457 104,502 Q165,547 262,547 Q381,547 484,486 L425,374 Q325,428 255,428 Q202,428 202,391"/> 
            <glyph glyph-name="Š" unicode="&#x160;" horiz-adv-x="617" d=" M139,922 L274,922 L335,830 L396,922 L531,922 L410,758 L260,758 M339,708 Q496,708 615,630 L548,491 Q493,523 430,543.5 Q367,564 324,564 Q247,564 247,513 Q247,480 285,460 Q323,440 377.5,425.5 Q432,411 486.5,390.5 Q541,370 579,324 Q617,278 617,208 Q617,107 538,50.5 Q459,-6 337,-6 Q250,-6 165,24 Q80,54 17,106 L86,243 Q139,197 211,167.5 Q283,138 339,138 Q382,138 406,153.5 Q430,169 430,199 Q430,228 402.5,247.5 Q375,267 334,276.5 Q293,286 245,302 Q197,318 156,337 Q115,356 87.5,397.5 Q60,439 60,497 Q60,593 136.5,650.5 Q213,708 339,708"/> 
            <glyph glyph-name="š" unicode="&#x161;" horiz-adv-x="485" d=" M66,761 L201,761 L262,669 L323,761 L458,761 L337,597 L187,597 M262,547 Q381,547 484,486 L425,374 Q325,428 255,428 Q202,428 202,391 Q202,371 231,357.5 Q260,344 302,333 Q344,322 385.5,305.5 Q427,289 456,253 Q485,217 485,165 Q485,84 422,38.5 Q359,-7 258,-7 Q115,-7 16,69 L71,179 Q166,112 262,112 Q321,112 321,149 Q321,170 292.5,184 Q264,198 223,209 Q182,220 141,236.5 Q100,253 71.5,288 Q43,323 43,376 Q43,457 104,502 Q165,547 262,547"/> 
            <glyph glyph-name="Ţ" unicode="&#x162;" horiz-adv-x="605" d=" M361,0 L335,-51 Q366,-59 384.5,-80.5 Q403,-102 403,-132 Q403,-179 368,-207 Q333,-235 278,-235 Q229,-235 183,-204 L215,-133 Q237,-153 264,-153 Q283,-153 294.5,-142.5 Q306,-132 306,-116 Q306,-100 294,-90 Q282,-80 260,-80 Q248,-80 224,-84 L264,0 L216,0 L216,557 L7,557 L7,701 L605,701 L605,557 L394,557 L394,0"/> 
            <glyph glyph-name="ţ" unicode="&#x163;" horiz-adv-x="417" d=" M325,-3 L301,-51 Q332,-59 350.5,-80.5 Q369,-102 369,-132 Q369,-179 334,-207 Q299,-235 244,-235 Q195,-235 149,-204 L181,-133 Q203,-153 230,-153 Q249,-153 260.5,-142.5 Q272,-132 272,-116 Q272,-100 260,-90 Q248,-80 226,-80 Q214,-80 190,-84 L228,-4 Q166,8 130,51 Q94,94 94,163 L94,401 L19,401 L19,514 L94,514 L94,664 L266,664 L266,515 L407,515 L407,401 L266,401 L266,190 Q266,159 278.5,144.5 Q291,130 316,131 Q340,131 383,149 L417,29 Q374,4 325,-3"/> 
            <glyph glyph-name="Ť" unicode="&#x164;" horiz-adv-x="605" d=" M117,922 L252,922 L313,830 L374,922 L509,922 L388,758 L238,758 M605,557 L394,557 L394,0 L216,0 L216,557 L7,557 L7,701 L605,701"/> 
            <glyph glyph-name="ť" unicode="&#x165;" horiz-adv-x="484" d=" M402,833 Q437,833 460.5,811 Q484,789 484,751 Q484,719 462,685 L389,579 L307,579 L352,686 Q319,708 319,751 Q319,787 342.5,810 Q366,833 402,833 M316,131 Q340,131 383,149 L417,29 Q354,-8 273,-8 Q193,-8 143.5,36.5 Q94,81 94,163 L94,401 L19,401 L19,514 L94,514 L94,664 L266,664 L266,515 L407,515 L407,401 L266,401 L266,190 Q266,159 278.5,144.5 Q291,130 316,131"/> 
            <glyph glyph-name="Ū" unicode="&#x16A;" horiz-adv-x="700" d=" M518,793 L240,793 L240,909 L518,909 M700,700 L700,294 Q700,155 614,73.5 Q528,-8 381,-8 Q233,-8 145.5,73.5 Q58,155 58,294 L58,700 L236,700 L236,294 Q236,224 276.5,182.5 Q317,141 382,141 Q446,141 484.5,182 Q523,223 523,294 L523,700"/> 
            <glyph glyph-name="ū" unicode="&#x16B;" horiz-adv-x="594" d=" M466,632 L188,632 L188,748 L466,748 M594,539 L594,0 L421,0 L421,89 Q366,-7 246,-7 Q158,-7 105.5,49 Q53,105 53,199 L53,539 L226,539 L226,248 Q226,200 250.5,172.5 Q275,145 316,145 Q365,146 393,181.5 Q421,217 421,273 L421,539"/> 
            <glyph glyph-name="Ů" unicode="&#x16E;" horiz-adv-x="700" d=" M329,975 Q429,975 464.5,940 Q500,905 500,855 Q500,805 464.5,770 Q429,735 379,735 Q329,735 293.5,770 Q258,805 258,855 Q258,905 329,975 M401,907 Q357,907 341.5,891.5 Q326,876 326,855 Q326,833 341.5,818 Q357,803 379,803 Q401,803 416.5,818 Q432,833 432,855 Q432,876 401,907 M700,700 L700,294 Q700,155 614,73.5 Q528,-8 381,-8 Q233,-8 145.5,73.5 Q58,155 58,294 L58,700 L236,700 L236,294 Q236,224 276.5,182.5 Q317,141 382,141 Q446,141 484.5,182 Q523,223 523,294 L523,700"/> 
            <glyph glyph-name="ů" unicode="&#x16F;" horiz-adv-x="594" d=" M377,574 Q277,574 241.5,609 Q206,644 206,694 Q206,744 241.5,779 Q277,814 327,814 Q377,814 412.5,779 Q448,744 448,694 Q448,644 377,574 M349,746 Q305,746 289.5,730.5 Q274,715 274,694 Q274,672 289.5,657 Q305,642 327,642 Q349,642 364.5,657 Q380,672 380,694 Q380,715 349,746 M594,539 L594,0 L421,0 L421,89 Q366,-7 246,-7 Q158,-7 105.5,49 Q53,105 53,199 L53,539 L226,539 L226,248 Q226,200 250.5,172.5 Q275,145 316,145 Q365,146 393,181.5 Q421,217 421,273 L421,539"/> 
            <glyph glyph-name="Ű" unicode="&#x170;" horiz-adv-x="700" d=" M422,883 L332,760 L206,760 L291,931 M616,883 L526,760 L400,760 L485,931 M700,700 L700,294 Q700,155 614,73.5 Q528,-8 381,-8 Q233,-8 145.5,73.5 Q58,155 58,294 L58,700 L236,700 L236,294 Q236,224 276.5,182.5 Q317,141 382,141 Q446,141 484.5,182 Q523,223 523,294 L523,700"/> 
            <glyph glyph-name="ű" unicode="&#x171;" horiz-adv-x="594" d=" M279,599 L153,599 L238,770 L369,722 M347,599 L432,770 L563,722 L473,599 M594,539 L594,0 L421,0 L421,89 Q366,-7 246,-7 Q158,-7 105.5,49 Q53,105 53,199 L53,539 L226,539 L226,248 Q226,200 250.5,172.5 Q275,145 316,145 Q365,146 393,181.5 Q421,217 421,273 L421,539"/> 
            <glyph glyph-name="Ų" unicode="&#x172;" horiz-adv-x="701" d=" M701,701 L701,294 Q701,188 649.5,114 Q598,40 505,10 Q455,-63 455,-92 Q455,-116 476,-116 Q498,-116 519,-85 L563,-136 Q524,-203 455,-203 Q420,-203 393.5,-183 Q367,-163 367,-120 Q367,-70 410,-7 L381,-8 Q233,-8 145.5,73.5 Q58,155 58,294 L58,701 L235,701 L235,294 Q235,224 276,182.5 Q317,141 382,141 Q446,141 484.5,182 Q523,223 523,294 L523,701"/> 
            <glyph glyph-name="ų" unicode="&#x173;" horiz-adv-x="621" d=" M598,0 L556,0 Q512,-62 512,-92 Q512,-116 534,-116 Q556,-116 577,-85 L621,-136 Q582,-203 513,-203 Q478,-203 451.5,-183 Q425,-163 425,-120 Q425,-70 472,0 L426,0 L426,89 Q370,-7 249,-7 Q160,-7 107,49 Q54,105 54,199 L54,539 L226,539 L226,248 Q226,200 251,172.5 Q276,145 320,145 Q366,146 394.5,178 Q423,210 426,262 L426,539 L598,539"/> 
            <glyph glyph-name="Ŵ" unicode="&#x174;" horiz-adv-x="1088" d=" M696,771 L572,771 L514,856 L456,771 L332,771 L445,922 L583,922 M857,0 L674,0 L544,484 L412,0 L228,0 L-1,700 L189,700 L326,185 L460,700 L634,700 L771,185 L906,700 L1088,700"/> 
            <glyph glyph-name="ŵ" unicode="&#x175;" horiz-adv-x="944" d=" M651,610 L527,610 L469,695 L411,610 L287,610 L400,761 L538,761 M747,0 L576,0 L470,342 L364,0 L192,0 L-5,539 L171,539 L282,166 L390,539 L555,539 L666,166 L775,539 L944,539"/> 
            <glyph glyph-name="Ŷ" unicode="&#x176;" horiz-adv-x="685" d=" M282,771 L158,771 L271,922 L409,922 L522,771 L398,771 L340,856 M431,226 L431,0 L254,0 L254,221 L-5,700 L173,700 L342,395 L507,700 L685,700"/> 
            <glyph glyph-name="ŷ" unicode="&#x177;" horiz-adv-x="587" d=" M473,610 L349,610 L291,695 L233,610 L109,610 L222,761 L360,761 M587,539 L354,-56 Q294,-202 146,-202 Q60,-202 -11,-147 L61,-29 Q97,-58 132,-58 Q178,-58 199,-15 L212,12 L-12,539 L166,539 L298,181 L415,539"/> 
            <glyph glyph-name="Ÿ" unicode="&#x178;" horiz-adv-x="685" d=" M278,775 Q210,775 188,796.5 Q166,818 166,852 Q166,886 188,908 Q210,930 244,930 Q278,930 300,908 Q322,886 322,852 Q322,818 278,775 M471,775 Q403,775 381,796.5 Q359,818 359,852 Q359,886 381,908 Q403,930 437,930 Q471,930 493,908 Q515,886 515,852 Q515,818 471,775 M431,226 L431,0 L254,0 L254,221 L-5,700 L173,700 L342,395 L507,700 L685,700"/> 
            <glyph glyph-name="Ź" unicode="&#x179;" horiz-adv-x="646" d=" M528,874 L398,761 L266,761 L372,929 M640,586 L266,141 L646,141 L646,0 L28,0 L28,114 L403,559 L41,559 L41,700 L640,700"/> 
            <glyph glyph-name="ź" unicode="&#x17A;" horiz-adv-x="524" d=" M452,713 L322,600 L190,600 L296,768 M515,435 L251,130 L524,130 L524,0 L34,0 L34,104 L299,409 L44,409 L44,539 L515,539"/> 
            <glyph glyph-name="Ż" unicode="&#x17B;" horiz-adv-x="646" d=" M313,946 Q393,946 418.5,920.5 Q444,895 444,855 Q444,815 418.5,789 Q393,763 353,763 Q313,763 287.5,789 Q262,815 262,855 Q262,895 313,946 M640,586 L266,141 L646,141 L646,0 L28,0 L28,114 L403,559 L41,559 L41,700 L640,700"/> 
            <glyph glyph-name="ż" unicode="&#x17C;" horiz-adv-x="524" d=" M237,785 Q317,785 342.5,759.5 Q368,734 368,694 Q368,654 342.5,628 Q317,602 277,602 Q237,602 211.5,628 Q186,654 186,694 Q186,734 237,785 M515,435 L251,130 L524,130 L524,0 L34,0 L34,104 L299,409 L44,409 L44,539 L515,539"/> 
            <glyph glyph-name="Ž" unicode="&#x17D;" horiz-adv-x="646" d=" M152,922 L287,922 L348,830 L409,922 L544,922 L423,758 L273,758 M640,586 L266,141 L646,141 L646,0 L28,0 L28,114 L403,559 L41,559 L41,700 L640,700"/> 
            <glyph glyph-name="ž" unicode="&#x17E;" horiz-adv-x="524" d=" M76,760 L211,760 L272,668 L333,760 L468,760 L347,596 L197,596 M515,435 L251,130 L524,130 L524,0 L34,0 L34,104 L299,409 L44,409 L44,539 L515,539"/> 
            <glyph glyph-name="ƒ" unicode="&#x192;" horiz-adv-x="484" d=" M364,618 Q334,619 314,600.5 Q294,582 290,550 L280,466 L402,466 L388,355 L266,355 L220,-24 Q209,-106 153,-154.5 Q97,-203 9,-202 Q-66,-200 -113,-163 L-69,-44 Q-43,-67 -11,-67 Q15,-68 31,-49.5 Q47,-31 51,1 L95,355 L22,355 L36,466 L109,466 L122,575 Q132,656 190.5,704.5 Q249,753 337,752 Q425,752 484,713 L426,595 Q399,616 364,618"/> 
            <glyph glyph-name="Ș" unicode="&#x218;" horiz-adv-x="617" d=" M247,513 Q247,480 285,460 Q323,440 377.5,425.5 Q432,411 486.5,390.5 Q541,370 579,324 Q617,278 617,208 Q617,107 538,50.5 Q459,-6 337,-6 Q250,-6 165,24 Q80,54 17,106 L86,243 Q139,197 211,167.5 Q283,138 339,138 Q382,138 406,153.5 Q430,169 430,199 Q430,228 402.5,247.5 Q375,267 334,276.5 Q293,286 245,302 Q197,318 156,337 Q115,356 87.5,397.5 Q60,439 60,497 Q60,593 136.5,650.5 Q213,708 339,708 Q496,708 615,630 L548,491 Q493,523 430,543.5 Q367,564 324,564 Q247,564 247,513 M338,-41 Q373,-41 396.5,-63 Q420,-85 420,-123 Q420,-157 398,-189 L325,-295 L243,-295 L288,-189 Q255,-166 255,-124 Q255,-87 278.5,-64 Q302,-41 338,-41"/> 
            <glyph glyph-name="ș" unicode="&#x219;" horiz-adv-x="485" d=" M202,391 Q202,371 231,357.5 Q260,344 302,333 Q344,322 385.5,305.5 Q427,289 456,253 Q485,217 485,165 Q485,84 422,38.5 Q359,-7 258,-7 Q115,-7 16,69 L71,179 Q166,112 262,112 Q321,112 321,149 Q321,170 292.5,184 Q264,198 223,209 Q182,220 141,236.5 Q100,253 71.5,288 Q43,323 43,376 Q43,457 104,502 Q165,547 262,547 Q381,547 484,486 L425,374 Q325,428 255,428 Q202,428 202,391 M262,-41 Q297,-41 320.5,-63 Q344,-85 344,-123 Q344,-157 322,-189 L249,-295 L167,-295 L212,-189 Q179,-166 179,-124 Q179,-87 202.5,-64 Q226,-41 262,-41"/> 
            <glyph glyph-name="Ț" unicode="&#x21A;" horiz-adv-x="605" d=" M605,701 L605,557 L394,557 L394,0 L216,0 L216,557 L7,557 L7,701 M300,-41 Q335,-41 358.5,-63 Q382,-85 382,-123 Q382,-157 360,-189 L287,-295 L205,-295 L250,-189 Q217,-166 217,-124 Q217,-87 240.5,-64 Q264,-41 300,-41"/> 
            <glyph glyph-name="ț" unicode="&#x21B;" horiz-adv-x="417" d=" M383,149 L417,29 Q354,-8 273,-8 Q193,-8 143.5,36.5 Q94,81 94,163 L94,401 L19,401 L19,514 L94,514 L94,664 L266,664 L266,515 L407,515 L407,401 L266,401 L266,190 Q266,159 278.5,144.5 Q291,130 316,131 Q340,131 383,149 M265,-41 Q300,-41 323.5,-63 Q347,-85 347,-123 Q347,-157 325,-189 L252,-295 L170,-295 L215,-189 Q182,-166 182,-124 Q182,-87 205.5,-64 Q229,-41 265,-41"/> 
            <glyph glyph-name="ȷ" unicode="&#x237;" horiz-adv-x="244" d=" M244,539 L244,-20 Q244,-105 192.5,-153.5 Q141,-202 53,-201 Q-29,-199 -90,-166 L-50,-47 Q-17,-66 14,-66 Q42,-67 56.5,-49 Q71,-31 71,5 L71,539"/> 
            <glyph glyph-name="ˆ" unicode="&#x2C6;" horiz-adv-x="357" d=" M357,611 L233,611 L175,696 L117,611 L-7,611 L106,762 L244,762"/> 
            <glyph glyph-name="ˇ" unicode="&#x2C7;" horiz-adv-x="371" d=" M-21,762 L114,762 L175,670 L236,762 L371,762 L250,598 L100,598"/> 
            <glyph glyph-name="ˉ" unicode="&#x2C9;" horiz-adv-x="314" d=" M314,632 L36,632 L36,748 L314,748"/> 
            <glyph glyph-name="˘" unicode="&#x2D8;" horiz-adv-x="339" d=" M231,759 L339,759 Q335,687 290.5,644 Q246,601 175,601 Q104,601 59.5,644 Q15,687 11,759 L119,759 Q121,733 136.5,717 Q152,701 175,701 Q198,701 213.5,717 Q229,733 231,759"/> 
            <glyph glyph-name="˙" unicode="&#x2D9;" horiz-adv-x="266" d=" M135,785 Q215,785 240.5,759.5 Q266,734 266,694 Q266,654 240.5,628 Q215,602 175,602 Q135,602 109.5,628 Q84,654 84,694 Q84,734 135,785"/> 
            <glyph glyph-name="˚" unicode="&#x2DA;" horiz-adv-x="296" d=" M125,814 Q225,814 260.5,779 Q296,744 296,694 Q296,644 260.5,609 Q225,574 175,574 Q125,574 89.5,609 Q54,644 54,694 Q54,744 125,814 M197,746 Q153,746 137.5,730.5 Q122,715 122,694 Q122,672 137.5,657 Q153,642 175,642 Q197,642 212.5,657 Q228,672 228,694 Q228,715 197,746"/> 
            </font>
</defs>
</svg>
