<?xml version="1.0" standalone="no"?>
<!DOCTYPE svg PUBLIC "-//W3C//DTD SVG 1.1//EN" "http://www.w3.org/Graphics/SVG/1.1/DTD/svg11.dtd" >
<svg xmlns="http://www.w3.org/2000/svg" xmlns:xlink="http://www.w3.org/1999/xlink" version="1.1">
<metadata>
Created by FontForge 20190801 at Fri Jul  3 18:25:50 2020
 By Unknown
No copyright is claimed on this font file.
</metadata>
<defs>
<font id="Gonville-18" horiz-adv-x="286" >
  <font-face 
    font-family="Gonville-18"
    font-weight="400"
    font-stretch="normal"
    units-per-em="1000"
    panose-1="2 0 5 3 0 0 0 0 0 0"
    ascent="800"
    descent="-200"
    x-height="250.151"
    bbox="-510.239 -2141.05 944.872 1967.05"
    underline-thickness="50"
    underline-position="-100"
    unicode-range="U+0020-E1D7"
  />
    <missing-glyph />
    <glyph glyph-name="scripts.sforzato" unicode="&#xe100;" horiz-adv-x="219" 
d="M-206.864 126.181c-8.097 -2.547 -12.998 -10.359 -12.998 -18.381c0 -3.616 0.996 -7.276 3.146 -10.5142c3.6 -5.4 6.015 -6.5842 22.736 -11.0842c7.579 -2.0369 82.658 -22.2158 166.879 -44.8579c84.1736 -22.6421 153.095 -41.2579 153.095 -41.4
c0 -0.142105 -7.389 -2.22632 -16.437 -4.68948c-9.094 -2.41579 -38.5576 -10.3263 -65.5103 -17.5737c-26.9526 -7.2473 -73.3263 -19.7052 -103.026 -27.7105c-166.121 -44.6684 -149.21 -39.979 -152.479 -42.1579c-5.625 -3.7263 -8.443 -9.8071 -8.443 -15.8891
c0 -6.056 2.795 -12.114 8.396 -15.848c3.147 -2.072 6.077 -3.084 9.874 -3.084c3.061 0 6.685 0.658 11.442 1.947c6.726 1.8 56.795 15.253 161.053 43.2952c228.487 61.4132 240.486 64.5269 240.486 65.285c0 0.0889 -0.165 0.1455 -0.165 0.26
c0 0.0702 0.062 0.1623 0.263 0.2971c5.637 3.7421 8.455 9.80522 8.455 15.8684c0 6.06315 -2.818 12.1263 -8.455 15.8684c-3.269 2.1789 13.547 -2.4632 -152.479 42.1579c-53.0053 14.2579 -92.2263 24.7737 -201.6 54.189c-44.145 11.896 -54.989 14.85 -59.974 14.85
c-1.745 0 -2.772 -0.362 -4.258 -0.828z" />
    <glyph glyph-name="scripts.espr" unicode="&#xe101;" horiz-adv-x="460" 
d="M-93.73 113.344c-27.474 -7.39 -74.605 -20.0845 -104.684 -28.1845c-241.973 -65.0491 -253.473 -68.0215 -253.473 -68.8033c0 -0.0821 0.127 -0.1401 0.127 -0.2433c0 -0.0711 -0.061 -0.1638 -0.265 -0.3008c-5.84 -3.8674 -8.574 -9.68265 -8.574 -15.4978
c0 -8.14505 5.363 -16.2898 15.064 -19.0811c37.373 -10.7527 402.916 -108.237 405.852 -108.237c11.7563 0.03 19.0695 9.575 19.0695 19.261c0 5.808 -2.6292 11.6666 -8.5063 15.5551c-3.2684 2.1789 13.6421 -2.5105 -152.479 42.1579
c-29.7 8.0053 -76.074 20.4632 -103.027 27.7105c-26.952 7.2474 -56.416 15.1579 -65.463 17.5737c-9.095 2.46316 -16.484 4.54737 -16.484 4.68948c0 0.142105 10.089 2.93684 22.405 6.25263c12.269 3.31579 44.526 11.9842 71.621 19.279
c27.095 7.2947 73.469 19.7526 103.026 27.7105c148.122 39.7895 137.274 36.8526 139.074 37.9895c6.7514 4.2336 9.8019 10.6847 9.8019 16.9427c0 9.59 -7.1654 18.726 -19.1542 18.726h-0.1688c-3.4105 0 -8.5263 -1.279 -53.7631 -13.5zM33.8331 126.181
c-8.0967 -2.547 -12.9981 -10.359 -12.9981 -18.381c0 -3.616 0.9963 -7.276 3.1455 -10.5142c3.6 -5.4 6.0158 -6.5842 22.7368 -11.0842c7.579 -2.0369 82.6577 -22.2158 166.879 -44.8579c84.174 -22.6421 153.095 -41.2579 153.095 -41.4
c0 -0.142105 -7.389 -2.22632 -16.437 -4.68948c-9.095 -2.41579 -38.558 -10.3263 -65.51 -17.5737c-26.953 -7.2473 -73.327 -19.7052 -103.027 -27.7105c-166.121 -44.6684 -149.21 -39.979 -152.479 -42.1579c-5.625 -3.7263 -8.4435 -9.8071 -8.4435 -15.8891
c0 -6.056 2.7948 -12.114 8.3961 -15.848c3.1473 -2.072 6.0768 -3.084 9.874 -3.084c3.0607 0 6.6851 0.658 11.4418 1.947c6.7263 1.8 56.7952 15.253 161.052 43.2952c228.488 61.4132 240.487 64.5269 240.487 65.285c0 0.0889 -0.165 0.1455 -0.165 0.26
c0 0.0702 0.062 0.1623 0.263 0.2971c5.636 3.7421 8.455 9.80522 8.455 15.8684c0 6.06315 -2.819 12.1263 -8.455 15.8684c-3.269 2.1789 13.547 -2.4632 -152.479 42.1579c-53.006 14.2579 -92.227 24.7737 -201.6 54.189c-44.1443 11.896 -54.9883 14.85 -59.9742 14.85
c-1.7444 0 -2.7718 -0.362 -4.2574 -0.828z" />
    <glyph glyph-name="flags.ugrace" unicode="&#xe102;" horiz-adv-x="315" 
d="M284.263 -253.232c-4.547 -1.184 -7.01 -2.747 -49.784 -31.689c-23.021 -15.584 -62.526 -42.347 -87.821 -59.447c-25.247 -17.1 -67.4527 -45.664 -93.7896 -63.474c-26.2895 -17.811 -68.6368 -46.421 -94.0263 -63.616
c-25.3895 -17.195 -58.3105 -39.505 -73.1841 -49.547c-28.563 -19.279 -30.979 -21.174 -33.869 -26.1c-2.514 -4.304 -3.633 -8.727 -3.633 -12.97c0 -13.599 11.503 -25.343 25.452 -25.343c3.59 0 7.343 0.778 11.103 2.502c1.326 0.569 9 5.542 17.0522 11.037
c8.1 5.447 25.3421 17.147 38.3684 25.958c13.0263 8.81 34.2473 23.163 47.1316 31.879c12.8842 8.763 33.9631 22.974 46.8 31.689c12.7894 8.669 33.8684 22.927 46.7526 31.642c12.8842 8.716 34.0102 23.022 46.8952 31.737c12.884 8.716 34.01 23.021 46.894 31.737
c12.884 8.716 34.058 23.069 47.037 31.832c12.932 8.763 34.105 23.068 46.99 31.784c36.094 24.442 37.752 25.579 40.263 28.137c4.916 4.995 7.055 11.003 7.055 16.925c0 13.309 -10.804 26.187 -25.189 26.187c-2.097 0 -4.271 -0.274 -6.498 -0.86z" />
    <glyph glyph-name="flags.dgrace" unicode="&#xe103;" horiz-adv-x="315" 
d="M-130.684 585.142c-12.71 -2.118 -21.016 -13.351 -21.016 -25.225c0 -4.322 1.1 -8.729 3.489 -12.812c2.89 -4.926 5.306 -6.821 35.527 -27.237c15.7735 -10.61 31.2156 -21.079 34.3419 -23.21c3.1263 -2.132 23.5895 -16.011 45.4737 -30.79
s43.0105 -29.084 46.8947 -31.736c3.9316 -2.653 25.0105 -16.958 46.8948 -31.737c21.8842 -14.779 43.0109 -29.084 46.8949 -31.737c3.931 -2.653 25.01 -16.911 46.895 -31.737c21.884 -14.779 42.678 -28.847 46.184 -31.263
c79.904 -54.34 81.054 -55.185 88.761 -55.185c0.247 0 0.501 0.001 0.765 0.001c15.269 0.032 25.568 12.777 25.568 25.875c0 6.041 -2.19 12.157 -7.094 17.135c-2.511 2.558 -4.169 3.695 -40.263 28.137c-12.885 8.716 -34.106 23.068 -47.132 31.879
s-34.2 23.116 -46.989 31.832c-12.837 8.668 -33.869 22.879 -46.658 31.547c-12.837 8.716 -34.0109 23.021 -47.0372 31.832c-13.0263 8.81 -34.1053 23.115 -46.8947 31.736c-12.7422 8.621 -33.7737 22.832 -46.6579 31.595
c-12.8843 8.716 -34.1053 23.069 -47.1316 31.879c-13.0263 8.811 -30.2684 20.511 -38.3684 25.958c-15.7442 10.674 -21.2412 13.739 -27.5532 13.739c-1.531 0 -3.11 -0.18 -4.894 -0.476z" />
    <glyph glyph-name="accidentals.leftparen" unicode="&#xe104;" horiz-adv-x="0" 
d="M-35.2895 266.2c-2.7 -1.279 -4.3105 -3.174 -9.6158 -11.416c-51.6552 -80.787 -77.4827 -167.815 -77.4827 -254.842c0 -87.0277 25.8275 -174.056 77.4827 -254.842c6.9632 -10.848 8.6685 -12.316 14.5895 -12.316c6.8211 0 11.3684 4.547 11.3684 11.368
c0 2.511 -0.521 4.074 -4.2158 13.169c-25.9105 62.952 -39.7421 126.379 -44.6684 205.2c-0.4026 6.4895 -0.6039 21.9553 -0.6039 37.4211c0 15.4658 0.2013 30.9316 0.6039 37.421c4.9263 78.8683 18.7105 142.2 44.6684 205.2c3.0556 7.469 4.3214 11.198 4.3214 14.003
c0 1.5 -0.3619 2.736 -1.0056 4.139c-1.8782 4.034 -6.3103 6.511 -10.7459 6.511c-1.6052 0 -3.2109 -0.324 -4.6962 -1.016z" />
    <glyph glyph-name="accidentals.rightparen" unicode="&#xe105;" horiz-adv-x="122" 
d="M25.3421 266.479c-4.2394 -1.977 -6.3082 -4.467 -6.3082 -8.75c0 -3.518 1.3952 -8.244 4.1293 -14.887c30.4579 -74.013 45.6868 -158.317 45.6868 -242.621c0 -84.3039 -15.2289 -168.608 -45.6868 -242.621c-2.7341 -6.643 -4.1293 -11.369 -4.1293 -14.886
c0 -4.283 2.0688 -6.774 6.3082 -8.751c1.8849 -0.874 3.5872 -1.342 5.2111 -1.342c4.6196 0 8.6041 3.786 14.3521 12.758c51.6552 80.787 77.4827 167.815 77.4827 254.842c0 87.0277 -25.8275 174.056 -77.4827 254.842c-6.9632 10.848 -8.6685 12.316 -14.5895 12.316
c-1.9895 0 -3.7421 -0.331 -4.9737 -0.9z" />
    <glyph glyph-name="scripts.arpeggio" unicode="&#xe106;" horiz-adv-x="212" 
d="M101.984 268.058c-2.3682 -1.516 -3.4577 -3.647 -3.4577 -6.726c0 -0.104 -0.0002 -0.204 -0.0002 -0.3c0 -2.683 0.1325 -2.807 7.7689 -11.495c10.76 -12.334 16.314 -23.777 16.314 -33.332c0 -3.105 -0.587 -6.012 -1.772 -8.684
c-5.921 -13.31 -21.4581 -34.247 -38.9844 -52.389c-25.9167 -26.906 -38.7141 -50.726 -38.7141 -73.1507c0 -15.1592 5.8484 -29.6807 17.4457 -44.0866c11.4158 -14.1631 35.3369 -39.9315 40.9738 -44.1c1.448 -1.07615 3.038 -1.56353 4.576 -1.56353
c3.945 0 7.55 3.20749 7.55 7.9109v0.29956c0 2.68256 -0.132 2.80732 -7.768 11.4951c-10.7608 12.3336 -16.3141 23.7767 -16.3141 33.3318c0 3.1055 0.5866 6.0116 1.7718 8.684c5.921 13.3579 21.4103 34.1527 38.9843 52.3894
c27.226 28.266 38.274 49.41 38.274 73.315v0.154c-0.048 21.363 -6.679 33.584 -35.006 64.61c-17.009 18.627 -23.584 24.758 -28.253 24.758c-1.208 0 -2.288 -0.41 -3.389 -1.121z" />
    <glyph glyph-name="scripts.arpeggio.arrow.M1" unicode="&#xe107;" horiz-adv-x="212" 
d="M101.984 340.022c-2.3808 -1.515 -3.5651 -3.372 -3.5651 -5.707c0 -2.265 1.1133 -4.978 3.3281 -8.266c7.402 -11.008 10.835 -18.613 10.835 -27.975c0 -6.874 -1.85 -14.695 -5.34 -25.504c-1.942 -5.969 -4.31 -13.832 -5.305 -17.384l-1.753 -6.537h-2.7472
h-0.1538c-20.372 0 -51.58 9.363 -73.3619 21.979c-4.6189 2.679 -9.2502 3.923 -13.4856 3.923c-10.1419 0 -18.0145 -7.136 -18.0145 -18.797c0 -5.732 0.61579 -7.153 7.67369 -18c36.2369 -55.753 67.5948 -134.384 85.1685 -213.632
c2.8894 -13.0263 3.0315 -13.4053 6.2526 -17.6211c3.3395 -4.33421 8.9522 -6.50132 14.5722 -6.50132c5.619 0 11.244 2.16711 14.607 6.50132c3.268 4.26318 3.173 3.93158 7.484 22.8316c17.337 76.5951 48.505 153.853 83.937 208.421
c7.058 10.847 7.673 12.268 7.673 18c0 11.661 -7.872 18.797 -18.014 18.797c-4.235 0 -8.867 -1.244 -13.486 -3.923c-15.11 -8.764 -32.21 -15.253 -49.831 -18.948c-2.909 -0.606 -4.688 -1.005 -5.662 -1.005c-0.687 0 -0.973 0.198 -0.973 0.661
c0 0.622 0.52 1.725 1.282 3.471c5.722 12.983 8.613 24.328 8.613 34.611c0 14.065 -5.409 26.146 -16.381 37.72c-8.764 9.288 -15.336 13.838 -20.022 13.838c-1.24 0 -2.349 -0.319 -3.331 -0.954z" />
    <glyph glyph-name="scripts.arpeggio.arrow.1" unicode="&#xe108;" horiz-adv-x="212" 
d="M100.089 332.763c-2.7469 -0.852 -6.9627 -3.742 -8.5732 -5.826c-3.2684 -4.263 -3.079 -3.648 -7.7211 -23.779c-17.621 -76.974 -48.3158 -153 -83.7 -207.474c-7.0579 -10.8474 -7.67369 -12.2684 -7.67369 -18c0 -11.5953 8.05817 -18.8479 18.1997 -18.8479
c4.0688 0 8.4729 1.1673 12.8266 3.69c16.2947 9.4263 33.4421 15.8684 52.2473 19.6579c1.8281 0.3594 3.048 0.6054 3.7873 0.6054c0.6426 0 0.9221 -0.1859 0.9221 -0.6447c0 -0.6136 -0.4997 -1.7153 -1.2988 -3.5133
c-5.5749 -12.6507 -8.3873 -24.1068 -8.3873 -34.5723c0 -19.5905 9.8548 -35.7099 29.893 -49.6961c2.341 -1.63213 4.524 -2.34682 6.398 -2.34682c3.789 0 6.311 2.92235 6.311 7.09057c0 2.44497 -0.868 5.31861 -2.857 8.28256
c-7.402 11.0074 -10.8349 18.6128 -10.8349 27.9747c0 6.8739 1.8509 14.6947 5.3399 25.5042c1.943 5.9684 4.311 13.8316 5.306 17.3842l1.752 6.5369h2.842c20.748 0 51.49 -9.2842 73.895 -22.2632c4.354 -2.5227 8.758 -3.69 12.827 -3.69
c10.141 0 18.199 7.2526 18.199 18.8479c0 5.7316 -0.615 7.1526 -7.673 18c-35.432 54.5688 -66.6 131.827 -83.937 208.421c-4.311 18.9 -4.216 18.569 -7.484 22.832c-3.172 4.072 -9.387 6.609 -15.266 6.609c-1.848 0 -3.663 -0.25 -5.34 -0.783z" />
    <glyph glyph-name="scripts.trill_element" unicode="&#xe109;" horiz-adv-x="261" 
d="M71.7632 124.972c-10.8474 -1.563 -22.2632 -7.153 -33.679 -16.342c-14.4474 -11.6527 -40.2632 -35.6212 -44.2895 -41.1159c-1.07615 -1.4482 -1.56353 -3.0379 -1.56353 -4.5759c0 -3.9455 3.20749 -7.5504 7.9109 -7.5504
c0.103499 0 0.20318 -0.0002 0.29956 -0.0002c2.68256 0 2.80732 0.1324 11.4951 7.7686c12.3336 10.7605 23.7767 16.3139 33.3318 16.3139c3.1055 0 6.0116 -0.5866 8.684 -1.7718c13.3579 -5.921 34.1527 -21.4105 52.3894 -38.9842
c26.906 -25.9167 50.726 -38.7141 73.15 -38.7141c15.16 0 29.681 5.84838 44.087 17.4457c14.163 11.4158 39.932 35.3368 44.1 40.9737c1.076 1.4481 1.563 3.0379 1.563 4.5758c0 3.9456 -3.207 7.5505 -7.91 7.5505c-0.104 0 -0.204 0.0001 -0.3 0.0001
c-2.683 0 -2.807 -0.1324 -11.495 -7.7685c-12.334 -10.7606 -23.777 -16.3139 -33.332 -16.3139c-3.105 0 -6.012 0.5866 -8.684 1.7717c-13.358 5.9211 -34.153 21.4106 -52.389 38.9843c-27.498 26.5036 -50.107 38.4886 -73.3054 38.4886
c-3.3369 0 -6.6859 -0.248 -10.0634 -0.736z" />
    <glyph glyph-name="zero" unicode="0" horiz-adv-x="379" 
d="M172.836 467.137c-63.427 -7.579 -118.942 -49.405 -150.348 -113.163c-14.9923 -30.412 -22.4884 -67.236 -22.4884 -104.052c0 -36.582 7.40139 -73.155 22.2042 -103.422c34.3894 -70.2474 99.0948 -114.395 167.684 -114.395
c92.748 0 175.264 80.7627 187.769 183.79c1.415 11.664 2.115 23.15 2.115 34.418c0 72.471 -28.945 135.888 -82.689 179.261c-29.92 24.134 -71.054 38.498 -108.239 38.498c-5.436 0 -10.788 -0.307 -16.008 -0.935zM203.388 443.974
c33.632 -5.069 42.964 -20.416 50.685 -83.132c4.831 -39.434 7.247 -75.138 7.247 -110.842s-2.416 -71.408 -7.247 -110.842c-7.106 -57.9791 -15.443 -74.2738 -41.495 -81.2369c-7.658 -2.0396 -15.412 -3.0149 -22.9 -3.0149c-20.858 0 -39.656 7.5677 -48.579 20.778
c-9.569 14.1158 -17.195 60.9628 -21.6 133.105c-0.747 12.218 -1.096 25.339 -1.096 38.868c0 73.127 10.184 158.166 22.696 176.754c8.72 12.982 27.286 20.606 48.529 20.606c4.49 0 9.099 -0.341 13.76 -1.043zM189.886 0.0557118h-1h2h-1zM189.886 486.056h-1h2h-1z
" />
    <glyph glyph-name="one" unicode="1" horiz-adv-x="254" 
d="M93.4857 459.416c-3.4578 -1.611 -4.5947 -3.553 -49.0736 -85.784l-44.1948 -81.711l-0.189473 -3.174c-0.0186303 -0.318 -0.0278526 -0.633 -0.0278526 -0.942c0 -6.774 4.41618 -11.279 11.3015 -11.279c6.5842 0 6.6316 0.095 22.1211 23.685
c6.7737 10.278 19.8474 30.126 29.0368 44.052c9.1895 13.926 18.4263 27.995 20.5579 31.263l3.8369 5.921l0.1421 -115.105c0.0185 -19.357 0.0314 -36.337 0.0314 -51.255c0 -99.453 -0.5731 -107.264 -3.8683 -116.903
c-4.8315 -14.0684 -16.2 -25.1526 -36.0947 -35.1947c-6.2689 -3.1646 -9.623 -7.7099 -9.623 -12.2938c0 -2.6204 1.0961 -5.2535 3.3704 -7.6483c3.0326 -3.1556 -4.217 -3.3684 66.1359 -3.3684c10.965 0 23.814 0.0052 38.88 0.0052s27.915 -0.0052 38.879 -0.0052
c70.354 0 63.104 0.2128 66.137 3.3684c2.274 2.3948 3.37 5.0279 3.37 7.6483c0 4.5839 -3.354 9.1292 -9.623 12.2938c-19.895 10.0421 -31.263 21.1263 -36.095 35.1947c-3.837 11.2738 -3.884 12.3158 -3.884 200.511c-0.047 169.2 0.237 154.8 -3.032 158.258
c-3.013 3.181 -0.183 3.366 -38.419 3.366c-5.031 0 -10.773 -0.003 -17.333 -0.003c-48.1265 0 -50.5423 -0.048 -52.3423 -0.9zM127.107 0.0557118h-1h2h-1zM127.107 486.056h-1h2h-1z" />
    <glyph glyph-name="two" unicode="2" horiz-adv-x="337" 
d="M145.509 467.421c-60.5844 -5.589 -113.258 -35.005 -122.874 -68.732c-1.5369 -5.384 -2.2562 -10.722 -2.2562 -15.919c0 -31.454 26.3552 -57.721 57.3181 -57.721c5.8617 0 11.8885 0.941 17.9328 2.967c24.3252 8.117 37.3162 30.238 37.3162 52.321
c0 17.608 -8.259 35.193 -25.616 45.637c-1.189 0.71 -1.939 1.153 -1.939 1.481c0 0.546 2.09 0.768 7.718 1.361c5.218 0.551 10.225 0.828 15.035 0.828c24.964 0 44.605 -7.483 60.849 -23.091c15.221 -14.619 23.01 -33.313 23.01 -54.842
c0 -5.539 -0.515 -11.265 -1.552 -17.158c-8.763 -49.548 -39.932 -89.29 -85.784 -109.516c-62.1477 -27.379 -105.3 -76.784 -120.316 -137.653c-2.55954 -10.5266 -4.35088 -25.5526 -4.35088 -34.304c0 -2.7477 0.176582 -4.8768 0.56141 -6.0539
c1.62293 -4.918 5.73506 -7.4233 10.1695 -7.4233c4.1077 0 8.4921 2.1498 11.4305 6.5233c6.3947 9.6158 24.8684 19.7526 42.5369 23.4c8.9794 1.8478 18.1708 2.7638 27.5084 2.7638c31.5953 0 64.8653 -10.4878 97.2603 -30.8533
c11.605 -7.2473 16.2 -8.5263 31.594 -8.5736c0.106 -0.0004 0.211 -0.0006 0.316 -0.0006c37.65 0 75.682 25.3621 99.348 66.269c8.1 13.9734 16.626 36.0944 16.626 43.0104c-0.027 7.264 -5.374 11.349 -11.053 11.349c-4.246 0 -8.677 -2.283 -11.21 -7.228
c-5.307 -10.301 -22.473 -17.066 -40.91 -17.066c-3.945 0 -7.948 0.31 -11.906 0.961c-12.884 2.084 -22.168 5.589 -38.368 14.4c-20.276 11.044 -43.256 16.433 -66.729 16.433c-36.028 0 -73.2158 -12.696 -103.561 -37.133l-3.0789 -2.463l2.321 2.842
c28.3264 35.147 67.1689 59.447 126.521 79.105c63.237 20.937 104.921 53.669 127.184 99.805c8.054 16.703 11.913 33.299 11.913 49.181c0 48.482 -35.967 90.313 -98.407 108.225c-16.474 4.749 -39.109 7.522 -58.936 7.522c-5.486 0 -10.756 -0.213 -15.622 -0.654z
M168.675 0.0557118h-1h2h-1zM168.675 486.056h-1h2h-1z" />
    <glyph glyph-name="three" unicode="3" horiz-adv-x="301" 
d="M124.03 467.184c-52.532 -5.305 -104.258 -32.352 -118.421 -61.91c-3.859 -8.067 -5.60854 -16.297 -5.60854 -24.28c0 -30.76 25.9756 -57.861 57.3362 -57.861c5.8565 0 11.9007 0.945 17.9987 2.988c24.3273 8.109 37.2191 30.643 37.2191 52.862
c0 18.404 -8.846 36.592 -27.3665 46.185l-2.3684 1.232l3.0789 0.568c8.4612 1.622 19.992 2.473 30.183 2.473c7.666 0 14.573 -0.481 18.843 -1.478c34.286 -8.104 56.543 -35.102 56.543 -65.286c0 -5.804 -0.824 -11.727 -2.543 -17.656
c-10.373 -35.81 -43.01 -62.147 -79.579 -64.232c-11.747 -0.663 -15.868 -3.742 -15.868 -11.842c0 -8.005 4.1684 -11.179 15.347 -11.842c40.311 -2.368 74.321 -36.616 84.079 -84.694c1.655 -8.134 2.481 -15.903 2.481 -23.301
c0 -22.677 -7.763 -41.867 -23.228 -57.3679c-15.515 -15.4813 -35.03 -23.2726 -58.19 -23.2726c-9.507 0 -19.6296 1.3131 -30.3417 3.9463c-5.258 1.2846 -7.1621 1.7402 -7.1621 2.1629c0 0.2476 0.6528 0.4838 1.6674 0.8687
c23.3394 8.7684 34.4274 29.1836 34.4274 49.7356c0 24.413 -15.6463 49.019 -44.9906 54.522c-3.6698 0.687 -7.2561 1.014 -10.7411 1.014c-32.8486 0 -56.6972 -29.026 -56.6972 -58.863c0 -13.698 5.0268 -27.5672 16.5173 -38.8771
c33.3521 -32.828 80.6958 -50.9251 129.993 -50.9251c13.085 0 26.309 1.2751 39.444 3.8883c69.961 13.8859 115.871 59.9917 115.871 111.661c0 8.258 -1.173 16.658 -3.608 25.092c-11.652 40.594 -52.673 76.737 -107.242 94.594l-2.558 0.806l7.532 2.321
c60.11 18.142 102.032 56.226 102.032 92.558c0 58.301 -70.772 105.282 -152.671 105.282c-7.066 0 -14.215 -0.349 -21.408 -1.072zM150.976 0.0557118h-1h2h-1zM150.976 486.056h-1h2h-1z" />
    <glyph glyph-name="four" unicode="4" horiz-adv-x="345" 
d="M127.893 459.416c-5.637 -2.605 -6.394 -4.832 -6.916 -20.795c-3.078 -95.542 -44.668 -194.684 -114.773 -273.6c-4.13874 -4.649 -6.20379 -8.78 -6.20379 -12.445c0 -2.794 1.20079 -5.317 3.59852 -7.592c2.97328 -2.808 -2.04571 -2.988 58.6053 -2.988
c8.9192 0 19.2587 0.004 31.2526 0.004h84.7426l-0.143 -4.358c-0.094 -2.416 -0.284 -9.095 -0.379 -14.826c-0.615 -30.7897 -9.947 -45.0002 -39.457 -59.8739c-6.2 -3.1299 -9.512 -7.6747 -9.512 -12.2495c0 -2.6258 1.091 -5.2615 3.354 -7.6452
c3.032 -3.1556 -4.217 -3.3684 66.136 -3.3684c10.964 0 23.813 0.0052 38.879 0.0052c15.067 0 27.916 -0.0052 38.88 -0.0052c70.353 0 63.104 0.2128 66.136 3.3684c2.263 2.3837 3.354 5.0194 3.354 7.6452c0 4.5748 -3.312 9.1196 -9.512 12.2495
c-29.51 14.8737 -38.842 29.0842 -39.458 59.8739c-0.094 5.731 -0.284 12.41 -0.378 14.826l-0.143 4.358h17.669c20.605 0 20.937 0.047 25.247 4.311c2.968 2.986 4.36 6.91 4.36 10.801c0 6.044 -3.358 12.009 -9.381 14.256c-2.368 0.9 -3.6 0.948 -20.274 0.948
h-17.763v100.089c0 96.442 -0.047 100.09 -0.9 101.937c-1.894 4.121 -5.684 6.395 -10.563 6.395c-5.731 -0.048 -4.879 0.71 -25.295 -22.263c-7.531 -8.479 -28.279 -31.785 -46.136 -51.821c-17.858 -20.037 -32.874 -37.09 -33.395 -37.895
c-0.948 -1.421 -0.948 -2.369 -1.09 -48.932l-0.094 -47.51h-67.074c-60.1021 0 -66.5129 0.042 -66.5129 0.687c0 0.038 0.0214 0.077 0.0549 0.118c0.379 0.474 8.4316 9.568 17.9527 20.274c9.521 10.658 32.9684 36.994 52.0583 58.5
c19.089 21.505 36.9 41.447 39.552 44.289c2.653 2.89 14.305 15.869 25.911 28.895c40.216 45.189 79.342 89.147 91.8 103.026c13.547 15.158 14.258 16.153 14.258 20.842c0 4.927 -2.511 8.858 -6.727 10.611c-1.394 0.597 -34.008 0.874 -68.644 0.874
c-39.504 0 -81.638 -0.36 -83.077 -1.016zM172.724 0.0557118h-1h2h-1zM172.724 486.056h-1h2h-1z" />
    <glyph glyph-name="five" unicode="5" horiz-adv-x="301" 
d="M35.4112 459.416c-2.3685 -1.09 -4.6895 -3.505 -5.6843 -5.921c-0.8052 -1.942 -15.8684 -175.311 -15.8684 -182.416c0.0474 -7.153 4.4527 -11.605 11.5106 -11.605c3.6 0 4.3105 0.331 14.4 7.2c26.7631 18.094 58.8789 27.9 91.5629 28.042l11.132 0.047
l3.742 -1.374c21.031 -7.721 39.458 -39.268 46.231 -79.152c1.933 -11.394 2.884 -22.393 2.884 -32.902c0 -43.314 -16.149 -78.305 -46.226 -98.3561c-12.583 -8.3623 -25.181 -12.5231 -38.718 -12.5231c-10.7702 0 -22.1353 2.6339 -34.5606 7.881l-5.2105 2.2264
l4.6895 1.5157c25.1586 8.2456 37.2516 29.6091 37.2516 51.0481c0 24.253 -15.4767 48.601 -45.0201 54.157c-3.6254 0.68 -7.1722 1.003 -10.6223 1.003c-32.822 0 -56.9046 -29.246 -56.9046 -59.112c0 -13.386 4.83795 -26.897 15.8954 -37.9539
c37.0494 -37.0495 87.2306 -59.1941 131.513 -59.1941c6.388 0 12.654 0.4609 18.74 1.4046c79.011 12.3158 135.332 72.0944 135.474 143.857v0.178c0 71.915 -57.671 128.011 -143.763 139.891c-3.407 0.475 -10.499 0.694 -18.311 0.694
c-10.873 0 -23.143 -0.424 -28.821 -1.168c-24.6316 -3.316 -48.6948 -10.705 -66.9316 -20.558c-2.2611 -1.197 -4.2732 -2.145 -4.5993 -2.145c-0.0223 0 -0.0368 0.005 -0.0428 0.014c-0.0042 0.003 -0.0063 0.031 -0.0063 0.083c0 2.884 6.3578 79.452 6.5905 79.685
c0.0473 0 3.9316 -1.089 8.5737 -2.51c31.6042 -9.496 68.6088 -14.605 102.741 -14.605c12.523 0 24.66 0.688 36.001 2.099c43.295 5.448 69.111 25.437 92.132 71.337c5.027 10.026 7.323 15.69 7.323 19.735c0 2.778 -1.083 4.793 -3.107 6.934
c-2.116 2.22 -4.218 3.302 -7.417 3.302c-2.602 0 -5.93 -0.716 -10.583 -2.118c-38.345 -11.463 -77.767 -17.195 -115.668 -17.195c-37.901 0 -74.2797 5.732 -106.538 17.195c-4.1914 1.482 -7.1299 2.193 -9.5283 2.193c-1.5861 0 -2.936 -0.311 -4.2559 -0.914z
M154.069 58.3947c0 -0.2842 -3.6 -2.1315 -4.121 -2.1315c-0.019 0.0048 -0.029 0.0147 -0.029 0.0292c0 0.1264 0.719 0.6026 1.782 1.155c1.569 0.8474 2.098 1.1333 2.277 1.1333c0.091 0 0.091 -0.0741 0.091 -0.186zM150.811 0.0557118h-1h2h-1zM150.811 486.056h-1h2
h-1z" />
    <glyph glyph-name="six" unicode="6" horiz-adv-x="348" 
d="M188.61 467.137c-93.2207 -11.605 -170.194 -83.084 -185.4 -172.137c-2.15285 -12.562 -3.21039 -26.729 -3.21039 -41.101c0 -20.097 2.06771 -40.595 6.09986 -57.662c18.0473 -77.021 83.7 -143.479 159.537 -161.526c7.244 -1.7273 15.065 -2.5458 23.25 -2.5458
c50.85 0 115.742 31.5896 143.487 73.1243c10.96 16.429 16.553 36.396 16.553 56.103c0 15.466 -3.444 30.772 -10.443 44.082c-14.589 27.663 -45.474 52.058 -85.5 67.405c-22.695 8.716 -43.072 13.074 -63.453 13.074c-20.711 0 -41.426 -4.5 -64.584 -13.5
c-3.454 -1.364 -6.384 -2.422 -6.7 -2.422c-0.014 0 -0.022 0.002 -0.026 0.006c-0.078 0.078 -0.115 0.516 -0.115 1.258c0 6.877 3.149 39.898 5.373 55.205c6.442 43.911 16.152 74.511 28.989 91.326c13.359 17.491 34.853 26.873 59.549 26.873
c9.28 0 19.012 -1.324 28.935 -4.041c7.926 -2.178 21.383 -7.304 21.383 -8.146c0 -0.018 -0.006 -0.035 -0.019 -0.049c-0.142 -0.095 -2.037 -0.805 -4.264 -1.563c-24.324 -8.163 -36.439 -29.539 -36.439 -51.004c0 -21.758 12.447 -43.606 37.245 -51.88
c6.098 -2.043 12.142 -2.988 17.998 -2.988c31.361 0 57.337 27.1 57.337 57.861c0 7.983 -1.75 16.213 -5.609 24.279c-10.705 22.406 -49.168 48.032 -85.263 56.937c-9.942 2.444 -25.318 3.875 -38.807 3.875c-5.857 0 -11.358 -0.27 -15.904 -0.843zM201.068 262.079
c21.506 -3.742 30.979 -18.379 37.516 -57.742c2.42 -14.648 3.645 -27.259 3.645 -39.976c0 -14.919 -1.687 -29.983 -5.113 -48.65c-8.716 -47.3215 -18.616 -60.0636 -46.848 -60.111c-0.097 -0.0003 -0.194 -0.0004 -0.291 -0.0004
c-30.99 0 -41.42 15.1493 -50.109 72.9004c-1.784 11.81 -2.623 24.219 -2.623 36.48c0 37.214 7.727 73.068 20.197 86.678c6.645 7.238 18.933 11.393 32.351 11.393c3.704 0 7.494 -0.316 11.275 -0.972zM174.464 0.0557118h-1h2h-1zM174.464 486.056h-1h2h-1z" />
    <glyph glyph-name="seven" unicode="7" horiz-adv-x="325" 
d="M112.832 468.084c-15.7267 -1.373 -26.5267 -3.742 -45.9478 -10.089c-14.8148 -4.807 -23.793 -7.164 -30.5459 -7.164c-6.2236 0 -10.5572 2.002 -15.8278 5.932c-3.2624 2.417 -6.6634 3.587 -9.7498 3.587c-4.35235 0 -8.07886 -2.326 -9.90807 -6.761
c-0.568421 -1.35 -0.852632 -27.627 -0.852632 -53.905c0 -26.277 0.284211 -52.555 0.852632 -53.905c1.93641 -4.669 5.98374 -6.895 10.1267 -6.895c4.9781 0 10.0943 3.214 11.8523 9.263c5.5421 18.853 10.8473 31.642 17.1 41.116
c6.6317 9.995 14.1884 14.993 22.8759 14.993c8.5631 0 18.2247 -4.855 29.182 -14.567c23.9745 -21.218 54.9045 -31.788 87.1165 -31.788c33.66 0 68.72 11.542 98.71 34.536c1.257 0.964 2.051 1.559 2.338 1.559c0.081 0 0.121 -0.046 0.121 -0.144
c0 -0.516 -1.121 -2.454 -3.501 -6.531c-20.985 -35.905 -43.958 -62.905 -83.179 -97.768c-30.316 -26.953 -49.642 -48.127 -69.963 -76.737c-34.8636 -49.027 -57.032 -109.99 -57.2688 -157.216c-0.0008 -0.1625 -0.0013 -0.3231 -0.0013 -0.4819
c0 -9.1893 1.3679 -12.1591 6.4434 -14.5339c1.4684 -0.6868 31.1687 -1.0303 60.8687 -1.0303c29.7 0 59.4 0.3435 60.868 1.0303c5.874 2.7474 6.442 4.6421 6.916 23.0211c1.847 75.9317 22.31 149.4 54.9 197.527c18.663 27.521 44.005 90.331 60.631 150.394
c5.842 21.075 8.645 32.272 8.645 38.693c0 5.659 -2.177 7.608 -6.371 9.339c-1.7 0.708 -3.256 1.08 -4.75 1.08c-4.003 0 -7.564 -2.67 -12.255 -8.706c-12.695 -16.39 -28.042 -26.1 -45.19 -28.564c-2.355 -0.33 -4.499 -0.505 -6.501 -0.505
c-7.178 0 -12.537 2.251 -19.314 7.658c-29.963 23.893 -70.223 38.067 -106.721 38.067c-3.95 0 -7.856 -0.166 -11.7 -0.504zM162.817 0.0557118h-1h2h-1zM162.817 486.056h-1h2h-1z" />
    <glyph glyph-name="eight" unicode="8" horiz-adv-x="359" 
d="M170.778 467.8c-64.895 -2.416 -121.831 -37.232 -141.3 -86.353c-4.6627 -11.784 -6.9385 -24.076 -6.9385 -36.355c0 -26.514 10.6122 -52.966 30.7175 -74.108l4.5474 -4.784l-5.0211 -3.647c-35.7404 -26.228 -52.7833 -60.572 -52.7833 -94.775
c0 -47.891 33.4138 -95.5068 95.6991 -120.183c26.8139 -10.6275 55.6569 -15.6815 84.1069 -15.6815c62.215 0 122.55 24.17 155.672 67.0763c16.489 21.3155 24.49 45.0945 24.49 68.6055c0 35.79 -18.542 70.957 -53.906 95.858l-3.884 2.747l3.932 4.121
c21.142 22.002 31.351 48.115 31.351 74.062c0 37.01 -20.769 73.682 -60.199 97.601c-25.2 15.3 -57.316 24.821 -86.589 25.721c-4.169 0.095 -8.337 0.284 -9.237 0.332c-0.154 0.008 -0.423 0.012 -0.788 0.012c-1.759 0 -5.75 -0.092 -9.87 -0.249zM195.552 435.732
c41.988 -9.426 68.626 -49.403 68.626 -91.525c0 -16.517 -4.096 -33.364 -12.968 -48.828l-2.085 -3.6l-3.41 1.516c-58.169 26.573 -113.969 69.158 -126.947 96.821c-1.258 2.696 -1.856 5.486 -1.856 8.301c0 14.89 16.735 30.456 41.077 36.272
c6.488 1.561 14.891 2.378 22.638 2.378c5.658 0 10.966 -0.436 14.925 -1.335zM103.041 235.884c3.411 -1.563 8.953 -3.837 12.316 -5.068c62.479 -23.021 104.684 -51.253 127.705 -85.405c8.194 -12.175 12.241 -22.361 12.241 -31.782
c0 -7.843 -2.805 -15.156 -8.357 -22.6448c-13.547 -18.2043 -39.72 -28.1075 -68.129 -28.1075c-16.091 0 -32.9 3.1774 -48.539 9.8233c-42.8246 18.232 -67.2286 56.266 -67.2286 95.08c0 19.574 6.2064 39.347 19.3865 56.878
c3.8174 5.121 12.7591 14.314 13.8301 14.314c0.0187 0 0.035 -0.003 0.0489 -0.009c0.3316 -0.142 3.3631 -1.516 6.7261 -3.079zM179.984 0.0557118h-1h2h-1zM179.984 486.056h-1h2h-1z" />
    <glyph glyph-name="nine" unicode="9" horiz-adv-x="348" 
d="M144.33 467.137c-45.9949 -6.158 -95.6843 -32.163 -120.884 -63.237c-15.5499 -19.158 -23.4457 -42.272 -23.4457 -65.138c0 -18.857 5.37003 -37.546 16.2457 -53.709c19.421 -28.895 58.7368 -53.764 103.689 -65.606c13.627 -3.6 26.715 -5.423 39.851 -5.423
c20.563 0 41.247 4.466 64.312 13.571c3.454 1.363 6.385 2.421 6.701 2.421c0.013 0 0.022 -0.002 0.026 -0.005c0.096 -0.102 0.141 -0.621 0.141 -1.492c0 -7.705 -3.514 -42.922 -6.11 -59.519c-7.152 -45.521 -16.863 -73.8 -31.121 -90.2368
c-13.214 -15.2759 -33.662 -23.4385 -56.785 -23.4385c-9.286 0 -19.003 1.3165 -28.857 4.0174c-7.925 2.1783 -21.383 7.3042 -21.383 8.1454c0 0.0186 0.0066 0.035 0.0199 0.0493c0.1421 0.0948 2.0368 0.8053 4.2631 1.5632c24.324 8.1629 36.44 29.5391 36.44 51.004
c0 21.758 -12.447 43.606 -37.2452 51.88c-6.0666 2.033 -12.1069 2.977 -17.976 2.977c-31.0271 0 -57.2656 -26.386 -57.2656 -57.765c0 -5.694 0.8641 -11.553 2.7205 -17.4486c5.4474 -17.1474 22.5 -33.7737 50.6368 -49.3106
c22.2912 -12.3104 47.0275 -18.5081 73.1805 -18.5081c16.917 0 34.427 2.5933 52.251 7.8029c79.247 23.2105 138.884 87.9634 152.1 165.268c2.099 12.296 3.143 27.096 3.143 41.957c0 15.997 -1.21 32.065 -3.617 45.154c-12.079 65.794 -53.384 121.642 -114.584 154.8
c-25.754 13.961 -50.589 21.093 -73.138 21.093c-4.532 0 -8.972 -0.288 -13.309 -0.867zM172.514 443.311c20.747 -5.732 29.179 -22.216 36.663 -71.811c1.785 -11.81 2.623 -24.219 2.623 -36.48c0 -37.214 -7.726 -73.068 -20.196 -86.678
c-7.035 -7.65 -19.575 -11.475 -32.116 -11.475s-25.082 3.825 -32.116 11.475c-11.994 13.088 -20.475 51.791 -20.475 87.862c0 7.664 0.383 15.209 1.196 22.364c5.116 45.095 14.068 71.527 27.142 80.29c5.708 3.773 15.564 5.943 24.922 5.943
c4.388 0 8.667 -0.477 12.357 -1.49zM174.489 0.0557118h-1h2h-1zM174.489 486.056h-1h2h-1z" />
    <glyph glyph-name="period" unicode="." horiz-adv-x="129" 
d="M56.2212 168.195c-34.9345 -5.513 -56.2212 -34.616 -56.2212 -64.656c0 -15.9061 5.9677 -32.075 19.037 -45.1443c13.0833 -13.0832 29.1897 -18.9366 45.0062 -18.9366c33.2015 0 65.1258 25.7932 65.1258 64.6469c0 35.737 -29.7358 64.827 -63.6263 64.827
c-3.0793 0 -6.1928 -0.24 -9.3215 -0.737z" />
    <glyph glyph-name="comma" unicode="," horiz-adv-x="141" 
d="M59.4474 168.242c-34.4842 -3.458 -59.4474 -30.553 -59.4474 -64.61c0 -35.2425 28.4684 -64.4215 62.8105 -64.4215h4.9263l0.9474 -1.8473c4.2474 -8.3354 6.2556 -17.4481 6.2556 -26.8105c0 -29.5838 -20.0511 -61.6603 -52.8661 -79.579
c-5.1783 -2.8397 -7.7176 -5.6794 -7.7176 -8.7851c0 -1.2977 0.4434 -2.6418 1.3228 -4.0518c1.4671 -2.384 3.1006 -3.5921 5.5287 -3.5921c2.5892 0 6.0819 1.3738 11.2398 4.1606c67.3056 36.2382 109.544 97.5442 109.544 155.787
c0 6.8496 -0.584 13.6568 -1.78 20.3759c-7.464 41.8616 -40.4945 73.6496 -75.187 73.6496c-1.8553 0 -3.7154 -0.091 -5.5766 -0.276z" />
    <glyph glyph-name="plus" unicode="+" horiz-adv-x="235" 
d="M110.676 366.621c-5.542 -1.847 -10.042 -5.4 -12.7892 -10.089c-2.9948 -5.141 -3.0792 -3.996 -3.0792 -39.158c0 -2.099 0.0003 -4.328 0.0003 -6.695v-37.942h-37.9421h-6.6949c-35.1618 0 -34.0173 -0.084 -39.1577 -3.079
c-7.34215 -4.334 -11.0132 -11.996 -11.0132 -19.658c0 -7.662 3.67105 -15.324 11.0132 -19.658c5.1404 -2.995 3.9959 -3.079 39.1577 -3.079h6.6949h37.9421v-37.942c0 -2.455 -0.0003 -4.761 -0.0003 -6.928c0 -34.675 0.0839 -33.828 2.9371 -38.688
c4.3623 -7.484 12.1183 -11.238 19.8583 -11.238c7.643 0 15.27 3.659 19.6 11.001c2.995 5.141 3.079 3.996 3.079 39.158v6.695v37.942h37.942h6.695c35.161 0 34.017 0.084 39.157 3.079c7.343 4.33 11.002 11.957 11.002 19.599c0 7.741 -3.754 15.497 -11.239 19.859
c-4.859 2.853 -4.012 2.937 -38.687 2.937h-6.928h-37.942v37.942v6.928c0 34.675 -0.084 33.828 -2.937 38.688c-4.088 7.023 -12.199 11.335 -20.193 11.335c-2.196 0 -4.383 -0.325 -6.476 -1.009z" />
    <glyph glyph-name="hyphen" unicode="-" horiz-adv-x="234" 
d="M15.887 271.884c-10.6049 -3.527 -15.887 -12.82 -15.887 -22.051c0 -9.364 5.4361 -18.663 16.266 -21.812c1.9894 -0.592 51.596 -0.888 101.209 -0.888c49.612 0 99.23 0.296 101.244 0.888c10.8 3.15 16.2 12.565 16.2 21.979s-5.4 18.829 -16.2 21.979
c-1.956 0.568 -47.943 0.842 -95.636 0.842c-51.6613 0 -105.324 -0.321 -107.196 -0.937z" />
    <glyph glyph-name="scripts.downbow" unicode="&#xe10a;" horiz-adv-x="167" 
d="M-158.495 351.476c-3.316 -1.279 -6.963 -4.974 -8.242 -8.337c-0.758 -2.013 -1.137 -84.446 -1.137 -166.879c0 -82.4331 0.379 -164.866 1.137 -166.879c2.248 -6.02281 8.212 -9.38085 14.256 -9.38085c3.891 0 7.815 1.39162 10.802 4.3598
c4.014 4.05441 4.32 -2.43714 4.32 57.2417c0 10.7421 -0.009 23.6282 -0.009 39.1055v88.816h137.368h137.368v-88.816c0 -15.4773 -0.009 -28.3634 -0.009 -39.1055c0 -59.6788 0.306 -53.1873 4.32 -57.2417c2.987 -2.96818 6.911 -4.3598 10.802 -4.3598
c6.044 0 12.008 3.35804 14.256 9.38085c0.758 2.01315 1.137 84.446 1.137 166.879c0 82.433 -0.379 164.866 -1.137 166.879c-1.279 3.458 -4.926 7.105 -8.384 8.384c-1.974 0.728 -78.9934 1.095 -156.597 1.095c-78.8452 0 -158.293 -0.379 -160.251 -1.142z" />
    <glyph glyph-name="scripts.upbow" unicode="&#xe10b;" horiz-adv-x="125" 
d="M-118.624 408.459c-4.027 -1.848 -6.395 -5.685 -6.395 -10.279c0 -2.179 107.384 -369.758 114.016 -390.221c1.64441 -5.07748 6.38122 -7.95866 11.1606 -7.95866c3.068 0 6.15355 1.18724 8.44991 3.74287c0.13895 0.15406 0.23822 0.19542 0.31924 0.19542
c0.09397 0 0.16338 -0.05567 0.24166 -0.05567c0.91238 0 3.03028 7.56308 59.3128 198.997c49.09 167.034 56.538 191.998 56.538 197.632c0 1.373 -0.443 1.598 -0.833 2.452c-1.991 4.287 -6.288 6.419 -10.553 6.419c-4.358 0 -8.683 -2.227 -10.478 -6.656
c-0.379 -0.9 -18.3319 -61.721 -39.9319 -135.095c-21.5526 -73.421 -39.3631 -133.484 -39.5053 -133.484c-0.1421 0 -17.9526 60.063 -39.5052 133.484c-42.5842 144.806 -39.9316 136.042 -42.1105 138.364c-3.1436 3.278 -2.2851 3.363 -27.6566 3.363h-4.4119
c-25.0576 0 -26.9056 -0.095 -28.6576 -0.9z" />
    <glyph glyph-name="brackettips.down" unicode="&#xe10c;" horiz-adv-x="411" 
d="M3.46284 91.8474c-3.24864 -2.0561 -3.46284 0.5644 -3.46284 -31.8699c0 -4.9267 0.00494219 -10.6623 0.00494219 -17.3459c0 -44.6684 0 -45.1421 0.994737 -46.7053c2.17895 -3.50527 2.7 -3.64737 18.8526 -4.02632
c125.195 -3.0789 254.606 -49.7842 374.921 -135.379c4.219 -3.003 7.372 -4.497 9.874 -4.497c2.274 0 4.01 1.234 5.521 3.692c0.84 1.338 1.337 2.466 1.337 3.715c0 2.908 -2.697 6.47 -10.053 14.853c-39.173 44.7634 -82.373 85.3107 -123.394 116.005
c-3.79 2.79474 -7.627 5.68421 -8.527 6.39474c-4.358 3.31579 -24.11 16.7684 -32.21 21.9316c-64.611 41.2105 -129.837 65.6053 -193.737 72.521c-10.7756 1.1613 -21.4587 1.7683 -29.135 1.7683c-5.78774 0 -9.86615 -0.3451 -10.9861 -1.0577z" />
    <glyph glyph-name="brackettips.up" unicode="&#xe10d;" horiz-adv-x="411" 
d="M394.946 143.479c-120.316 -85.5948 -249.726 -132.3 -374.921 -135.379c-16.1526 -0.37895 -16.6737 -0.52105 -18.8526 -4.02632c-0.781581 -1.23157 -1.17237 -23.9684 -1.17237 -46.7053c0 -22.7368 0.390789 -45.4737 1.17237 -46.7052
c1.98947 -3.2211 2.98421 -3.5053 13.2631 -3.5053c46.5632 0 102.41 13.3579 154.847 37.0421c28.563 12.8842 66.505 34.6737 89.1 51.1105c0.9 0.66315 5.021 3.64736 9.189 6.58421c44.29 31.5948 91.516 75.2685 134.195 123.963c7.263 8.319 9.924 11.83 9.924 14.701
c0 1.248 -0.503 2.376 -1.35 3.725c-1.511 2.458 -3.248 3.692 -5.521 3.692c-2.502 0 -5.655 -1.494 -9.874 -4.497z" />
    <glyph glyph-name="scripts.rcomma" unicode="&#xe10e;" horiz-adv-x="167" 
d="M66.8985 154.962c-39.2955 -4.102 -66.8985 -36.967 -66.8985 -73.868c0 -7.8478 1.24849 -15.8782 3.89851 -23.8532c9.42629 -28.2789 36.1895 -48.6474 65.6526 -49.9263l6.6316 -0.28421l1.1369 -1.70526c8.9571 -13.5409 13.1896 -28.7991 13.1896 -44.4145
c0 -37.1528 -23.9591 -76.3275 -65.2475 -99.2065c-6.1266 -3.4 -8.9519 -6.25 -8.9519 -9.416c0 -1.289 0.4683 -2.631 1.3729 -4.084c1.4176 -2.29 2.9817 -3.534 5.4869 -3.534c4.024 0 10.4762 3.21 22.65 10.45c76.0424 45.1969 122.102 116.029 122.102 182.992
c0 11.4981 -1.358 22.8822 -4.155 34.0027c-12.296 48.7835 -50.003 83.2155 -89.77 83.2155c-2.3605 0 -4.7283 -0.121 -7.0985 -0.368z" />
    <glyph glyph-name="scripts.lcomma" unicode="&#xe10f;" horiz-adv-x="167" 
d="M134.849 152.101c-76.5476 -40.216 -128.558 -109.137 -134.337 -177.964c-0.344357 -4.1008 -0.51194 -8.1589 -0.51194 -12.1657c0 -65.4618 44.7331 -117.207 94.1112 -117.207c11.2068 0 22.6528 2.666 33.8688 8.441c25.91 13.343 39.83 39.455 39.83 65.9008
c0 18.7128 -6.97 37.5932 -21.593 52.2359c-13.073 13.0263 -30.031 20.6527 -47.8893 21.4106l-6.6315 0.28421l-1.1369 1.70526c-8.9572 13.5409 -13.1896 28.7991 -13.1896 44.4145c0 37.1529 23.9593 76.3278 65.2473 99.2068c7.437 4.121 8.574 5.352 8.574 9.379
c0 4.948 -2.28 7.492 -6.387 7.492c-2.616 0 -5.974 -1.033 -9.955 -3.134z" />
    <glyph glyph-name="scripts.rvarcomma" unicode="&#xe110;" horiz-adv-x="58" 
d="M16.8793 138.651c-12.4579 -3.553 -20.8895 -11.274 -24.6316 -22.642c-0.66315 -1.895 -4.92629 -21.6949 -9.47369 -43.9581c-7.2 -35.1 -13.6895 -66.6 -36.9474 -179.763c-3.1573 -15.318 -4.3547 -21.517 -4.3547 -24.683c0 -1.632 0.3179 -2.458 0.8495 -3.312
c1.4483 -2.374 4.0274 -3.559 6.6036 -3.559c2.5632 0 5.1237 1.173 6.5648 3.512c0.7105 1.231 46.7526 104.968 91.9421 207.331c10.4165 23.5764 11.0962 24.925 11.0962 31.5677c0 0.698 -0.0075 1.454 -0.012 2.301c-0.0474 15.442 -8.3368 27.094 -22.9737 32.305
c-2.7442 0.954 -7.8365 1.515 -12.2368 1.515c-2.5873 0 -4.9355 -0.194 -6.4263 -0.615z" />
    <glyph glyph-name="scripts.lvarcomma" unicode="&#xe111;" horiz-adv-x="58" 
d="M47.0618 138.29c-2.2736 -1.421 -1.9894 -0.9 -20.6526 -43.0583c-9.521 -21.5053 -25.9579 -58.6895 -36.5684 -82.6579c-44.2604 -100.047 -48.5077 -108.912 -48.5077 -113.948c0 -1.173 0.2303 -2.138 0.2393 -4c0.0579 -21.107 17.4768 -34.002 34.8303 -34.002
c11.0373 0 22.0481 5.217 28.5486 16.855c3.07895 5.447 3.69474 8.337 26.3369 118.516c12.2684 59.6842 23.4473 114.11 24.8684 120.979c1.7508 8.41 2.5103 12.663 2.5103 15.236c0 1.673 -0.3212 2.636 -0.8998 3.569c-1.408 2.284 -4.1595 3.597 -6.8345 3.597
c-1.3747 0 -2.7291 -0.347 -3.8708 -1.086z" />
    <glyph glyph-name="scripts.tickmark" unicode="&#xe112;" horiz-adv-x="271" 
d="M254.605 425.7c-102.173 -49.832 -204.442 -176.163 -261.047 -322.295c-1.51578 -3.9787 -2.93684 -7.2471 -3.07894 -7.2471c-0.14211 0 -1.84735 1.8474 -3.74215 4.1681c-32.2579 38.132 -72.6631 72.711 -120.505 102.979c-4.549 2.877 -7.821 4.299 -10.348 4.299
c-2.34 0 -4.04 -1.221 -5.521 -3.636c-0.862 -1.376 -1.344 -2.589 -1.344 -3.838c0 -3.006 2.795 -6.218 9.823 -12.409c54.0475 -47.463 94.2633 -106.105 110.368 -160.768c5.4948 -18.6158 15.0158 -26.9526 30.7895 -26.9526c17.8105 0 27 9.52105 31.7368 32.9211
c29.5579 144.853 96.5842 271.705 182.842 346.121c15.584 13.453 30.979 24.063 46.705 32.211c9.616 5.021 10.611 5.968 10.611 10.279c0 4.981 -2.139 7.482 -6.313 7.482c-2.771 0 -6.44 -1.102 -10.977 -3.314z" />
    <glyph glyph-name="scripts.caesura" unicode="&#xe113;" horiz-adv-x="457" 
d="M293.589 301.492c-1.327 -0.521 -3.363 -1.848 -4.5 -2.984c-2.321 -2.274 -286.863 -475.958 -288.19 -479.7c-0.616791 -1.745 -0.899188 -3.457 -0.899188 -5.101c0 -8.643 7.80197 -15.43 15.8551 -15.43c3.4755 0 6.9978 1.264 9.9599 4.188
c2.321 2.274 286.863 475.958 288.189 479.7c0.621 1.743 0.908 3.473 0.908 5.146c0 8.342 -7.131 15.273 -15.562 15.273c-1.877 0 -3.819 -0.344 -5.761 -1.092zM435.694 301.492c-1.326 -0.521 -3.363 -1.848 -4.5 -2.984
c-2.321 -2.274 -286.863 -475.958 -288.19 -479.7c-0.616 -1.745 -0.899 -3.457 -0.899 -5.101c0 -8.643 7.802 -15.43 15.855 -15.43c3.476 0 6.998 1.264 9.96 4.188c2.321 2.274 286.863 475.958 288.19 479.7c0.62 1.743 0.907 3.473 0.907 5.146
c0 8.342 -7.131 15.273 -15.561 15.273c-1.878 0 -3.82 -0.344 -5.762 -1.092z" />
    <glyph glyph-name="scripts.caesura.straight" unicode="&#xe114;" horiz-adv-x="457" 
d="M293.589 301.492c-1.327 -0.521 -3.363 -1.848 -4.5 -2.984c-2.321 -2.274 -286.863 -475.958 -288.19 -479.7c-0.616791 -1.745 -0.899188 -3.457 -0.899188 -5.101c0 -8.643 7.80197 -15.43 15.8551 -15.43c3.4755 0 6.9978 1.264 9.9599 4.188
c2.321 2.274 286.863 475.958 288.189 479.7c0.621 1.743 0.908 3.473 0.908 5.146c0 8.342 -7.131 15.273 -15.562 15.273c-1.877 0 -3.819 -0.344 -5.761 -1.092zM435.694 301.492c-1.326 -0.521 -3.363 -1.848 -4.5 -2.984
c-2.321 -2.274 -286.863 -475.958 -288.19 -479.7c-0.616 -1.745 -0.899 -3.457 -0.899 -5.101c0 -8.643 7.802 -15.43 15.855 -15.43c3.476 0 6.998 1.264 9.96 4.188c2.321 2.274 286.863 475.958 288.19 479.7c0.62 1.743 0.907 3.473 0.907 5.146
c0 8.342 -7.131 15.273 -15.561 15.273c-1.878 0 -3.82 -0.344 -5.762 -1.092z" />
    <glyph glyph-name="scripts.caesura.curved" unicode="&#xe115;" horiz-adv-x="370" 
d="M202.293 310.243c-12.885 -1.895 -18.9 -9.427 -20.653 -25.958c-11.842 -113.306 -79.958 -292.69 -174.174 -458.527c-5.04486 -8.907 -7.46623 -14.491 -7.46623 -18.862c0 -3.51 1.56044 -6.237 4.57676 -9.274c3.12416 -3.106 6.75684 -4.611 10.4285 -4.611
c5.5695 0 11.2289 3.463 15.3399 10.058c106.011 170.858 177.3 340.01 195.442 463.879c0.758 5.352 1.658 11.274 1.942 13.074c0.25 1.641 0.37 3.258 0.37 4.837c0 14.317 -9.862 25.624 -22.571 25.624c-1.06 0 -2.14 -0.078 -3.235 -0.24zM344.398 310.243
c-12.884 -1.895 -18.9 -9.427 -20.653 -25.958c-11.842 -113.306 -79.958 -292.69 -174.174 -458.527c-5.044 -8.907 -7.466 -14.491 -7.466 -18.862c0 -3.51 1.561 -6.237 4.577 -9.274c3.124 -3.106 6.757 -4.611 10.429 -4.611c5.569 0 11.229 3.463 15.339 10.058
c106.011 170.858 177.3 340.01 195.443 463.879c0.757 5.352 1.657 11.274 1.942 13.074c0.249 1.641 0.369 3.258 0.369 4.837c0 14.317 -9.862 25.624 -22.57 25.624c-1.061 0 -2.141 -0.078 -3.236 -0.24z" />
    <glyph glyph-name="noteheads.sM1" unicode="&#xe116;" horiz-adv-x="663" 
d="M13.0087 173.574c-5.44741 -1.705 -10.5632 -6.916 -12.2685 -12.458c-0.491584 -1.662 -0.740235 -79.5705 -0.740235 -158.371c0 -80.6553 0.260491 -162.246 0.787603 -163.971c2.58456 -8.534 10.4329 -13.167 18.3269 -13.167c5.995 0 12.0163 2.672 15.7784 8.335
c2.8769 4.336 3.0849 -5.748 3.0849 101.16c0 18.0689 -0.006 39.4797 -0.006 64.8669c0 25.3872 0.006 46.798 0.006 64.8668c0 106.907 -0.208 96.8235 -3.0849 101.16c-2.4158 3.6 -6.1106 6.395 -10.0895 7.626c-1.3541 0.397 -3.5826 0.598 -5.8179 0.598
c-2.3002 0 -4.6076 -0.213 -5.9768 -0.645zM81.2192 173.574c-5.4474 -1.705 -10.5632 -6.916 -12.2684 -12.458c-0.4916 -1.662 -0.7403 -79.5705 -0.7403 -158.371c0 -80.6553 0.2605 -162.246 0.7876 -163.971c2.5846 -8.534 10.4329 -13.167 18.3269 -13.167
c5.995 0 12.0163 2.672 15.778 8.335c3.269 4.974 3.079 -0.236 3.127 76.974c0 55.8829 0.078 67.6757 0.556 67.6757c0.047 0 0.099 -0.1165 0.154 -0.3178c17.811 -66.2448 114.708 -113.044 224.555 -113.044c14.02 0 28.251 0.762 42.556 2.344
c94.5 10.468 167.258 54.6631 182.321 110.7c0.055 0.2013 0.107 0.3178 0.154 0.3178c0.478 0 0.556 -11.7928 0.556 -67.6757c0.048 -77.21 -0.142 -72 3.127 -76.974c3.718 -5.589 9.793 -8.384 15.868 -8.384s12.15 2.795 15.868 8.384
c2.877 4.336 3.085 -5.748 3.085 101.16c0 18.0689 -0.006 39.4797 -0.006 64.8669c0 25.3872 0.006 46.798 0.006 64.8668c0 106.907 -0.208 96.8235 -3.085 101.16c-3.77 5.656 -9.631 8.447 -15.573 8.447c-6.45 0 -12.995 -3.289 -17.063 -9.773
c-2.227 -3.6 -2.179 -1.327 -2.227 -75.6477c0 -55.8829 -0.078 -67.6756 -0.556 -67.6756c-0.047 0 -0.099 0.1164 -0.154 0.3177c-17.81 66.2813 -114.58 113.046 -224.489 113.046c-14.039 0 -28.292 -0.763 -42.622 -2.346
c-94.452 -10.468 -167.258 -54.6628 -182.321 -110.7c-0.055 -0.2013 -0.107 -0.3177 -0.154 -0.3177c-0.478 0 -0.556 11.7927 -0.556 67.6756c-0.048 59.4947 -0.142 70.1997 -0.758 72.1417c-1.705 5.59 -6.8212 10.706 -12.4581 12.458
c-1.354 0.397 -3.5826 0.598 -5.8179 0.598c-2.3002 0 -4.6075 -0.213 -5.9768 -0.645zM318.156 116.684c63.101 -9.692 114.823 -82.1932 114.823 -147.56c0 -13.5367 -2.218 -26.7676 -7.012 -39.0712c-12.73 -32.6739 -38.316 -47.6489 -66.986 -47.6489
c-44.94 0 -97.46 36.7947 -119.93 99.8962c-5.981 16.7635 -8.761 33.0924 -8.761 48.273c0 49.7305 29.834 87.1388 74.723 87.1388c4.25 0 8.635 -0.336 13.143 -1.028zM638.272 173.574c-5.448 -1.705 -10.563 -6.916 -12.269 -12.458
c-0.491 -1.662 -0.74 -79.5705 -0.74 -158.371c0 -80.6553 0.261 -162.246 0.788 -163.971c2.584 -8.534 10.433 -13.167 18.327 -13.167c5.995 0 12.016 2.672 15.778 8.335c2.877 4.336 3.085 -5.748 3.085 101.16c0 18.0689 -0.006 39.4797 -0.006 64.8669
c0 25.3872 0.006 46.798 0.006 64.8668c0 106.907 -0.208 96.8235 -3.085 101.16c-2.416 3.6 -6.111 6.395 -10.089 7.626c-1.355 0.397 -3.583 0.598 -5.818 0.598c-2.301 0 -4.608 -0.213 -5.977 -0.645z" />
    <glyph glyph-name="clefs.C" unicode="&#xe117;" horiz-adv-x="642" 
d="M0 0v-507.789h60.6316h60.6314v507.789v507.789h-60.6314h-60.6316v-507.789zM166.737 0v-507.789h15.158h15.158l0.094 242.857l0.142 242.858l4.974 -4.3105c18.19 -15.7263 41.59 -46.0895 57.316 -74.5108c19.563 -35.384 34.153 -73.421 45.047 -117.473
c3.979 -16.106 5.827 -18.569 13.69 -18.569c7.816 0 11.084 4.263 11.889 15.348c5.502 78.225 58.427 137.914 119.22 137.914c4.107 0 8.25 -0.2724 12.417 -0.83c52.863 -7.1052 70.105 -41.1157 73.421 -144.758c0.589 -18.467 0.891 -35.615 0.891 -51.529
c0 -105.726 -13.353 -157.005 -44.849 -179.155c-16.35 -11.513 -39.497 -17.32 -64.309 -17.32c-22.558 0 -46.491 4.8 -67.943 14.478c-5.619 2.526 -9.275 4.371 -9.275 4.689c0 0.027 0.028 0.044 0.085 0.047c14.874 0.616 32.874 11.037 41.542 24.016
c6.866 10.318 9.995 21.53 9.995 32.445c0 29.524 -22.887 56.877 -56.605 58.503c-1.069 0.051 -2.128 0.076 -3.177 0.076c-36.762 0 -61.6 -30.908 -61.6 -62.93c0 -15.407 5.75 -31.073 18.687 -43.678c33.506 -32.653 79.9 -50.843 128.551 -50.843
c5.411 0 10.85 0.225 16.302 0.68c114.252 9.6 199 103.721 199 217c0 5.777 -0.22 11.605 -0.669 17.473c-8.1 105.679 -78.726 189.19 -171.994 203.306c-6.763 1.0332 -13.432 1.5486 -19.998 1.5486c-25.947 0 -50.295 -8.0486 -72.56 -24.0012
c-2.677 -1.9182 -5.017 -3.3322 -5.439 -3.3322c-0.026 0 -0.045 0.0054 -0.056 0.0164c-0.189 0.1895 -12.221 20.0369 -26.716 44.1l-26.431 43.6737l26.431 43.7211c14.495 24.0157 26.527 43.8631 26.716 44.0526c0.011 0.011 0.03 0.0164 0.056 0.0164
c0.422 0 2.762 -1.414 5.439 -3.3322c22.349 -15.9891 46.451 -23.9603 72.762 -23.9603c15.624 0 32.028 2.8111 49.306 8.4235c88.159 28.5675 143.046 119.951 143.046 212.939c0 37.916 -9.125 76.098 -28.84 110.398c-40.104 69.82 -113.932 108.126 -186.006 108.126
c-45.915 0 -91.118 -15.546 -126.437 -48.395c-14.235 -13.236 -21.529 -29.611 -21.529 -46.322c0 -11.815 3.645 -23.799 11.061 -34.962c12.648 -19 31.925 -27.592 50.85 -27.592c29.626 0 58.391 21.055 59.518 56.203c0.021 0.647 0.032 1.291 0.032 1.934
c0 30.088 -22.623 55.365 -51.284 56.803c-0.049 0.003 -0.073 0.017 -0.073 0.042c0 0.308 3.781 2.237 9.31 4.694c21.452 9.678 45.385 14.478 67.943 14.478c24.812 0 47.959 -5.807 64.309 -17.32c31.496 -22.15 44.849 -73.429 44.849 -179.155
c0 -15.914 -0.302 -33.062 -0.891 -51.529c-3.316 -103.642 -20.558 -137.653 -73.421 -144.758c-4.164 -0.5576 -8.304 -0.8301 -12.409 -0.8301c-60.759 0 -113.726 59.6858 -119.228 137.867c-0.805 11.084 -4.121 15.395 -11.842 15.395
c-7.91 0 -9.71 -2.463 -13.737 -18.569c-10.894 -44.052 -25.484 -82.089 -45.047 -117.473c-15.726 -28.4213 -39.032 -58.7371 -57.316 -74.5108l-4.974 -4.3105l-0.142 242.858l-0.094 242.857h-15.158h-15.158v-507.789z" />
    <glyph glyph-name="clefs.varC" unicode="&#xe118;" horiz-adv-x="543" 
d="M448.674 629.449c-36.569 -3.505 -67.406 -28.705 -76.548 -62.526c-2.507 -9.279 -2.655 1.763 -2.655 -144.966c0 -19.564 0.003 -41.933 0.003 -67.529v-199.089h-86.211h-86.21v176.21v176.211h-15.158h-15.158v-507.79v-507.789h15.158h15.158v176.21v176.211h86.21
h86.211v-199.042c0 -176.542 0.094 -199.611 0.71 -203.59c7.179 -44.504 46.738 -71.86 87.252 -71.86c21.236 0 42.734 7.516 59.969 24.018c17.435 16.694 25.584 38.385 25.584 59.761c0 33.333 -19.816 65.901 -55.142 77.56c-7.775 2.569 -15.92 3.794 -24.046 3.794
c-24.396 0 -48.614 -11.049 -62.117 -29.988l-1.658 -2.274l-0.237 218.51l-0.236 218.558l-0.995 2.1315c-1.421 3.0316 -5.021 6.4421 -8.1 7.579c-2.511 0.9474 -3.458 0.9474 -97.958 0.9474h-95.447v49.2631v49.2632h95.447c94.5 0 95.447 0 97.958 0.9473
c3.079 1.1369 6.679 4.5474 8.1 7.579l0.995 2.1316l0.236 218.558l0.237 218.511l1.658 -2.274c14.099 -19.778 37.381 -29.85 61.021 -29.85c21.313 0 42.919 8.187 58.348 24.829c15.358 16.553 22.172 36.062 22.172 55.181c0 43.532 -35.324 85.044 -85.529 85.044
c-2.957 0 -5.966 -0.145 -9.022 -0.441zM0 -0.0295918v-507.789h60.6316h60.6314v507.789v507.79h-60.6314h-60.6316v-507.79z" />
    <glyph glyph-name="clefs.F" unicode="&#xe119;" horiz-adv-x="661" 
d="M226.042 252.9c-123.063 -7.437 -219.979 -94.453 -220.121 -197.716c-0.00003 -0.0391 -0.00004 -0.0782 -0.00004 -0.1173c0 -65.1703 39.4445 -116.272 95.921 -124.083c4.893 -0.6763 9.724 -1.0034 14.472 -1.0034c55.658 0 99.961 44.9459 99.961 99.3253
c0 7.2699 -0.792 14.7085 -2.454 22.2307c-10.432 47.2323 -52.698 77.2312 -96.671 77.2312c-17.3259 0 -34.9164 -4.657 -50.9289 -14.752c-2.1791 -1.379 -3.9406 -2.382 -4.148 -2.382c-0.0135 0 -0.0205 0.005 -0.0205 0.013c0 0.664 5.0685 12.221 7.3895 16.816
c31.9519 63.675 102.483 101.791 170.539 101.791c30.212 0 59.937 -7.512 85.582 -23.633c60.659 -38.166 93.438 -113.991 93.438 -213.607c0 -13.8799 -0.636 -28.2217 -1.922 -42.9877c-17.763 -203.068 -171.947 -383.779 -400.216 -468.994
c-15.0632 -5.637 -16.8632 -7.153 -16.8632 -14.4c0 -6.821 4.54737 -11.369 11.3684 -11.369c10.1842 0 65.179 14.211 100.185 25.863c235.61 78.49 409.358 271.942 433.894 483.206c1.364 11.7277 2.043 23.2156 2.043 34.4496
c0 78.9248 -33.501 145.315 -98.437 194.245c-50.08 37.765 -126.923 60.513 -201.55 60.513c-7.183 0 -14.345 -0.211 -21.461 -0.639zM616.737 156.032c-20.52 -4.064 -31.184 -20.884 -31.184 -37.723c0 -15.152 8.635 -30.3189 26.494 -36.2195
c2.961 -0.9711 7.141 -1.4566 11.321 -1.4566c4.181 0 8.361 0.4855 11.321 1.4566c17.699 5.8439 26.568 21.1355 26.568 36.4105c0 15.183 -8.763 30.349 -26.331 36.205c-2.752 0.918 -9.527 1.572 -14.272 1.572c-1.625 0 -3.011 -0.076 -3.917 -0.245z
M616.737 -80.8105c-20.52 -4.064 -31.184 -20.8845 -31.184 -37.7225c0 -15.152 8.635 -30.319 26.494 -36.22c2.961 -0.971 7.141 -1.456 11.321 -1.456c4.181 0 8.361 0.485 11.321 1.456c17.699 5.844 26.568 21.136 26.568 36.411
c0 15.183 -8.763 30.3492 -26.331 36.2052c-2.752 0.9175 -9.527 1.5721 -14.272 1.5721c-1.625 0 -3.011 -0.0767 -3.917 -0.2458z" />
    <glyph glyph-name="clefs.G" unicode="&#xe11a;" horiz-adv-x="623" 
d="M361.659 1081.63c-5.184 -0.98 -13.842 -7.77 -30.328 -23.79c-73.88 -71.921 -114.46 -172.133 -114.46 -277.53c0 -22.849 1.907 -45.942 5.796 -69.044c1.296 -7.776 5.651 -28.721 14.775 -71.025c1.556 -7.103 7.103 -33.128 12.391 -57.806l9.591 -44.844
l-22.137 -22.293c-63.405 -63.715 -115.507 -125.046 -166.573 -195.967c-47.9551 -66.619 -70.7143 -136.037 -70.7143 -215.669c0.103687 -180.311 131.475 -326.198 311.578 -345.898c5.818 -0.625 20.32 -0.954 33.922 -0.954c11.246 0 21.877 0.225 26.476 0.695
c15.605 1.659 29.81 4.043 43.496 7.413c4.416 1.08 8.135 1.927 8.565 1.927c0.025 0 0.039 -0.003 0.041 -0.009c0.156 -0.207 20.323 -94.251 22.863 -106.797c5.431 -26.714 8.152 -51.444 8.152 -74.222c0 -71.38 -26.721 -123.599 -80.525 -157.673
c-26.899 -17.05 -60.246 -25.748 -93.162 -25.748c-26.335 0 -52.395 5.569 -74.655 16.883l-2.385 1.192l7.207 0.311c55.166 2.46 91.679 48.588 91.679 97.557c0 21.211 -6.85 42.954 -22.002 61.913c-20.202 25.303 -49.702 37.812 -79.409 37.812
c-31.89 0 -64.018 -14.415 -85.142 -42.892c-14.622 -19.7 -21.8766 -41.78 -21.8766 -63.717c0 -24.65 9.1606 -49.121 27.3206 -69.832c42.874 -48.865 101.869 -73.157 160.474 -73.157c61.085 0 121.747 26.392 163.287 78.86
c28.451 35.949 42.795 82.526 42.795 138.515c0 21.04 -2.025 43.409 -6.09 67.044c-0.985 5.858 -7.258 36.238 -13.945 67.552c-6.688 31.313 -12.184 57.079 -12.184 57.338c0 0.208 2.644 1.504 5.859 2.852c96.985 41.502 161.105 136.065 161.105 234.945
c0 5.2465 -0.181 10.5052 -0.547 15.7688c-8.294 119.395 -94.976 211.417 -213.076 226.141c-3.777 0.469 -12.737 0.694 -22.131 0.694c-11.362 0 -23.358 -0.329 -27.586 -0.954c-2.886 -0.412 -5.368 -0.743 -5.942 -0.743c-0.075 0 -0.118 0.005 -0.124 0.018
c-0.052 0.051 -8.399 39.193 -18.612 86.941l-18.56 86.837l9.28 8.969c5.133 4.977 16.279 15.657 24.833 23.796c92.592 87.927 140.133 182.748 147.028 293.071c0.413 6.622 0.615 13.36 0.615 20.19c0 94.386 -38.712 206.429 -96.629 276.099
c-16.129 19.4 -29.174 29.41 -38.302 29.41c-0.7 0 -1.378 -0.06 -2.032 -0.18zM410.547 936.836c18.871 -4.821 28.203 -15.397 33.18 -37.845c2.561 -11.416 3.817 -23.515 3.817 -36.174c0 -77.025 -46.485 -174.803 -128.189 -265.814
c-6.955 -7.779 -30.547 -32.042 -31.149 -32.042c-0.004 0 -0.007 0.001 -0.009 0.003c-0.467 0.467 -21.1 98.606 -22.448 106.642c-3.003 18.092 -4.473 36.029 -4.473 53.574c0 69.681 23.187 133.174 65.596 175.625c24.249 24.249 49.814 37.494 71.63 37.494
c4.163 0 8.19 -0.482 12.045 -1.463zM290.478 392.274c2.592 -12.339 30.173 -141.221 30.536 -142.517c0.058 -0.232 0.088 -0.428 0.088 -0.59c0 -0.414 -0.196 -0.602 -0.607 -0.602c-5.962 0 -36.964 -14.88 -52.517 -25.144
c-60.52 -40.088 -90.4 -103.96 -90.4 -166.807c0 -66.9539 33.913 -132.745 100.821 -167.376c11.238 -5.824 18.198 -8.591 23.312 -8.591c3.945 0 6.793 1.646 9.66 4.807c2.855 3.205 4.262 6.518 4.262 9.805c0 5.4865 -3.921 10.8971 -11.572 15.5981
c-37.278 22.8727 -55.472 61.1632 -55.472 100.136c0 44.0629 23.257 88.9983 68.485 113.51c8.598 4.69 25.297 11.589 27.803 11.589c0.154 0 0.254 -0.025 0.296 -0.079c0.103 -0.104 7.828 -36.0314 17.16 -79.7872c9.384 -43.7558 25.714 -120.38 36.394 -170.254
c10.68 -49.873 19.389 -90.985 19.389 -91.348c0 -1.399 -22.551 -7.413 -36.29 -9.694c-12.584 -2.092 -25.196 -3.115 -37.733 -3.115c-76.969 0 -151.118 38.574 -198.776 105.402c-33.894 47.5634 -51.3468 104.848 -51.3468 164.123
c0 33.5668 5.5969 67.7723 16.9748 101.211c15.138 44.637 35.046 76.987 90.155 146.82c26.129 33.128 84.92 101.094 87.408 101.094c0.156 0 1.037 -3.68 1.97 -8.191zM403.341 140.99c87.914 -10.169 148.941 -86.6939 148.941 -169.986
c0 -22.0167 -4.264 -44.5063 -13.423 -66.3683c-16.641 -39.7119 -46.088 -72.1139 -86.578 -95.2879l-2.333 -1.4l-3.836 17.731c-2.074 9.746 -4.562 21.359 -5.496 25.766c-0.933 4.406 -15.138 70.9214 -31.572 147.753c-16.435 76.8318 -30.018 140.34 -30.173 141.17
l-0.259 1.399h8.969c4.977 0 12.079 -0.363 15.76 -0.777z" />
    <glyph glyph-name="clefs.GG" unicode="&#xe11b;" horiz-adv-x="944" 
d="M361.659 1081.63c-5.184 -0.98 -13.842 -7.77 -30.328 -23.79c-73.88 -71.921 -114.46 -172.133 -114.46 -277.53c0 -22.849 1.907 -45.942 5.796 -69.044c1.296 -7.776 5.651 -28.721 14.775 -71.025c1.556 -7.103 7.103 -33.128 12.391 -57.806l9.591 -44.844
l-22.137 -22.293c-63.405 -63.715 -115.507 -125.046 -166.573 -195.967c-47.9551 -66.619 -70.7143 -136.037 -70.7143 -215.669c0.103687 -180.311 131.475 -326.198 311.578 -345.898c5.818 -0.625 20.32 -0.954 33.922 -0.954c11.246 0 21.877 0.225 26.476 0.695
c15.605 1.659 29.81 4.043 43.496 7.413c4.416 1.08 8.135 1.927 8.565 1.927c0.025 0 0.039 -0.003 0.041 -0.009c0.156 -0.207 20.323 -94.251 22.863 -106.797c4.407 -21.67 7.984 -50.288 7.984 -63.767v-2.8l-6.377 -6.48
c-20.892 -21.041 -32.218 -49.125 -32.218 -76.823c0 -11.204 1.852 -22.344 5.675 -32.929l1.348 -3.733l-4.044 -5.288c-32.289 -42.328 -85.915 -66.009 -138.885 -66.009c-25.531 0 -50.91 5.502 -73.673 17.069l-2.385 1.192l7.207 0.311
c56.004 2.493 91.651 49.321 91.651 97.961c0 25.203 -9.571 50.892 -30.839 71.152c-20.494 19.515 -45.284 28.239 -69.748 28.239c-54.566 0 -107.505 -43.406 -107.505 -107.3c0 -31.78 10.8355 -54.332 39.4525 -82.172c41.268 -40.12 95.357 -59.985 148.866 -59.985
c57.743 0 114.811 23.132 154.366 68.902l4.355 5.081l10.679 -10.68c42.558 -42.655 97.346 -63.672 151.59 -63.672c61.063 0 121.435 26.634 162.892 79.018c28.45 35.949 42.795 82.526 42.795 138.515c0 21.04 -2.026 43.409 -6.09 67.044
c-0.985 5.858 -7.258 36.238 -13.946 67.552c-6.688 31.313 -12.183 57.079 -12.183 57.338c0 0.208 2.644 1.504 5.858 2.852c96.986 41.502 161.105 136.065 161.105 234.945c0 5.2465 -0.18 10.5052 -0.546 15.7688c-8.295 119.395 -94.977 211.417 -213.076 226.141
c-3.778 0.469 -12.738 0.694 -22.132 0.694c-11.361 0 -23.357 -0.329 -27.586 -0.954c-2.886 -0.412 -5.367 -0.743 -5.941 -0.743c-0.076 0 -0.118 0.005 -0.124 0.018c-0.052 0.051 -8.399 39.193 -18.612 86.941l-18.56 86.837l9.28 8.969
c5.132 4.977 16.279 15.657 24.833 23.796c92.592 87.927 140.132 182.748 147.027 293.071c0.406 6.48 0.604 13.082 0.604 19.781c0 102.138 -46.133 226.848 -108.749 289.468c-11.311 11.34 -18.051 16.67 -24.737 16.67c-5.418 0 -10.801 -3.5 -18.552 -10.14
c-82.589 -71.01 -129.662 -178.779 -129.662 -292.032c0 -16.986 1.059 -34.097 3.216 -51.224c2.126 -17.057 3.94 -26.337 17.316 -88.393c1.555 -7.103 7.103 -33.128 12.391 -57.806l9.591 -44.844l-22.138 -22.293
c-63.404 -63.715 -115.506 -125.046 -166.572 -195.967c-14.153 -19.597 -24.885 -37.276 -33.698 -55.421c-2.022 -4.147 -3.837 -7.569 -4.044 -7.569s-8.71 39.142 -18.923 86.993l-18.612 86.941l9.28 8.969c5.133 4.977 16.279 15.657 24.833 23.796
c92.592 87.927 140.133 182.748 147.028 293.071c0.413 6.622 0.615 13.36 0.615 20.19c0 94.386 -38.712 206.429 -96.629 276.099c-16.129 19.4 -29.174 29.41 -38.302 29.41c-0.7 0 -1.378 -0.06 -2.032 -0.18zM410.547 936.836
c18.871 -4.821 28.203 -15.397 33.18 -37.845c2.561 -11.416 3.817 -23.515 3.817 -36.174c0 -77.025 -46.485 -174.803 -128.189 -265.814c-6.955 -7.779 -30.547 -32.042 -31.149 -32.042c-0.004 0 -0.007 0.001 -0.009 0.003c-0.467 0.467 -21.1 98.606 -22.448 106.642
c-3.003 18.092 -4.473 36.029 -4.473 53.574c0 69.681 23.187 133.174 65.596 175.625c24.249 24.249 49.814 37.494 71.63 37.494c4.163 0 8.19 -0.482 12.045 -1.463zM731.976 936.836c18.871 -4.821 28.203 -15.397 33.18 -37.845
c2.561 -11.416 3.816 -23.515 3.816 -36.174c0 -77.025 -46.484 -174.803 -128.189 -265.814c-6.954 -7.779 -30.547 -32.042 -31.149 -32.042c-0.004 0 -0.006 0.001 -0.008 0.003c-0.467 0.467 -21.101 98.606 -22.449 106.642c-3.003 18.092 -4.473 36.029 -4.473 53.574
c0 69.681 23.187 133.174 65.597 175.625c24.249 24.249 49.814 37.494 71.629 37.494c4.164 0 8.191 -0.482 12.046 -1.463zM290.478 392.274c2.592 -12.339 30.173 -141.221 30.536 -142.517c0.058 -0.232 0.088 -0.428 0.088 -0.59c0 -0.414 -0.196 -0.602 -0.607 -0.602
c-5.962 0 -36.964 -14.88 -52.517 -25.144c-60.52 -40.088 -90.4 -103.96 -90.4 -166.807c0 -66.9539 33.913 -132.745 100.821 -167.376c11.238 -5.824 18.198 -8.591 23.312 -8.591c3.945 0 6.793 1.646 9.66 4.807c2.855 3.205 4.262 6.518 4.262 9.805
c0 5.4865 -3.921 10.8971 -11.572 15.5981c-36.796 22.585 -55.553 61.1572 -55.553 100.615c0 35.5381 15.215 71.7948 46.169 97.7376c7.466 6.221 24.47 17.523 26.492 17.523c0.156 0 0.26 -10.421 0.26 -23.226c0.051 -25.0923 0.311 -28.9287 3.421 -50.651
c8.762 -61.3825 34.009 -119.343 73.67 -168.906c0.777 -0.933 19.596 -86.837 19.596 -89.274c0 -1.451 -22.5 -7.465 -36.29 -9.746c-12.584 -2.092 -25.196 -3.115 -37.733 -3.115c-76.969 0 -151.118 38.574 -198.776 105.402
c-33.894 47.5634 -51.3468 104.848 -51.3468 164.123c0 33.5668 5.5969 67.7723 16.9748 101.211c15.138 44.637 35.046 76.987 90.155 146.82c26.129 33.128 84.92 101.094 87.408 101.094c0.156 0 1.037 -3.68 1.97 -8.191zM611.907 392.274
c2.592 -12.339 30.172 -141.221 30.535 -142.517c0.058 -0.232 0.088 -0.428 0.088 -0.59c0 -0.414 -0.196 -0.602 -0.606 -0.602c-5.962 0 -36.964 -14.88 -52.517 -25.144c-60.52 -40.088 -90.401 -103.96 -90.401 -166.807c0 -66.9539 33.913 -132.745 100.821 -167.376
c11.239 -5.824 18.198 -8.591 23.313 -8.591c3.945 0 6.792 1.646 9.66 4.807c2.855 3.205 4.262 6.518 4.262 9.805c0 5.4865 -3.921 10.8971 -11.572 15.5981c-37.278 22.8727 -55.472 61.1632 -55.472 100.136c0 44.0629 23.257 88.9983 68.484 113.51
c8.598 4.69 25.298 11.589 27.804 11.589c0.153 0 0.253 -0.025 0.295 -0.079c0.104 -0.104 7.829 -36.0314 17.161 -79.7872c9.383 -43.7558 25.714 -120.38 36.394 -170.254c10.679 -49.873 19.389 -90.985 19.389 -91.348c0 -1.399 -22.552 -7.413 -36.29 -9.694
c-12.585 -2.092 -25.196 -3.115 -37.733 -3.115c-76.97 0 -151.119 38.574 -198.777 105.402c-33.893 47.5634 -51.346 104.848 -51.346 164.123c0 33.5668 5.597 67.7723 16.974 101.211c15.139 44.637 35.046 76.987 90.156 146.82
c26.129 33.128 84.919 101.094 87.408 101.094c0.155 0 1.037 -3.68 1.97 -8.191zM724.77 140.99c87.913 -10.169 148.941 -86.6939 148.941 -169.986c0 -22.0167 -4.264 -44.5063 -13.423 -66.3683c-16.642 -39.7119 -46.089 -72.1139 -86.578 -95.2879l-2.333 -1.4
l-3.837 17.731c-2.073 9.746 -4.562 21.359 -5.495 25.766c-0.933 4.406 -15.138 70.9214 -31.573 147.753c-16.434 76.8318 -30.017 140.34 -30.172 141.17l-0.26 1.399h8.969c4.977 0 12.08 -0.363 15.761 -0.777zM460.369 -175.41c3.992 -2.955 7.31 -5.496 7.413 -5.547
c0.001 -0.001 0.002 -0.003 0.002 -0.005c0 -0.247 -10.818 -7.013 -15.503 -9.69l-2.333 -1.4l-3.007 13.946c-1.659 7.673 -3.11 14.412 -3.266 15.086c-0.022 0.072 -0.034 0.133 -0.034 0.181c0 0.091 0.042 0.139 0.13 0.139c0.4 0 1.751 -0.973 4.466 -3.223
c2.696 -2.229 8.14 -6.532 12.132 -9.487zM505.887 -204.079c37.224 -20.116 80.202 -33.025 127.12 -38.157c5.818 -0.625 20.319 -0.954 33.921 -0.954c11.246 0 21.877 0.225 26.476 0.695c15.605 1.659 29.81 4.043 43.497 7.413c4.415 1.08 8.134 1.927 8.565 1.927
c0.024 0 0.038 -0.003 0.041 -0.009c0.155 -0.207 20.322 -94.251 22.863 -106.797c5.43 -26.714 8.152 -51.444 8.152 -74.222c0 -71.38 -26.722 -123.599 -80.525 -157.673c-26.9 -17.05 -60.247 -25.748 -93.162 -25.748c-26.336 0 -52.396 5.569 -74.655 16.883
l-2.385 1.192l7.206 0.311c51.687 2.282 91.699 45.285 91.699 96.678c0 2.32 -0.082 4.657 -0.247 7.009c-3.869 54.609 -49.019 93.63 -101.418 93.63c-9.385 0 -19.003 -1.251 -28.657 -3.889c-3.474 -0.985 -6.429 -1.763 -6.532 -1.763
c-0.052 0 -0.26 2.177 -0.467 4.821c-1.503 19.96 -4.51 36.498 -18.715 103.169c-6.688 31.313 -12.184 57.079 -12.184 57.338c0 0.208 2.644 1.504 5.859 2.852c7.517 3.266 24.055 11.716 30.691 15.76c3.082 1.87 4.281 2.84 5.642 2.84
c1.431 0 3.042 -1.074 7.215 -3.306z" />
    <glyph glyph-name="clefs.tenorG" unicode="&#xe11c;" horiz-adv-x="841" 
d="M745.559 1129.38c-38.364 -4.82 -67.604 -30.84 -76.106 -67.76l-1.193 -5.08l-0.103 -200.475l-0.156 -200.53h-94.614c-52.051 0 -94.614 0.155 -94.614 0.311c0 0.155 1.192 4.043 2.644 8.657c11.406 36.322 17.108 74.179 17.108 112.679
c0 38.325 -5.651 77.286 -16.952 116.002c-21.152 72.685 -54.229 134.686 -91.711 172.176c-11.312 11.34 -18.052 16.67 -24.738 16.67c-5.418 0 -10.8 -3.5 -18.551 -10.14c-82.59 -71.01 -129.662 -178.779 -129.662 -292.032c0 -16.986 1.059 -34.097 3.216 -51.224
c2.125 -17.057 3.94 -26.337 17.315 -88.393c1.556 -7.103 7.103 -33.128 12.391 -57.806l9.591 -44.844l-22.137 -22.293c-63.405 -63.715 -115.507 -125.046 -166.573 -195.967c-47.9551 -66.619 -70.7143 -136.037 -70.7143 -215.669
c0.103687 -180.311 131.475 -326.198 311.578 -345.898c5.818 -0.625 20.32 -0.954 33.922 -0.954c11.246 0 21.877 0.225 26.476 0.695c15.605 1.659 29.81 4.043 43.496 7.413c4.416 1.08 8.135 1.927 8.565 1.927c0.025 0 0.039 -0.003 0.041 -0.009
c0.156 -0.207 20.323 -94.251 22.863 -106.797c5.431 -26.714 8.152 -51.444 8.152 -74.222c0 -71.38 -26.721 -123.599 -80.525 -157.673c-26.899 -17.05 -60.246 -25.748 -93.162 -25.748c-26.335 0 -52.395 5.569 -74.655 16.883l-2.385 1.192l7.207 0.311
c55.166 2.46 91.679 48.588 91.679 97.557c0 21.211 -6.85 42.954 -22.002 61.913c-20.202 25.303 -49.702 37.812 -79.409 37.812c-31.89 0 -64.018 -14.415 -85.142 -42.892c-14.622 -19.7 -21.8766 -41.78 -21.8766 -63.717c0 -24.65 9.1606 -49.121 27.3206 -69.832
c42.874 -48.865 101.869 -73.157 160.474 -73.157c61.085 0 121.747 26.392 163.287 78.86c28.451 35.949 42.795 82.526 42.795 138.515c0 21.04 -2.025 43.409 -6.09 67.044c-0.985 5.858 -7.258 36.238 -13.945 67.552c-6.688 31.313 -12.184 57.079 -12.184 57.338
c0 0.208 2.644 1.504 5.859 2.852c96.985 41.502 161.105 136.065 161.105 234.945c0 5.2465 -0.181 10.5052 -0.547 15.7688c-8.294 119.395 -94.976 211.417 -213.076 226.141c-3.777 0.469 -12.737 0.694 -22.131 0.694c-11.362 0 -23.358 -0.329 -27.586 -0.954
c-2.886 -0.412 -5.368 -0.743 -5.942 -0.743c-0.075 0 -0.118 0.005 -0.124 0.018c-0.052 0.051 -4.199 19.493 -9.228 43.133c-5.029 23.693 -9.28 43.445 -9.436 43.963c-0.003 0.012 -0.005 0.023 -0.005 0.034c0 0.797 10.073 0.848 166.163 0.848h166.469
l0.156 -200.478l0.103 -200.53l1.193 -5.0807c9.911 -42.9719 48.01 -68.4899 86.781 -68.4899c21.662 0 43.534 7.966 60.817 25.304c16.997 17.0545 24.83 38.2685 24.83 59.0164c0 36.2695 -23.937 71.1142 -64.698 79.8205c-4.559 0.9756 -9.293 1.4422 -14.089 1.4422
c-24.002 0 -49.555 -11.6871 -62.432 -29.7487l-1.814 -2.48847l-0.259 218.416c-0.26 201.722 -0.311 218.623 -1.141 220.334c-1.244 2.799 -4.303 5.962 -7.051 7.31l-2.436 1.192l-174.92 0.259l-174.867 0.26l13.116 12.39c31.003 29.24 52.725 53.865 71.44 80.928
l3.215 4.666l131.267 0.259l131.267 0.259l2.126 1.141c2.488 1.347 5.703 4.717 6.843 7.361c0.83 1.711 0.881 18.612 1.141 220.334l0.259 218.416l1.814 -2.488c6.844 -9.643 21.049 -20.064 33.802 -24.781c9.138 -3.383 18.422 -4.974 27.514 -4.974
c37.589 0 71.867 27.201 78.713 67.446c0.802 4.68 1.187 9.33 1.187 13.9c0 45.76 -38.673 84.19 -85.543 84.19c-3.55 0 -7.146 -0.22 -10.776 -0.68zM410.547 936.836c18.871 -4.821 28.203 -15.397 33.18 -37.845c2.537 -11.296 3.786 -23.321 3.786 -35.945
c0 -58.063 -26.419 -128.804 -75.434 -199.579l-5.443 -7.932h-48.888h-48.889l-0.518 1.97c-1.815 6.687 -5.288 30.898 -6.221 43.652c-0.601 7.866 -0.897 15.689 -0.897 23.445c0 83.901 34.579 159.947 91.052 197.2c16.719 11.026 32.031 16.551 45.985 16.551
c4.219 0 8.315 -0.505 12.287 -1.517zM310.749 297.401c5.547 -25.87 10.161 -47.437 10.317 -47.903c0.034 -0.136 0.05 -0.256 0.05 -0.362c0 -0.381 -0.215 -0.571 -0.621 -0.571c-5.962 0 -36.964 -14.88 -52.517 -25.144c-60.52 -40.088 -90.4 -103.96 -90.4 -166.807
c0 -66.9539 33.913 -132.745 100.821 -167.376c11.238 -5.824 18.198 -8.591 23.312 -8.591c3.945 0 6.793 1.646 9.66 4.807c2.855 3.205 4.262 6.518 4.262 9.805c0 5.4865 -3.921 10.8971 -11.572 15.5981c-37.278 22.8727 -55.472 61.1632 -55.472 100.136
c0 44.0629 23.257 88.9983 68.485 113.51c8.598 4.69 25.297 11.589 27.803 11.589c0.154 0 0.254 -0.025 0.296 -0.079c0.103 -0.104 7.828 -36.0314 17.16 -79.7872c9.384 -43.7558 25.714 -120.38 36.394 -170.254c10.68 -49.873 19.389 -90.985 19.389 -91.348
c0 -1.399 -22.551 -7.413 -36.29 -9.694c-12.772 -2.122 -25.487 -3.151 -38.058 -3.151c-116.127 0 -220.064 87.81 -244.436 213.272c-3.471 17.8725 -5.2432 37.9802 -5.2432 57.7922c0 13.9224 0.8752 27.6988 2.651 40.4509
c5.8064 42.2522 20.8924 84.6082 43.3924 122.091c14.465 24.055 52.621 74.965 86.631 115.559c5.599 6.635 10.368 12.39 10.679 12.805c0.415 0.622 5.599 0.726 31.884 0.726h31.365zM403.341 140.99c87.914 -10.169 148.941 -86.6939 148.941 -169.986
c0 -22.0167 -4.264 -44.5063 -13.423 -66.3683c-16.641 -39.7119 -46.088 -72.1139 -86.578 -95.2879l-2.333 -1.4l-3.836 17.731c-2.074 9.746 -4.562 21.359 -5.496 25.766c-0.933 4.406 -15.138 70.9214 -31.572 147.753c-16.435 76.8318 -30.018 140.34 -30.173 141.17
l-0.259 1.399h8.969c4.977 0 12.079 -0.363 15.76 -0.777z" />
    <glyph glyph-name="clefs.tab" unicode="&#xe11d;" horiz-adv-x="500" 
d="M439.735 752.258c-5.921 -1.137 -10.374 -3.316 -15.064 -7.295c-22.675 -19.343 -59.595 -29.472 -101.527 -29.472c-25.427 0 -52.697 3.724 -79.751 11.377c-19.021 5.376 -39.706 7.985 -60.605 7.985c-38.955 0 -78.657 -9.064 -109.732 -26.174
c-30.4773 -16.821 -45.6158 -33.844 -45.6158 -51.329c0 -3.195 0.5057 -6.406 1.5158 -9.634c5.372 -17.26 19.4405 -26.137 33.8483 -26.137c13.0335 0 26.3445 7.264 33.7464 22.158c14.2956 28.731 46.4706 44.972 84.1846 44.972c13.645 0 28.015 -2.126 42.526 -6.556
l5.684 -1.706l0.805 -8.763c2.049 -22.573 3.06 -44.916 3.06 -66.824c0 -76.887 -12.461 -148.42 -36.312 -205.781c-13.879 -33.442 -25.958 -51.537 -41.211 -61.626c-7.422 -4.917 -15.147 -7.593 -20.723 -7.593c-2.964 0 -5.322 0.756 -6.703 2.335
c-6.442 7.38 -14.799 11.121 -23.071 11.121c-7.1771 0 -14.2907 -2.816 -20.0343 -8.516c-5.7568 -5.741 -8.3609 -12.918 -8.3609 -19.994c0 -13.885 10.0262 -27.384 25.9342 -28.89c13.584 -1.301 24.23 -1.971 33.417 -1.971c12.887 0 22.903 1.317 34.131 4.055
c57.316 14.021 94.216 55.705 120.552 136.184c17.121 52.302 26.441 118.432 26.441 183.027c0 19.941 -0.888 39.735 -2.709 58.931l-0.332 3.174h10.611c46.8 0 98.384 11.084 131.637 28.231c11.062 5.715 17.006 15.996 17.006 26.42
c0 7.117 -2.771 14.301 -8.575 20.144c-5.275 5.275 -13.439 8.524 -20.683 8.524c-1.408 0 -2.78 -0.123 -4.09 -0.377zM306.156 261.047c-15.49 -3.031 -27.995 -14.115 -32.542 -28.942c-1.421 -4.5 -2.085 -9.9 -2.511 -19.658
c-6.3 -149.826 -74.605 -292.263 -171.237 -357.158c-25.16 -16.903 -51.6613 -27.532 -67.982 -27.532c-1.5623 0 -3.0313 0.097 -4.397 0.296c-1.2585 0.178 -2.4901 0.264 -3.6911 0.264c-13.9658 0 -23.7961 -11.606 -23.7961 -23.796
c0 -5.661 2.11971 -11.448 6.92935 -16.258c5.25785 -5.258 9.03065 -6.751 20.4295 -6.751c1.9514 0 4.1263 0.043 6.5705 0.12c67.0736 2.179 139.453 41.589 198.19 107.857l1.752 1.99l4.927 -2.368c13.309 -6.339 28.605 -9.61 42.822 -9.61
c10.323 0 20.078 1.725 28.088 5.252c5.021 2.212 7.766 6.719 7.766 11.229c0 3.021 -1.231 6.0441 -3.834 8.3812c-2.558 2.321 -3.932 2.7 -11.747 3.2684c-13.785 0.9947 -25.39 5.021 -37.232 12.9789c-2.694 1.8121 -4.032 2.5321 -4.032 3.7668
c0 1.2183 1.302 2.9377 3.89 6.7016c13.216 19.2316 28.563 46.0422 38.084 66.5527c1.895 4.02631 3.553 7.48421 3.742 7.72105c0.007 0.00686 0.015 0.01024 0.023 0.01024c0.221 0 0.95 -2.39879 1.635 -5.45761c11.274 -49.9264 30.505 -113.352 43.342 -143.194
c18.663 -43.295 56.748 -73.279 99.758 -78.585c6.833 -0.847 12.996 -1.265 18.361 -1.265c9.325 0 16.236 1.263 20.055 3.728c7.791 5.078 11.139 12.496 11.139 19.835c0 12.557 -9.798 24.886 -23.899 24.886c-2.259 0 -4.629 -0.316 -7.088 -0.999l-3.173 -0.853
l-2.463 1.137c-11.937 5.494 -24.916 22.547 -33.016 43.247c-22.121 56.7948 -44.669 146.605 -60.158 239.921c-6.3 37.942 -13.263 88.958 -15.679 114.869c-1.658 17.81 -12.458 31.547 -29.132 37.042c-3.238 1.045 -9.695 1.731 -14.753 1.731
c-2.044 0 -3.86 -0.112 -5.141 -0.358zM261.156 -257.968c-79.863 -6.395 -151.342 -32.258 -200.369 -72.379c-25.1052 -20.606 -31.2157 -29.369 -31.2157 -44.811c0 -22.581 17.8469 -35.914 35.9877 -35.914c12.416 0 24.9697 6.246 32.0333 20.046
c13.2635 25.958 42.3005 49.784 79.9575 65.605c7.409 3.129 17.499 6.973 18.287 6.973c0.023 0 0.038 -0.003 0.045 -0.01c0.095 -0.142 0.474 -3.363 0.853 -7.247c1.244 -13.134 1.862 -26.415 1.862 -39.806c0 -67.165 -15.56 -137.072 -45.773 -204.805
c-2.605 -5.873 -5.874 -13.216 -7.247 -16.342c-18.521 -42.489 -52.295 -73.563 -80.0055 -73.658h-4.1685l-2.6526 2.416c-5.0496 4.597 -11.4414 6.877 -17.8611 6.877c-7.0097 0 -14.0526 -2.719 -19.4178 -8.109c-5.5241 -5.506 -8.0975 -12.404 -8.0975 -19.204
c0 -11.333 7.1497 -22.391 19.7027 -26.269c3.1036 -0.953 16.7534 -1.484 29.762 -1.484c9.6252 0 18.8993 0.291 23.2907 0.915c30.5056 4.453 57.9786 15.963 80.9526 34.011c2.463 1.942 4.926 3.884 5.495 4.31l0.994 0.806l-0.615 -2.937
c-0.394 -1.899 -0.587 -3.797 -0.587 -5.676c0 -10.535 6.057 -20.443 16.55 -26.393c39.546 -22.328 81.438 -33.628 124.27 -33.628c11.961 0 23.995 0.881 36.072 2.649c73.279 10.706 129.126 55.658 136.232 109.611c0.432 3.3 0.644 6.631 0.644 9.984
c0 44.433 -37.346 92.653 -96.234 122.648l-6.395 3.221l7.248 3.552c53.337 26.053 87.584 66.79 87.584 104.069c0 43.152 -46.942 89.479 -110.842 109.421c-18.663 5.826 -32.684 8.715 -54 11.179c-5.369 0.602 -18.244 0.936 -30.338 0.936
c-8.823 0 -17.229 -0.178 -22.004 -0.557zM299.761 -303.679c54.398 -4.93 95.219 -38.605 95.219 -75.574c0 -3.882 -0.45 -7.801 -1.382 -11.726c-8.29 -34.863 -53.337 -66.221 -101.7 -70.816c-13.732 -1.28 -22.575 -11.271 -22.575 -22.889
c0 -3.851 0.972 -7.881 3.059 -11.832c3.505 -6.584 9.189 -10.089 19.989 -12.221c33.964 -6.774 60.49 -20.037 81 -40.5c19.967 -19.983 29.071 -42.583 29.071 -63.672c0 -40.549 -33.657 -75.512 -88.471 -75.544h-0.199c-32.324 0 -62.293 11.512 -91.837 35.242
c-6.638 5.333 -13.43 8.025 -20.202 8.025c-1.589 0 -3.177 -0.148 -4.762 -0.446c-0.969 -0.182 -1.651 -0.327 -2.038 -0.327c-0.252 0 -0.378 0.061 -0.378 0.213c0 0.403 0.887 1.443 2.701 3.667c13.594 16.532 21.647 30.126 34.91 59.068
c32.819 71.328 50.356 147.174 50.356 216.904c0 5.149 -0.095 10.265 -0.287 15.344c-0.711 18.995 -2.748 39.884 -4.453 45.379l-0.711 2.226h8.622c4.736 0 11.084 -0.237 14.068 -0.521z" />
    <glyph glyph-name="clefs.percussion" unicode="&#xe11e;" horiz-adv-x="511" 
d="M170.526 0v-250.105h56.842h56.843v250.105v250.105h-56.843h-56.842v-250.105zM397.895 0v-250.105h56.842h56.842v250.105v250.105h-56.842h-56.842v-250.105z" />
    <glyph glyph-name="clefs.varpercussion" unicode="&#xe11f;" horiz-adv-x="341" 
d="M126.616 431.313c-5.448 -1.705 -10.563 -6.916 -12.269 -12.458c-0.497 -1.682 -0.746 -210.257 -0.746 -418.832c0 -208.575 0.249 -417.15 0.746 -418.831c1.753 -5.637 6.869 -10.753 12.458 -12.458c1.706 -0.521 51.134 -0.782 100.563 -0.782
c49.429 0 98.858 0.261 100.564 0.782c5.589 1.705 10.705 6.821 12.457 12.458c0.492 1.685 0.741 205.457 0.741 411.579c0 210.972 -0.261 424.406 -0.788 426.131c-1.705 5.59 -6.821 10.706 -12.458 12.458c-1.57 0.462 -48.712 0.688 -96.976 0.688
c-50.737 0 -102.714 -0.25 -104.292 -0.735zM303.158 0.0234623v-318.315h-75.79h-75.789v318.315v318.316h75.789h75.79v-318.316z" />
    <glyph glyph-name="clefs.C_change" unicode="&#xe120;" horiz-adv-x="514" 
d="M0 0v-406.421h48.7895h48.7894v406.421v406.421h-48.7894h-48.7895v-406.421zM133.579 0v-406.421h12.316h12.316v194.258v194.258l2.036 -1.5631c3.221 -2.5579 13.879 -13.5 18.853 -19.4684c29.889 -35.8106 51.3 -80.8102 65.084 -136.989
c2.748 -10.99 4.737 -13.548 10.753 -13.548c6.347 0 8.716 3.411 9.616 14.021c5.527 62.879 48.129 108.772 95.154 108.772c7.778 0 15.678 -1.2557 23.551 -3.8979c31.31 -10.4685 42.253 -36.9471 44.953 -108.71c0.579 -15.263 0.868 -29.612 0.868 -43.037
c0 -62.283 -6.223 -104.675 -18.537 -126.069c-12.416 -21.621 -37.462 -33.433 -68.317 -33.433c-10.11 0 -20.844 1.268 -31.962 3.875c-10.241 2.367 -29.511 10.089 -29.511 11.554c0 0.148 0.196 0.232 0.616 0.241c5.164 0.047 14.116 3.316 20.132 7.342
c13.033 8.681 19.68 23.159 19.68 37.759c0 13.205 -5.438 26.509 -16.506 35.71c-9.356 7.78 -20.092 11.279 -30.605 11.279c-25.52 0 -49.732 -20.617 -49.732 -50.643c0.047 -20.842 9.379 -34.2 36.426 -52.01c23.801 -15.674 52.558 -23.483 81.924 -23.483
c30.715 0 62.097 8.543 89.171 25.567c53.127 33.382 82.359 87.728 82.359 148.295c0 18.329 -2.678 37.229 -8.18 56.289c-20.416 70.8162 -81.995 121.737 -147.221 121.737c-19.374 0 -35.621 -5.1631 -53.29 -16.9579c-3.789 -2.5105 -7.105 -4.6421 -7.342 -4.7368
c0 -0.0001 -0.001 -0.0001 -0.001 -0.0001c-0.312 0 -10.058 15.708 -21.694 34.958l-21.221 35.1l0.9 1.51579c3.553 6.06316 41.021 67.9263 41.4 68.4c0.048 0.0541 0.123 0.0821 0.23 0.0821c0.639 0 2.403 -1.0092 5.976 -3.4453
c18.107 -12.3055 36.037 -18.3123 55.972 -18.3123c10.99 0 22.59 1.8257 35.165 5.4281c72.843 20.8959 119.392 95.7562 119.392 172.071c0 28.694 -6.581 57.594 -20.819 83.908c-31.614 58.481 -92.407 90.738 -151.567 90.738
c-37.635 0 -74.609 -13.054 -102.991 -40.717c-10.374 -10.117 -14.878 -22.382 -14.878 -34.425c0 -26.02 21.029 -50.997 49.305 -50.997c4.408 0 8.992 0.607 13.7 1.911c21.554 5.969 34.187 25.694 34.187 45.586c0 11.363 -4.123 22.781 -13.061 31.72
c-6.632 6.631 -18.616 12.6 -25.342 12.647c-1.005 0.011 -1.501 0.175 -1.501 0.483c0 0.954 4.756 3.29 13.817 6.764c14.469 5.587 30.824 8.33 46.46 8.33c18.968 0 36.879 -4.037 49.082 -11.93c26.1 -16.91 36.616 -51.679 37.942 -125.621
c0.134 -7.887 0.2 -15.693 0.2 -23.322c0 -35.394 -1.418 -66.995 -3.99 -85.388c-5.4 -38.8898 -19.373 -59.2582 -45.142 -65.8424c-6.618 -1.6893 -13.189 -2.501 -19.641 -2.501c-48.733 0 -90.723 46.3034 -95.701 110.595c-0.568 7.295 -1.61 9.237 -6.158 11.369
c-1.281 0.595 -2.53 0.883 -3.721 0.883c-4.404 0 -8.023 -3.934 -9.589 -10.831c-14.163 -62.526 -43.437 -119.605 -78.916 -153.994c-3.79 -3.6473 -7.058 -6.6789 -7.342 -6.6789c-0.237 0 -0.426 72.6631 -0.426 193.973v193.974h-12.316h-12.316v-406.421z" />
    <glyph glyph-name="clefs.varC_change" unicode="&#xe121;" horiz-adv-x="434" 
d="M356.684 503.477c-31.216 -3.979 -55.895 -27.379 -60.395 -57.269c-0.615 -3.836 -0.71 -27.331 -0.71 -163.042v-158.589h-68.684h-68.684v140.921v140.921h-12.316h-12.316v-406.421v-406.421h12.316h12.316v140.921v140.921h68.684h68.684l0.142 -160.674
l0.142 -160.721l0.995 -4.026c8.584 -34.066 38.694 -54.089 69.32 -54.089c17.368 0 34.902 6.44 48.769 20.41c13.63 13.723 19.741 30.574 19.741 46.998c0 33.374 -25.237 64.981 -63.914 64.981h-0.116c-19.658 0 -38.7 -9.284 -49.405 -24.063l-0.995 -1.421
l-0.047 173.842c0 118.231 -0.143 174.41 -0.474 175.595c-0.805 2.7947 -3.269 5.6842 -6.111 7.1526l-2.605 1.279h-76.405h-76.405v39.3157v39.3158l76.642 0.0948c85.831 0.1421 78.158 -0.1895 81.805 3.4579c3.695 3.6947 3.268 -16.2474 3.553 179.716l0.236 174.505
l1.99 -2.605c11.669 -15.103 29.611 -22.604 47.77 -22.604c18.917 0 38.071 8.141 50.614 24.309c9.717 12.531 14.049 26.465 14.049 40.045c0 35.113 -28.963 67.859 -68.686 67.859c-3.103 0 -6.273 -0.2 -9.5 -0.614zM0 -0.00205276v-406.421h48.7895h48.7894v406.421
v406.421h-48.7894h-48.7895v-406.421z" />
    <glyph glyph-name="clefs.F_change" unicode="&#xe122;" horiz-adv-x="529" 
d="M184.396 202.642c-85.7845 -3.884 -158.305 -56.653 -175.974 -128.084c-2.55932 -10.3498 -3.7692 -20.5806 -3.7692 -30.4883c0 -55.0944 37.4122 -100.196 88.2355 -100.196c1.6103 0 3.2341 0.0453 4.8706 0.1369c45.7901 2.5314 75.4961 40.7637 75.4961 80.4432
c0 18.9773 -6.795 38.2857 -21.875 54.1779c-15.133 15.928 -36.325 24.3004 -57.4439 24.3004c-14.1154 0 -28.1986 -3.7402 -40.4193 -11.4636c-1.4292 -0.9063 -2.339 -1.4727 -2.7623 -1.4727c-0.187 0 -0.279 0.1105 -0.279 0.3511c0 0.695 0.7682 2.4751 2.236 5.8111
c21.1263 47.9841 65.6525 79.3421 123.394 86.9681c3.127 0.403 10.445 0.604 17.675 0.604c7.229 0 14.37 -0.201 17.141 -0.604c69.774 -10.468 113.637 -66.789 123.016 -157.831c0.729 -7.1135 1.071 -15.8718 1.071 -25.4248
c0 -25.8158 -2.499 -57.4343 -6.613 -78.0752c-28.184 -141.821 -138.6 -264.932 -295.342 -329.353c-8.7158 -3.553 -25.6737 -10.042 -26.3368 -10.042c-2.91315 0 -6.71678 -5.428 -6.71678 -9.302c0 -0.221 0.0123213 -0.436 0.0378294 -0.645
c0.638584 -5.41 3.92835 -8.138 9.75117 -8.138c1.5198 0 3.2123 0.186 5.0751 0.559c208.374 41.637 373.311 187.958 415.09 368.289c5.514 23.7479 8.301 45.7534 8.301 66.3359c0 46.9521 -14.502 86.4984 -44.207 122.427
c-41.89 50.663 -115.876 81.029 -195.628 81.029c-4.657 0 -9.333 -0.104 -14.024 -0.313zM493.948 124.958c-17.107 -3.439 -25.245 -16.972 -25.245 -30.3714c0 -15.1676 10.426 -30.1658 30.071 -30.1658c0.049 0 0.099 0.0001 0.148 0.0003
c19.352 0.0534 30.257 15.3097 30.257 30.6202c0 11.8227 -6.503 23.6777 -20.641 28.5907c-2.576 0.894 -7.826 1.545 -11.568 1.545c-1.213 0 -2.268 -0.068 -3.022 -0.219zM493.948 -64.5158c-17.107 -3.4393 -25.245 -16.9714 -25.245 -30.3713
c0 -15.1679 10.426 -30.1659 30.071 -30.1659h0.148c19.352 0.054 30.257 15.31 30.257 30.6206c0 11.8228 -6.503 23.678 -20.641 28.5903c-2.576 0.8943 -7.826 1.5455 -11.568 1.5455c-1.213 0 -2.268 -0.0684 -3.022 -0.2192z" />
    <glyph glyph-name="clefs.G_change" unicode="&#xe123;" horiz-adv-x="499" 
d="M287.286 864.727c-4.873 -1.814 -30.38 -26.077 -41.578 -39.608c-37.483 -45.207 -61.072 -99.073 -68.693 -156.878c-2.086 -15.811 -3.131 -30.647 -3.131 -45.315c0 -17.411 1.473 -34.586 4.427 -52.876c0.83 -5.133 13.894 -66.982 27.996 -132.615l1.607 -7.362
l-15.242 -15.19c-65.375 -65.271 -133.652 -149.62 -158.278 -195.553c-23.4638 -43.831 -34.3942 -90.27 -34.3942 -135.605c0 -123.146 80.6533 -238.137 209.832 -270.536c21.519 -5.413 44.504 -8.123 66.586 -8.123c21.274 0 41.709 2.516 59.186 7.553
c1.515 0.438 2.907 0.693 3.564 0.693c0.197 0 0.328 -0.023 0.376 -0.071c0.311 -0.311 15.034 -68.641 18.56 -86.164c4.154 -20.663 6.217 -40.119 6.217 -58.132c0 -34.368 -7.51 -63.487 -22.34 -85.733c-26.297 -39.426 -70.041 -61.405 -115.439 -61.405
c-19.132 0 -38.559 3.904 -57.096 12.05l-4.925 2.178l7.051 0.57c45.081 3.939 71.498 40.814 71.498 78.507c0 24.813 -11.448 49.982 -36.556 66.343c-14.003 9.121 -29.241 13.255 -44.192 13.255c-44.114 0 -85.7274 -35.991 -85.7274 -86.095
c0 -22.189 6.7396 -38.934 22.9666 -57.027c34.2478 -38.139 80.8018 -56.796 126.894 -56.796c53.403 0 106.186 25.045 138.492 73.852c17.478 26.408 26.445 60.963 26.445 100.769c0 14.271 -1.152 29.216 -3.478 44.704c-1.556 10.524 -4.718 26.129 -14.672 72.321
l-7.673 35.772l2.126 0.985c19.078 8.969 25.559 12.494 36.86 19.856c61.745 40.533 94.545 105.203 94.545 170.456c0 43.9971 -14.911 88.2599 -45.916 125.569c-35.131 42.332 -90.467 68.11 -143.217 68.11c-6.878 0 -13.712 -0.438 -20.452 -1.336
c-2.893 -0.379 -5.309 -0.628 -5.699 -0.628c-0.037 0 -0.055 0.002 -0.055 0.006c-0.052 0.052 -5.185 23.9 -11.406 52.984c-6.169 29.084 -12.857 60.242 -14.775 69.211l-3.578 16.331l10.473 10.368c5.754 5.703 16.382 16.072 23.64 23.071
c73.161 70.487 111.167 155.297 111.167 244.486c0 30.199 -4.357 60.9 -13.183 91.718c-16.33 56.975 -42.615 107.056 -72.218 137.592c-9.893 10.183 -16.349 14.549 -22.218 14.549c-1.481 0 -2.925 -0.278 -4.377 -0.811zM323.421 750.413
c22.603 -2.8 32.661 -17.731 34.683 -51.377c0.168 -2.809 0.252 -5.66 0.252 -8.551c0 -63.864 -40.75 -147.086 -107.36 -218.16c-8.539 -9.101 -19.447 -19.966 -19.995 -19.966c-0.008 0 -0.013 0.002 -0.017 0.006c-0.259 0.363 -16.227 75.225 -17.419 81.913
c-2.781 15.218 -4.142 30.456 -4.142 45.436c0 47.023 13.416 91.489 38.462 124.714c19.908 26.44 46.089 44.17 68.278 46.244c0.985 0.052 2.073 0.207 2.333 0.207c0.032 0.006 0.084 0.008 0.155 0.008c0.617 0 2.631 -0.195 4.77 -0.474zM231.917 318.247
c0.156 -1.089 5.91 -28.099 12.754 -59.983c6.791 -31.935 12.39 -58.324 12.39 -58.687c0 -0.311 -2.799 -1.555 -6.221 -2.747c-68.178 -23.366 -108.304 -87.326 -108.304 -152.098c0 -33.2417 10.569 -66.697 33.339 -94.988
c17.277 -21.5088 51.782 -45.2689 65.14 -45.2689c0.39 0 0.762 0.0203 1.115 0.0615c6.865 0.8294 10.51 5.5562 10.51 10.8464c0 4.2989 -2.407 8.97 -7.451 12.2239c-31.192 20.0684 -46.119 50.9529 -46.119 81.9479c0 39.0666 23.714 78.3086 68.464 96.2897
c3.058 1.192 6.324 2.436 7.258 2.696l1.762 0.466l15.139 -70.8178c8.346 -38.9344 21.463 -100.317 29.135 -136.348c7.63 -35.6412 13.794 -65.1112 13.794 -66.1272c0 -0.013 -0.001 -0.021 -0.003 -0.025c-0.208 -0.674 -10.421 -3.888 -16.901 -5.392
c-14.021 -3.225 -28.074 -4.784 -41.961 -4.784c-77.617 0 -150.054 48.698 -182.728 127.238c-11.6999 28.1147 -17.4452 58.161 -17.4452 88.4866c0 50.7026 16.0605 102.186 47.2033 146.727c28.669 40.956 63.664 84.089 100.783 124.268
c5.215 5.644 6.963 7.59 7.678 7.59c0.409 0 0.481 -0.634 0.669 -1.576zM330.16 111.755c68.511 -12.6598 112.072 -71.8768 112.072 -134.956c0 -24.7498 -6.706 -50.0941 -21.242 -73.4542c-13.635 -21.9297 -34.839 -42.3557 -56.924 -54.7987l-3.681 -2.073
l-12.494 58.6344c-6.895 32.2465 -19.545 91.3997 -28.099 131.475c-8.555 40.0749 -15.761 73.773 -16.02 74.862l-0.518 2.022l10.472 -0.311c7.362 -0.208 12.235 -0.623 16.434 -1.4z" />
    <glyph glyph-name="clefs.GG_change" unicode="&#xe124;" horiz-adv-x="756" 
d="M287.286 864.727c-4.873 -1.814 -30.38 -26.077 -41.578 -39.608c-37.483 -45.207 -61.072 -99.073 -68.693 -156.878c-2.086 -15.811 -3.131 -30.647 -3.131 -45.315c0 -17.411 1.473 -34.586 4.427 -52.876c0.83 -5.133 13.894 -66.982 27.996 -132.615l1.607 -7.362
l-15.242 -15.19c-65.375 -65.271 -133.652 -149.62 -158.278 -195.553c-23.4638 -43.831 -34.3942 -90.27 -34.3942 -135.605c0 -123.146 80.6533 -238.137 209.832 -270.536c21.519 -5.413 44.504 -8.123 66.586 -8.123c21.274 0 41.709 2.516 59.186 7.553
c1.515 0.438 2.907 0.693 3.564 0.693c0.197 0 0.328 -0.023 0.376 -0.071c0.311 -0.311 15.034 -68.641 18.56 -86.164c3.162 -15.864 5.236 -31.365 6.066 -45.881l0.362 -6.221l-4.043 -3.888c-17.396 -16.825 -26.966 -40.023 -26.966 -63.005
c0 -8.319 1.253 -16.609 3.844 -24.559l1.607 -4.821l-3.474 -4.511c-25.992 -33.682 -67.047 -52.228 -109.143 -52.228c-19.197 0 -38.611 3.857 -56.911 11.894l-4.925 2.178l7.051 0.57c45.081 3.939 71.498 40.814 71.498 78.507
c0 24.813 -11.448 49.982 -36.556 66.343c-14.003 9.121 -29.241 13.255 -44.192 13.255c-44.114 0 -85.7274 -35.991 -85.7274 -86.095c0 -28.202 11.8203 -49.821 40.4894 -73.928c31.754 -26.741 70.775 -39.863 109.471 -39.863c46.152 0 91.842 18.666 124.187 55.157
l3.629 4.095l2.489 -2.799c33.504 -37.224 80.446 -56.434 127.277 -56.434c36.72 0 73.372 11.81 103.425 36.007c41.526 33.434 60.797 77.18 60.797 138.221c0 1.525 -0.012 3.061 -0.036 4.608c-0.467 29.758 -1.607 36.86 -17.938 112.759l-7.673 35.772l2.126 0.985
c19.078 8.969 25.558 12.494 36.86 19.856c61.745 40.533 94.545 105.203 94.545 170.456c0 43.9971 -14.912 88.2599 -45.916 125.569c-35.131 42.332 -90.467 68.11 -143.217 68.11c-6.878 0 -13.712 -0.438 -20.452 -1.336c-2.893 -0.379 -5.309 -0.628 -5.699 -0.628
c-0.037 0 -0.056 0.002 -0.056 0.006c-0.051 0.052 -5.184 23.9 -11.405 52.984c-6.17 29.084 -12.857 60.242 -14.776 69.211l-3.577 16.331l10.473 10.368c5.754 5.703 16.382 16.072 23.64 23.071c73.16 70.487 111.167 155.297 111.167 244.486
c0 30.199 -4.357 60.9 -13.183 91.718c-16.331 56.975 -42.615 107.056 -72.218 137.592c-9.641 9.945 -15.678 14.52 -21.491 14.52c-4.097 0 -8.082 -2.272 -13.14 -6.536c-7.984 -6.74 -27.01 -25.922 -33.543 -33.854c-37.482 -45.207 -61.071 -99.073 -68.692 -156.878
c-2.086 -15.788 -3.132 -30.621 -3.132 -45.294c0 -17.417 1.474 -34.607 4.428 -52.897c0.83 -5.133 13.894 -66.982 27.995 -132.615l1.608 -7.362l-15.242 -15.19c-51.222 -51.118 -112.034 -123.387 -143.866 -170.928c-5.443 -8.139 -18.663 -31.728 -20.841 -37.171
c-0.414 -0.934 -0.829 -1.711 -1.036 -1.711c-0.156 0 -4.148 17.886 -8.814 39.815c-4.666 21.878 -11.353 53.088 -14.879 69.315l-6.325 29.551l10.421 10.368c5.754 5.703 16.382 16.072 23.64 23.071c73.161 70.487 111.167 155.297 111.167 244.486
c0 30.199 -4.357 60.9 -13.183 91.718c-16.33 56.975 -42.615 107.056 -72.218 137.592c-9.893 10.183 -16.349 14.549 -22.218 14.549c-1.481 0 -2.925 -0.278 -4.377 -0.811zM323.421 750.413c22.603 -2.8 32.661 -17.731 34.683 -51.377
c0.168 -2.809 0.252 -5.66 0.252 -8.551c0 -63.864 -40.75 -147.086 -107.36 -218.16c-8.539 -9.101 -19.447 -19.966 -19.995 -19.966c-0.008 0 -0.013 0.002 -0.017 0.006c-0.259 0.363 -16.227 75.225 -17.419 81.913c-2.781 15.218 -4.142 30.456 -4.142 45.436
c0 47.023 13.416 91.489 38.462 124.714c19.908 26.44 46.089 44.17 68.278 46.244c0.985 0.052 2.073 0.207 2.333 0.207c0.032 0.006 0.084 0.008 0.155 0.008c0.617 0 2.631 -0.195 4.77 -0.474zM580.564 750.413c22.603 -2.8 32.661 -17.731 34.683 -51.377
c0.168 -2.809 0.252 -5.66 0.252 -8.551c0 -63.864 -40.75 -147.086 -107.361 -218.16c-8.538 -9.101 -19.446 -19.966 -19.994 -19.966c-0.008 0 -0.014 0.002 -0.017 0.006c-0.259 0.363 -16.227 75.225 -17.419 81.913c-2.781 15.218 -4.142 30.456 -4.142 45.436
c0 47.023 13.416 91.489 38.462 124.714c19.908 26.44 46.089 44.17 68.277 46.244c0.985 0.052 2.074 0.207 2.333 0.207c0.032 0.006 0.085 0.008 0.156 0.008c0.617 0 2.631 -0.195 4.77 -0.474zM231.917 318.247c0.156 -1.089 5.91 -28.099 12.754 -59.983
c6.791 -31.935 12.39 -58.324 12.39 -58.687c0 -0.311 -2.799 -1.555 -6.221 -2.747c-68.178 -23.366 -108.304 -87.326 -108.304 -152.098c0 -33.2417 10.569 -66.697 33.339 -94.988c17.277 -21.5088 51.782 -45.2689 65.14 -45.2689c0.39 0 0.762 0.0203 1.115 0.0615
c6.865 0.8294 10.51 5.5562 10.51 10.8464c0 4.2989 -2.407 8.97 -7.451 12.2239c-29.782 19.1456 -46.001 48.1036 -46.001 80.9797c0 5.58199 0.468 11.2769 1.416 17.056c5.08 30.7949 26.699 60.3975 54.28 74.3949l2.696 1.348l-0.311 -11.2498
c-0.071 -2.4638 -0.107 -4.9323 -0.107 -7.4045c0 -60.7329 21.293 -123.631 57.808 -170.159l4.925 -6.273l7.466 -34.9938c4.052 -18.844 7.263 -34.57 7.263 -35.571c0 -0.023 -0.002 -0.039 -0.005 -0.046c-0.208 -0.674 -10.421 -3.888 -16.901 -5.392
c-14.021 -3.225 -28.074 -4.784 -41.961 -4.784c-77.617 0 -150.054 48.698 -182.728 127.238c-11.6999 28.1147 -17.4452 58.161 -17.4452 88.4866c0 50.7026 16.0605 102.186 47.2033 146.727c28.669 40.956 63.664 84.089 100.783 124.268
c5.215 5.644 6.963 7.59 7.678 7.59c0.409 0 0.481 -0.634 0.669 -1.576zM489.06 318.247c0.156 -1.089 5.91 -28.099 12.754 -59.983c6.791 -31.935 12.39 -58.324 12.39 -58.687c0 -0.311 -2.799 -1.555 -6.221 -2.747
c-68.178 -23.366 -108.304 -87.326 -108.304 -152.098c0 -33.2417 10.568 -66.697 33.338 -94.988c17.278 -21.5088 51.783 -45.2689 65.141 -45.2689c0.39 0 0.762 0.0203 1.115 0.0615c6.864 0.8294 10.51 5.5562 10.51 10.8464c0 4.2989 -2.407 8.97 -7.451 12.2239
c-31.192 20.0684 -46.119 50.9529 -46.119 81.9479c0 39.0666 23.714 78.3086 68.463 96.2897c3.059 1.192 6.325 2.436 7.258 2.696l1.763 0.466l15.138 -70.8178c8.347 -38.9344 21.464 -100.317 29.136 -136.348c7.63 -35.6412 13.794 -65.1112 13.794 -66.1272
c0 -0.013 -0.001 -0.021 -0.003 -0.025c-0.208 -0.674 -10.421 -3.888 -16.901 -5.392c-14.021 -3.225 -28.074 -4.784 -41.961 -4.784c-77.618 0 -150.055 48.698 -182.728 127.238c-11.7 28.1147 -17.445 58.161 -17.445 88.4866c0 50.7026 16.06 102.186 47.203 146.727
c28.669 40.956 63.663 84.089 100.783 124.268c5.215 5.644 6.963 7.59 7.678 7.59c0.409 0 0.481 -0.634 0.669 -1.576zM587.303 111.755c68.511 -12.6598 112.072 -71.8768 112.072 -134.956c0 -24.7498 -6.706 -50.0941 -21.242 -73.4542
c-13.635 -21.9297 -34.839 -42.3557 -56.924 -54.7987l-3.681 -2.073l-12.494 58.6344c-6.896 32.2465 -19.545 91.3997 -28.1 131.475c-8.554 40.0749 -15.76 73.773 -16.019 74.862l-0.519 2.022l10.473 -0.311c7.362 -0.208 12.235 -0.623 16.434 -1.4zM362.044 -135.279
c2.851 -2.281 6.74 -5.288 8.71 -6.687c1.918 -1.348 3.473 -2.644 3.473 -2.8c0 -0.415 -6.273 -4.51 -10.68 -6.999l-3.162 -1.762l-2.177 10.42c-1.245 5.755 -2.333 10.991 -2.489 11.665c-0.067 0.287 -0.12 0.519 -0.12 0.673c0 0.136 0.041 0.212 0.149 0.212
c0.434 0 1.959 -1.232 6.296 -4.722zM411.191 -166.333c38.067 -18.843 81.97 -28.76 122.919 -28.76c20.676 0 40.599 2.528 58.637 7.712c1.514 0.438 2.907 0.693 3.563 0.693c0.198 0 0.329 -0.023 0.377 -0.071c0.311 -0.311 15.034 -68.641 18.56 -86.164
c4.154 -20.663 6.217 -40.119 6.217 -58.132c0 -34.368 -7.51 -63.487 -22.341 -85.733c-26.296 -39.426 -70.04 -61.405 -115.438 -61.405c-19.133 0 -38.559 3.904 -57.096 12.05l-4.925 2.178l7.05 0.57c43.785 3.833 71.657 39.897 71.657 78.026
c0 18.078 -6.266 36.621 -20.072 52.412c-15.423 17.632 -38.985 27.616 -62.286 27.616c-7.873 0 -15.715 -1.139 -23.204 -3.509c-1.974 -0.658 -3.65 -1.103 -3.946 -1.103c-0.03 0 -0.046 0.005 -0.046 0.014c0 11.043 -4.407 35.15 -17.575 96.377l-7.673 35.772
l2.126 0.985c8.398 3.888 23.589 11.613 27.01 13.738c2.281 1.4 4.251 2.593 4.303 2.593h0.005c0.203 0 5.657 -2.675 12.178 -5.859z" />
    <glyph glyph-name="clefs.tenorG_change" unicode="&#xe125;" horiz-adv-x="673" 
d="M580.201 999.624c-19.908 -7.259 -35.565 -23.071 -42.097 -42.616c-3.001 -8.955 -3.165 -0.195 -3.165 -121.981c0 -14.989 0.002 -31.955 0.002 -51.175v-159.367h-67.811h-67.863l-0.311 11.043c-2.073 73.566 -39.608 168.491 -85.075 215.461
c-9.64 9.945 -15.677 14.52 -21.491 14.52c-4.097 0 -8.082 -2.272 -13.14 -6.536c-7.984 -6.74 -27.01 -25.922 -33.542 -33.854c-37.483 -45.207 -61.072 -99.073 -68.693 -156.878c-2.086 -15.811 -3.131 -30.647 -3.131 -45.315c0 -17.411 1.473 -34.586 4.427 -52.876
c0.83 -5.133 13.894 -66.982 27.996 -132.615l1.607 -7.362l-15.242 -15.19c-65.375 -65.271 -133.652 -149.62 -158.278 -195.553c-23.4638 -43.831 -34.3942 -90.27 -34.3942 -135.605c0 -123.146 80.6533 -238.137 209.832 -270.536
c21.519 -5.413 44.504 -8.123 66.586 -8.123c21.274 0 41.709 2.516 59.186 7.553c1.515 0.438 2.907 0.693 3.564 0.693c0.197 0 0.328 -0.023 0.376 -0.071c0.311 -0.311 15.034 -68.641 18.56 -86.164c4.154 -20.663 6.217 -40.119 6.217 -58.132
c0 -34.368 -7.51 -63.487 -22.34 -85.733c-26.297 -39.426 -70.041 -61.405 -115.439 -61.405c-19.132 0 -38.559 3.904 -57.096 12.05l-4.925 2.178l7.051 0.57c45.081 3.939 71.498 40.814 71.498 78.507c0 24.813 -11.448 49.982 -36.556 66.343
c-14.003 9.121 -29.241 13.255 -44.192 13.255c-44.114 0 -85.7274 -35.991 -85.7274 -86.095c0 -22.189 6.7396 -38.934 22.9666 -57.027c34.2478 -38.139 80.8018 -56.796 126.894 -56.796c53.403 0 106.186 25.045 138.492 73.852
c17.478 26.408 26.445 60.963 26.445 100.769c0 14.271 -1.152 29.216 -3.478 44.704c-1.556 10.524 -4.718 26.129 -14.672 72.321l-7.673 35.772l2.126 0.985c19.078 8.969 25.559 12.494 36.86 19.856c61.745 40.533 94.545 105.203 94.545 170.456
c0 43.9971 -14.911 88.2599 -45.916 125.569c-35.131 42.332 -90.467 68.11 -143.217 68.11c-6.878 0 -13.712 -0.438 -20.452 -1.336c-2.893 -0.379 -5.309 -0.628 -5.699 -0.628c-0.037 0 -0.055 0.002 -0.055 0.006c-0.052 0.052 -5.185 23.9 -11.406 52.984
c-6.169 29.084 -12.857 60.242 -14.775 69.211l-3.578 16.331l5.288 5.34c2.904 2.955 10.265 10.161 16.331 15.967l11.043 10.576h124.164h124.113v-159.366c0 -20.445 -0.002 -38.33 -0.002 -53.992c0 -117.466 0.161 -109.851 2.906 -118.543
c9.508 -30.3512 38.539 -47.5474 67.676 -47.5474c18.841 0 37.727 7.19001 51.408 22.6626c11.506 12.9886 16.989 28.9127 16.989 44.5876c0 23.2409 -12.055 45.9338 -34.409 57.6988c-9.263 4.861 -19.403 7.197 -29.437 7.197c-18.438 0 -36.523 -7.887 -48.172 -22.49
l-2.333 -2.904l-0.259 174.816l-0.259 174.868l-1.504 2.384c-0.829 1.297 -2.592 3.059 -3.888 3.889l-2.385 1.503l-98.088 0.156c-53.968 0.052 -98.139 0.207 -98.139 0.363c0 0.155 2.489 4.873 5.547 10.524c11.043 20.426 19.39 40.697 26.078 63.508l1.192 3.992
h80.15c62.523 0 80.616 0.155 82.223 0.674c3.111 0.933 5.651 2.903 7.31 5.547l1.504 2.333l0.259 174.919l0.259 174.92l1.503 -2.126c5.496 -7.932 17.886 -16.693 28.722 -20.323c6.918 -2.301 13.774 -3.37 20.411 -3.37c34.929 0 63.796 29.61 63.796 65.016
c0 7.271 -1.218 14.787 -3.85 22.341c-6.584 18.819 -22.034 34.216 -41.268 41.165l-3.784 1.35h-20.063l-20.064 -0.06zM323.421 750.413c15.086 -1.867 25.299 -9.851 29.758 -23.278c3.418 -10.277 5.102 -22.703 5.102 -36.213
c0 -19.273 -3.426 -40.753 -10.131 -61.356l-1.607 -5.081h-66.515c-40.282 0 -66.515 0.208 -66.515 0.467c0 3.422 7.569 28.721 11.768 39.453c17.938 45.57 57.494 83.156 90.882 86.267c0.985 0.052 2.073 0.207 2.333 0.207c0.032 0.006 0.084 0.008 0.155 0.008
c0.617 0 2.631 -0.195 4.77 -0.474zM303.202 538.685c0 -0.519 -6.325 -9.747 -12.961 -18.923c-13.946 -19.182 -28.41 -36.394 -44.793 -53.243l-5.651 -5.859h-5.339c-5.029 0 -5.288 0.052 -5.548 1.193c-2.177 8.709 -15.916 74.447 -15.916 76.158
c0 0.881 2.074 0.933 45.104 0.933c24.833 0 45.104 -0.104 45.104 -0.259zM231.917 318.247c0.156 -1.089 5.91 -28.099 12.754 -59.983c6.791 -31.935 12.39 -58.324 12.39 -58.687c0 -0.311 -2.799 -1.555 -6.221 -2.747
c-68.178 -23.366 -108.304 -87.326 -108.304 -152.098c0 -33.2417 10.569 -66.697 33.339 -94.988c17.277 -21.5088 51.782 -45.2689 65.14 -45.2689c0.39 0 0.762 0.0203 1.115 0.0615c6.865 0.8294 10.51 5.5562 10.51 10.8464c0 4.2989 -2.407 8.97 -7.451 12.2239
c-31.192 20.0684 -46.119 50.9529 -46.119 81.9479c0 39.0666 23.714 78.3086 68.464 96.2897c3.058 1.192 6.324 2.436 7.258 2.696l1.762 0.466l15.139 -70.8178c8.346 -38.9344 21.463 -100.317 29.135 -136.348c7.63 -35.6412 13.794 -65.1112 13.794 -66.1272
c0 -0.013 -0.001 -0.021 -0.003 -0.025c-0.208 -0.674 -10.421 -3.888 -16.901 -5.392c-14.021 -3.225 -28.074 -4.784 -41.961 -4.784c-77.617 0 -150.054 48.698 -182.728 127.238c-11.6999 28.1147 -17.4452 58.161 -17.4452 88.4866
c0 50.7026 16.0605 102.186 47.2033 146.727c28.669 40.956 63.664 84.089 100.783 124.268c5.215 5.644 6.963 7.59 7.678 7.59c0.409 0 0.481 -0.634 0.669 -1.576zM330.16 111.755c68.511 -12.6598 112.072 -71.8768 112.072 -134.956
c0 -24.7498 -6.706 -50.0941 -21.242 -73.4542c-13.635 -21.9297 -34.839 -42.3557 -56.924 -54.7987l-3.681 -2.073l-12.494 58.6344c-6.895 32.2465 -19.545 91.3997 -28.099 131.475c-8.555 40.0749 -15.761 73.773 -16.02 74.862l-0.518 2.022l10.472 -0.311
c7.362 -0.208 12.235 -0.623 16.434 -1.4z" />
    <glyph glyph-name="clefs.tab_change" unicode="&#xe126;" horiz-adv-x="400" 
d="M348.945 601.153c-3.695 -1.042 -5.305 -1.942 -8.621 -4.642c-19.607 -15.981 -48.298 -24.217 -81.39 -24.217c-20.073 0 -41.765 3.031 -64.031 9.201c-15.821 4.368 -32.509 6.472 -49.163 6.472c-40.587 0 -80.976 -12.493 -108.148 -35.13
c-11.7948 -9.805 -15.4421 -16.153 -15.4421 -26.811c0 -18.089 13.9139 -28.608 28.2935 -28.608c10.0959 0 20.4215 5.185 26.3223 16.577c12.3999 23.921 36.9651 36.954 67.0301 36.954c10.478 0 21.623 -1.582 33.154 -4.838c6.774 -1.895 6.158 -0.806 7.153 -12.979
c1.321 -16.964 1.978 -33.534 1.978 -49.658c0 -71.179 -12.802 -133.686 -37.789 -183.158c-10.563 -20.984 -23.779 -33.632 -37.563 -36.048c-1.424 -0.244 -2.6 -0.375 -3.606 -0.375c-2.507 0 -3.961 0.817 -5.583 2.744c-4.7036 5.57 -10.7834 7.969 -16.8028 7.969
c-12.0696 0 -23.8965 -9.645 -23.8965 -22.708c0 -2.141 0.3177 -4.374 1.0041 -6.672c4.2158 -13.926 14.1158 -17.905 45.0472 -18c0.163 0 0.325 -0.001 0.487 -0.001c38.966 0 72.457 16.993 94.345 47.796c31.981 45.027 52.02 128.985 52.02 209.967
c0 16.053 -0.788 31.988 -2.426 47.48l-0.284 2.653l12.269 0.284c48.315 1.232 101.794 16.106 111.315 31.027c2.581 4.031 3.731 8.307 3.731 12.445c0 12.215 -10.015 23.234 -22.821 23.234c-2.128 0 -4.334 -0.304 -6.583 -0.958zM245.208 208.942
c-13.216 -2.558 -23.258 -11.7 -26.716 -24.205c-0.995 -3.695 -1.137 -5.211 -1.942 -19.184c-6.205 -107.195 -48.932 -206.1 -113.921 -263.606c-27.2127 -24.0464 -58.0711 -39.6014 -78.4048 -39.6014c-0.6551 0 -1.2993 0.016 -1.932 0.049
c-2.0105 0.103 -3.46 0.162 -4.5949 0.162c-1.9936 0 -3.0166 -0.183 -4.4051 -0.636c-8.52428 -2.813 -13.2922 -10.425 -13.2922 -18.191c0 -5.05 2.0169 -10.165 6.32903 -14.067c3.84507 -3.453 6.91017 -4.533 15.575 -4.533c1.7962 0 3.8329 0.047 6.1671 0.128
c52.8632 1.942 109.09 32.589 157.074 85.6894l1.942 2.0842l4.168 -1.9421c10.891 -5.0178 24.133 -7.481 35.619 -7.481c12.694 0 23.243 3.0085 26.102 8.902c0.807 1.6567 1.196 3.2252 1.196 4.6689c0 4.9957 -4.648 8.4955 -12.659 8.9732
c-11.226 0.7579 -24.3 5.5895 -32.258 12.0316l-1.373 1.0895l5.21 7.7684c9.9 14.6842 17.763 28.4211 27 47.0369c2.796 5.68196 5.12 10.076 5.336 10.076c0.011 0 0.017 -0.01117 0.017 -0.03391c0 -2.27368 8.905 -37.421 13.926 -54.8053
c21.884 -76.2158 36.711 -100.421 72.521 -118.327c12.138 -6.053 30.083 -9.685 43.632 -9.685c6.596 0 12.149 0.861 15.484 2.722c6.647 3.72 9.484 9.78 9.484 15.897c0 10.162 -7.829 20.478 -19.027 20.478c-1.806 0 -3.7 -0.268 -5.662 -0.848
c-0.517 -0.156 -1.064 -0.232 -1.638 -0.232c-7.626 0 -19.91 13.397 -27.399 30.358c-23.211 52.4842 -52.058 184.405 -62.242 285.11c-1.279 12.269 -3.695 18.19 -10.184 24.632c-6.187 6.226 -15.553 9.994 -24.091 9.994c-1.725 0 -3.416 -0.154 -5.041 -0.473z
M215.366 -205.911c-1.042 -0.047 -4.879 -0.331 -8.526 -0.615c-66.6 -5.163 -126.095 -28.469 -167.685 -65.795c-10.7449 -9.624 -16.0838 -18.981 -16.0838 -28.221c0 -4.813 1.4487 -9.594 4.3365 -14.363c5.8192 -9.581 14.8423 -14.263 24.0279 -14.263
c10.4793 0 21.17 6.094 27.5563 17.957c11.7947 22.027 37.5628 41.495 72.0948 54.474c2.787 1.034 5.19 1.855 5.509 1.855c0.017 0 0.028 -0.003 0.033 -0.007c0.521 -0.569 1.753 -19.658 1.989 -31.216c0.046 -2.282 0.068 -4.569 0.068 -6.858
c0 -52.796 -12.022 -107.563 -35.357 -160.59c-8.384 -19.042 -9.758 -22.073 -12.032 -26.289c-14.8732 -27.947 -39.5048 -48.316 -58.4996 -48.316c-3.4578 0 -3.4578 0 -6.3947 2.369c-4.4058 3.547 -9.2022 5.087 -13.8104 5.087
c-11.5886 0 -21.9866 -9.74 -21.9866 -21.79c0 -3.25 0.7563 -6.668 2.4496 -10.108c4.879 -9.805 10.1843 -11.842 32.1158 -12.316c1.4433 -0.031 2.8733 -0.047 4.2905 -0.047c34.768 0 61.8054 9.536 87.7934 30.837l1.516 1.231l-0.426 -1.8
c-0.495 -2.13 -0.752 -4.135 -0.752 -6.041c0 -9.58 6.478 -16.657 21.689 -24.559c29.233 -15.161 61.482 -22.312 92.396 -22.312c56.397 0 108.349 23.799 129.43 66.175c5.005 10.055 7.414 20.579 7.414 31.213c0 35.657 -27.077 72.542 -74.109 97.061l-7.389 3.884
l7.673 3.885c41.987 21.302 68.097 53.244 68.097 82.397c0 2.092 -0.134 4.17 -0.407 6.229c-6.573 49.21 -78.983 91.424 -152.376 91.424c-4.884 0 -9.772 -0.187 -14.645 -0.572zM240.282 -243c43.282 -4.256 75.59 -31.071 75.59 -60.315
c0 -3.305 -0.413 -6.642 -1.269 -9.98c-7.106 -27.9 -42.395 -52.2 -81.521 -56.131c-10.983 -1.089 -17.777 -9.637 -17.777 -18.651c0 -4.71 1.854 -9.546 5.935 -13.512c3.031 -2.937 5.873 -4.122 14.068 -5.779c37.089 -7.485 67.5 -28.469 80.005 -55.185
c4.381 -9.353 6.536 -18.85 6.536 -28c0 -14.99 -5.786 -29.049 -17.052 -40.021c-13.948 -13.643 -32.641 -20.378 -52.957 -20.378c-23.839 0 -49.913 9.272 -73.185 27.531c-7.063 5.522 -10.335 7.06 -16.459 7.06c-0.652 0 -1.337 -0.018 -2.062 -0.05
c-0.758 -0.023 -1.414 -0.034 -1.968 -0.034c-1.562 0 -2.321 0.094 -2.321 0.297c0 0.022 0.009 0.045 0.026 0.069c0.237 0.237 2.369 2.937 4.737 5.921c29.321 36.663 57.979 119.937 63.995 185.684c0.864 9.459 1.262 20.932 1.262 32.288
c0 21.629 -1.445 42.829 -3.868 48.854c-0.008 0.021 -0.013 0.041 -0.013 0.06c0 0.529 3.115 0.813 7.332 0.813c3.301 0 7.278 -0.174 10.966 -0.541z" />
    <glyph glyph-name="clefs.percussion_change" unicode="&#xe127;" horiz-adv-x="409" 
d="M136.421 0v-200.368h45.474h45.473v200.368v200.368h-45.473h-45.474v-200.368zM318.316 0v-200.368h45.473h45.474v200.368v200.368h-45.474h-45.473v-200.368z" />
    <glyph glyph-name="clefs.varpercussion_change" unicode="&#xe128;" horiz-adv-x="272" 
d="M100.232 344.605c-3.5531 -1.468 -6.2057 -3.979 -7.9109 -7.579l-1.3737 -2.842v-334.184v-334.184l1.3737 -2.842c1.6578 -3.553 4.7368 -6.442 8.2899 -7.769l2.7 -0.994h78.584h78.584l2.7 0.994c3.553 1.327 6.632 4.216 8.289 7.769l1.374 2.842v334.184v334.184
l-1.374 2.842c-1.657 3.553 -4.736 6.442 -8.289 7.769l-2.7 0.994h-78.726h-78.727zM242.526 0v-254.368h-60.631h-60.632v254.368v254.368h60.632h60.631v-254.368z" />
    </font>
</defs>
</svg>
