<?xml version="1.0" standalone="no"?>
<!DOCTYPE svg PUBLIC "-//W3C//DTD SVG 1.1//EN" "http://www.w3.org/Graphics/SVG/1.1/DTD/svg11.dtd" >
<!--
2013-9-30: Created.
-->
<svg>
<metadata>
Created by iconfont
</metadata>
<defs>

<font id="iconfont" horiz-adv-x="1024" >
  <font-face
    font-family="iconfont"
    font-weight="500"
    font-stretch="normal"
    units-per-em="1024"
    ascent="896"
    descent="-128"
  />
    <missing-glyph />
    
    <glyph glyph-name="x" unicode="x" horiz-adv-x="1001"
d="M281 543q-27 -1 -53 -1h-83q-18 0 -36.5 -6t-32.5 -18.5t-23 -32t-9 -45.5v-76h912v41q0 16 -0.5 30t-0.5 18q0 13 -5 29t-17 29.5t-31.5 22.5t-49.5 9h-133v-97h-438v97zM955 310v-52q0 -23 0.5 -52t0.5 -58t-10.5 -47.5t-26 -30t-33 -16t-31.5 -4.5q-14 -1 -29.5 -0.5
t-29.5 0.5h-32l-45 128h-439l-44 -128h-29h-34q-20 0 -45 1q-25 0 -41 9.5t-25.5 23t-13.5 29.5t-4 30v167h911zM163 247q-12 0 -21 -8.5t-9 -21.5t9 -21.5t21 -8.5q13 0 22 8.5t9 21.5t-9 21.5t-22 8.5zM316 123q-8 -26 -14 -48q-5 -19 -10.5 -37t-7.5 -25t-3 -15t1 -14.5
t9.5 -10.5t21.5 -4h37h67h81h80h64h36q23 0 34 12t2 38q-5 13 -9.5 30.5t-9.5 34.5q-5 19 -11 39h-368zM336 498v228q0 11 2.5 23t10 21.5t20.5 15.5t34 6h188q31 0 51.5 -14.5t20.5 -52.5v-227h-327z" />
    

    
    <glyph glyph-name="3dcube" unicode="&#58893;" d="M512 896C229.218 896 0 666.782 0 384s229.218-512 512-512 512 229.218 512 512S794.782 896 512 896zM512-48c-238.594 0-432 193.406-432 432S273.406 816 512 816s432-193.406 432-432S750.594-48 512-48zM735.532 448.25l-0.218 64.282-28.062 16L511.376 640l-195.344-112.376L288 511.468l0.156-63.656 0.468-192.312 167.188-95.188L484.468 144l27.624-15.688 0.532-0.312 56.124 32.282L736 256.532 735.532 448.25zM511.562 575.688l139.624-79.438-139.282-80.124-139.656 79.468L511.562 575.688zM344.688 287.782l-0.406 159.532 139.094-79.156 0.438-159.562L344.688 287.782zM540.468 208.438 540.094 368l139.218 80.124 0.5-159.624L540.468 208.438z"  horiz-adv-x="1024" />

    
    <glyph glyph-name="adjust" unicode="&#58894;" d="M512 896C229.218 896 0 666.782 0 384s229.218-512 512-512 512 229.218 512 512S794.782 896 512 896zM512-48c-238.594 0-432 193.406-432 432S273.406 816 512 816s432-193.406 432-432S750.594-48 512-48zM512 640c-141.376 0-256-114.594-256-256 0-141.376 114.624-256 256-256 141.406 0 256 114.624 256 256C768 525.406 653.406 640 512 640zM320 384c0 105.876 96 192 192 192l0-384C416 192 320 278.124 320 384z"  horiz-adv-x="1024" />

    
    <glyph glyph-name="airplane" unicode="&#58895;" d="M512 896C229.218 896 0 666.782 0 384s229.218-512 512-512 512 229.218 512 512S794.782 896 512 896zM512-48c-238.594 0-432 193.406-432 432S273.406 816 512 816s432-193.406 432-432S750.594-48 512-48zM256 640l146.282-512 146.282 102.406L658.282 128l0 170.656L768 401.062 256 640zM585.156 298.656l-194.75 187.75 194.75-153.594L585.156 298.656z"  horiz-adv-x="1024" />

    
    <glyph glyph-name="alarmclock" unicode="&#58896;" d="M512 896C229.218 896 0 666.782 0 384s229.218-512 512-512 512 229.218 512 512S794.782 896 512 896zM512-48c-238.594 0-432 193.406-432 432S273.406 816 512 816s432-193.406 432-432S750.594-48 512-48zM512 608c-123.688 0-224-100.312-224-224s100.312-224 224-224 224 100.312 224 224S635.688 608 512 608zM512 202c-100.5 0-182 81.532-182 182 0 100.5 81.5 182 182 182 100.468 0 182-81.5 182-182C694 283.532 612.468 202 512 202zM512 352c-17.688 0-32 14.312-32 32s14.312 32 32 32 32-14.312 32-32S529.688 352 512 352zM492.124 381.25 514.782 403.876 575.094 343.562 552.468 320.906ZM469.938 487.094 501 494.782 530.438 376.094 499.376 368.406ZM746 618.062c-29.25 29.312-76.75 29.312-106.062 0L746 512C775.312 541.282 775.312 588.812 746 618.062zM277.968 618c-29.282-29.25-29.282-76.75 0-106.062L384.062 618C354.75 647.312 307.25 647.312 277.968 618z"  horiz-adv-x="1024" />

    
    <glyph glyph-name="animalfootprint" unicode="&#58897;" d="M512 896C229.218308 896 0 666.781692 0 384S229.218308-128 512-128 1024 101.218308 1024 384 794.781692 896 512 896zM512-48.00025C273.406004-48.00025 79.99975 145.406004 79.99975 384 79.99975 622.593996 273.406004 816.00025 512 816.00025c238.593996 0 432.00025-193.406253 432.00025-432.00025C944.00025 145.406004 750.593996-48.00025 512-48.00025zM267.437661 422.686441c-18.751376-17.312187-13.93678-54.687189 10.749006-83.562791 24.687782-28.843665 59.875057-38.187415 78.594495-20.813349 18.719439 17.252304 13.906838 54.687189-10.780943 83.500912C321.312437 430.624936 286.125162 440.000624 267.437661 422.686441zM677.343064 408.438269c-21.969092-31.189084-23.342409-68.905419-3.093957-84.281388 20.218511-15.312094 54.407735-2.622877 76.344889 28.594152 21.937154 31.125209 23.312468 68.811602 3.093957 84.217513C733.467446 452.312577 699.250277 439.53154 677.343064 408.438269zM452.374456 415.688109c32.969606 7.938495 50.124101 57.188304 38.283228 109.999158-11.751049 52.81285-48.062129 89.187805-81.031735 81.251306-32.937669-8.000374-50.062222-57.250183-38.31317-110.063033C383.155649 444.124569 419.436788 407.749614 452.374456 415.688109zM617.90715 606.938573c-32.937669 7.938495-69.218807-28.438456-81.031735-81.251306-11.812928-52.81285 5.311626-102.062659 38.311173-109.999158 32.905731-7.936499 69.218807 28.438456 81.031735 81.187431C668.063189 549.686394 650.844819 598.938199 617.90715 606.938573zM512 370.999392c-78.594495 0-137.595259-125.155556-137.595259-166.562682 0-101.81115 59.000764 3.219712 137.595259 3.219712 78.626433 0 137.595259-105.030862 137.595259-3.219712C649.595259 245.843836 590.626433 370.999392 512 370.999392z"  horiz-adv-x="1024" />

    
    <glyph glyph-name="arrowcurveleft" unicode="&#58898;" d="M512 896C229.218 896 0 666.782 0 384s229.218-512 512-512 512 229.218 512 512S794.782 896 512 896zM512-48c-238.594 0-432 193.406-432 432S273.406 816 512 816s432-193.406 432-432S750.594-48 512-48zM650 395.124C565.594 449.844 431 448 431 448l0 96-192-160 192-128 0 96c0 0 90 18 171.688-12.812C677.376 311.032 759.5 224 759.5 224S734.406 340.344 650 395.124z"  horiz-adv-x="1024" />

    
    <glyph glyph-name="arrowcurverecycle" unicode="&#58899;" d="M512 896C229.218 896 0 666.782 0 384s229.218-512 512-512 512 229.218 512 512S794.782 896 512 896zM512-48c-238.594 0-432 193.406-432 432S273.406 816 512 816s432-193.406 432-432S750.594-48 512-48zM559 544c0 0-117.594 1.844-202-52.876C272.594 436.344 251.75 320 251.75 320s75.75 87.032 150.438 115.188C483.876 466 559 448 559 448l0-96 192 128-192 160L559 544zM602.688 332.812C521 302 431 320 431 320l0 96-192-128 192-160 0 96c0 0 134.594-1.844 219 52.876C734.406 331.656 759.5 448 759.5 448S677.376 360.968 602.688 332.812z"  horiz-adv-x="1024" />

    
    <glyph glyph-name="arrowcurveright" unicode="&#58900;" d="M512 896C229.218 896 0 666.782 0 384s229.218-512 512-512 512 229.218 512 512S794.782 896 512 896zM512-48c-238.594 0-432 193.406-432 432S273.406 816 512 816s432-193.406 432-432S750.594-48 512-48zM559 448c0 0-117.594 1.844-202-52.876C272.594 340.344 251.75 224 251.75 224s75.75 87.032 150.438 115.188C483.876 370 559 352 559 352l0-96 192 128-192 160L559 448z"  horiz-adv-x="1024" />

    
    <glyph glyph-name="arrowcycle" unicode="&#58901;" d="M512 896C229.218 896 0 666.782 0 384s229.218-512 512-512 512 229.218 512 512S794.782 896 512 896zM512-48c-238.594 0-432 193.406-432 432S273.406 816 512 816s432-193.406 432-432S750.594-48 512-48zM376.234 519.75c75 75 196.546 75 271.516 0l-22.624-22.624 101.844-33.938L693 565.032l-22.624-22.656c-87.5 87.5-229.282 87.5-316.766 0-55.968-55.968-75.954-134.156-60.282-206.156l36.422-12.156C307.906 390.688 323.296 466.812 376.234 519.75zM694.25 443.938c21.844-66.624 6.468-142.75-46.5-195.688-75-75-196.516-75-271.516 0l22.624 22.624-101.812 33.938 33.938-101.844 33.938 33.968-11.312-11.344c87.484-87.468 229.296-87.468 316.766 0 56 56 75.968 134.156 60.312 206.188L694.25 443.938z"  horiz-adv-x="1024" />

    
    <glyph glyph-name="arrowcycling" unicode="&#58902;" d="M512 896C229.218 896 0 666.782 0 384s229.218-512 512-512 512 229.218 512 512S794.782 896 512 896zM512-48c-238.594 0-432 193.406-432 432S273.406 816 512 816s432-193.406 432-432S750.594-48 512-48zM495 576l0-32 96 48-96 48 0-32c-64 0-140.078-41.188-179.922-103.156L328 470.5C359.656 533.032 431 576 495 576zM320 367l32 0-48 96-48-96 32 0c0-64 41.172-140.062 103.156-179.938L425.5 200C362.968 231.656 320 303 320 367zM495 192l0 32-96-48 96-48 0 32c96 0 157.062 41.188 196.938 103.156L670.5 297.5C638.844 234.968 591 192 495 192zM632.844 563.938 598.5 542.5C661.032 510.844 704 463 704 367l-32 0 48-96 48 96-32 0C736 463 694.812 524.062 632.844 563.938z"  horiz-adv-x="1024" />

    
    <glyph glyph-name="arrowdown" unicode="&#58903;" d="M0 384c0-282.782 229.188-512 512-512 282.75 0 512 229.218 512 512S794.75 896 512 896C229.188 896 0 666.782 0 384zM944 384c0-238.594-193.438-432-432-432-238.624 0-432 193.406-432 432S273.376 816 512 816C750.562 816 944 622.594 944 384zM288 444 512 220 736 444 672 508 512 348 352 508Z"  horiz-adv-x="1024" />

    
    <glyph glyph-name="arrowdownbig" unicode="&#58904;" d="M0 384c0-282.812 229.218-512 512-512s512 229.188 512 512C1024 666.75 794.782 896 512 896S0 666.75 0 384zM944 384c0-238.624-193.406-432-432-432S80 145.376 80 384c0 238.562 193.406 432 432 432S944 622.562 944 384zM320 352 512 128 704 352 607.968 352 607.968 640 415.968 640 415.968 352Z"  horiz-adv-x="1024" />

    
    <glyph glyph-name="arrowdownbold" unicode="&#58905;" d="M512 896C229.218 896 0 666.782 0 384s229.218-512 512-512 512 229.218 512 512S794.782 896 512 896zM512-48c-238.594 0-432 193.406-432 432S273.406 816 512 816s432-193.406 432-432S750.594-48 512-48zM512 171 736 555 288 555Z"  horiz-adv-x="1024" />

    
    <glyph glyph-name="arrowdownboldround" unicode="&#58906;" d="M1024 384C1024 666.784 794.784 896 512 896S0 666.784 0 384s229.216-512 512-512S1024 101.216 1024 384zM80 384c0 238.592 193.408 432 432 432 238.596 0 432-193.408 432-432 0-238.596-193.404-432-432-432C273.408-48 80 145.404 80 384zM548.244 209.064l179.184 291.156c19.94 33.688 3.876 48.78-35.682 48.78L332.21 549c-39.5 0-55.592-15.092-35.624-48.78l179.158-297.31C495.682 169.096 528.304 175.282 548.244 209.064z"  horiz-adv-x="1024" />

    
    <glyph glyph-name="arrowdownlight" unicode="&#58907;" d="M0 384c0-282.812 229.218-512 512-512s512 229.188 512 512C1024 666.75 794.782 896 512 896S0 666.75 0 384zM944 384c0-238.624-193.406-432-432-432S80 145.376 80 384c0 238.562 193.406 432 432 432S944 622.562 944 384zM479.922 640 479.922 243.188 397.672 320 351.984 277.312 511.984 128 672.016 277.312 626.204 320 543.922 243.188 543.922 640Z"  horiz-adv-x="1024" />

    
    <glyph glyph-name="arrowdownthin" unicode="&#58908;" d="M0 384c0-282.782 229.188-512 512-512 282.75 0 512 229.218 512 512S794.75 896 512 896C229.188 896 0 666.782 0 384zM944 384c0-238.594-193.438-432-432-432-238.624 0-432 193.406-432 432S273.376 816 512 816C750.562 816 944 622.594 944 384zM297.376 482.624c-12.5-12.5-12.5-32.75 0-45.25l192-192c12.5-12.5 32.75-12.5 45.25 0l192 192C732.876 443.624 736 451.812 736 460s-3.124 16.376-9.376 22.624c-12.5 12.5-32.75 12.5-45.25 0L512 313.25l-169.376 169.376C330.124 495.124 309.876 495.124 297.376 482.624z"  horiz-adv-x="1024" />

    
    <glyph glyph-name="arrowfilldown" unicode="&#58909;" d="M512 896C229.218 896 0 666.782 0 384s229.218-512 512-512 512 229.218 512 512S794.782 896 512 896zM512-48c-238.594 0-432 193.406-432 432S273.406 816 512 816s432-193.406 432-432S750.594-48 512-48zM608 608l-192 0c-17.594 0-32-14.376-32-31.938l0-287.656c0-17.532 8.968-43.188 19.938-56.938l87.312-125.156c10.938-13.75 28.938-13.75 39.938-0.062l88.782 125.282C631 245.25 640 270.876 640 288.406L640 576.062C640 593.624 625.594 608 608 608z"  horiz-adv-x="1024" />

    
    <glyph glyph-name="arrowfillleft" unicode="&#58910;" d="M512 896C229.218 896 0 666.782 0 384s229.218-512 512-512 512 229.218 512 512S794.782 896 512 896zM512-48c-238.594 0-432 193.406-432 432S273.406 816 512 816s432-193.406 432-432S750.594-48 512-48zM704.062 512 416.406 512c-17.532 0-43.188-8.968-56.938-19.938l-125.156-87.312c-13.75-10.938-13.75-28.938-0.062-39.938l125.282-88.782C373.25 265 398.876 256 416.406 256l287.656 0c17.562 0 31.938 14.406 31.938 32l0 192C736 497.594 721.624 512 704.062 512z"  horiz-adv-x="1024" />

    
    <glyph glyph-name="arrowfillright" unicode="&#58911;" d="M512 896C229.218 896 0 666.782 0 384s229.218-512 512-512 512 229.218 512 512S794.782 896 512 896zM512-48c-238.594 0-432 193.406-432 432S273.406 816 512 816s432-193.406 432-432S750.594-48 512-48zM664.468 491.968C650.75 503 625.124 512 607.594 512L319.938 512c-17.562 0-31.938-14.406-31.938-32l0-192c0-17.594 14.376-32 31.938-32l287.656 0c17.532 0 43.188 8.968 56.938 19.938l125.156 87.312c13.75 10.938 13.75 28.938 0.062 39.938L664.468 491.968z"  horiz-adv-x="1024" />

    
    <glyph glyph-name="arrowfillup" unicode="&#58912;" d="M512 896C229.218 896 0 666.782 0 384s229.218-512 512-512 512 229.218 512 512S794.782 896 512 896zM512-48c-238.594 0-432 193.406-432 432S273.406 816 512 816s432-193.406 432-432S750.594-48 512-48zM532.75 661.688c-10.938 13.75-28.938 13.75-39.938 0.062l-88.782-125.282C393 522.75 384 497.124 384 479.594l0-287.656c0-17.562 14.406-31.938 32-31.938l192 0c17.594 0 32 14.376 32 31.938L640 479.594c0 17.532-8.968 43.188-19.938 56.938L532.75 661.688z"  horiz-adv-x="1024" />

    
    <glyph glyph-name="arrowleftbig" unicode="&#58913;" d="M512 896C229.124 896 0 666.782 0 384s229.124-512 512-512c282.75 0 512 229.218 512 512S794.75 896 512 896zM512-48c-238.688 0-432.062 193.406-432.062 432S273.312 816 512 816c238.562 0 432-193.406 432-432S750.562-48 512-48zM480 576 256 384 480 192 480 287.938 768 287.938 768 479.938 480 479.938Z"  horiz-adv-x="1024" />

    
    <glyph glyph-name="arrowleftbold" unicode="&#58914;" d="M512-128c282.782 0 512 229.218 512 512C1024 666.782 794.782 896 512 896 229.218 896 0 666.782 0 384 0 101.218 229.218-128 512-128zM512 816c238.594 0 432-193.406 432-432s-193.406-432-432-432S80 145.406 80 384 273.406 816 512 816zM663 608 279 384 663 160Z"  horiz-adv-x="1024" />

    
    <glyph glyph-name="arrowleftboldround" unicode="&#58915;" d="M512-128c282.782 0 512 229.218 512 512C1024 666.782 794.782 896 512 896 229.218 896 0 666.782 0 384 0 101.218 229.218-128 512-128zM512 816c238.594 0 432-193.406 432-432s-193.406-432-432-432S80 145.406 80 384 273.406 816 512 816zM315.68 347.758l291.744-179.188c33.688-19.938 49.37-3.876 49.37 35.688L656.794 563.79c0 39.5-15.682 55.594-49.37 35.624l-297.59-179.156C275.99 400.32 281.898 367.696 315.68 347.758z"  horiz-adv-x="1024" />

    
    <glyph glyph-name="arrowleftlight" unicode="&#58916;" d="M512 896C229.218 896 0 666.782 0 384s229.218-512 512-512 512 229.218 512 512S794.782 896 512 896zM512-48c-238.594 0-432 193.406-432 432S273.406 816 512 816s432-193.406 432-432S750.594-48 512-48zM768 416 371.188 416 448 498.312 405.312 544 256 384 405.312 224 448 269.75 371.188 352 768 352Z"  horiz-adv-x="1024" />

    
    <glyph glyph-name="arrowleftthin" unicode="&#58917;" d="M512 896C229.218 896 0 666.782 0 384s229.218-512 512-512 512 229.218 512 512S794.782 896 512 896zM512-48c-238.594 0-432 193.406-432 432S273.406 816 512 816s432-193.406 432-432S750.594-48 512-48zM610.624 598.624c-12.5 12.5-32.75 12.5-45.25 0l-192-192c-12.5-12.5-12.5-32.75 0-45.25l192-192C571.624 163.124 579.812 160 588 160s16.376 3.124 22.624 9.376c12.5 12.5 12.5 32.75 0 45.25L441.25 384l169.376 169.376C623.124 565.876 623.124 586.124 610.624 598.624z"  horiz-adv-x="1024" />

    
    <glyph glyph-name="arrowmultilinedown" unicode="&#58918;" d="M0 384c0-282.782 229.218-512 512-512s512 229.218 512 512S794.782 896 512 896 0 666.782 0 384zM944 384c0-238.594-193.406-432-432-432S80 145.406 80 384 273.406 816 512 816 944 622.594 944 384zM447.906 640l128 0 0-32-128 0 0 32ZM447.906 576l128 0 0-32-128 0 0 32ZM447.906 512l128 0 0-32-128 0 0 32ZM384 256 512 128 640 256 575.906 256 575.906 384 447.906 384 447.906 256ZM447.906 448l128 0 0-32-128 0 0 32Z"  horiz-adv-x="1024" />

    
    <glyph glyph-name="arrowmultilineleft" unicode="&#58919;" d="M512 896C229.218 896 0 666.782 0 384s229.218-512 512-512 512 229.218 512 512S794.782 896 512 896zM512-48c-238.594 0-432 193.406-432 432S273.406 816 512 816s432-193.406 432-432S750.594-48 512-48zM736 448l32 0 0-128-32 0 0 128ZM672 448l32 0 0-128-32 0 0 128ZM608 448l32 0 0-128-32 0 0 128ZM384 512 256 384 384 256 384 320 512 320 512 448 384 448ZM544 448l32 0 0-128-32 0 0 128Z"  horiz-adv-x="1024" />

    
    <glyph glyph-name="arrowmultilineright" unicode="&#58920;" d="M512-128c282.782 0 512 229.218 512 512S794.782 896 512 896 0 666.782 0 384 229.218-128 512-128zM512 816c238.594 0 432-193.406 432-432s-193.406-432-432-432S80 145.406 80 384 273.406 816 512 816zM256 448l32 0 0-128-32 0 0 128ZM320 448l32 0 0-128-32 0 0 128ZM384 448l32 0 0-128-32 0 0 128ZM640 256 768 384 640 512 640 448 512 448 512 320 640 320ZM448 448l32 0 0-128-32 0 0 128Z"  horiz-adv-x="1024" />

    
    <glyph glyph-name="arrowmultilineup" unicode="&#58921;" d="M1024 384C1024 666.782 794.782 896 512 896S0 666.782 0 384s229.218-512 512-512S1024 101.218 1024 384zM80 384c0 238.594 193.406 432 432 432s432-193.406 432-432-193.406-432-432-432S80 145.406 80 384zM447.938 160l128 0 0-32-128 0 0 32ZM447.938 224l128 0 0-32-128 0 0 32ZM447.938 288l128 0 0-32-128 0 0 32ZM640 512 512 640 384 512 447.938 512 447.938 384 575.938 384 575.938 512ZM447.938 352l128 0 0-32-128 0 0 32Z"  horiz-adv-x="1024" />

    
    <glyph glyph-name="arrowobliquecontract" unicode="&#58922;" d="M512 896C229.218 896 0 666.782 0 384s229.218-512 512-512 512 229.218 512 512S794.782 896 512 896zM512-48c-238.594 0-432 193.406-432 432S273.406 816 512 816s432-193.406 432-432S750.594-48 512-48zM352 608 288 544 368 464 320 416 480 416 480 576 432 528ZM704.062 352 544 352 544 192.032 592.032 240.032 672.062 160.032 736.062 224.032 656.062 304Z"  horiz-adv-x="1024" />

    
    <glyph glyph-name="arrowobliquecontractdirections" unicode="&#58923;" d="M512 896C229.218 896 0 666.782 0 384s229.218-512 512-512 512 229.218 512 512S794.782 896 512 896zM512-48c-238.594 0-432 193.406-432 432S273.406 816 512 816s432-193.406 432-432S750.594-48 512-48zM319.968 416 480 416 480 576 432 528 351.968 608 287.968 544 367.968 464ZM656.032 304 704.032 352 544 352 544 192.032 592 240.032 672.032 160.032 736.032 224.032ZM655.968 464.032 735.968 544 671.968 608.032 592 528.032 544 576.032 544 416 703.968 416ZM367.968 304 287.968 223.968 351.968 159.968 431.968 239.968 480 191.968 480 352 319.968 352Z"  horiz-adv-x="1024" />

    
    <glyph glyph-name="arrowobliqueexpand" unicode="&#58924;" d="M512 896C229.218 896 0 666.782 0 384s229.218-512 512-512 512 229.218 512 512S794.782 896 512 896zM512-48c-238.594 0-432 193.406-432 432S273.406 816 512 816s432-193.406 432-432S750.594-48 512-48zM448 608 288 608 288 448 336 496 416 416 480 480 400 560ZM608 352 544 288 624 208 576 160 736 160 736 320 688 272Z"  horiz-adv-x="1024" />

    
    <glyph glyph-name="arrowobliqueexpanddirections" unicode="&#58925;" d="M512 896C229.218 896 0 666.782 0 384s229.218-512 512-512 512 229.218 512 512S794.782 896 512 896zM512-48c-238.594 0-432 193.406-432 432S273.406 816 512 816s432-193.406 432-432S750.594-48 512-48zM448 608 288 608 288 448 336 496 416 416 480 480 400 560ZM576 160 736 160 736 320 688 272 608 352 544 288 624 208ZM736 448 736 608 576 608 624 560 544 480 608 416 688 496ZM288 320 288 160 448 160 400 208 480 288 416 352 336 272Z"  horiz-adv-x="1024" />

    
    <glyph glyph-name="arrowright" unicode="&#58926;" d="M512-128c282.782 0 512 229.218 512 512S794.782 896 512 896 0 666.782 0 384 229.218-128 512-128zM512 816c238.594 0 432-193.406 432-432s-193.406-432-432-432S80 145.406 80 384 273.406 816 512 816zM452 160 676 384 452 608 388 544 548 384 388 224Z"  horiz-adv-x="1024" />

    
    <glyph glyph-name="arrowrightbig" unicode="&#58927;" d="M512.016-128c282.811581 0 511.968 229.218418 511.968 512S794.827581 896 512.016 896C229.266418 896 0.016 666.781582 0.016 384S229.266418-128 512.016-128zM512.016 815.99925c238.624271 0 431.99925-193.406978 431.99925-431.99925s-193.372979-432.00125-431.99925-432.00125c-238.562272 0-432.00125 193.406978-432.00125 432.00125S273.453727 815.99925 512.016 815.99925zM543.9995 191.999 768 384 543.9995 576.001 543.9995 480.0005 256 480.0005 256 288.0015 543.9995 288.0015Z"  horiz-adv-x="1024" />

    
    <glyph glyph-name="arrowrightbold" unicode="&#58928;" d="M512 896C229.218 896 0 666.782 0 384s229.218-512 512-512 512 229.218 512 512S794.782 896 512 896zM512-48c-238.594 0-432 193.406-432 432S273.406 816 512 816s432-193.406 432-432S750.594-48 512-48zM339 160 723 384 339 608Z"  horiz-adv-x="1024" />

    
    <glyph glyph-name="arrowrightboldround" unicode="&#58929;" d="M512 896C229.218 896 0 666.782 0 384s229.218-512 512-512 512 229.218 512 512S794.782 896 512 896zM512-48c-238.594 0-432 193.406-432 432S273.406 816 512 816s432-193.406 432-432S750.594-48 512-48zM707.322 420.242l-308.348 179.188c-33.688 19.938-65.974 3.876-65.974-35.688l0-359.532c0-39.5 32.286-55.594 65.974-35.624l305.91 179.156C738.696 367.68 741.104 400.304 707.322 420.242z"  horiz-adv-x="1024" />

    
    <glyph glyph-name="arrowrightlight" unicode="&#58930;" d="M512-128c282.782 0 512 229.218 512 512S794.782 896 512 896 0 666.782 0 384 229.218-128 512-128zM512 816c238.594 0 432-193.406 432-432s-193.406-432-432-432S80 145.406 80 384 273.406 816 512 816zM256 352 652.812 352 576 269.688 618.688 224 768 384 618.688 544 576 498.25 652.812 416 256 416Z"  horiz-adv-x="1024" />

    
    <glyph glyph-name="arrowrightthin" unicode="&#58931;" d="M512-128c282.782 0 512 229.218 512 512S794.782 896 512 896 0 666.782 0 384 229.218-128 512-128zM512 816c238.594 0 432-193.406 432-432s-193.406-432-432-432S80 145.406 80 384 273.406 816 512 816zM425.376 169.376c12.5-12.5 32.75-12.5 45.25 0l192 192c12.5 12.5 12.5 32.75 0 45.25l-192 192C464.376 604.876 456.188 608 448 608s-16.376-3.124-22.624-9.376c-12.5-12.5-12.5-32.75 0-45.25L594.75 384l-169.376-169.376C412.876 202.124 412.876 181.876 425.376 169.376z"  horiz-adv-x="1024" />

    
    <glyph glyph-name="arrowup" unicode="&#58932;" d="M1024 384C1024 666.782 794.782 896 512 896S0 666.782 0 384s229.218-512 512-512S1024 101.218 1024 384zM80 384c0 238.594 193.406 432 432 432s432-193.406 432-432-193.406-432-432-432S80 145.406 80 384zM736 324 512 548 288 324 352 260 512 420 672 260Z"  horiz-adv-x="1024" />

    
    <glyph glyph-name="arrowupbig" unicode="&#58933;" d="M1024 383.983998C1024 666.805997 794.776001 896.031997 511.984002 895.999997 229.196003 895.999997-0.031997 666.837997 3.0e-06 383.983998 3.0e-06 101.225999 229.226003-128.032 511.984002-128 794.776001-128.032 1024 101.225999 1024 383.983998zM80.004003 383.983998c0 238.631999 193.379999 432.013999 431.979999 432.013999C750.618001 815.997997 944 622.617998 944 383.983998c0-238.537999-193.381999-431.979999-432.015999-431.979999C273.384002-47.996 80.004003 145.447999 80.004003 383.983998zM704.006001 416.001998 511.998002 640.007997 319.994002 416.001998 415.996002 416.001998 415.996002 127.991999 608.002001 127.991999 608.002001 416.001998Z"  horiz-adv-x="1024" />

    
    <glyph glyph-name="arrowupbold" unicode="&#58934;" d="M512 896C229.218 896 0 666.782 0 384s229.218-512 512-512 512 229.218 512 512S794.782 896 512 896zM512-48c-238.594 0-432 193.406-432 432S273.406 816 512 816s432-193.406 432-432S750.594-48 512-48zM288 211 736 211 512 595Z"  horiz-adv-x="1024" />

    
    <glyph glyph-name="arrowupboldround" unicode="&#58935;" d="M0 384c0-282.782 229.218-512 512-512s512 229.218 512 512S794.782 896 512 896 0 666.782 0 384zM944 384c0-238.594-193.406-432-432-432S80 145.406 80 384 273.406 816 512 816 944 622.594 944 384zM475.758 579.322l-179.188-308.35c-19.938-33.688-3.876-65.972 35.688-65.972l359.532 0c39.5 0 55.594 32.286 35.624 65.972l-179.156 305.91C528.32 610.696 495.696 613.104 475.758 579.322z"  horiz-adv-x="1024" />

    
    <glyph glyph-name="arrowuplight" unicode="&#58936;" d="M1024 384C1024 666.782 794.782 896 512 896S0 666.782 0 384s229.218-512 512-512S1024 101.218 1024 384zM80 384c0 238.594 193.406 432 432 432s432-193.406 432-432-193.406-432-432-432S80 145.406 80 384zM543.938 128 543.938 524.812 626.282 448 672 490.688 512 640 352 490.688 397.718 448 479.938 524.812 479.938 128Z"  horiz-adv-x="1024" />

    
    <glyph glyph-name="arrowupthin" unicode="&#58937;" d="M1024 384C1024 666.782 794.782 896 512 896S0 666.782 0 384s229.218-512 512-512S1024 101.218 1024 384zM80 384c0 238.594 193.406 432 432 432s432-193.406 432-432-193.406-432-432-432S80 145.406 80 384zM726.624 297.376c12.5 12.5 12.5 32.75 0 45.25l-192 192c-12.5 12.5-32.75 12.5-45.25 0l-192-192C291.124 336.376 288 328.188 288 320s3.124-16.376 9.376-22.624c12.5-12.5 32.75-12.5 45.25 0L512 466.75l169.376-169.376C693.876 284.876 714.124 284.876 726.624 297.376z"  horiz-adv-x="1024" />

    
    <glyph glyph-name="atom" unicode="&#58938;" d="M512 896C229.218 896 0 666.782 0 384c0-282.782 229.218-512 512-512 282.782 0 512 229.218 512 512C1024 666.782 794.782 896 512 896zM512-48c-238.594 0-432 193.406-432 432S273.406 816 512 816s432-193.406 432-432S750.594-48 512-48zM768 384c0 31.438-21.594 59.906-57.906 81.938 10.532 42.5 4.844 77.188-17.062 99.062-14.594 14.624-35.56 22.312-60.594 22.312-12.032 0-25-2.156-38.376-5.438C572 618.312 543.5 640 512 640s-60-21.688-82.062-58.124c-13.376 3.25-26.376 5.438-38.376 5.438-25.062 0-46-7.718-60.594-22.312-22.25-22.25-27.094-57.688-16.968-99-36.376-22.062-58-50.532-58-82 0-31.466 21.624-59.938 58-82-10.124-41.344-5.25-76.784 17-99.034 14.562-14.594 35.532-22.31 60.562-22.31 12.032 0 25 2.156 38.376 5.438C452 149.656 480.5 128 512 128s60 21.656 82.062 58.094c13.344-3.282 26.312-5.438 38.312-5.438 25.06 0 46.032 7.718 60.624 22.312 21.906 21.876 27.594 56.594 17.062 99.062C746.406 324.094 768 352.562 768 384zM577.938 543.376c10.688 4.094 21.124 7.344 30.968 9.25 8.188 1.624 16.156 2.688 23.532 2.688 16.624 0 29.376-4.344 37.968-12.938 12.376-12.344 15.782-34.124 10.312-61.5-1.718-8.624-4.25-17.75-7.75-27.438-0.406-1.124-1.124-2.376-1.562-3.5-4.594-12-10.406-24.188-17.218-36.5-5.406 7.438-10.688 14.876-16.688 22.218-9.75 11.906-20.312 23.594-31.468 34.968-1.25 1.25-2.282 2.624-3.532 3.876-1.282 1.25-2.624 2.376-3.906 3.624-11.468 11.25-23.25 21.624-35.188 31.376-7.282 5.968-14.562 11.688-21.938 17.032C553.938 533.438 566.062 538.876 577.938 543.376zM636.406 384c-8.906-13.124-19.094-26.094-30.032-38.876-8.376-9.812-17.062-19.562-26.5-29-9.406-9.406-19.094-18.124-28.906-26.468-12.844-10.968-25.906-20.938-39-29.844-13.094 8.906-26.156 18.876-39.032 29.844-9.75 8.344-19.438 17.032-28.812 26.438-9.688 9.656-18.218 19.406-26.5 29.124-11.062 13.032-21.188 25.966-29.812 38.782 8.624 12.782 18.75 25.75 29.812 38.75 8.282 9.75 16.812 19.5 26.5 29.124 9.376 9.438 19.062 18.124 28.876 26.5 12.844 10.938 25.906 20.876 38.968 29.782 13.094-8.906 26.124-18.844 38.968-29.782 9.812-8.376 19.534-17.094 28.94-26.5 9.438-9.438 18.124-19.188 26.5-29C617.312 410.062 627.5 397.062 636.406 384zM512 608c17.062 0 34.844-13 50.438-36.25-16.468-6.562-33.376-15.188-50.438-25.562-17.062 10.344-34 19-50.438 25.562C477.124 595 494.938 608 512 608zM353.594 542.376c8.594 8.562 21.344 12.938 37.968 12.938 7.376 0 15.312-1.062 23.532-2.688 9.844-1.938 20.282-5.188 30.968-9.25 11.844-4.532 23.968-9.938 36.438-16.844-7.376-5.344-14.688-11.094-21.938-17.032-11.938-9.75-23.688-20.062-35.156-31.312-1.282-1.25-2.656-2.376-3.906-3.688-1.312-1.282-2.5-2.624-3.782-3.938-11.156-11.376-21.624-22.938-31.188-34.594-5.968-7.282-11.532-14.594-16.876-21.938-6.782 12.406-12.532 24.5-16.876 35.968-4.094 10.876-7.282 21.312-9.188 31C338.156 508.468 341.5 530.312 353.594 542.376zM324.312 333.5C301.062 349.094 288 366.906 288 384c0 17.062 13.032 34.876 36.312 50.468 6.5-16.406 15.032-33.344 25.438-50.468C339.344 366.812 330.812 349.906 324.312 333.5zM446.062 224.594c-10.688-4.094-21.124-7.344-30.938-9.282-8.218-1.594-16.156-2.656-23.562-2.656-16.594 0-29.376 4.376-37.938 12.938-12.094 12.094-15.438 33.906-10 61.406 1.906 9.656 5.062 20.094 9.188 31 4.312 11.438 10.094 23.532 16.844 35.938 5.344-7.344 10.906-14.656 16.906-21.938 9.532-11.656 20-23.188 31.124-34.562 1.312-1.312 2.5-2.656 3.812-3.968 1.282-1.282 2.624-2.404 3.938-3.688 11.438-11.216 23.188-21.562 35.062-31.282 7.312-5.968 14.624-11.718 22-17.062C470.062 234.532 457.938 229.124 446.062 224.594zM512 160c-17.062 0-34.844 13-50.406 36.218 16.438 6.562 33.344 15.216 50.376 25.594 17.062-10.406 33.968-19.062 50.438-25.624C546.844 173 529.062 160 512 160zM670.376 225.594c-8.594-8.594-21.376-12.938-38-12.938-7.376 0-15.31 1.062-23.5 2.656-9.844 1.938-20.25 5.188-30.966 9.282-11.844 4.5-23.968 9.938-36.468 16.844 7.406 5.344 14.69 11.094 22 17.062 11.906 9.75 23.69 20.094 35.156 31.344 1.284 1.282 2.624 2.376 3.906 3.656 1.25 1.25 2.312 2.624 3.534 3.876 11.154 11.376 21.716 23.034 31.438 34.94 6 7.344 11.31 14.782 16.716 22.25 6.784-12.346 12.594-24.534 17.156-36.5 0.468-1.19 1.156-2.406 1.594-3.562 3.5-9.624 6-18.75 7.75-27.376C686.156 259.75 682.75 237.938 670.376 225.594zM699.5 333.406c-6.656 16.656-15.438 33.594-25.75 50.594 10.312 17 19.124 33.938 25.75 50.594C722.876 419 736 401.124 736 384 736 366.876 722.876 349 699.5 333.406zM576 384c0-35.344-28.656-64-64-64-35.312 0-64 28.656-64 64 0 35.312 28.688 64 64 64C547.344 448 576 419.312 576 384z"  horiz-adv-x="1024" />

    
    <glyph glyph-name="axisrules" unicode="&#58939;" d="M512 896C229.218 896 0 666.782 0 384s229.218-512 512-512 512 229.218 512 512S794.782 896 512 896zM512-48c-238.594 0-432 193.406-432 432S273.406 816 512 816s432-193.406 432-432S750.594-48 512-48zM256 640l128 0 0-128-128 0 0 128ZM736 640 736 576 704 576 704 640 672 640 672 608 640 608 640 640 608 640 608 576 576 576 576 640 544 640 544 608 512 608 512 640 480 640 480 576 448 576 448 640 416 640 416 512 736 512 736 160 384 160 384 480 256 480 256 448 288 448 288 416 256 416 256 384 320 384 320 352 256 352 256 320 288 320 288 288 256 288 256 256 320 256 320 224 256 224 256 192 288 192 288 160 256 160 256 128 768 128 768 640Z"  horiz-adv-x="1024" />

    
    <glyph glyph-name="backward" unicode="&#58940;" d="M512 896C229.218 896 0 666.782 0 384s229.218-512 512-512 512 229.218 512 512S794.782 896 512 896zM512-48c-238.594 0-432 193.406-432 432S273.406 816 512 816s432-193.406 432-432S750.594-48 512-48zM672 224 672 544 480 384ZM288 384 480 224 480 384 480 544Z"  horiz-adv-x="1024" />

    
    <glyph glyph-name="bag" unicode="&#58941;" d="M512 896C229.218 896 0 666.782 0 384s229.218-512 512-512 512 229.218 512 512S794.782 896 512 896zM512-48c-238.594 0-432 193.406-432 432S273.406 816 512 816s432-193.406 432-432S750.594-48 512-48zM736 479l-33 0 0-320L736 159c17.688 0 31 15.312 31 33L767 448C767 465.688 753.688 479 736 479zM351 479l320 0 0-320-320 0 0 320ZM319 479 288 479c-17.672 0-33-13.312-33-31l0-256c0-17.688 15.328-33 33-33l31 0L319 479zM576 607l-128 0c-17.672 0-33-13.312-33-31l0-65 32 0L447 560c0 8.844 8.156 15 17 15l96 0c8.844 0 15-6.156 15-15l0-49 32 0L607 576C607 593.688 593.688 607 576 607z"  horiz-adv-x="1024" />

    
    <glyph glyph-name="bancircle" unicode="&#58942;" d="M512 896C229.218 896 0 666.782 0 384s229.218-512 512-512 512 229.218 512 512S794.782 896 512 896zM512-48c-238.594 0-432 193.406-432 432S273.406 816 512 816s432-193.406 432-432S750.594-48 512-48zM331 565.032c-100-99.968-100-262.094 0-362.062 99.938-99.968 262.062-99.968 362.032 0s99.968 262.094 0 362.062S430.938 665 331 565.032zM376.25 519.782c67.094 67.094 171.688 73.562 246.594 20.344L355.876 273.156C302.688 348.062 309.124 452.688 376.25 519.782zM647.75 248.25c-67.094-67.124-171.656-73.562-246.594-20.344l266.938 266.968C721.312 419.938 714.876 315.344 647.75 248.25z"  horiz-adv-x="1024" />

    
    <glyph glyph-name="bars" unicode="&#58943;" d="M512 896C229.218 896 0 666.782 0 384s229.218-512 512-512 512 229.218 512 512S794.782 896 512 896zM512-48c-238.594 0-432 193.406-432 432S273.406 816 512 816s432-193.406 432-432S750.594-48 512-48zM288 160l64 0L352 608l-64 0L288 160zM384 160l64 0 0 64-64 0L384 160zM480 160l64 0L544 384l-64 0L480 160zM576 160l64 0L640 512l-64 0L576 160zM672 320l0-160 64 0 0 160L672 320z"  horiz-adv-x="1024" />

    
    <glyph glyph-name="bezier" unicode="&#58944;" d="M512 896C229.218 896 0 666.782 0 384s229.218-512 512-512 512 229.218 512 512S794.782 896 512 896zM512-48c-238.594 0-432 193.406-432 432S273.406 816 512 816s432-193.406 432-432S750.594-48 512-48zM736 320c0 123.5-100.5 224-224 224-123.516 0-224-100.5-224-224l-32 0 0-96 96 0 0 96-32 0c0 105.876 86.124 192 192 192s192-86.124 192-192l-32 0 0-96 96 0 0 96L736 320zM320 256l-32 0 0 32 32 0L320 256zM736 256l-32 0 0 32 32 0L736 256z"  horiz-adv-x="1024" />

    
    <glyph glyph-name="blank" unicode="&#58945;" d="M512 896C229.218 896 0 666.782 0 384s229.218-512 512-512 512 229.218 512 512S794.782 896 512 896zM512-48c-238.594 0-432 193.406-432 432S273.406 816 512 816s432-193.406 432-432S750.594-48 512-48z"  horiz-adv-x="1024" />

    
    <glyph glyph-name="blockmenu" unicode="&#58946;" d="M512 896C229.218 896 0 666.782 0 384s229.218-512 512-512 512 229.218 512 512S794.782 896 512 896zM512-48c-238.594 0-432 193.406-432 432S273.406 816 512 816s432-193.406 432-432S750.594-48 512-48zM303 527l384 0 0-64-384 0 0 64ZM303 399l384 0 0-64-384 0 0 64ZM303 271l384 0 0-64-384 0 0 64Z"  horiz-adv-x="1024" />

    
    <glyph glyph-name="bolt" unicode="&#58947;" d="M512 896C229.218 896 0 666.782 0 384s229.218-512 512-512 512 229.218 512 512S794.782 896 512 896zM512-48c-238.594 0-432 193.406-432 432S273.406 816 512 816s432-193.406 432-432S750.594-48 512-48zM416 353 502.406 353 416 128.624 608 417 523.312 417 608 640.624Z"  horiz-adv-x="1024" />

    
    <glyph glyph-name="boxadd" unicode="&#58948;" d="M512 896C229.218 896 0 666.782 0 384s229.218-512 512-512 512 229.218 512 512S794.782 896 512 896zM512-48c-238.594 0-432 193.406-432 432S273.406 816 512 816s432-193.406 432-432S750.594-48 512-48zM543 575 703 575 703 415 767 415 767 639 543 639ZM319 415 319 575 479 575 479 639 255 639 255 415ZM479 191 319 191 319 351 255 351 255 127 479 127ZM703 351 703 191 543 191 543 127 767 127 767 351ZM479 511l64 0 0-256-64 0 0 256ZM383 415l256 0 0-64-256 0 0 64Z"  horiz-adv-x="1024" />

    
    <glyph glyph-name="boxblank" unicode="&#58949;" d="M512 896C229.218 896 0 666.782 0 384s229.218-512 512-512 512 229.218 512 512S794.782 896 512 896zM512-48c-238.594 0-432 193.406-432 432S273.406 816 512 816s432-193.406 432-432S750.594-48 512-48zM544 576 704 576 704 416 768 416 768 640 544 640ZM320 416 320 576 480 576 480 640 256 640 256 416ZM480 192 320 192 320 352 256 352 256 128 480 128ZM704 352 704 192 544 192 544 128 768 128 768 352Z"  horiz-adv-x="1024" />

    
    <glyph glyph-name="boxclose" unicode="&#58950;" d="M512 896C229.218 896 0 666.782 0 384c0-282.782 229.218-512 512-512 282.782 0 512 229.218 512 512C1024 666.782 794.782 896 512 896zM512-48c-238.594 0-432 193.406-432 432S273.406 816 512 816s432-193.406 432-432S750.594-48 512-48zM544 576 704 576 704 416 768 416 768 640 544 640ZM320 416 320 576 480 576 480 640 256 640 256 416ZM480 192 320 192 320 352 256 352 256 128 480 128ZM704 352 704 192 544 192 544 128 768 128 768 352ZM444.127685 270.870942l-45.250157 45.250157 180.996387 180.996387 45.250157-45.250157-180.996387-180.996387ZM579.879915 270.870942l-180.996387 180.996387 45.250157 45.250157 180.996387-180.996387-45.250157-45.250157Z"  horiz-adv-x="1024" />

    
    <glyph glyph-name="boxremove" unicode="&#58951;" d="M512 896C229.218 896 0 666.782 0 384c0-282.782 229.218-512 512-512 282.782 0 512 229.218 512 512C1024 666.782 794.782 896 512 896zM512-48c-238.594 0-432 193.406-432 432S273.406 816 512 816s432-193.406 432-432S750.594-48 512-48zM544 576 704 576 704 416 768 416 768 640 544 640ZM320 416 320 576 480 576 480 640 256 640 256 416ZM480 192 320 192 320 352 256 352 256 128 480 128ZM704 352 704 192 544 192 544 128 768 128 768 352ZM384 416l256 0 0-64-256 0 0 64Z"  horiz-adv-x="1024" />

    
    <glyph glyph-name="browsersizes" unicode="&#58952;" d="M512 896C229.218 896 0 666.782 0 384s229.218-512 512-512 512 229.218 512 512S794.782 896 512 896zM512-48c-238.594 0-432 193.406-432 432S273.406 816 512 816s432-193.406 432-432S750.594-48 512-48zM384 480l256 0 0-192-256 0 0 192ZM672 512l32 0 0-256-32 0 0 256ZM736 576l32 0 0-384-32 0 0 384ZM320 512l32 0 0-256-32 0 0 256ZM256 576l32 0 0-384-32 0 0 384Z"  horiz-adv-x="1024" />

    
    <glyph glyph-name="brush" unicode="&#58953;" d="M512 896C229.218 896 0 666.782 0 384s229.218-512 512-512 512 229.218 512 512S794.782 896 512 896zM512-48c-238.594 0-432 193.406-432 432S273.406 816 512 816s432-193.406 432-432S750.594-48 512-48zM446.14 260.25c41.156 31.406 96.546 82.376 154.39 143.704 106.594 113.062 180.718 217.812 165.468 233.938-15.218 16.188-114-62.376-220.656-175.438-59.36-62.938-108.562-123.266-137.938-167.204-14.282-0.782-70.046-7.5-79.234-65.062 0 0-38.032-96.376-67.5-100.594-29.172-4.218 87.5 0.624 102.656 6.094C378.296 141.062 454.5 147.532 446.14 260.25z"  horiz-adv-x="1024" />

    
    <glyph glyph-name="buttonadd" unicode="&#58954;" d="M512 896C229.218 896 0 666.782 0 384s229.218-512 512-512 512 229.218 512 512S794.782 896 512 896zM512-48c-238.594 0-432 193.406-432 432S273.406 816 512 816s432-193.406 432-432S750.594-48 512-48zM512 640c-141.39 0-256-114.624-256-256s114.61-256 256-256c141.376 0 256 114.624 256 256S653.376 640 512 640zM640 352l-96 0 0-96-64 0 0 96-96 0 0 64 96 0 0 96 64 0 0-96 96 0L640 352z"  horiz-adv-x="1024" />

    
    <glyph glyph-name="buttoncheck" unicode="&#58955;" d="M512 896C229.218 896 0 666.782 0 384s229.218-512 512-512 512 229.218 512 512S794.782 896 512 896zM512-48c-238.594 0-432 193.406-432 432S273.406 816 512 816s432-193.406 432-432S750.594-48 512-48zM512 640c-141.376 0-256-114.624-256-256s114.624-256 256-256 256 114.624 256 256S653.376 640 512 640zM480 256l-96 96 44.796 51.188L480 352l144 160 48-51.188L480 256z"  horiz-adv-x="1024" />

    
    <glyph glyph-name="buttonclose" unicode="&#58956;" d="M512 896C229.218 896 0 666.782 0 384s229.218-512 512-512 512 229.218 512 512S794.782 896 512 896zM512-48c-238.594 0-432 193.406-432 432S273.406 816 512 816s432-193.406 432-432S750.594-48 512-48zM512 640c-141.39 0-256-114.624-256-256s114.61-256 256-256c141.376 0 256 114.624 256 256S653.376 640 512 640zM625.124 316.124l-45.25-45.25L512 338.75l-67.876-67.876-45.266 45.25L466.734 384l-67.876 67.876 45.266 45.25L512 429.25l67.876 67.876 45.25-45.25L557.25 384 625.124 316.124z"  horiz-adv-x="1024" />

    
    <glyph glyph-name="buttonemail" unicode="&#58957;" d="M512 896C229.218 896 0 666.782 0 384s229.218-512 512-512 512 229.218 512 512S794.782 896 512 896zM512-48c-238.594 0-432 193.406-432 432S273.406 816 512 816s432-193.406 432-432S750.594-48 512-48zM518.406 433.124c-6.782 0-13.468-2.124-20.156-6.468-6.624-4.312-12.624-9.782-17.876-16.376-5.25-6.624-9.5-13.782-12.624-21.562-3.156-7.844-4.718-15.218-4.718-22.188 0-4.312 0.594-8.562 1.688-12.782 1.156-4.25 2.906-8 5.344-11.312 2.344-3.406 5.406-6.124 9.188-8.156 3.75-2.032 8.312-3.032 13.562-3.032 9.5 0 18.688 3.188 27.438 9.5 8.782 6.438 15.25 15.5 19.218 27.25 2.032 6.218 3.594 11.376 4.688 15.468 1.094 4.062 2.062 7.376 2.624 9.906 0.718 2.5 1.032 4.406 1.094 5.75 0.188 1.344 0.218 2.468 0.218 3.406 0 9.124-2.876 16.5-8.624 22.124C533.688 430.344 526.656 433.124 518.406 433.124zM512 640c-141.406 0-256-114.624-256-256s114.594-256 256-256c141.376 0 256 114.624 256 256S653.376 640 512 640zM632.656 365.782c-4.906-12-11.438-22.062-19.562-30.25-8.124-8.094-17.468-14.282-27.906-18.312-10.406-4.156-21.156-6.188-32.156-6.188-6.532 0-11.75 2-15.656 5.968-3.906 4-6.062 8.75-6.562 14.25-5.25-7.218-11.188-12.312-17.656-15.5-6.594-3.062-14.218-4.718-22.968-4.718-8.062 0-15.282 1.532-21.688 4.532-6.376 2.968-11.75 6.968-16.188 11.938-4.344 4.812-7.75 10.5-10.188 16.718-2.376 6.25-3.562 12.562-3.562 19.032 0 10.624 2 21.25 5.876 32.124 3.906 10.75 9.282 20.532 16.188 29.282 6.876 8.75 15.218 15.938 25 21.468 9.812 5.5 20.624 8.25 32.376 8.25 5.782 0 10.938-0.968 15.438-2.876s8.312-4.25 11.5-7c3.124-2.75 5.75-5.594 7.876-8.5 2.094-2.876 3.624-5.876 4.376-8.032L564.75 448l22.968 0-29.438-97.062c-1.282-4.376-1.844-7.624-1.844-10.218 0-5.968 2.406-8.876 7.532-8.876 2.968 0 7.406 0.906 13.344 2.782 5.844 1.812 11.812 5.406 17.812 10.844 6.032 5.312 11.282 12.782 15.876 22.282 4.5 9.5 6.812 22.032 6.812 37.656 0 12.718-2.624 24.344-7.876 34.968-5.406 10.5-12.468 19.624-21.376 27.156-8.906 7.594-19.094 13.468-30.624 17.624-11.5 4.218-23.5 6.344-35.782 6.344-16.282 0-31.438-2.876-45.344-8.5-13.938-5.624-26.094-13.5-36.5-23.594-10.438-10.032-18.562-22.032-24.5-35.812-5.876-13.812-8.844-28.718-8.844-44.844 0-15.312 3.032-29.312 9.25-41.938 6.156-12.562 14.282-23.312 24.468-32.25 10.156-8.844 21.812-15.624 35-20.5 13.188-4.812 26.876-7.25 41.188-7.25 19.344 0 36.376 4.782 51.032 12.218C582.562 296.532 594.312 320 603 320L626 320c-4.218 0-10.282-20.718-18.156-28.438-8-7.718-16.968-14.562-27.156-19.75-10.156-5.124-21.156-9.312-33.124-11.812-11.938-2.5-24.062-3.876-36.312-3.876-16.344 0-32.156 2.938-47.438 8.938-15.312 6-28.876 14.406-40.624 25.188-11.812 10.782-21.312 23.594-28.468 38.532-7.094 14.812-10.718 31.156-10.718 48.968 0 20.624 3.782 39.218 11.312 55.75 7.5 16.594 17.624 30.656 30.312 42.282 12.688 11.688 27.312 20.624 44.032 26.844 16.718 6.25 34.282 9.376 52.906 9.376 15.032 0 29.656-2.594 43.812-7.75 14.156-5.124 26.688-12.376 37.624-21.594 10.938-9.282 19.624-20.282 26.156-33.156 6.532-12.782 9.844-26.876 9.844-42.282C640 391.624 637.468 377.844 632.656 365.782z"  horiz-adv-x="1024" />

    
    <glyph glyph-name="buttonexclamation" unicode="&#58958;" d="M512 896C230.318319 896 1.992218 667.673899 1.992218 385.992218s228.326101-510.007782 510.007782-510.007782 510.007782 228.326101 510.007782 510.007782S793.681681 896 512 896zM512-44.326848c-237.665619 0-430.319066 192.653447-430.319066 430.319066S274.334381 816.311284 512 816.311284s430.319066-192.653447 430.319066-430.319066S749.665619-44.326848 512-44.326848zM512 640.996109c-140.825899 0-255.003891-114.177992-255.003891-255.003891s114.177992-255.003891 255.003891-255.003891 255.003891 114.177992 255.003891 255.003891S652.825899 640.996109 512 640.996109zM512 258.490272c-17.619175 0-31.875486 14.256311-31.875486 31.875486s14.256311 31.875486 31.875486 31.875486 31.875486-14.256311 31.875486-31.875486S529.619175 258.490272 512 258.490272zM527.937743 354.116732l-31.875486 0-15.937743 159.377432 63.750973 0L527.937743 354.116732z"  horiz-adv-x="1024" />

    
    <glyph glyph-name="buttonminus" unicode="&#58959;" d="M512 896C229.218 896 0 666.782 0 384s229.218-512 512-512 512 229.218 512 512S794.782 896 512 896zM512-48c-238.594 0-432 193.406-432 432S273.406 816 512 816s432-193.406 432-432S750.594-48 512-48zM512 640c-141.39 0-256-114.624-256-256s114.61-256 256-256c141.376 0 256 114.624 256 256S653.376 640 512 640zM640 352 384 352l0 64 256 0L640 352z"  horiz-adv-x="1024" />

    
    <glyph glyph-name="buttonquestion" unicode="&#58960;" d="M512 896C229.218 896 0 666.782 0 384s229.218-512 512-512 512 229.218 512 512S794.782 896 512 896zM512-48c-238.594 0-432 193.406-432 432S273.406 816 512 816s432-193.406 432-432S750.594-48 512-48zM512 640c-141.376 0-256-114.624-256-256s114.624-256 256-256 256 114.624 256 256S653.376 640 512 640zM502.75 252c-20.344 0-34.156 14.968-34.156 34.938 0 20.688 14.188 34.906 34.156 34.906 20.688 0 34.124-14.218 34.562-34.906C537.312 266.968 523.876 252 502.75 252zM556.376 395.156c-13.812-15.718-12.376-30.718-12.376-47.968L544 352l-65.438 0-0.376 4.124c-1.156 19.562 5.376 36.594 22.624 56.938 12.312 14.968 22.25 26.156 22.25 38.844 0 13.406-8.812 21.906-28 22.282-12.656 0-28-4.968-38-11.876l-13.032 41.624c14.188 8.062 36.844 15.656 64.094 15.656 50.624 0 77.656-28.032 77.656-59.906C585.782 430.5 570.938 411.25 556.376 395.156z"  horiz-adv-x="1024" />

    
    <glyph glyph-name="camera" unicode="&#58961;" d="M512 896C229.218 896 0 666.782 0 384s229.218-512 512-512 512 229.218 512 512S794.782 896 512 896zM512-48c-238.594 0-432 193.406-432 432S273.406 816 512 816s432-193.406 432-432S750.594-48 512-48zM512 448c-53.016 0-96-43-96-96 0-53.032 42.984-96 96-96 53.032 0 96 42.968 96 96C608 405 565.032 448 512 448zM736 512l-143.844 0c-7.282 0-14.624 29.094-16.156 32.156-3.188 6.406-14.312 31.844-32 31.844l-64 0c-17.672 0-28.796-25.438-32-31.844-1.532-3.062-8.876-32.156-16.156-32.156L288 512c-17.672 0-32-14.468-32-32.124l0-256.032c0-17.688 14.328-31.844 32-31.844l448 0c17.688 0 32 14.156 32 31.844L768 479.876C768 497.532 753.688 512 736 512zM512 224c-70.672 0-128 57.282-128 128 0 70.688 57.328 128 128 128 70.718 0 128-57.312 128-128C640 281.282 582.718 224 512 224z"  horiz-adv-x="1024" />

    
    <glyph glyph-name="cddvdrom" unicode="&#58962;" d="M512 896C229.218 896 0 666.782 0 384s229.218-512 512-512 512 229.218 512 512S794.782 896 512 896zM512-48c-238.594 0-432 193.406-432 432S273.406 816 512 816s432-193.406 432-432S750.594-48 512-48zM512 640c-141.376 0-256-114.624-256-256s114.624-256 256-256 256 114.624 256 256S653.376 640 512 640zM512 256c-70.688 0-128 57.376-128 128 0 70.688 57.312 128 128 128 70.624 0 128-57.312 128-128C640 313.376 582.624 256 512 256zM512 460c-41.906 0-76-34.094-76-76s34.094-76 76-76 76 34.094 76 76S553.906 460 512 460zM512 352c-17.688 0-32 14.312-32 32s14.312 32 32 32 32-14.312 32-32S529.688 352 512 352z"  horiz-adv-x="1024" />

    
    <glyph glyph-name="chartdown" unicode="&#58963;" d="M512 896C229.218 896 0 666.782 0 384s229.218-512 512-512 512 229.218 512 512S794.782 896 512 896zM512-48c-238.594 0-432 193.406-432 432S273.406 816 512 816s432-193.406 432-432S750.594-48 512-48zM767 623c0 8.836-7.164 16-16 16l-480 0c-8.836 0-16-7.164-16-16l0-480c0-8.836 7.164-16 16-16l480 0c8.836 0 16 7.164 16 16L767 623zM735 175c0-8.836-7.164-16-16-16l-416 0c-8.836 0-16 7.164-16 16l0 416c0 8.836 7.164 16 16 16l416 0c8.836 0 16-7.164 16-16L735 175zM643.124 320.844 552.594 512l-96.938-102.376L373.844 496 352 472.906l103.656-109.438 88.468 93.438 71.468-150.876c-3.156-5.124-5.406-10.844-5.406-17.376 0-18.062 13.812-32.656 30.906-32.656S672 270.594 672 288.656C672 305.938 659.188 319.688 643.124 320.844z"  horiz-adv-x="1024" />

    
    <glyph glyph-name="chat" unicode="&#58964;" d="M512 896C229.218 896 0 666.782 0 384s229.218-512 512-512 512 229.218 512 512S794.782 896 512 896zM512-48c-238.594 0-432 193.406-432 432S273.406 816 512 816s432-193.406 432-432S750.594-48 512-48zM768 480.344C768 568.5 682.032 640 576 640c-106 0-192-71.5-192-159.656 0-88.188 86-159.656 192-159.656 34.968 0 76.812 15.532 76.812 15.532l105.624-48.124-22.468 102.562C735.968 390.656 768 441.312 768 480.344zM654.124 370.812l-12.438-4.562c-10.188-3.75-41.906-13.532-65.688-13.532-88.218 0-160 57.25-160 127.624s71.782 127.624 160 127.624 159.968-57.25 159.968-127.624c0-21.468-16.532-55.906-27.032-72.594l-7-11.094 11.562-52.906L654.124 370.812zM448 192.624c-23.782 0-55.5 9.782-65.718 13.532l-12.344 4.562-59.438-27.062 11.562 52.906-7 11.094C304.594 264.312 288 298.782 288 320.25c0 44.75 29.156 84.032 73 106.812-3.5 10.376-6.124 21.062-7.562 32.032C295.312 431.688 256 379.812 256 320.25c0-39 32-89.688 32-89.688L265.562 128l105.624 48.124c0 0 41.844-15.532 76.812-15.532 96.844 0 176.75 60.532 189.876 137.468-10-2.688-21.906-5.282-34.532-7.094C586.624 234.718 523.562 192.624 448 192.624z"  horiz-adv-x="1024" />

    
    <glyph glyph-name="check" unicode="&#58965;" d="M422.688 282.594 320 384 256 320 422.828 160 768 544 703.406 608ZM512 896C229.218 896 0 666.782 0 384s229.218-512 512-512 512 229.218 512 512S794.782 896 512 896zM512-48c-238.594 0-432 193.406-432 432S273.406 816 512 816s432-193.406 432-432S750.594-48 512-48z"  horiz-adv-x="1024" />

    
    <glyph glyph-name="circles" unicode="&#58966;" d="M512 896C229.218 896 0 666.782 0 384s229.218-512 512-512 512 229.218 512 512S794.782 896 512 896zM512-48c-238.594 0-432 193.406-432 432S273.406 816 512 816s432-193.406 432-432S750.594-48 512-48zM576 640c-106.032 0-192-85.968-192-192 0-1.062 0.094-2.094 0.124-3.218C311.062 430.032 256 365.468 256 288c0-88.376 71.594-160 160-160 77.438 0 142.032 55.062 156.844 128.188 1.062-0.032 2.094-0.188 3.156-0.188 106.032 0 192 85.968 192 192S682.032 640 576 640zM416 160c-70.562 0-128 57.438-128 128 0 60.718 42.562 111.468 99.438 124.5 14.5-77.532 75.532-138.562 153.062-153.062C527.438 202.562 476.688 160 416 160zM419.344 415.688c67.812-1.75 122.594-56.468 124.312-124.406C481.376 304.156 432.094 353.312 419.344 415.688zM576 288c0 88.344-71.594 160-160 160 0 88.218 71.812 160 160 160s160-71.782 160-160S664.188 288 576 288zM320 448c35.312 0 64 28.688 64 64s-28.688 64-64 64-64-28.688-64-64S284.688 448 320 448zM320 544c17.624 0 32-14.376 32-32s-14.376-32-32-32-32 14.376-32 32S302.376 544 320 544z"  horiz-adv-x="1024" />

    
    <glyph glyph-name="clock" unicode="&#58967;" d="M512 896C229.218 896 0 666.782 0 384s229.218-512 512-512 512 229.218 512 512S794.782 896 512 896zM512-48c-238.594 0-432 193.406-432 432S273.406 816 512 816s432-193.406 432-432S750.594-48 512-48zM512 640c-141.376 0-256-114.624-256-256s114.624-256 256-256 256 114.624 256 256S653.376 640 512 640zM512 176c-114.876 0-208 93.156-208 208 0 114.876 93.124 208 208 208 114.844 0 208-93.124 208-208C720 269.156 626.844 176 512 176zM512 352c-17.688 0-32 14.312-32 32s14.312 32 32 32 32-14.312 32-32S529.688 352 512 352zM492.124 381.25 514.75 403.876 589.5 329.156 566.876 306.5ZM384.938 488.438 407.562 511.094 531.906 386.75 509.25 364.124Z"  horiz-adv-x="1024" />

    
    <glyph glyph-name="cloud" unicode="&#58968;" d="M717.438 350.532C728.968 369.75 736 391.968 736 416c0 70.688-57.312 128-128 128-58.75 0-107.718-39.812-122.782-93.75C467.75 468.5 443.25 480 416 480c-53 0-96-43-96-96 0-11.5 2.376-22.406 6.062-32.624-2 0.188-4 0.624-6.062 0.624-35.344 0-64-44.656-64-80s28.656-80 64-80l384 0c35.344 0 64 44.656 64 80C768 302.718 746.312 344.344 717.438 350.532zM512 896C229.218 896 0 666.782 0 384s229.218-512 512-512 512 229.218 512 512S794.782 896 512 896zM512-48c-238.594 0-432 193.406-432 432S273.406 816 512 816s432-193.406 432-432S750.594-48 512-48z"  horiz-adv-x="1024" />

    
    <glyph glyph-name="cloudadd" unicode="&#58969;" d="M512 896C229.218 896 0 666.782 0 384s229.218-512 512-512 512 229.218 512 512S794.782 896 512 896zM512-48c-238.594 0-432 193.406-432 432S273.406 816 512 816s432-193.406 432-432S750.594-48 512-48zM717.438 414.532C728.968 433.75 736 455.968 736 480c0 70.688-57.312 128-128 128-58.75 0-107.718-39.812-122.782-93.75C467.75 532.516 443.25 544 416 544c-53 0-96-42.984-96-96 0-11.5 2.376-22.406 6.062-32.624-2 0.188-4 0.624-6.062 0.624-35.344 0-64-44.656-64-80s28.656-80 64-80l203.188 0c18 64 56.188 80 100.812 80 43.312 0 80.438-16.812 99.062-52.782C749.032 291.376 768 319.344 768 348 768 378.718 746.312 408.344 717.438 414.532zM624 320c-44.188 0-80-35.812-80-80s35.812-80 80-80 80 35.812 80 80S668.188 320 624 320zM672 224l-32 0 0-32-32 0 0 32-32 0 0 32 32 0 0 32 32 0 0-32 32 0L672 224z"  horiz-adv-x="1024" />

    
    <glyph glyph-name="clouddownload" unicode="&#58970;" d="M512 896C229.218 896 0 666.782 0 384s229.218-512 512-512 512 229.218 512 512S794.782 896 512 896zM512-48c-238.594 0-432 193.406-432 432S273.406 816 512 816s432-193.406 432-432S750.594-48 512-48zM717.438 414.532C728.968 433.75 736 455.968 736 480c0 70.688-57.312 128-128 128-58.75 0-107.718-39.812-122.782-93.75C467.75 532.516 443.25 544 416 544c-53 0-96-42.984-96-96 0-11.5 2.376-22.406 6.062-32.624-2 0.188-4 0.624-6.062 0.624-35.344 0-64-44.656-64-80s28.656-80 64-80l203.188 0c18 64 56.188 80 100.812 80 43.312 0 80.438-16.812 99.062-52.782C749.032 291.376 768 319.344 768 348 768 378.718 746.312 408.344 717.438 414.532zM624 320c-44.188 0-80-35.812-80-80s35.812-80 80-80 80 35.812 80 80S668.188 320 624 320zM624 179.188 585.594 224 608 224l0 64 32 0 0-64 22.406 0L624 179.188z"  horiz-adv-x="1024" />

    
    <glyph glyph-name="cloudremove" unicode="&#58971;" d="M512 896C229.218 896 0 666.782 0 384s229.218-512 512-512 512 229.218 512 512S794.782 896 512 896zM512-48c-238.594 0-432 193.406-432 432S273.406 816 512 816s432-193.406 432-432S750.594-48 512-48zM717.438 414.532C728.968 433.75 736 455.968 736 480c0 70.688-57.312 128-128 128-58.75 0-107.718-39.812-122.782-93.75C467.75 532.516 443.25 544 416 544c-53 0-96-42.984-96-96 0-11.5 2.376-22.406 6.062-32.624-2 0.188-4 0.624-6.062 0.624-35.344 0-64-44.656-64-80s28.656-80 64-80l203.188 0c18 64 56.188 80 100.812 80 43.312 0 80.438-16.812 99.062-52.782C749.032 291.376 768 319.344 768 348 768 378.718 746.312 408.344 717.438 414.532zM624 320c-44.188 0-80-35.812-80-80s35.812-80 80-80 80 35.812 80 80S668.188 320 624 320zM672 224l-96 0 0 32 96 0L672 224z"  horiz-adv-x="1024" />

    
    <glyph glyph-name="cloudupload" unicode="&#58972;" d="M512 896C229.218 896 0 666.782 0 384s229.218-512 512-512 512 229.218 512 512S794.782 896 512 896zM512-48c-238.594 0-432 193.406-432 432S273.406 816 512 816s432-193.406 432-432S750.594-48 512-48zM717.438 414.532C728.968 433.75 736 455.968 736 480c0 70.688-57.312 128-128 128-58.75 0-107.718-39.812-122.782-93.75C467.75 532.516 443.25 544 416 544c-53 0-96-42.984-96-96 0-11.5 2.376-22.406 6.062-32.624-2 0.188-4 0.624-6.062 0.624-35.344 0-64-44.656-64-80s28.656-80 64-80l203.188 0c18 64 56.188 80 100.812 80 43.312 0 80.438-16.812 99.062-52.782C749.032 291.376 768 319.344 768 348 768 378.718 746.312 408.344 717.438 414.532zM624 160c44.188 0 80 35.812 80 80s-35.812 80-80 80-80-35.812-80-80S579.812 160 624 160zM624 300.812 662.406 256 640 256l0-64-32 0 0 64-22.406 0L624 300.812z"  horiz-adv-x="1024" />

    
    <glyph glyph-name="coins" unicode="&#58973;" d="M512 896C229.218 896 0 666.782 0 384s229.218-512 512-512 512 229.218 512 512S794.782 896 512 896zM512-48c-238.594 0-432 193.406-432 432S273.406 816 512 816s432-193.406 432-432S750.594-48 512-48zM512 223.562c-60.062 0-122.876 12.656-159.688 39.406 0-0.438-0.312-0.876-0.312-1.282 0-6.718 0-31.438 0-38.124C352 188.438 423.624 160 512 160s160 28.438 160 63.562c0 6.688 0 31.406 0 38.124 0 0.406-0.312 0.844-0.312 1.282C634.876 236.218 572.032 223.562 512 223.562zM512 318.906c-60.062 0-122.876 12.624-159.688 39.376 0-0.438-0.312-0.844-0.312-1.282 0-6.718 0-31.406 0-38.094 0-35.124 71.624-63.594 160-63.594s160 28.468 160 63.594c0 6.688 0 31.376 0 38.094 0 0.438-0.312 0.844-0.312 1.282C634.876 331.532 572.032 318.906 512 318.906zM352 450.688c0-8.062 0-30.156 0-36.5 0-35.124 71.624-63.562 160-63.562s160 28.438 160 63.562c0 6.344 0 28.438 0 36.5-36.75-26.938-99.782-39.688-160-39.688S388.75 423.75 352 450.688zM512 608c-88.376 0-160-28.438-160-63.562 0-6.688 0-31.406 0-38.124 0-35.062 71.624-63.532 160-63.532s160 28.468 160 63.532c0 6.718 0 31.438 0 38.124C672 579.562 600.376 608 512 608z"  horiz-adv-x="1024" />

    
    <glyph glyph-name="comment" unicode="&#58974;" d="M512 896C229.218 896 0 666.782 0 384s229.218-512 512-512 512 229.218 512 512S794.782 896 512 896zM512-48c-238.594 0-432 193.406-432 432S273.406 816 512 816s432-193.406 432-432S750.594-48 512-48zM512 576c-123.718 0-224-74.766-224-166.938 0-41.062 31.094-87.812 64-116.906L320 192l97.25 65.906c28.812-10.062 60.812-15.812 94.75-15.812 123.718 0 224 74.718 224 166.968C736 501.234 635.718 576 512 576z"  horiz-adv-x="1024" />

    
    <glyph glyph-name="comments" unicode="&#58975;" d="M512 896C229.218 896 0 666.782 0 384s229.218-512 512-512 512 229.218 512 512S794.782 896 512 896zM512-48c-238.594 0-432 193.406-432 432S273.406 816 512 816s432-193.406 432-432S750.594-48 512-48zM621.75 386.532c-80.876 0-146.344-44.156-146.344-98.468 0-24.188 20.344-51.75 41.844-68.938L496.376 160l63.406 38.938c18.906-5.938 39.782-9.312 61.968-9.312 80.782 0 146.25 44 146.25 98.438C768 342.376 702.532 386.532 621.75 386.532zM512 608c-141.376 0-256-80.468-256-179.782 0-44.124 35.562-94.468 73.124-125.844l-36.532-107.938 111.094 71.124c14.5-4.75 29.876-8.5 45.688-11.312-6.468 12.688-10.5 25.876-10.5 38.25 0 70.968 81.876 128.438 182.876 128.438 54.124 0 102.376-16.844 135.876-43.156 6.624 16 10.376 32.938 10.376 50.438C768 527.532 653.376 608 512 608z"  horiz-adv-x="1024" />

    
    <glyph glyph-name="compass" unicode="&#58976;" d="M512 896C229.218 896 0 666.782 0 384s229.218-512 512-512 512 229.218 512 512S794.782 896 512 896zM512-48c-238.594 0-432 193.406-432 432S273.406 816 512 816s432-193.406 432-432S750.594-48 512-48zM448.782 447.062 462.718 502.718 288.718 607.124 393.094 433.124ZM630.562 433.656 734.25 608 561 503.188 575 447.312ZM575.376 321.094 561.656 265.312 736 161.562 630.938 335.218ZM393.094 334.656 288.718 160.688 463.094 265.376 449.032 320.718ZM512 640l-51.188-204.782L256 384l205-51.25L513 128l50.468 205.094L768 385l-204.844 50.406L512 640zM512 352c-17.656 0-32 14.344-32 32s14.344 32 32 32 32-14.344 32-32S529.656 352 512 352z"  horiz-adv-x="1024" />

    
    <glyph glyph-name="compass2" unicode="&#58977;" d="M512 896C229.218 896 0 666.782 0 384s229.218-512 512-512 512 229.218 512 512S794.782 896 512 896zM512-48c-238.594 0-432 193.406-432 432S273.406 816 512 816s432-193.406 432-432S750.594-48 512-48zM512 640c-141.39 0-256-114.624-256-256s114.61-256 256-256c141.376 0 256 114.624 256 256S653.376 640 512 640zM512 160c-123.516 0-224 100.5-224 224s100.484 224 224 224c123.5 0 224-100.5 224-224S635.5 160 512 160zM384 256l160 96 96 160-160-96L384 256zM512 400c8.844 0 16-7.156 16-16s-7.156-16-16-16-16 7.156-16 16S503.156 400 512 400z"  horiz-adv-x="1024" />

    
    <glyph glyph-name="contractdirections" unicode="&#58978;" d="M512 896C229.218 896 0 666.782 0 384s229.218-512 512-512 512 229.218 512 512S794.782 896 512 896zM512-48c-238.594 0-432 193.406-432 432S273.406 816 512 816s432-193.406 432-432S750.594-48 512-48zM384 480l256 0 0-192-256 0 0 192ZM288 320 352 384 288 448ZM736 320 736 448 671.968 384ZM575.938 576 447.906 576 511.906 512ZM447.876 192 575.938 192 511.938 256Z"  horiz-adv-x="1024" />

    
    <glyph glyph-name="contracthorizontal" unicode="&#58979;" d="M512 896C229.218 896 0 666.782 0 384s229.218-512 512-512 512 229.218 512 512S794.782 896 512 896zM512-48c-238.594 0-432 193.406-432 432S273.406 816 512 816s432-193.406 432-432S750.594-48 512-48zM384 480l256 0 0-192-256 0 0 192ZM288 319.906 352 383.906 288 447.938ZM736 319.906 736 447.938 671.968 383.906Z"  horiz-adv-x="1024" />

    
    <glyph glyph-name="contractvertical" unicode="&#58980;" d="M512 896C229.218 896 0 666.782 0 384s229.218-512 512-512 512 229.218 512 512S794.782 896 512 896zM512-48c-238.594 0-432 193.406-432 432S273.406 816 512 816s432-193.406 432-432S750.594-48 512-48zM384 480l256 0 0-192-256 0 0 192ZM576 576 448 576 512 512ZM448 192 576 192 512 256.062Z"  horiz-adv-x="1024" />

    
    <glyph glyph-name="copydocument" unicode="&#58981;" d="M512 896C229.218 896 0 666.782 0 384s229.218-512 512-512 512 229.218 512 512S794.782 896 512 896zM512-48c-238.594 0-432 193.406-432 432S273.406 816 512 816s432-193.406 432-432S750.594-48 512-48zM288 512l320 0 0-384-320 0 0 384ZM736 640 416 640 416 544 640 544 640 256 736 256Z"  horiz-adv-x="1024" />

    
    <glyph glyph-name="copypastedocument" unicode="&#58982;" d="M512 896C229.218 896 0 666.782 0 384s229.218-512 512-512 512 229.218 512 512S794.782 896 512 896zM512-48c-238.594 0-432 193.406-432 432S273.406 816 512 816s432-193.406 432-432S750.594-48 512-48zM256 448l320 0 0-320-320 0 0 320ZM672 544 352 544 352 480 608 480 608 224 672 224ZM768 640 448 640 448 576 704 576 704 320 768 320Z"  horiz-adv-x="1024" />

    
    <glyph glyph-name="creditcard" unicode="&#58983;" d="M512 896C229.218 896 0 666.782 0 384s229.218-512 512-512 512 229.218 512 512S794.782 896 512 896zM512-48c-238.594 0-432 193.406-432 432S273.406 816 512 816s432-193.406 432-432S750.594-48 512-48zM736 464c0 44.188-35.812 80-80 80L368 544c-44.188 0-80-35.812-80-80l0-160c0-44.188 35.812-80 80-80l288 0c44.188 0 80 35.812 80 80L736 464zM367.188 512l288 0c20.876 0 38.438-13.438 45.062-32L322.156 480C328.782 498.562 346.376 512 367.188 512zM704 304c0-26.468-22.312-48-48.812-48l-288 0C340.75 256 320 277.532 320 304l0 112 384 0L704 304zM367.188 352l128 0c8.876 0 16 7.156 16 16s-7.124 16-16 16l-128 0c-8.812 0-16-7.156-16-16S358.376 352 367.188 352zM623.188 352l32 0c8.876 0 16 7.156 16 16s-7.124 16-16 16l-32 0c-8.812 0-16-7.156-16-16S614.376 352 623.188 352zM367.188 288l64 0c8.876 0 16 7.156 16 16s-7.124 16-16 16l-64 0c-8.812 0-16-7.156-16-16S358.376 288 367.188 288z"  horiz-adv-x="1024" />

    
    <glyph glyph-name="cross" unicode="&#58984;" d="M670.376 587.624 512 429.25 353.624 587.624 308.376 542.376 466.75 384 308.376 225.624 353.624 180.376 512 338.75 670.376 180.376 715.624 225.624 557.25 384 715.624 542.376ZM512 896C229.218 896 0 666.782 0 384s229.218-512 512-512 512 229.218 512 512S794.782 896 512 896zM512-48c-238.594 0-432 193.406-432 432S273.406 816 512 816s432-193.406 432-432S750.594-48 512-48z"  horiz-adv-x="1024" />

    
    <glyph glyph-name="directions" unicode="&#58985;" d="M512 896C229.218 896 0 666.782 0 384s229.218-512 512-512 512 229.218 512 512S794.782 896 512 896zM512-48c-238.594 0-432 193.406-432 432S273.406 816 512 816s432-193.406 432-432S750.594-48 512-48zM768 384 704 448 704 416 544 416 544 576 576 576 512 640 448 576 480 576 480 416 320 416 320 448 256 384 320 320 320 352 480 352 480 192 448 192 512 128 576 192 544 192 544 352 704 352 704 320Z"  horiz-adv-x="1024" />

    
    <glyph glyph-name="document" unicode="&#58986;" d="M512 896C229.218 896 0 666.782 0 384s229.218-512 512-512 512 229.218 512 512S794.782 896 512 896zM512-48c-238.594 0-432 193.406-432 432S273.406 816 512 816s432-193.406 432-432S750.594-48 512-48zM640 640 320 640l0-512 384 0L704 566.844 640 640zM352 160 352 608l256 0 0-64 64 0 0-384L352 160z"  horiz-adv-x="1024" />

    
    <glyph glyph-name="documentfill" unicode="&#58987;" d="M512 896C229.218 896 0 666.782 0 384s229.218-512 512-512 512 229.218 512 512S794.782 896 512 896zM512-48c-238.594 0-432 193.406-432 432S273.406 816 512 816s432-193.406 432-432S750.594-48 512-48zM640 640 320 640l0-512 384 0L704 566.844 640 640zM352 160 352 608l256 0 0-64 64 0 0-384L352 160zM384 352l256 0 0-32-256 0 0 32ZM384 416l256 0 0-32-256 0 0 32ZM384 512l128 0 0-32-128 0 0 32ZM384 576l64 0 0-32-64 0 0 32ZM384 288l256 0 0-32-256 0 0 32ZM384 224l256 0 0-32-256 0 0 32Z"  horiz-adv-x="1024" />

    
    <glyph glyph-name="documents" unicode="&#58988;" d="M512 896C229.218 896 0 666.782 0 384s229.218-512 512-512 512 229.218 512 512S794.782 896 512 896zM512-48c-238.594 0-432 193.406-432 432S273.406 816 512 816s432-193.406 432-432S750.594-48 512-48zM721 639l-242 0 0-128-224 0 0-384 288 0 0 128 224 0 0 338L721 639zM511 159l-224 0 0 320 192 0 0-224 32 0L511 159zM735 287l-224 0 0 320 160 0 0-64 64 0L735 287z"  horiz-adv-x="1024" />

    
    <glyph glyph-name="dollar" unicode="&#58989;" d="M512 896C229.218 896 0 666.782 0 384s229.218-512 512-512 512 229.218 512 512S794.782 896 512 896zM512-48c-238.594 0-432 193.406-432 432S273.406 816 512 816s432-193.406 432-432S750.594-48 512-48zM535.844 192.532 535.844 128l-51.438 0 0 60.812c-39.032 1.218-78.094 12.5-100.406 26.938l16.75 59.532c24.812-15.062 58.876-27.562 96.688-27.562 39.624 0 66.282 19.406 66.282 48.876 0 28.782-21.656 46.312-68.156 63.282-64.438 23.812-107.218 54.5-107.218 112.188 0 53.876 37.218 95.876 99.782 107.124L488.128 640l50.812 0 0-57.656c39.032-1.25 65.718-11.282 85.562-21.312l-16.75-57.656c-14.876 7.5-42.156 21.938-84.282 21.938-43.406 0-58.906-22.562-58.906-43.876 0-25.688 22.312-40.718 75.624-61.438C609.594 393.688 640 359.876 640 303.438 640 250.156 603.406 203.812 535.844 192.532z"  horiz-adv-x="1024" />

    
    <glyph glyph-name="dotcircle" unicode="&#58990;" d="M512 896C229.218 896 0 666.782 0 384s229.218-512 512-512 512 229.218 512 512S794.782 896 512 896zM512-48c-238.594 0-432 193.406-432 432S273.406 816 512 816s432-193.406 432-432S750.594-48 512-48zM544 192c0-17.688-14.312-32-32-32s-32 14.312-32 32 14.312 32 32 32S544 209.688 544 192zM544 576c0-17.688-14.312-32-32-32s-32 14.312-32 32 14.312 32 32 32S544 593.688 544 576zM736 384c0-17.688-14.312-32-32-32s-32 14.312-32 32 14.312 32 32 32S736 401.688 736 384zM352 384c0-17.688-14.312-32-32-32s-32 14.312-32 32 14.312 32 32 32S352 401.688 352 384zM346.124 442.312c17.688 50.124 57.438 89.876 107.562 107.562-3.594 8-5.688 16.782-5.688 26.124 0 2.062 0.438 4.032 0.624 6.062-63.782-20.5-114.188-70.906-134.688-134.688 2.032 0.188 4 0.624 6.062 0.624C329.344 448 338.124 445.906 346.124 442.312zM453.688 218.124c-50.124 17.718-89.876 57.406-107.562 107.562-8-3.594-16.782-5.688-26.124-5.688-2.062 0-4.032 0.406-6.062 0.594 20.5-63.75 70.906-114.188 134.688-134.624-0.188 2-0.624 3.968-0.624 6.032C448 201.344 450.094 210.156 453.688 218.124zM570.312 549.876c50.156-17.688 89.844-57.438 107.562-107.562C685.844 445.906 694.656 448 704 448c2.062 0 4.032-0.438 6.032-0.624-20.438 63.782-70.876 114.188-134.624 134.688 0.188-2.032 0.594-4 0.594-6.062C576 566.656 573.906 557.876 570.312 549.876zM677.844 325.688c-17.688-50.124-57.406-89.844-107.532-107.532 3.594-8 5.688-16.812 5.688-26.156 0-2.062-0.406-4.032-0.594-6.032 63.75 20.438 114.188 70.876 134.624 134.624-2-0.188-3.968-0.594-6.032-0.594C694.656 320 685.844 322.094 677.844 325.688z"  horiz-adv-x="1024" />

    
    <glyph glyph-name="dotline" unicode="&#58991;" d="M512 896C229.218 896 0 666.782 0 384s229.218-512 512-512 512 229.218 512 512S794.782 896 512 896zM512-48c-238.594 0-432 193.406-432 432S273.406 816 512 816s432-193.406 432-432S750.594-48 512-48zM768 544l0 96-96 0 0-73.406L329.376 224 256 224l0-96 96 0 0 73.376L694.656 544 768 544zM704 608l32 0 0-32-32 0L704 608zM320 160l-32 0 0 32 32 0L320 160z"  horiz-adv-x="1024" />

    
    <glyph glyph-name="dotsquare" unicode="&#58992;" d="M512 896C229.218 896 0 666.782 0 384s229.218-512 512-512 512 229.218 512 512S794.782 896 512 896zM512-48c-238.594 0-432 193.406-432 432S273.406 816 512 816s432-193.406 432-432S750.594-48 512-48zM768 544l0 96-96 0 0-32L352 608l0 32-96 0 0-96 32 0 0-320-32 0 0-96 96 0 0 32 320 0 0-32 96 0 0 96-32 0L736 544 768 544zM704 608l32 0 0-32-32 0L704 608zM288 608l32 0 0-32-32 0L288 608zM320 160l-32 0 0 32 32 0L320 160zM736 160l-32 0 0 32 32 0L736 160zM704 224l-32 0 0-32L352 192l0 32-32 0L320 544l32 0 0 32 320 0 0-32 32 0L704 224z"  horiz-adv-x="1024" />

    
    <glyph glyph-name="doublediamonds" unicode="&#58993;" d="M512 896C229.218 896 0 666.782 0 384s229.218-512 512-512 512 229.218 512 512S794.782 896 512 896zM512-48c-238.594 0-432 193.406-432 432S273.406 816 512 816s432-193.406 432-432S750.594-48 512-48zM768 384.438 586.938 576l-75.344-79.75L437 575.156 256 383.594 437 192l75.376 79.718 74.562-78.906L768 384.438zM534.218 472.312l52.718 55.812 135.812-143.688-135.812-143.718L535 295.656l83.062 87.938L534.218 472.312z"  horiz-adv-x="1024" />

    
    <glyph glyph-name="download" unicode="&#58994;" d="M512 896C229.218 896 0 666.782 0 384s229.218-512 512-512 512 229.218 512 512S794.782 896 512 896zM512-48c-238.594 0-432 193.406-432 432S273.406 816 512 816s432-193.406 432-432S750.594-48 512-48zM704 256 704 192 512 192 320 192 320 256 256 256 256 128 768 128 768 256ZM544 384 544 640 480 640 480 384 384 384 512 224 640 384Z"  horiz-adv-x="1024" />

    
    <glyph glyph-name="downloadselection" unicode="&#58995;" d="M512 896C229.218 896 0 666.782 0 384s229.218-512 512-512 512 229.218 512 512S794.782 896 512 896zM512-48c-238.594 0-432 193.406-432 432S273.406 816 512 816s432-193.406 432-432S750.594-48 512-48zM703.782 447.938l31.968 0 0-127.876-31.968 0 0 127.876ZM688.062 608l-16 0 0-31.968 16 0c8.782 0 15.968-7.156 15.968-15.968l0-16L736 544.064l0 16C736 586.5 714.5 608 688.062 608zM448.078 607.75l127.86 0 0-31.968-127.86 0 0 31.968ZM288 560.062l0.25-16.25 31.968 0-0.25 16.25c0 8.812 7.156 15.968 15.984 15.968l15.968 0L351.92 608l-15.968 0C309.5 608 288 586.5 288 560.062zM288.25 447.938l31.968 0 0-127.876-31.968 0 0 127.876ZM319.968 207.938l0 16L288 223.938l0-16C288 181.5 309.5 160 335.954 160l15.968 0 0 31.968-15.968 0C327.124 191.968 319.968 199.156 319.968 207.938zM448.078 192.218l127.86 0 0-31.968-127.86 0 0 31.968ZM704.032 207.938c0-8.782-7.188-15.968-15.968-15.968l-16 0L672.064 160l16 0C714.5 160 736 181.5 736 207.938l0 16-31.968 0L704.032 207.938zM544.218 512.25 480.282 512.25 480.032 351.656 416.11 351.656 512 255.782 607.906 351.656 544.188 351.5Z"  horiz-adv-x="1024" />

    
    <glyph glyph-name="downloadselectioncircle" unicode="&#58996;" d="M512 896C229.218 896 0 666.782 0 384s229.218-512 512-512 512 229.218 512 512S794.782 896 512 896zM512-48c-238.594 0-432 193.406-432 432S273.406 816 512 816s432-193.406 432-432S750.594-48 512-48zM607.782 352.078 543.922 352.078 543.922 511.734 480.062 511.734 480.062 352.078 416.218 352.078 512 256.296ZM645.032 203.766c18.906 13.968 35.406 30.718 49.094 49.812l-25.938 18.594c-11.75-16.376-25.938-30.75-42.124-42.75L645.032 203.766zM513.672 191.922l0.296-31.938c23.578 0.188 46.782 4.062 69 11.5l-10.094 30.25C553.844 195.39 533.954 192.11 513.672 191.922zM642.968 565.734c-19.062 13.75-40.094 24.406-62.438 31.562l-9.782-30.406c19.156-6.124 37.188-15.218 53.532-27.032L642.968 565.734zM724.75 454.36c-7.406 22.282-18.188 43.188-32.156 62.156l-25.688-18.906c11.906-16.282 21.188-34.188 27.532-53.282L724.75 454.36zM695.094 325.796l30.438-9.688c6.938 21.876 10.468 44.75 10.468 67.876l0 1.218-31.938-1.218C704.062 364.11 701.062 344.516 695.094 325.796zM332.124 250.454l25.656 19.032c-12.094 16.218-21.468 34.124-27.876 53.124l-30.282-10.188C307.094 290.204 318.032 269.36 332.124 250.454zM297.5 382.296l22.438 1.688c0 20.25 3.156 40.156 9.344 59.282l-30.406 9.812C291.656 430.796 288 407.546 288 383.36L297.5 382.296zM398.906 539.234l-18.844 25.75c-19.032-13.876-35.656-30.562-49.406-49.532l25.812-18.782C368.282 512.984 382.594 527.266 398.906 539.234zM444.75 170.266l9.624 30.468c-19.188 6.032-37.282 15.032-53.718 26.75l-18.562-26C401.312 187.828 422.406 177.296 444.75 170.266zM511.454 576.11l-0.124 31.906c-23.656-0.094-46.86-3.812-69.078-11.062l9.968-30.344C471.188 572.796 491.124 575.984 511.454 576.11z"  horiz-adv-x="1024" />

    
    <glyph glyph-name="drop" unicode="&#58997;" d="M512 896C229.218 896 0 666.782 0 384s229.218-512 512-512 512 229.218 512 512S794.782 896 512 896zM512-48c-238.594 0-432 193.406-432 432S273.406 816 512 816s432-193.406 432-432S750.594-48 512-48zM512 640c-32-96-160-263.624-160-352s71.624-160 160-160 160 71.624 160 160S544 544 512 640zM512 192c-55.25 0-100 44.812-100 100 0 55.25 80 160 100 220 20-60 100-164.75 100-220C612 236.812 567.188 192 512 192z"  horiz-adv-x="1024" />

    
    <glyph glyph-name="drops" unicode="&#58998;" d="M512 896C229.218 896 0 666.782 0 384s229.218-512 512-512 512 229.218 512 512S794.782 896 512 896zM512-48c-238.594 0-432 193.406-432 432S273.406 816 512 816s432-193.406 432-432S750.594-48 512-48zM608 288c0-88.376-71.624-160-160-160s-160 71.624-160 160 128 256 160 352C480 544 608 376.376 608 288zM736 508c0-33.124-28.688-60-64-60s-64 26.876-64 60 51.188 96 64 132C684.812 604 736 541.124 736 508z"  horiz-adv-x="1024" />

    
    <glyph glyph-name="eject" unicode="&#58999;" d="M512 896C229.218 896 0 666.782 0 384s229.218-512 512-512 512 229.218 512 512S794.782 896 512 896zM512-48c-238.594 0-432 193.406-432 432S273.406 816 512 816s432-193.406 432-432S750.594-48 512-48zM352 352 672 352 512 544ZM352 288l320 0 0-64-320 0 0 64Z"  horiz-adv-x="1024" />

    
    <glyph glyph-name="emailadd" unicode="&#59000;" d="M512 896C229.218 896 0 666.782 0 384s229.218-512 512-512 512 229.218 512 512S794.782 896 512 896zM512-48c-238.594 0-432 193.406-432 432S273.406 816 512 816s432-193.406 432-432S750.594-48 512-48zM736 427.25l0-148.876-109 118.844 33.438 22.624c-11.968 3.062-23.282 7.844-33.376 14.406L512 352.5 332.562 480 512 480l75.25 0c-4.782 32-8 32-9.624 32L512 512 256 512l0-320 256 0 256 0L768 449.876C758.844 440.5 747.938 432.938 736 427.25zM288 470.938l109-73.718L288 278.376 288 470.938zM512 224l-184.812 0 91.124 158.844L512 319.5l93.688 63.312L696.812 224 512 224zM688 608c-44.188 0-80-35.812-80-80s35.812-80 80-80 80 35.812 80 80S732.188 608 688 608zM736 512l-32 0 0-32-32 0 0 32-32 0 0 32 32 0 0 32 32 0 0-32 32 0L736 512z"  horiz-adv-x="1024" />

    
    <glyph glyph-name="emailclose" unicode="&#59001;" d="M512 896C229.218 896 0 666.782 0 384s229.218-512 512-512 512 229.218 512 512S794.782 896 512 896zM512-48c-238.594 0-432 193.406-432 432S273.406 816 512 816s432-193.406 432-432S750.594-48 512-48zM736 427.25l0-148.876-109 118.844 33.438 22.624c-11.968 3.062-23.282 7.844-33.376 14.406L512 352.5 332.562 480 512 480l75.25 0c-4.782 9.968-8 20.688-9.624 32L512 512 256 512l0-320 256 0 256 0L768 449.876C758.844 440.5 747.938 432.938 736 427.25zM288 470.938l109-73.718L288 278.376 288 470.938zM512 224l-184.812 0 91.124 158.844L512 319.5l93.688 63.344L696.812 224 512 224zM688 608c-44.188 0-80-35.812-80-80s35.812-80 80-80 80 35.812 80 80S732.188 608 688 608zM733.25 505.376l-22.624-22.624L688 505.376l-22.624-22.624-22.624 22.624L665.376 528l-22.624 22.624 22.624 22.624L688 550.624l22.624 22.624 22.624-22.624L710.624 528 733.25 505.376z"  horiz-adv-x="1024" />

    
    <glyph glyph-name="emaildownload" unicode="&#59002;" d="M512 896C229.218 896 0 666.782 0 384s229.218-512 512-512 512 229.218 512 512S794.782 896 512 896zM512-48c-238.594 0-432 193.406-432 432S273.406 816 512 816s432-193.406 432-432S750.594-48 512-48zM736 427.25l0-148.876-109 118.844 33.438 22.624c-11.968 3.062-23.282 7.844-33.376 14.406L512 352.5 332.562 480 512 480l75.25 0c-4.782 9.968-8 20.688-9.624 32L512 512 256 512l0-320 256 0 256 0L768 449.876C758.844 440.5 747.938 432.938 736 427.25zM288 470.938l109-73.718L288 278.376 288 470.938zM512 224l-184.812 0 91.124 158.844L512 319.5l93.688 63.344L696.812 224 512 224zM688 608c-44.188 0-80-35.812-80-80s35.812-80 80-80 80 35.812 80 80S732.188 608 688 608zM688 467.188 649.594 512 672 512l0 64 32 0 0-64 22.406 0L688 467.188z"  horiz-adv-x="1024" />

    
    <glyph glyph-name="emailluminosity" unicode="&#59003;" d="M512 896C229.218 896 0 666.782 0 384s229.218-512 512-512 512 229.218 512 512S794.782 896 512 896zM512-48c-238.594 0-432 193.406-432 432S273.406 816 512 816s432-193.406 432-432S750.594-48 512-48zM496 608l32 0 0-64-32 0 0 64ZM496 224l32 0 0-64-32 0 0 64ZM659.060436 553.693557l22.624372-22.624372-45.250157-45.250157-22.624372 22.624372 45.250157 45.250157ZM364.936064 214.306443l-22.624372 22.624372 45.250157 45.250157 22.624372-22.624372-45.250157-45.250157ZM364.937814 553.691607l45.250157-45.250157-22.624372-22.624372-45.250157 45.250157 22.624372 22.624372ZM659.062186 214.304693l-45.250157 45.250157 22.624372 22.624372 45.250157-45.250157-22.624372-22.624372ZM288 400l64 0 0-32-64 0 0 32ZM672 400l64 0 0-32-64 0 0 32ZM512 512c-70.594 0-128-57.438-128-128s57.406-128 128-128c70.562 0 128 57.438 128 128S582.562 512 512 512zM512 288l0 192c52.938 0 96-43.062 96-96S564.938 288 512 288z"  horiz-adv-x="1024" />

    
    <glyph glyph-name="emailremove" unicode="&#59004;" d="M512 896C229.218 896 0 666.782 0 384s229.218-512 512-512 512 229.218 512 512S794.782 896 512 896zM512-48c-238.594 0-432 193.406-432 432S273.406 816 512 816s432-193.406 432-432S750.594-48 512-48zM736 427.25l0-148.876-109 118.844 33.438 22.624c-11.968 3.062-23.282 7.844-33.376 14.406L512 352.5 332.562 480 512 480l75.25 0c-4.782 32-8 32-9.624 32L512 512 256 512l0-320 256 0 256 0L768 449.876C758.844 440.5 747.938 432.938 736 427.25zM288 470.938l109-73.718L288 278.376 288 470.938zM512 224l-184.812 0 91.124 158.844L512 319.5l93.688 63.312L696.812 224 512 224zM688 608c-44.188 0-80-35.812-80-80s35.812-80 80-80 80 35.812 80 80S732.188 608 688 608zM736 512l-96 0 0 32 96 0L736 512z"  horiz-adv-x="1024" />

    
    <glyph glyph-name="emailspam" unicode="&#59005;" d="M512 896C229.218 896 0 666.782 0 384s229.218-512 512-512 512 229.218 512 512S794.782 896 512 896zM512-48c-238.594 0-432 193.406-432 432S273.406 816 512 816s432-193.406 432-432S750.594-48 512-48zM736 427.25l0-148.876-109 118.844 33.438 22.624c-11.968 3.062-23.282 7.844-33.376 14.406L512 352.5 332.562 480 512 480l75.25 0c-4.782 9.968-8 20.688-9.624 32L512 512 256 512l0-320 256 0 256 0L768 449.876C758.844 440.5 747.938 432.938 736 427.25zM288 470.938l109-73.718L288 278.376 288 470.938zM512 224l-184.812 0 91.124 158.844L512 319.5l93.688 63.344L696.812 224 512 224zM768 528c0 44.188-35.876 80-80 80s-80-35.812-80-80c0-44.124 35.876-80 80-80S768 483.876 768 528zM628 528c0 33.094 26.938 60 60 60 12.876 0 24.938-4.188 34.75-11.124l-83.562-83.624C632.156 503.062 628 515.124 628 528zM653.25 479.188l83.562 83.532C743.876 552.906 748 540.876 748 528c0-33.062-26.938-60-60-60C675.124 468 663.062 472.124 653.25 479.188z"  horiz-adv-x="1024" />

    
    <glyph glyph-name="emailupload" unicode="&#59006;" d="M512 896C229.218 896 0 666.782 0 384s229.218-512 512-512 512 229.218 512 512S794.782 896 512 896zM512-48c-238.594 0-432 193.406-432 432S273.406 816 512 816s432-193.406 432-432S750.594-48 512-48zM736 427.25l0-148.876-109 118.844 33.438 22.624c-11.968 3.062-23.282 7.844-33.376 14.406L512 352.5 332.562 480 512 480l75.25 0c-4.782 9.968-8 20.688-9.624 32L512 512 256 512l0-320 256 0 256 0L768 449.876C758.844 440.5 747.938 432.938 736 427.25zM288 470.938l109-73.718L288 278.376 288 470.938zM512 224l-184.812 0 91.124 158.844L512 319.5l93.688 63.344L696.812 224 512 224zM688 448c44.188 0 80 35.812 80 80s-35.812 80-80 80-80-35.812-80-80S643.812 448 688 448zM688 588.812 726.406 544 704 544l0-64-32 0 0 64-22.406 0L688 588.812z"  horiz-adv-x="1024" />

    
    <glyph glyph-name="euro" unicode="&#59007;" d="M512 896C229.218 896 0 666.782 0 384s229.218-512 512-512 512 229.218 512 512S794.782 896 512 896zM512-48c-238.594 0-432 193.406-432 432S273.406 816 512 816s432-193.406 432-432S750.594-48 512-48zM555.438 128c-69.312 0-131.782 27.468-172.188 78.468-24.376 28.218-41.124 66.344-48 112.75L286.5 319.218 286.5 366.5l42.688 0c0 3.812 0 7.562 0 11.438 0 9.876 0.75 19.782 1.5 28.156L286.5 406.094l0 47.218 51.062 0c9.124 47.25 29.718 86.124 57.124 115.812C435.812 614.094 491.438 640 559.312 640c45.688 0 83.812-11.438 108.876-23.624l-19-70.094c-19.812 9.906-51 19.812-85.312 19.812-38.124 0-71.624-13.718-96.812-41.906-15.938-16.75-27.376-41.876-33.5-70.876l199.562 0 0-47.218L424.406 406.094c-1.532-8.376-1.532-17.532-1.532-27.438 0-4.594 0-7.624 0-12.156l210.25 0 0-47.282L431.25 319.218c5.376-31.968 16.782-57.156 32.75-73.906 25.938-28.188 62.5-41.156 102.124-41.156 37.312 0 72.376 12.968 89.938 22.094L672 158.438C646.876 143.25 604.25 128 555.438 128z"  horiz-adv-x="1024" />

    
    <glyph glyph-name="exclamation" unicode="&#59008;" d="M512 896C229.218 896 0 666.782 0 384s229.218-512 512-512 512 229.218 512 512S794.782 896 512 896zM512-48c-238.594 0-432 193.406-432 432S273.406 816 512 816s432-193.406 432-432S750.594-48 512-48zM480 426.688 492.468 256 531.562 256 544 428.25 544 640 480 640ZM480 192l64 0 0-64-64 0 0 64Z"  horiz-adv-x="1024" />

    
    <glyph glyph-name="expand" unicode="&#59009;" d="M512 896C229.218 896 0 666.812 0 384c0-282.75 229.218-512 512-512s512 229.25 512 512C1024 666.812 794.782 896 512 896zM512-48c-238.594 0-432 193.438-432 432 0 238.624 193.406 432 432 432s432-193.376 432-432C944 145.438 750.594-48 512-48zM768 511.624 768 640 638.562 640 672.562 606 510.938 444.376 349.124 606.062 382.938 640 256 640 256 511.376 289.532 545.562 450.876 384 289.5 222.156 256 256.188 256 128 382.812 128 349.062 161.844 510.938 323.624 672.624 162 638.562 128 768 128 768 256 733.594 222.188 571.844 384 733.468 545.624Z"  horiz-adv-x="1024" />

    
    <glyph glyph-name="expanddirections" unicode="&#59010;" d="M512 896C229.218 896 0 666.782 0 384s229.218-512 512-512 512 229.218 512 512S794.782 896 512 896zM512-48c-238.594 0-432 193.406-432 432S273.406 816 512 816s432-193.406 432-432S750.594-48 512-48zM384 480l256 0 0-192-256 0 0 192ZM352 319.968 352 448 288 384ZM672 319.968 736.032 384 672 448ZM512.032 575.968 448 512 576.032 512ZM511.968 192.032 576 256 447.968 256Z"  horiz-adv-x="1024" />

    
    <glyph glyph-name="expandhorizontal" unicode="&#59011;" d="M512 896C229.218 896 0 666.782 0 384s229.218-512 512-512 512 229.218 512 512S794.782 896 512 896zM512-48c-238.594 0-432 193.406-432 432S273.406 816 512 816s432-193.406 432-432S750.594-48 512-48zM384 480l256 0 0-192-256 0 0 192ZM352 319.968 352 448 288 384ZM672 319.968 736.032 384 672 448Z"  horiz-adv-x="1024" />

    
    <glyph glyph-name="expandvertical" unicode="&#59012;" d="M512 896C229.218 896 0 666.782 0 384s229.218-512 512-512 512 229.218 512 512S794.782 896 512 896zM512-48c-238.594 0-432 193.406-432 432S273.406 816 512 816s432-193.406 432-432S750.594-48 512-48zM384 480l256 0 0-192-256 0 0 192ZM512 576 448 512 576 512ZM512 191.938 576 256 448 256Z"  horiz-adv-x="1024" />

    
    <glyph glyph-name="eye" unicode="&#59013;" d="M512 512c-141.376 0-224-128-224-128s82.624-128 224-128 224 128 224 128S653.376 512 512 512zM512 320.5c-35.344 0-64 28.438-64 63.5s28.656 63.5 64 63.5 63.968-28.438 63.968-63.5S547.344 320.5 512 320.5zM512 896C229.218 896 0 666.782 0 384s229.218-512 512-512 512 229.218 512 512S794.782 896 512 896zM512-48c-238.594 0-432 193.406-432 432S273.406 816 512 816s432-193.406 432-432S750.594-48 512-48z"  horiz-adv-x="1024" />

    
    <glyph glyph-name="eyedisabled" unicode="&#59014;" d="M671.156 452.624l-193.718-193.75C488.594 257.188 500 256 512 256c141.376 0 224 128 224 128S713.094 419.124 671.156 452.624zM352.906 315.344l193.718 193.75C535.468 510.782 524 512 512 512c-141.376 0-224-128-224-128S310.906 348.812 352.906 315.344zM288 208 332.812 160 736 563.204 691.188 608ZM512 896C229.218 896 0 666.782 0 384s229.218-512 512-512 512 229.218 512 512S794.782 896 512 896zM512-48c-238.594 0-432 193.406-432 432S273.406 816 512 816s432-193.406 432-432S750.594-48 512-48z"  horiz-adv-x="1024" />

    
    <glyph glyph-name="femalesymbol" unicode="&#59015;" d="M512 896C229.218 896 0 666.782 0 384s229.218-512 512-512 512 229.218 512 512S794.782 896 512 896zM512-48c-238.594 0-432 193.406-432 432S273.406 816 512 816s432-193.406 432-432S750.594-48 512-48zM512 576m-64 0a32 32 0 1 0 128 0 32 32 0 1 0-128 0ZM608 480 416 480 416 352 448 352 416 160 480 160 480 128 543.5 128 544 160 608 160 576 352 608 352Z"  horiz-adv-x="1024" />

    
    <glyph glyph-name="fire" unicode="&#59016;" d="M512 896C229.218 896 0 666.782 0 384s229.218-512 512-512 512 229.218 512 512S794.782 896 512 896zM512-48c-238.594 0-432 193.406-432 432S273.406 816 512 816s432-193.406 432-432S750.594-48 512-48zM461.678 640c0 0 190.968-128 168.532-304 0 0 64.094 16 46.876 121.876 0 0 92.468-89.218 90.906-169.876-1.282-65.532-83.282-160-237.5-160 0 0 139.062 124.376-44.688 281.75 0 0-169.968-167.688-57.812-281.75 0 0-226.156 57.532-159.812 201.594C334.522 473.688 479.646 486.406 461.678 640z"  horiz-adv-x="1024" />

    
    <glyph glyph-name="forward" unicode="&#59017;" d="M512 896C229.218 896 0 666.782 0 384s229.218-512 512-512 512 229.218 512 512S794.782 896 512 896zM512-48c-238.594 0-432 193.406-432 432S273.406 816 512 816s432-193.406 432-432S750.594-48 512-48zM352 224 544 384 352 544ZM544 384 544 224 736 384 544 544Z"  horiz-adv-x="1024" />

    
    <glyph glyph-name="graphs" unicode="&#59018;" d="M512 896C229.218 896 0 666.782 0 384s229.218-512 512-512 512 229.218 512 512S794.782 896 512 896zM512-48c-238.594 0-432 193.406-432 432S273.406 816 512 816s432-193.406 432-432S750.594-48 512-48zM704 640c-35.25 0-64-28.688-64-64 0-23.876 13.282-44.5 32.75-55.5L612 319.624c-1.312 0.094-2.624 0.376-4 0.376-10.782 0-20.812-2.938-29.75-7.718l-71.562 78.344C510.062 398.438 512 407 512 416c0 35.312-28.688 64-64 64s-64-28.688-64-64c0-17.344 7-33.032 18.218-44.562l-67.718-117.218C329.812 255.25 325 256 320 256c-35.312 0-64-28.75-64-64s28.688-64 64-64 64 28.75 64 64c0 18.75-8.25 35.5-21.188 47.25l66.876 115.75c5.812-1.75 11.938-3 18.312-3 14.532 0 27.782 5.062 38.532 13.25l67.906-74.406C547.876 280.782 544 268.876 544 256c0-35.25 28.718-64 64-64 35.25 0 64 28.75 64 64 0 22.624-11.812 42.376-29.562 53.75l61.124 202.312c0.156 0 0.25-0.062 0.438-0.062 35.25 0 64 28.688 64 64S739.25 640 704 640zM320 160c-17.688 0-32 14.282-32 32s14.312 32 32 32 32-14.282 32-32S337.688 160 320 160zM448 384c-17.688 0-32 14.312-32 32s14.312 32 32 32 32-14.312 32-32S465.688 384 448 384zM608 224c-17.718 0-32 14.282-32 32s14.282 32 32 32 32-14.282 32-32S625.718 224 608 224zM704 544c-17.718 0-32 14.312-32 32s14.282 32 32 32 32-14.312 32-32S721.718 544 704 544z"  horiz-adv-x="1024" />

    
    <glyph glyph-name="gridbig" unicode="&#59019;" d="M512 896C229.218 896 0 666.782 0 384s229.218-512 512-512 512 229.218 512 512S794.782 896 512 896zM512-48c-238.594 0-432 193.406-432 432S273.406 816 512 816s432-193.406 432-432S750.594-48 512-48zM256 640l224 0 0-224-224 0 0 224ZM256 352l224 0 0-224-224 0 0 224ZM544 640l224 0 0-224-224 0 0 224ZM544 352l224 0 0-224-224 0 0 224Z"  horiz-adv-x="1024" />

    
    <glyph glyph-name="grids" unicode="&#59020;" d="M512 896C229.218 896 0 666.782 0 384s229.218-512 512-512 512 229.218 512 512S794.782 896 512 896zM512-48c-238.594 0-432 193.406-432 432S273.406 816 512 816s432-193.406 432-432S750.594-48 512-48zM288 608l128 0 0-128-128 0 0 128ZM448 608l128 0 0-128-128 0 0 128ZM608 608l128 0 0-128-128 0 0 128ZM608 448l128 0 0-128-128 0 0 128ZM608 288l128 0 0-128-128 0 0 128ZM448 288l128 0 0-128-128 0 0 128ZM288 288l128 0 0-128-128 0 0 128ZM288 448l128 0 0-128-128 0 0 128ZM448 448l128 0 0-128-128 0 0 128Z"  horiz-adv-x="1024" />

    
    <glyph glyph-name="hdd" unicode="&#59021;" d="M512 896C229.218 896 0 666.782 0 384s229.218-512 512-512 512 229.218 512 512S794.782 896 512 896zM512-48c-238.594 0-432 193.406-432 432S273.406 816 512 816s432-193.406 432-432S750.594-48 512-48zM734.438 335.906l-25.188 256.156c-0.844 8.782-8.75 15.938-17.562 15.938l-352.5 0c-8.812 0-16.876-7.156-17.938-15.876l-31.312-256.282c-1.062-8.718-1.938-23.062-1.938-31.876L288 176c0-8.812 7.188-16 16-16l416 0c8.812 0 16 7.188 16 16l0 127.968C736 312.782 735.282 327.124 734.438 335.906zM704 208c0-8.812-7.188-16-16-16L336 192c-8.812 0-16 7.188-16 16l0 64c0 8.812 7.188 16 16 16l352 0c8.812 0 16-7.188 16-16L704 208zM659.188 256l-288 0c-8.812 0-16-7.188-16-16.032 0-8.876 7.188-15.968 16-15.968l288 0c8.876 0 15.968 7.094 15.968 15.968C675.156 248.812 668.062 256 659.188 256z"  horiz-adv-x="1024" />

    
    <glyph glyph-name="hddnet" unicode="&#59022;" d="M512 896C229.218 896 0 666.782 0 384c0-282.782 229.218-512 512-512 282.782 0 512 229.218 512 512C1024 666.782 794.782 896 512 896zM512-48c-238.594 0-432 193.406-432 432S273.406 816 512 816s432-193.406 432-432S750.594-48 512-48zM728.844 530.312l-49.688 99.376C675.218 637.562 664.812 644 656 644L368 644c-8.796 0-19.218-6.438-23.156-14.312l-49.688-99.376C291.218 522.438 288 508.812 288 500l0-64c0-8.812 7.204-16 16-16l416 0c8.812 0 16 7.188 16 16l0 64C736 508.812 732.782 522.438 728.844 530.312zM336 452c-8.796 0-16 7.188-16 16s7.204 16 16 16 16-7.188 16-16S344.796 452 336 452zM400 452c-8.796 0-16 7.188-16 16s7.204 16 16 16 16-7.188 16-16S408.796 452 400 452zM464 452c-8.796 0-16 7.188-16 16s7.204 16 16 16 16-7.188 16-16S472.796 452 464 452zM688 452c-8.812 0-16 7.188-16 16s7.188 16 16 16 16-7.188 16-16S696.812 452 688 452zM720 388 304 388c-8.796 0-16-7.188-16-16l0-64c0-8.812 7.204-16 16-16l128 0c8.796 0 23.204 0 32 0 4.406 0 10.204 0 16 0l0-96-128 0 0-64 128 0 64 0 128 0 0 64-128 0 0 96c5.812 0 11.594 0 16 0 8.812 0 23.188 0 32 0l128 0c8.812 0 16 7.188 16 16l0 64C736 380.812 728.812 388 720 388zM336 324c-8.796 0-16 7.188-16 16s7.204 16 16 16 16-7.188 16-16S344.796 324 336 324zM400 324c-8.796 0-16 7.188-16 16s7.204 16 16 16 16-7.188 16-16S408.796 324 400 324zM464 324c-8.796 0-16 7.188-16 16s7.204 16 16 16 16-7.188 16-16S472.796 324 464 324zM688 324c-8.812 0-16 7.188-16 16s7.188 16 16 16 16-7.188 16-16S696.812 324 688 324zM288 196l32 0 0-64-32 0 0 64ZM704 196l32 0 0-64-32 0 0 64Z"  horiz-adv-x="1024" />

    
    <glyph glyph-name="hddraid" unicode="&#59023;" d="M512 896C229.218 896 0 666.782 0 384s229.218-512 512-512 512 229.218 512 512S794.782 896 512 896zM512-48c-238.594 0-432 193.406-432 432S273.406 816 512 816s432-193.406 432-432S750.594-48 512-48zM677.938 625.124C674.688 633.312 664.812 640 656 640L368 640c-8.796 0-18.672-6.688-21.938-14.876l-52.124-130.25C290.672 486.688 288 472.812 288 464l0-64c0-8.812 7.204-16 16-16l416 0c8.812 0 16 7.188 16 16l0 64c0 8.812-2.688 22.688-5.938 30.876L677.938 625.124zM352 432c0-8.812-7.204-16-16-16l0 0c-8.796 0-16 7.188-16 16l0 0c0 8.812 7.204 16 16 16l0 0C344.796 448 352 440.812 352 432L352 432zM416 432c0-8.812-7.204-16-16-16l0 0c-8.796 0-16 7.188-16 16l0 0c0 8.812 7.204 16 16 16l0 0C408.796 448 416 440.812 416 432L416 432zM480 432c0-8.812-7.204-16-16-16l0 0c-8.796 0-16 7.188-16 16l0 0c0 8.812 7.204 16 16 16l0 0C472.796 448 480 440.812 480 432L480 432zM704 432c0-8.812-7.188-16-16-16l0 0c-8.812 0-16 7.188-16 16l0 0c0 8.812 7.188 16 16 16l0 0C696.812 448 704 440.812 704 432L704 432zM288 272c0-8.812 7.204-16 16-16l416 0c8.812 0 16 7.188 16 16l0 64c0 8.812-7.188 16-16 16L304 352c-8.796 0-16-7.188-16-16L288 272zM672 304c0 8.812 7.188 16 16 16l0 0c8.812 0 16-7.188 16-16l0 0c0-8.812-7.188-16-16-16l0 0C679.188 288 672 295.188 672 304L672 304zM448 304c0 8.812 7.204 16 16 16l0 0c8.796 0 16-7.188 16-16l0 0c0-8.812-7.204-16-16-16l0 0C455.204 288 448 295.188 448 304L448 304zM384 304c0 8.812 7.204 16 16 16l0 0c8.796 0 16-7.188 16-16l0 0c0-8.812-7.204-16-16-16l0 0C391.204 288 384 295.188 384 304L384 304zM320 304c0 8.812 7.204 16 16 16l0 0c8.796 0 16-7.188 16-16l0 0c0-8.812-7.204-16-16-16l0 0C327.204 288 320 295.188 320 304L320 304zM288 144c0-8.812 7.204-16 16-16l416 0c8.812 0 16 7.188 16 16l0 64c0 8.812-7.188 16-16 16L304 224c-8.796 0-16-7.188-16-16L288 144zM672 176c0 8.812 7.188 16 16 16l0 0c8.812 0 16-7.188 16-16l0 0c0-8.812-7.188-16-16-16l0 0C679.188 160 672 167.188 672 176L672 176zM448 176c0 8.812 7.204 16 16 16l0 0c8.796 0 16-7.188 16-16l0 0c0-8.812-7.204-16-16-16l0 0C455.204 160 448 167.188 448 176L448 176zM384 176c0 8.812 7.204 16 16 16l0 0c8.796 0 16-7.188 16-16l0 0c0-8.812-7.204-16-16-16l0 0C391.204 160 384 167.188 384 176L384 176zM320 176c0 8.812 7.204 16 16 16l0 0c8.796 0 16-7.188 16-16l0 0c0-8.812-7.204-16-16-16l0 0C327.204 160 320 167.188 320 176L320 176z"  horiz-adv-x="1024" />

    
    <glyph glyph-name="heart" unicode="&#59024;" d="M621.5 608c-43.75 0-82.75-20.156-109.5-51.532C485 587.844 446 608 402.25 608 321.5 608 256 541.156 256 458.75 256 272 512 160 512 160s256 112 256 298.75C768 541.156 702.5 608 621.5 608zM512 896C229.218 896 0 666.782 0 384s229.218-512 512-512 512 229.218 512 512S794.782 896 512 896zM512-48c-238.594 0-432 193.406-432 432S273.406 816 512 816s432-193.406 432-432S750.594-48 512-48z"  horiz-adv-x="1024" />

    
    <glyph glyph-name="homewifi" unicode="&#59025;" d="M512 896C229.218 896 0 666.782 0 384s229.218-512 512-512 512 229.218 512 512S794.782 896 512 896zM512-48c-238.594 0-432 193.406-432 432S273.406 816 512 816s432-193.406 432-432S750.594-48 512-48zM512.016 448c-35.344 0-64-28.624-64-64 0-35.344 28.656-64 64-64C547.344 320 576 348.656 576 384 576 419.376 547.344 448 512.016 448zM609.75 490.624l-36.032-27.062C599.218 446.312 616 417.124 616 384s-16.782-62.282-42.282-79.532l36.032-27.062C640.188 303.094 660 341.094 660 384 660 426.938 640.188 464.938 609.75 490.624zM697.688 556.812l-35.5-26.688C700.25 493.062 724 441.312 724 384s-23.75-109.062-61.812-146.094l35.5-26.718C741.124 255.906 768 316.75 768 384S741.124 512.124 697.688 556.812zM408.016 382.938c0.438 33.124 17.562 62.124 43.312 79.032L415.64 489.5c-30.75-25.312-51.062-63.032-51.624-106-0.562-42.938 18.75-81.156 48.876-107.25l36.376 26.594C423.984 320.376 407.578 349.812 408.016 382.938zM363.734 529.688l-35.156 27.124c-44-44.124-71.688-104.624-72.562-171.876-0.876-67.282 25.25-128.468 68.062-173.75l35.876 26.25c-37.624 37.562-60.688 89.594-59.938 146.906C300.766 441.688 325.204 493.124 363.734 529.688z"  horiz-adv-x="1024" />

    
    <glyph glyph-name="idea" unicode="&#59026;" d="M512 896C229.218 896 0 666.782 0 384s229.218-512 512-512 512 229.218 512 512S794.782 896 512 896zM512-48c-238.594 0-432 193.406-432 432S273.406 816 512 816s432-193.406 432-432S750.594-48 512-48zM512 128c35.344 0 64 28.656 64 64l-128 0C448 156.656 476.656 128 512 128zM512 640c-106.032 0-192-85.968-192-192 0-75.562 43.75-140.75 107.25-172.062L448 224l128 0 20.75 51.938C660.218 307.25 704 372.438 704 448 704 554.032 618.032 640 512 640z"  horiz-adv-x="1024" />

    
    <glyph glyph-name="info" unicode="&#59027;" d="M570.344 233.094c-24.906-26.5-41.094-37.562-52.188-37.562-7.718 0-10.344 6.844-8.624 22.282 5.188 40.124 35.062 169.156 43.562 215.25 8.532 39.438 6 59.906-5.124 59.906-21.282 0-73.468-35.032-107.656-70.032-1.75-2.688-5.124-17.156-3.376-22.25 0-1.75 2.532-2.624 2.532-2.624 20.532 16.25 36.782 25.688 46.218 25.688 4.218 0 5.876-6.812 3.376-18.812-10.25-51.25-27.344-130.812-40.156-196.562-11.968-57.344-4.344-80.376 13.624-80.376s67.532 23.968 107.812 77.812c1.624 4.188 3.282 20.376 2.5 24.718C572.844 232.188 570.344 233.094 570.344 233.094zM562.562 640c-14.594 0-32.5-6.828-41.032-15.406-3.376-4.282-6.812-17.078-7.718-23.89 0.906-15.422 5.156-23.968 13.718-29.124 4.218-3.36 32.438-0.828 38.438 2.624 10.376 6.796 19.656 20.5 21.406 36.75 0.75 7.64-0.876 17.968-4.282 23.062C581.376 636.562 574.5 640 562.562 640zM512 896C229.218 896 0 666.782 0 384s229.218-512 512-512 512 229.218 512 512S794.782 896 512 896zM512-48c-238.594 0-432 193.406-432 432S273.406 816 512 816s432-193.406 432-432S750.594-48 512-48z"  horiz-adv-x="1024" />

    
    <glyph glyph-name="italic" unicode="&#59028;" d="M512 896C229.218 896 0 666.782 0 384s229.218-512 512-512 512 229.218 512 512S794.782 896 512 896zM512-48c-238.594 0-432 193.406-432 432S273.406 816 512 816s432-193.406 432-432S750.594-48 512-48zM545.124 172.218 542.032 160 384 160l3.968 12.218c15.844 0.438 26.344 2 31.438 4.624 8.282 3.75 14.438 8.938 18.406 15.532 6.218 10.344 12.624 28.844 19.25 55.5l66.812 270.25c5.688 22.5 8.5 39.438 8.5 50.876 0 5.75-1.25 10.594-3.656 14.562-2.468 3.938-6.188 7-11.188 9.062-5.032 2.124-14.782 3.156-29.344 3.156l3.438 12.218L640 607.998l-3.124-12.218c-12.062 0.218-21.032-1.344-26.906-4.624-8.468-4.406-14.968-10.688-19.376-18.844-4.468-8.124-10.156-26.188-17.156-54.188l-66.532-270.25c-6.032-24.876-9.062-40.75-9.062-47.562 0-5.5 1.156-10.188 3.532-14.062 2.376-3.844 6.156-6.812 11.312-8.906C517.876 175.25 528.718 173.532 545.124 172.218z"  horiz-adv-x="1024" />

    
    <glyph glyph-name="key" unicode="&#59029;" d="M512 896C229.218 896 0 666.782 0 384s229.218-512 512-512 512 229.218 512 512S794.782 896 512 896zM512-48c-238.594 0-432 193.406-432 432S273.406 816 512 816s432-193.406 432-432S750.594-48 512-48zM507.468 416c-14.282 55.124-63.906 96-123.468 96-70.688 0-128-57.312-128-128s57.312-128 128-128c59.562 0 109.188 40.906 123.468 96L672 352l0-64 64 0 0 64 32 0 0 64L507.468 416zM384 304c-44.188 0-80 35.844-80 80 0 44.188 35.812 80 80 80s80-35.812 80-80C464 339.844 428.188 304 384 304z"  horiz-adv-x="1024" />

    
    <glyph glyph-name="landscape" unicode="&#59030;" d="M512 896C229.218 896 0 666.782 0 384s229.218-512 512-512 512 229.218 512 512S794.782 896 512 896zM512-48c-238.594 0-432 193.406-432 432S273.406 816 512 816s432-193.406 432-432S750.594-48 512-48zM512 576 256 192l512 0L512 576zM512 384l-32-32-32 64 64 96 64-96-32 0L512 384z"  horiz-adv-x="1024" />

    
    <glyph glyph-name="layers" unicode="&#59031;" d="M512 896C229.218 896 0 666.782 0 384s229.218-512 512-512 512 229.218 512 512S794.782 896 512 896zM512-48c-238.594 0-432 193.406-432 432S273.406 816 512 816s432-193.406 432-432S750.594-48 512-48zM512 185.562 302.062 316.75 256 288 512 128 768 287.5 721.938 316.376ZM512 282.282 303.188 412.782 256 383.282 512 223.282 768 382.782 720.782 412.406ZM256 480 512 320 768 479.5 512 640Z"  horiz-adv-x="1024" />

    
    <glyph glyph-name="leaf" unicode="&#59032;" d="M512 896C229.218 896 0 666.782 0 384s229.218-512 512-512 512 229.218 512 512S794.782 896 512 896zM512-48c-238.594 0-432 193.406-432 432S273.406 816 512 816s432-193.406 432-432S750.594-48 512-48zM448 512c-80.578-64.438-93.484-200.656-95.562-242.906C332.954 249.156 288 202.062 288 192c0-12.812 16-32 32-32 13.75 0 41.64 70.812 49.218 90.718 44.624-12.124 167.218-34.876 254.782 50.094C732.812 406.406 736 608 736 608S544 588.812 448 512z"  horiz-adv-x="1024" />

    
    <glyph glyph-name="leftright" unicode="&#59033;" d="M512 896C229.218 896 0 666.782 0 384s229.218-512 512-512 512 229.218 512 512S794.782 896 512 896zM512-48c-238.594 0-432 193.406-432 432S273.406 816 512 816s432-193.406 432-432S750.594-48 512-48zM608 416 416 416 416 480 320 384 416 288 416 352 608 352 608 288 704 384 608 480ZM736 512l32 0 0-256-32 0 0 256ZM256 512l32 0 0-256-32 0 0 256Z"  horiz-adv-x="1024" />

    
    <glyph glyph-name="likeadd" unicode="&#59034;" d="M688 320c9.562 0 18.656-1.562 27.532-3.844C746.124 356.876 768 404.562 768 458.75 768 541.156 702.5 608 621.5 608c-43.75 0-82.75-20.156-109.5-51.532C485 587.844 446 608 402.25 608 321.5 608 256 541.156 256 458.75 256 272 512 160 512 160s28 12.406 65.282 35.376C576.812 199.594 576 203.688 576 208 576 269.75 626.25 320 688 320zM512 896C229.218 896 0 666.782 0 384s229.218-512 512-512 512 229.218 512 512S794.782 896 512 896zM512-48c-238.594 0-432 193.406-432 432S273.406 816 512 816s432-193.406 432-432S750.594-48 512-48zM688 288c-44.188 0-80-35.812-80-80s35.812-80 80-80 80 35.812 80 80S732.188 288 688 288zM736 192l-32 0 0-32-32 0 0 32-32 0 0 32 32 0 0 32 32 0 0-32 32 0L736 192z"  horiz-adv-x="1024" />

    
    <glyph glyph-name="likeban" unicode="&#59035;" d="M688 320c9.562 0 18.656-1.562 27.532-3.844C746.124 356.876 768 404.562 768 458.75 768 541.156 702.5 608 621.5 608c-43.75 0-82.75-20.156-109.5-51.532C485 587.844 446 608 402.25 608 321.5 608 256 541.156 256 458.75 256 272 512 160 512 160s28 12.406 65.282 35.376C576.812 199.594 576 203.688 576 208 576 269.75 626.25 320 688 320zM512 896C229.218 896 0 666.782 0 384s229.218-512 512-512 512 229.218 512 512S794.782 896 512 896zM512-48c-238.594 0-432 193.406-432 432S273.406 816 512 816s432-193.406 432-432S750.594-48 512-48zM768 208c0 44.188-35.876 80-80 80s-80-35.812-80-80c0-44.124 35.876-80 80-80S768 163.876 768 208zM628 208c0 33.094 26.938 60 60 60 12.876 0 24.938-4.188 34.75-11.124l-83.562-83.624C632.156 183.062 628 195.124 628 208zM653.25 159.188l83.562 83.532C743.876 232.906 748 220.876 748 208c0-33.062-26.938-60-60-60C675.124 148 663.062 152.124 653.25 159.188z"  horiz-adv-x="1024" />

    
    <glyph glyph-name="likeclose" unicode="&#59036;" d="M688 320c9.562 0 18.656-1.562 27.532-3.844C746.124 356.876 768 404.562 768 458.75 768 541.156 702.5 608 621.5 608c-43.75 0-82.75-20.156-109.5-51.532C485 587.844 446 608 402.25 608 321.5 608 256 541.156 256 458.75 256 272 512 160 512 160s28 12.406 65.282 35.376C576.812 199.594 576 203.688 576 208 576 269.75 626.25 320 688 320zM512 896C229.218 896 0 666.782 0 384s229.218-512 512-512 512 229.218 512 512S794.782 896 512 896zM512-48c-238.594 0-432 193.406-432 432S273.406 816 512 816s432-193.406 432-432S750.594-48 512-48zM688 288c-44.188 0-80-35.812-80-80s35.812-80 80-80 80 35.812 80 80S732.188 288 688 288zM733.25 185.376l-22.624-22.624L688 185.376l-22.624-22.624-22.624 22.624L665.376 208l-22.624 22.624 22.624 22.624L688 230.624l22.624 22.624 22.624-22.624L710.624 208 733.25 185.376z"  horiz-adv-x="1024" />

    
    <glyph glyph-name="likedownload" unicode="&#59037;" d="M688 320c9.562 0 18.656-1.562 27.532-3.844C746.124 356.876 768 404.562 768 458.75 768 541.156 702.5 608 621.5 608c-43.75 0-82.75-20.156-109.5-51.532C485 587.844 446 608 402.25 608 321.5 608 256 541.156 256 458.75 256 272 512 160 512 160s28 12.406 65.282 35.376C576.812 199.594 576 203.688 576 208 576 269.75 626.25 320 688 320zM512 896C229.218 896 0 666.782 0 384s229.218-512 512-512 512 229.218 512 512S794.782 896 512 896zM512-48c-238.594 0-432 193.406-432 432S273.406 816 512 816s432-193.406 432-432S750.594-48 512-48zM688 288c-44.188 0-80-35.812-80-80s35.812-80 80-80 80 35.812 80 80S732.188 288 688 288zM688 147.188 649.594 192 672 192l0 64 32 0 0-64 22.406 0L688 147.188z"  horiz-adv-x="1024" />

    
    </font>
</defs>
</svg>
